  0
SECTION
  2
HEADER
  9
$ACADVER
  1
AC1015
  9
$ACADMAINTVER
 70
    13
  9
$DWGCODEPAGE
  3
ANSI_932
  9
$INSBASE
 10
0.0
 20
0.0
 30
0.0
  9
$EXTMIN
 10
-6937.009941420439
 20
-979.5599163290422
 30
-0.0015258207003583
  9
$EXTMAX
 10
-4864.183433851932
 20
486.2245425944024
 30
0.0000000349246037
  9
$LIMMIN
 10
-6936.946692462065
 20
-979.5151902799075
  9
$LIMMAX
 10
-4864.246692462065
 20
486.1798097200931
  9
$ORTHOMODE
 70
     1
  9
$REGENMODE
 70
     1
  9
$FILLMODE
 70
     1
  9
$QTEXTMODE
 70
     0
  9
$MIRRTEXT
 70
     1
  9
$LTSCALE
 40
24.5
  9
$ATTMODE
 70
     1
  9
$TEXTSIZE
 40
0.2
  9
$TRACEWID
 40
0.05
  9
$TEXTSTYLE
  7
STANDARD
  9
$CLAYER
  8
DEFPOINTS
  9
$CELTYPE
  6
ByLayer
  9
$CECOLOR
 62
   256
  9
$CELTSCALE
 40
1.0
  9
$DISPSILH
 70
     0
  9
$DIMSCALE
 40
15.0
  9
$DIMASZ
 40
0.75
  9
$DIMEXO
 40
0.625
  9
$DIMDLI
 40
3.75
  9
$DIMRND
 40
0.0
  9
$DIMDLE
 40
0.0
  9
$DIMEXE
 40
0.0
  9
$DIMTP
 40
0.0
  9
$DIMTM
 40
0.0
  9
$DIMTXT
 40
0.75
  9
$DIMCEN
 40
2.5
  9
$DIMTSZ
 40
0.0
  9
$DIMTOL
 70
     0
  9
$DIMLIM
 70
     0
  9
$DIMTIH
 70
     0
  9
$DIMTOH
 70
     0
  9
$DIMSE1
 70
     0
  9
$DIMSE2
 70
     0
  9
$DIMTAD
 70
     1
  9
$DIMZIN
 70
     8
  9
$DIMBLK
  1
Open
  9
$DIMASO
 70
     1
  9
$DIMSHO
 70
     1
  9
$DIMPOST
  1

  9
$DIMAPOST
  1

  9
$DIMALT
 70
     0
  9
$DIMALTD
 70
     2
  9
$DIMALTF
 40
0.0394
  9
$DIMLFAC
 40
1.0
  9
$DIMTOFL
 70
     1
  9
$DIMTVP
 40
1.0
  9
$DIMTIX
 70
     0
  9
$DIMSOXD
 70
     0
  9
$DIMSAH
 70
     0
  9
$DIMBLK1
  1

  9
$DIMBLK2
  1

  9
$DIMSTYLE
  2
ISO-25
  9
$DIMCLRD
 70
     0
  9
$DIMCLRE
 70
     0
  9
$DIMCLRT
 70
     0
  9
$DIMTFAC
 40
1.0
  9
$DIMGAP
 40
0.5
  9
$DIMJUST
 70
     0
  9
$DIMSD1
 70
     0
  9
$DIMSD2
 70
     0
  9
$DIMTOLJ
 70
     1
  9
$DIMTZIN
 70
     0
  9
$DIMALTZ
 70
     0
  9
$DIMALTTZ
 70
     0
  9
$DIMUPT
 70
     0
  9
$DIMDEC
 70
     0
  9
$DIMTDEC
 70
     0
  9
$DIMALTU
 70
     2
  9
$DIMALTTD
 70
     2
  9
$DIMTXSTY
  7
STANDARD
  9
$DIMAUNIT
 70
     0
  9
$DIMADEC
 70
     0
  9
$DIMALTRND
 40
0.0
  9
$DIMAZIN
 70
     0
  9
$DIMDSEP
 70
    46
  9
$DIMATFIT
 70
     3
  9
$DIMFRAC
 70
     0
  9
$DIMLDRBLK
  1

  9
$DIMLUNIT
 70
     2
  9
$DIMLWD
 70
    -2
  9
$DIMLWE
 70
    -2
  9
$DIMTMOVE
 70
     0
  9
$LUNITS
 70
     2
  9
$LUPREC
 70
     4
  9
$SKETCHINC
 40
0.1
  9
$FILLETRAD
 40
0.0
  9
$AUNITS
 70
     0
  9
$AUPREC
 70
     0
  9
$MENU
  1
.
  9
$ELEVATION
 40
0.0
  9
$PELEVATION
 40
0.0
  9
$THICKNESS
 40
2538.571866822958
  9
$LIMCHECK
 70
     0
  9
$CHAMFERA
 40
0.0
  9
$CHAMFERB
 40
0.0
  9
$CHAMFERC
 40
0.0
  9
$CHAMFERD
 40
0.0
  9
$SKPOLY
 70
     0
  9
$TDCREATE
 40
2453874.389934525
  9
$TDUCREATE
 40
2453874.014934525
  9
$TDUPDATE
 40
2454278.536445671
  9
$TDUUPDATE
 40
2454278.161445671
  9
$TDINDWG
 40
0.5403854051
  9
$TDUSRTIMER
 40
0.5403854051
  9
$USRTIMER
 70
     1
  9
$ANGBASE
 50
0.0
  9
$ANGDIR
 70
     0
  9
$PDMODE
 70
     0
  9
$PDSIZE
 40
0.0
  9
$PLINEWID
 40
0.0
  9
$SPLFRAME
 70
     0
  9
$SPLINETYPE
 70
     6
  9
$SPLINESEGS
 70
     8
  9
$HANDSEED
  5
61B3
  9
$SURFTAB1
 70
     6
  9
$SURFTAB2
 70
     6
  9
$SURFTYPE
 70
     6
  9
$SURFU
 70
     6
  9
$SURFV
 70
     6
  9
$UCSBASE
  2

  9
$UCSNAME
  2

  9
$UCSORG
 10
0.0
 20
0.0
 30
0.0
  9
$UCSXDIR
 10
1.0
 20
0.0
 30
0.0
  9
$UCSYDIR
 10
0.0
 20
1.0
 30
0.0
  9
$UCSORTHOREF
  2

  9
$UCSORTHOVIEW
 70
     0
  9
$UCSORGTOP
 10
0.0
 20
0.0
 30
0.0
  9
$UCSORGBOTTOM
 10
0.0
 20
0.0
 30
0.0
  9
$UCSORGLEFT
 10
0.0
 20
0.0
 30
0.0
  9
$UCSORGRIGHT
 10
0.0
 20
0.0
 30
0.0
  9
$UCSORGFRONT
 10
0.0
 20
0.0
 30
0.0
  9
$UCSORGBACK
 10
0.0
 20
0.0
 30
0.0
  9
$PUCSBASE
  2

  9
$PUCSNAME
  2

  9
$PUCSORG
 10
0.0
 20
0.0
 30
0.0
  9
$PUCSXDIR
 10
1.0
 20
0.0
 30
0.0
  9
$PUCSYDIR
 10
0.0
 20
1.0
 30
0.0
  9
$PUCSORTHOREF
  2

  9
$PUCSORTHOVIEW
 70
     0
  9
$PUCSORGTOP
 10
0.0
 20
0.0
 30
0.0
  9
$PUCSORGBOTTOM
 10
0.0
 20
0.0
 30
0.0
  9
$PUCSORGLEFT
 10
0.0
 20
0.0
 30
0.0
  9
$PUCSORGRIGHT
 10
0.0
 20
0.0
 30
0.0
  9
$PUCSORGFRONT
 10
0.0
 20
0.0
 30
0.0
  9
$PUCSORGBACK
 10
0.0
 20
0.0
 30
0.0
  9
$USERI1
 70
     0
  9
$USERI2
 70
     0
  9
$USERI3
 70
     0
  9
$USERI4
 70
     0
  9
$USERI5
 70
     0
  9
$USERR1
 40
0.0
  9
$USERR2
 40
0.0
  9
$USERR3
 40
0.0
  9
$USERR4
 40
0.0
  9
$USERR5
 40
0.0
  9
$WORLDVIEW
 70
     1
  9
$SHADEDGE
 70
     3
  9
$SHADEDIF
 70
    70
  9
$TILEMODE
 70
     1
  9
$MAXACTVP
 70
    64
  9
$PINSBASE
 10
0.0
 20
0.0
 30
0.0
  9
$PLIMCHECK
 70
     0
  9
$PEXTMIN
 10
1.000000000000000E+20
 20
1.000000000000000E+20
 30
1.000000000000000E+20
  9
$PEXTMAX
 10
-1.000000000000000E+20
 20
-1.000000000000000E+20
 30
-1.000000000000000E+20
  9
$PLIMMIN
 10
0.0
 20
0.0
  9
$PLIMMAX
 10
12.0
 20
9.0
  9
$UNITMODE
 70
     0
  9
$VISRETAIN
 70
     1
  9
$PLINEGEN
 70
     0
  9
$PSLTSCALE
 70
     1
  9
$TREEDEPTH
 70
  3020
  9
$CMLSTYLE
  2
Standard
  9
$CMLJUST
 70
     0
  9
$CMLSCALE
 40
1.0
  9
$PROXYGRAPHICS
 70
     1
  9
$MEASUREMENT
 70
     0
  9
$CELWEIGHT
370
    -1
  9
$ENDCAPS
280
     0
  9
$JOINSTYLE
280
     0
  9
$LWDISPLAY
290
     0
  9
$INSUNITS
 70
     0
  9
$HYPERLINKBASE
  1

  9
$STYLESHEET
  1
ZenithProtter.ctb
  9
$XEDIT
290
     1
  9
$CEPSNTYPE
380
     0
  9
$PSTYLEMODE
290
     1
  9
$FINGERPRINTGUID
  2
{DB2F255E-76A1-4E9F-8FDF-6D653DC3006F}
  9
$VERSIONGUID
  2
{3D8E78B1-7D3B-49BB-B2A2-93E1ED82D144}
  9
$EXTNAMES
290
     1
  9
$PSVPSCALE
 40
0.0
  9
$OLESTARTUP
290
     0
  0
ENDSEC
  0
SECTION
  2
CLASSES
  0
CLASS
  1
ACDBDICTIONARYWDFLT
  2
AcDbDictionaryWithDefault
  3
AutoCAD 2000
 90
        0
280
     0
281
     0
  0
CLASS
  1
ACDBPLACEHOLDER
  2
AcDbPlaceHolder
  3
AutoCAD 2000
 90
        0
280
     0
281
     0
  0
CLASS
  1
LAYOUT
  2
AcDbLayout
  3
AutoCAD 2000
 90
        0
280
     0
281
     0
  0
CLASS
  1
DICTIONARYVAR
  2
AcDbDictionaryVar
  3
AutoCAD 2000
 90
        0
280
     0
281
     0
  0
ENDSEC
  0
SECTION
  2
TABLES
  0
TABLE
  2
VPORT
  5
8
330
0
100
AcDbSymbolTable
 70
     2
  0
VPORT
  5
61B2
330
8
100
AcDbSymbolTableRecord
100
AcDbViewportTableRecord
  2
*Active
 70
     0
 10
0.0
 20
0.0
 11
1.0
 21
1.0
 12
-5900.596687636185
 22
-246.6676868673198
 13
0.0
 23
0.0
 14
1.0
 24
1.0
 15
0.0
 25
0.0
 16
0.0
 26
0.0
 36
1.0
 17
0.0
 27
0.0
 37
0.0
 40
1477.815521513787
 41
1.723287671232876
 42
50.0
 43
0.0
 44
0.0
 50
0.0
 51
0.0
 71
     0
 72
   100
 73
     1
 74
     1
 75
     0
 76
     0
 77
     0
 78
     0
281
     0
 65
     1
110
0.0
120
0.0
130
0.0
111
1.0
121
0.0
131
0.0
112
0.0
122
1.0
132
0.0
 79
     0
146
0.0
  0
ENDTAB
  0
TABLE
  2
LTYPE
  5
5
330
0
100
AcDbSymbolTable
 70
     3
  0
LTYPE
  5
13
330
5
100
AcDbSymbolTableRecord
100
AcDbLinetypeTableRecord
  2
ByBlock
 70
     0
  3

 72
    65
 73
     0
 40
0.0
  0
LTYPE
  5
14
330
5
100
AcDbSymbolTableRecord
100
AcDbLinetypeTableRecord
  2
ByLayer
 70
     0
  3

 72
    65
 73
     0
 40
0.0
  0
LTYPE
  5
15
330
5
100
AcDbSymbolTableRecord
100
AcDbLinetypeTableRecord
  2
CONTINUOUS
 70
     0
  3
Solid-Line
 72
    65
 73
     0
 40
0.0
  0
LTYPE
  5
22
330
5
100
AcDbSymbolTableRecord
100
AcDbLinetypeTableRecord
  2
DASHED
 70
     0
  3
DASHED
 72
    65
 73
     2
 40
0.75
 49
0.5
 74
     0
 49
-0.25
 74
     0
  0
LTYPE
  5
24
330
5
100
AcDbSymbolTableRecord
100
AcDbLinetypeTableRecord
  2
CENTER
 70
     0
  3
CENTER
 72
    65
 73
     4
 40
2.0
 49
1.25
 74
     0
 49
-0.25
 74
     0
 49
0.25
 74
     0
 49
-0.25
 74
     0
  0
ENDTAB
  0
TABLE
  2
LAYER
  5
2
330
0
100
AcDbSymbolTable
 70
     6
  0
LAYER
  5
10
330
2
100
AcDbSymbolTableRecord
100
AcDbLayerTableRecord
  2
0
 70
     0
 62
     7
  6
CONTINUOUS
370
     5
390
F
  0
LAYER
  5
26
330
2
100
AcDbSymbolTableRecord
100
AcDbLayerTableRecord
  2
001
 70
     0
 62
     4
  6
CONTINUOUS
370
     5
390
F
  0
LAYER
  5
586
330
2
100
AcDbSymbolTableRecord
100
AcDbLayerTableRecord
  2
DEFPOINTS
 70
     0
 62
     7
  6
CONTINUOUS
290
     0
370
    -3
390
F
  0
LAYER
  5
587
330
2
100
AcDbSymbolTableRecord
100
AcDbLayerTableRecord
  2
003
 70
     0
 62
     3
  6
CONTINUOUS
370
    13
390
F
  0
LAYER
  5
589
330
2
100
AcDbSymbolTableRecord
100
AcDbLayerTableRecord
  2
004
 70
     0
 62
     6
  6
CENTER
370
    13
390
F
  0
LAYER
  5
2C96
330
2
100
AcDbSymbolTableRecord
100
AcDbLayerTableRecord
  2
002
 70
     0
 62
     1
  6
CONTINUOUS
370
    15
390
F
  0
ENDTAB
  0
TABLE
  2
STYLE
  5
3
330
0
100
AcDbSymbolTable
 70
     1
  0
STYLE
  5
11
330
3
100
AcDbSymbolTableRecord
100
AcDbTextStyleTableRecord
  2
STANDARD
 70
     0
 40
0.0
 41
1.0
 50
0.0
 71
     0
 42
0.2
  3
TXT
  4
BIGFONT
  0
ENDTAB
  0
TABLE
  2
VIEW
  5
6
330
0
100
AcDbSymbolTable
 70
     0
  0
ENDTAB
  0
TABLE
  2
UCS
  5
7
330
0
100
AcDbSymbolTable
 70
     0
  0
ENDTAB
  0
TABLE
  2
APPID
  5
9
330
0
100
AcDbSymbolTable
 70
     1
  0
APPID
  5
12
330
9
100
AcDbSymbolTableRecord
100
AcDbRegAppTableRecord
  2
ACAD
 70
     0
  0
ENDTAB
  0
TABLE
  2
DIMSTYLE
  5
A
330
0
100
AcDbSymbolTable
 70
     2
100
AcDbDimStyleTable
 71
     2
340
58A
340
4BA
  0
DIMSTYLE
105
4BA
330
A
100
AcDbSymbolTableRecord
100
AcDbDimStyleTableRecord
  2
Standard
 70
     0
340
11
  0
DIMSTYLE
105
58A
102
{ACAD_REACTORS
330
5C5A
330
5C5D
330
60BC
330
5F01
330
5F20
330
5CA8
330
5CBA
330
5D15
330
5E60
102
}
330
A
100
AcDbSymbolTableRecord
100
AcDbDimStyleTableRecord
  2
ISO-25
 70
     0
 40
15.0
 41
0.75
 42
0.625
 43
3.75
 44
0.0
 73
     0
 74
     0
 77
     1
 78
     8
140
0.75
141
2.5
143
0.0394
145
1.0
147
0.5
172
     1
271
     0
272
     0
340
11
342
1390
  0
ENDTAB
  0
TABLE
  2
BLOCK_RECORD
  5
1
330
0
100
AcDbSymbolTable
 70
    13
  0
BLOCK_RECORD
  5
1E
330
1
100
AcDbSymbolTableRecord
100
AcDbBlockTableRecord
  2
*Model_Space
340
21
  0
BLOCK_RECORD
  5
1A
330
1
100
AcDbSymbolTableRecord
100
AcDbBlockTableRecord
  2
*Paper_Space
340
1D
  0
BLOCK_RECORD
  5
3F
330
1
100
AcDbSymbolTableRecord
100
AcDbBlockTableRecord
  2
PART0
340
0
102
{BLKREFS
331
5CCD
102
}
  0
BLOCK_RECORD
  5
56
330
1
100
AcDbSymbolTableRecord
100
AcDbBlockTableRecord
  2
PART1
340
0
102
{BLKREFS
331
5F12
102
}
  0
BLOCK_RECORD
  5
7D
330
1
100
AcDbSymbolTableRecord
100
AcDbBlockTableRecord
  2
PART2
340
0
102
{BLKREFS
331
5CA9
102
}
  0
BLOCK_RECORD
  5
1390
330
1
100
AcDbSymbolTableRecord
100
AcDbBlockTableRecord
  2
_Open
340
0
102
{BLKREFS
331
6140
331
6141
331
614B
331
614C
331
6154
331
6155
331
615D
331
615E
331
6168
331
6169
331
6171
331
6172
331
617A
331
617B
331
6183
331
6184
331
618E
331
618F
102
}
  0
BLOCK_RECORD
  5
60CB
330
1
100
AcDbSymbolTableRecord
100
AcDbBlockTableRecord
  2
*D4
340
0
  0
BLOCK_RECORD
  5
60D7
330
1
100
AcDbSymbolTableRecord
100
AcDbBlockTableRecord
  2
*D5
340
0
  0
BLOCK_RECORD
  5
60E5
330
1
100
AcDbSymbolTableRecord
100
AcDbBlockTableRecord
  2
*D6
340
0
  0
BLOCK_RECORD
  5
60F1
330
1
100
AcDbSymbolTableRecord
100
AcDbBlockTableRecord
  2
*D7
340
0
  0
BLOCK_RECORD
  5
60FD
330
1
100
AcDbSymbolTableRecord
100
AcDbBlockTableRecord
  2
*D8
340
0
  0
BLOCK_RECORD
  5
610B
330
1
100
AcDbSymbolTableRecord
100
AcDbBlockTableRecord
  2
*D9
340
0
  0
BLOCK_RECORD
  5
6117
330
1
100
AcDbSymbolTableRecord
100
AcDbBlockTableRecord
  2
*D10
340
0
  0
BLOCK_RECORD
  5
6123
330
1
100
AcDbSymbolTableRecord
100
AcDbBlockTableRecord
  2
*D11
340
0
  0
BLOCK_RECORD
  5
6131
330
1
100
AcDbSymbolTableRecord
100
AcDbBlockTableRecord
  2
*D12
340
0
  0
ENDTAB
  0
ENDSEC
  0
SECTION
  2
BLOCKS
  0
BLOCK
  5
1F
330
1E
100
AcDbEntity
  8
0
100
AcDbBlockBegin
  2
*Model_Space
 70
     0
 10
0.0
 20
0.0
 30
0.0
  3
*Model_Space
  1

  0
ENDBLK
  5
20
330
1E
100
AcDbEntity
  8
0
100
AcDbBlockEnd
  0
BLOCK
  5
1B
330
1A
100
AcDbEntity
 67
     1
  8
0
100
AcDbBlockBegin
  2
*Paper_Space
 70
     0
 10
0.0
 20
0.0
 30
0.0
  3
*Paper_Space
  1

  0
ENDBLK
  5
1C
330
1A
100
AcDbEntity
 67
     1
  8
0
100
AcDbBlockEnd
  0
BLOCK
  5
40
330
3F
100
AcDbEntity
  8
001
100
AcDbBlockBegin
  2
PART0
 70
     0
 10
0.0
 20
0.0
 30
0.0
  3
PART0
  1

  0
LINE
  5
41
330
3F
100
AcDbEntity
  8
001
100
AcDbLine
 10
1297.760835
 20
539.2649150000001
 30
0.0
 11
1297.760835
 21
586.240683
 31
0.0
  0
TEXT
  5
42
330
3F
100
AcDbEntity
  8
001
100
AcDbText
 10
1294.260835
 20
539.2649150000001
 30
0.0
 40
11.19999999999999
  1
M64
 50
90.00000300000001
 41
0.859375
100
AcDbText
  0
LWPOLYLINE
  5
43
330
3F
100
AcDbEntity
  8
001
100
AcDbPolyline
 90
        3
 70
     0
 43
0.0
 10
1299.636479
 20
579.240683
 10
1297.760835
 20
586.240683
 10
1295.885189999999
 20
579.240683
  0
LINE
  5
48
330
3F
100
AcDbEntity
  8
001
100
AcDbLine
 10
1255.321429
 20
586.240683
 30
0.0
 11
1301.260835
 21
586.240683
 31
0.0
  0
ENDBLK
  5
49
330
3F
100
AcDbEntity
  8
001
100
AcDbBlockEnd
  0
BLOCK
  5
57
330
56
100
AcDbEntity
  8
001
100
AcDbBlockBegin
  2
PART1
 70
     0
 10
0.0
 20
0.0
 30
0.0
  3
PART1
  1

  0
LINE
  5
58
330
56
100
AcDbEntity
  8
001
100
AcDbLine
 10
1361.259938999999
 20
290.352174
 30
0.0
 11
1361.259938999999
 21
351.035679
 31
0.0
  0
TEXT
  5
59
330
56
100
AcDbEntity
  8
001
100
AcDbText
 10
1357.759939
 20
290.352174
 30
0.0
 40
11.19999999999999
  1
%%c89
 50
90.00000300000001
 41
0.859375
100
AcDbText
  0
LWPOLYLINE
  5
5A
330
56
100
AcDbEntity
  8
001
100
AcDbPolyline
 90
        3
 70
     0
 43
0.0
 10
1363.135583
 20
344.035679
 10
1361.259938999999
 20
351.035679
 10
1359.384294999999
 20
344.035679
  0
LINE
  5
5F
330
56
100
AcDbEntity
  8
001
100
AcDbLine
 10
1314.21439
 20
351.035679
 30
0.0
 11
1364.759939
 21
351.035679
 31
0.0
  0
ENDBLK
  5
60
330
56
100
AcDbEntity
  8
001
100
AcDbBlockEnd
  0
BLOCK
  5
7E
330
7D
100
AcDbEntity
  8
001
100
AcDbBlockBegin
  2
PART2
 70
     0
 10
0.0
 20
0.0
 30
0.0
  3
PART2
  1

  0
LINE
  5
7F
330
7D
100
AcDbEntity
  8
001
100
AcDbLine
 10
1195.647475
 20
754.12531
 30
0.0
 11
1195.647475
 21
827.1040580000001
 31
0.0
  0
TEXT
  5
80
330
7D
100
AcDbEntity
  8
001
100
AcDbText
 10
1192.147475999999
 20
754.12531
 30
0.0
 40
11.19999999999999
  1
M106
 50
90.00000300000001
 41
0.9821429999999999
100
AcDbText
  0
LWPOLYLINE
  5
81
330
7D
100
AcDbEntity
  8
001
100
AcDbPolyline
 90
        3
 70
     0
 43
0.0
 10
1197.523119999999
 20
820.104058
 10
1195.647475
 20
827.1040580000001
 10
1193.771831
 20
820.104058
  0
LINE
  5
86
330
7D
100
AcDbEntity
  8
001
100
AcDbLine
 10
1144.670504
 20
827.1040580000001
 30
0.0
 11
1199.147474999999
 21
827.1040580000001
 31
0.0
  0
ENDBLK
  5
87
330
7D
100
AcDbEntity
  8
001
100
AcDbBlockEnd
  0
BLOCK
  5
1394
330
1390
100
AcDbEntity
  8
0
100
AcDbBlockBegin
  2
_Open
 70
     0
 10
0.0
 20
0.0
 30
0.0
  3
_Open
  1

  0
LINE
  5
1391
330
1390
100
AcDbEntity
  8
0
  6
ByBlock
 62
     0
370
    -2
100
AcDbLine
 10
-1.0
 20
0.1666666666666666
 30
0.0
 11
0.0
 21
0.0
 31
0.0
  0
LINE
  5
1392
330
1390
100
AcDbEntity
  8
0
  6
ByBlock
 62
     0
370
    -2
100
AcDbLine
 10
-1.0
 20
-0.1666666666666666
 30
0.0
 11
0.0
 21
0.0
 31
0.0
  0
LINE
  5
1393
330
1390
100
AcDbEntity
  8
0
  6
ByBlock
 62
     0
370
    -2
100
AcDbLine
 10
0.0
 20
0.0
 30
0.0
 11
-1.0
 21
0.0
 31
0.0
  0
ENDBLK
  5
1395
330
1390
100
AcDbEntity
  8
0
100
AcDbBlockEnd
  0
BLOCK
  5
60D5
330
60CB
100
AcDbEntity
  8
0
100
AcDbBlockBegin
  2
*D4
 70
     1
 10
0.0
 20
0.0
 30
0.0
  3
*D4
  1

  0
LINE
  5
613D
330
60CB
100
AcDbEntity
  8
001
 62
     0
370
    -2
100
AcDbLine
 10
-6713.135715637516
 20
-670.3103655364307
 30
0.0
 11
-6713.135715637516
 21
-589.4948585364306
 31
0.0
  0
LINE
  5
613E
330
60CB
100
AcDbEntity
  8
001
 62
     0
370
    -2
100
AcDbLine
 10
-6463.136217637518
 20
-609.4770325364309
 30
0.0
 11
-6463.136217637518
 21
-589.4948585364306
 31
0.0
  0
LINE
  5
613F
330
60CB
100
AcDbEntity
  8
001
 62
     0
370
    -2
100
AcDbLine
 10
-6701.885715637516
 20
-589.4948585364306
 30
0.0
 11
-6474.386217637517
 21
-589.4948585364306
 31
0.0
  0
INSERT
  5
6140
330
60CB
100
AcDbEntity
  8
001
 62
     0
370
    -2
100
AcDbBlockReference
  2
_Open
 10
-6713.135715637516
 20
-589.4948585364306
 30
0.0
 41
11.25
 42
11.25
 43
11.25
 50
180.0
  0
INSERT
  5
6141
330
60CB
100
AcDbEntity
  8
001
 62
     0
370
    -2
100
AcDbBlockReference
  2
_Open
 10
-6463.136217637518
 20
-589.4948585364306
 30
0.0
 41
11.25
 42
11.25
 43
11.25
  0
MTEXT
  5
6142
330
60CB
100
AcDbEntity
  8
001
 62
     0
100
AcDbMText
 10
-6588.135966637516
 20
-576.3698585364307
 30
0.0
 40
11.25
 41
0.0
 71
     5
 72
     1
  1
\A1;250
 73
     1
 44
1.0
  0
POINT
  5
6143
330
60CB
100
AcDbEntity
  8
DEFPOINTS
 62
     0
100
AcDbPoint
 10
-6713.135715637516
 20
-679.6853655364307
 30
0.0
  0
POINT
  5
6144
330
60CB
100
AcDbEntity
  8
DEFPOINTS
 62
     0
100
AcDbPoint
 10
-6463.136217637518
 20
-618.8520325364309
 30
0.0
  0
POINT
  5
6145
330
60CB
100
AcDbEntity
  8
DEFPOINTS
 62
     0
100
AcDbPoint
 10
-6463.136217637518
 20
-589.4948585364306
 30
0.0
  0
ENDBLK
  5
60D6
330
60CB
100
AcDbEntity
  8
0
100
AcDbBlockEnd
  0
BLOCK
  5
60E3
330
60D7
100
AcDbEntity
  8
0
100
AcDbBlockBegin
  2
*D5
 70
     1
 10
0.0
 20
0.0
 30
0.0
  3
*D5
  1

  0
LINE
  5
6146
330
60D7
100
AcDbEntity
  8
001
 62
     0
370
    -2
100
AcDbLine
 10
-5965.234385906153
 20
-627.8103655364309
 30
0.0
 11
-5965.234385906153
 21
-602.8909205364309
 31
0.0
  0
LINE
  5
6147
330
60D7
100
AcDbEntity
  8
001
 62
     0
370
    -2
100
AcDbLine
 10
-5945.234385906153
 20
-618.8103655364309
 30
0.0
 11
-5945.234385906153
 21
-602.8909205364309
 31
0.0
  0
LINE
  5
6148
330
60D7
100
AcDbEntity
  8
001
 62
     0
370
    -2
100
AcDbLine
 10
-5976.484385906153
 20
-602.8909205364309
 30
0.0
 11
-5987.734385906153
 21
-602.8909205364309
 31
0.0
  0
LINE
  5
6149
330
60D7
100
AcDbEntity
  8
001
 62
     0
370
    -2
100
AcDbLine
 10
-5933.984385906153
 20
-602.8909205364309
 30
0.0
 11
-5890.859385906153
 21
-602.8909205364309
 31
0.0
  0
LINE
  5
614A
330
60D7
100
AcDbEntity
  8
001
 62
     0
370
    -2
100
AcDbLine
 10
-5965.234385906153
 20
-602.8909205364309
 30
0.0
 11
-5945.234385906153
 21
-602.8909205364309
 31
0.0
  0
INSERT
  5
614B
330
60D7
100
AcDbEntity
  8
001
 62
     0
370
    -2
100
AcDbBlockReference
  2
_Open
 10
-5965.234385906153
 20
-602.8909205364309
 30
0.0
 41
11.25
 42
11.25
 43
11.25
  0
INSERT
  5
614C
330
60D7
100
AcDbEntity
  8
001
 62
     0
370
    -2
100
AcDbBlockReference
  2
_Open
 10
-5945.234385906153
 20
-602.8909205364309
 30
0.0
 41
11.25
 42
11.25
 43
11.25
 50
180.0
  0
MTEXT
  5
614D
330
60D7
100
AcDbEntity
  8
001
 62
     0
100
AcDbMText
 10
-5906.796885906153
 20
-589.7659205364309
 30
0.0
 40
11.25
 41
0.0
 71
     5
 72
     1
  1
\A1;20
 73
     1
 44
1.0
  0
POINT
  5
614E
330
60D7
100
AcDbEntity
  8
DEFPOINTS
 62
     0
100
AcDbPoint
 10
-5965.234385906153
 20
-637.1853655364309
 30
0.0
  0
POINT
  5
614F
330
60D7
100
AcDbEntity
  8
DEFPOINTS
 62
     0
100
AcDbPoint
 10
-5945.234385906153
 20
-628.1853655364309
 30
0.0
  0
POINT
  5
6150
330
60D7
100
AcDbEntity
  8
DEFPOINTS
 62
     0
100
AcDbPoint
 10
-5945.234385906153
 20
-602.8909205364309
 30
0.0
  0
ENDBLK
  5
60E4
330
60D7
100
AcDbEntity
  8
0
100
AcDbBlockEnd
  0
BLOCK
  5
60EF
330
60E5
100
AcDbEntity
  8
0
100
AcDbBlockBegin
  2
*D6
 70
     1
 10
0.0
 20
0.0
 30
0.0
  3
*D6
  1

  0
LINE
  5
6151
330
60E5
100
AcDbEntity
  8
001
 62
     0
370
    -2
100
AcDbLine
 10
-5313.468272845653
 20
68.46605486712769
 30
0.0
 11
-5207.685490030023
 21
68.46605486712767
 31
0.0
  0
LINE
  5
6152
330
60E5
100
AcDbEntity
  8
001
 62
     0
370
    -2
100
AcDbLine
 10
-5313.468272845653
 20
-41.5339451328723
 30
0.0
 11
-5207.685490030023
 21
-41.53394513287233
 31
0.0
  0
LINE
  5
6153
330
60E5
100
AcDbEntity
  8
001
 62
     0
370
    -2
100
AcDbLine
 10
-5207.685490030023
 20
57.21605486712768
 30
0.0
 11
-5207.685490030023
 21
-30.28394513287233
 31
0.0
  0
INSERT
  5
6154
330
60E5
100
AcDbEntity
  8
001
 62
     0
370
    -2
100
AcDbBlockReference
  2
_Open
 10
-5207.685490030023
 20
68.46605486712767
 30
0.0
 41
11.25
 42
11.25
 43
11.25
 50
90.0
  0
INSERT
  5
6155
330
60E5
100
AcDbEntity
  8
001
 62
     0
370
    -2
100
AcDbBlockReference
  2
_Open
 10
-5207.685490030023
 20
-41.53394513287233
 30
0.0
 41
11.25
 42
11.25
 43
11.25
 50
270.0
  0
MTEXT
  5
6156
330
60E5
100
AcDbEntity
  8
001
 62
     0
100
AcDbMText
 10
-5220.810490030022
 20
13.46605486712683
 30
0.0
 40
11.25
 41
0.0
 71
     5
 72
     1
  1
\A1;110
 11
0.0000000000000001
 21
1.0
 31
0.0
 73
     1
 44
1.0
  0
POINT
  5
6157
330
60E5
100
AcDbEntity
  8
DEFPOINTS
 62
     0
100
AcDbPoint
 10
-5322.843272845654
 20
68.46605486712769
 30
0.0
  0
POINT
  5
6158
330
60E5
100
AcDbEntity
  8
DEFPOINTS
 62
     0
100
AcDbPoint
 10
-5322.843272845654
 20
-41.5339451328723
 30
0.0
  0
POINT
  5
6159
330
60E5
100
AcDbEntity
  8
DEFPOINTS
 62
     0
100
AcDbPoint
 10
-5207.685490030023
 20
-41.53394513287233
 30
0.0
  0
ENDBLK
  5
60F0
330
60E5
100
AcDbEntity
  8
0
100
AcDbBlockEnd
  0
BLOCK
  5
60FB
330
60F1
100
AcDbEntity
  8
0
100
AcDbBlockBegin
  2
*D7
 70
     1
 10
0.0
 20
0.0
 30
0.0
  3
*D7
  1

  0
LINE
  5
615A
330
60F1
100
AcDbEntity
  8
001
 62
     0
370
    -2
100
AcDbLine
 10
-5371.23154081893
 20
-782.1853655364307
 30
0.0
 11
-5410.951204818931
 21
-782.1853655364305
 31
0.0
  0
LINE
  5
615B
330
60F1
100
AcDbEntity
  8
001
 62
     0
370
    -2
100
AcDbLine
 10
-5371.23154081893
 20
-577.1853655364309
 30
0.0
 11
-5410.951204818931
 21
-577.1853655364308
 31
0.0
  0
LINE
  5
615C
330
60F1
100
AcDbEntity
  8
001
 62
     0
370
    -2
100
AcDbLine
 10
-5410.951204818931
 20
-770.9353655364306
 30
0.0
 11
-5410.951204818931
 21
-588.4353655364308
 31
0.0
  0
INSERT
  5
615D
330
60F1
100
AcDbEntity
  8
001
 62
     0
370
    -2
100
AcDbBlockReference
  2
_Open
 10
-5410.951204818931
 20
-782.1853655364305
 30
0.0
 41
11.25
 42
11.25
 43
11.25
 50
270.0
  0
INSERT
  5
615E
330
60F1
100
AcDbEntity
  8
001
 62
     0
370
    -2
100
AcDbBlockReference
  2
_Open
 10
-5410.951204818931
 20
-577.1853655364308
 30
0.0
 41
11.25
 42
11.25
 43
11.25
 50
90.0
  0
MTEXT
  5
615F
330
60F1
100
AcDbEntity
  8
001
 62
     0
100
AcDbMText
 10
-5424.076204818931
 20
-679.6853655364316
 30
0.0
 40
11.25
 41
0.0
 71
     5
 72
     1
  1
\A1;205
 11
0.0000000000000001
 21
1.0
 31
0.0
 73
     1
 44
1.0
  0
POINT
  5
6160
330
60F1
100
AcDbEntity
  8
DEFPOINTS
 62
     0
100
AcDbPoint
 10
-5361.85654081893
 20
-782.1853655364307
 30
0.0
  0
POINT
  5
6161
330
60F1
100
AcDbEntity
  8
DEFPOINTS
 62
     0
100
AcDbPoint
 10
-5361.85654081893
 20
-577.1853655364309
 30
0.0
  0
POINT
  5
6162
330
60F1
100
AcDbEntity
  8
DEFPOINTS
 62
     0
100
AcDbPoint
 10
-5410.951204818931
 20
-577.1853655364308
 30
0.0
  0
ENDBLK
  5
60FC
330
60F1
100
AcDbEntity
  8
0
100
AcDbBlockEnd
  0
BLOCK
  5
6109
330
60FD
100
AcDbEntity
  8
0
100
AcDbBlockBegin
  2
*D8
 70
     1
 10
0.0
 20
0.0
 30
0.0
  3
*D8
  1

  0
LINE
  5
6163
330
60FD
100
AcDbEntity
  8
001
 62
     0
370
    -2
100
AcDbLine
 10
-5361.85654081893
 20
-567.8103655364309
 30
0.0
 11
-5361.85654081893
 21
-551.0610095364311
 31
0.0
  0
LINE
  5
6164
330
60FD
100
AcDbEntity
  8
001
 62
     0
370
    -2
100
AcDbLine
 10
-5339.856540818931
 20
-567.8103655364309
 30
0.0
 11
-5339.856540818931
 21
-551.0610095364311
 31
0.0
  0
LINE
  5
6165
330
60FD
100
AcDbEntity
  8
001
 62
     0
370
    -2
100
AcDbLine
 10
-5373.10654081893
 20
-551.0610095364311
 30
0.0
 11
-5384.356540818931
 21
-551.0610095364311
 31
0.0
  0
LINE
  5
6166
330
60FD
100
AcDbEntity
  8
001
 62
     0
370
    -2
100
AcDbLine
 10
-5328.606540818931
 20
-551.0610095364311
 30
0.0
 11
-5283.60654081893
 21
-551.0610095364311
 31
0.0
  0
LINE
  5
6167
330
60FD
100
AcDbEntity
  8
001
 62
     0
370
    -2
100
AcDbLine
 10
-5361.85654081893
 20
-551.0610095364311
 30
0.0
 11
-5339.856540818931
 21
-551.0610095364311
 31
0.0
  0
INSERT
  5
6168
330
60FD
100
AcDbEntity
  8
001
 62
     0
370
    -2
100
AcDbBlockReference
  2
_Open
 10
-5361.85654081893
 20
-551.0610095364311
 30
0.0
 41
11.25
 42
11.25
 43
11.25
  0
INSERT
  5
6169
330
60FD
100
AcDbEntity
  8
001
 62
     0
370
    -2
100
AcDbBlockReference
  2
_Open
 10
-5339.856540818931
 20
-551.0610095364311
 30
0.0
 41
11.25
 42
11.25
 43
11.25
 50
180.0
  0
MTEXT
  5
616A
330
60FD
100
AcDbEntity
  8
001
 62
     0
100
AcDbMText
 10
-5300.481540818931
 20
-537.9360095364311
 30
0.0
 40
11.25
 41
0.0
 71
     5
 72
     1
  1
\A1;22
 73
     1
 44
1.0
  0
POINT
  5
616B
330
60FD
100
AcDbEntity
  8
DEFPOINTS
 62
     0
100
AcDbPoint
 10
-5361.85654081893
 20
-577.1853655364309
 30
0.0
  0
POINT
  5
616C
330
60FD
100
AcDbEntity
  8
DEFPOINTS
 62
     0
100
AcDbPoint
 10
-5339.856540818931
 20
-577.1853655364309
 30
0.0
  0
POINT
  5
616D
330
60FD
100
AcDbEntity
  8
DEFPOINTS
 62
     0
100
AcDbPoint
 10
-5339.856540818931
 20
-551.0610095364311
 30
0.0
  0
ENDBLK
  5
610A
330
60FD
100
AcDbEntity
  8
0
100
AcDbBlockEnd
  0
BLOCK
  5
6115
330
610B
100
AcDbEntity
  8
0
100
AcDbBlockBegin
  2
*D9
 70
     1
 10
0.0
 20
0.0
 30
0.0
  3
*D9
  1

  0
LINE
  5
616E
330
610B
100
AcDbEntity
  8
001
 62
     0
370
    -2
100
AcDbLine
 10
-6455.552188637516
 20
-742.1853655364307
 30
0.0
 11
-6379.827980637515
 21
-742.1853655364308
 31
0.0
  0
LINE
  5
616F
330
610B
100
AcDbEntity
  8
001
 62
     0
370
    -2
100
AcDbLine
 10
-6455.427883637516
 20
-617.1853655364309
 30
0.0
 11
-6379.827980637515
 21
-617.185365536431
 31
0.0
  0
LINE
  5
6170
330
610B
100
AcDbEntity
  8
001
 62
     0
370
    -2
100
AcDbLine
 10
-6379.827980637515
 20
-730.9353655364308
 30
0.0
 11
-6379.827980637515
 21
-628.435365536431
 31
0.0
  0
INSERT
  5
6171
330
610B
100
AcDbEntity
  8
001
 62
     0
370
    -2
100
AcDbBlockReference
  2
_Open
 10
-6379.827980637515
 20
-742.1853655364308
 30
0.0
 41
11.25
 42
11.25
 43
11.25
 50
270.0
  0
INSERT
  5
6172
330
610B
100
AcDbEntity
  8
001
 62
     0
370
    -2
100
AcDbBlockReference
  2
_Open
 10
-6379.827980637515
 20
-617.185365536431
 30
0.0
 41
11.25
 42
11.25
 43
11.25
 50
90.0
  0
MTEXT
  5
6173
330
610B
100
AcDbEntity
  8
001
 62
     0
100
AcDbMText
 10
-6392.952980637516
 20
-679.6853655364319
 30
0.0
 40
11.25
 41
0.0
 71
     5
 72
     1
  1
\A1;125
 11
0.0000000000000001
 21
1.0
 31
0.0
 73
     1
 44
1.0
  0
POINT
  5
6174
330
610B
100
AcDbEntity
  8
DEFPOINTS
 62
     0
100
AcDbPoint
 10
-6464.927188637516
 20
-742.1853655364307
 30
0.0
  0
POINT
  5
6175
330
610B
100
AcDbEntity
  8
DEFPOINTS
 62
     0
100
AcDbPoint
 10
-6464.802883637516
 20
-617.1853655364309
 30
0.0
  0
POINT
  5
6176
330
610B
100
AcDbEntity
  8
DEFPOINTS
 62
     0
100
AcDbPoint
 10
-6379.827980637515
 20
-617.185365536431
 30
0.0
  0
ENDBLK
  5
6116
330
610B
100
AcDbEntity
  8
0
100
AcDbBlockEnd
  0
BLOCK
  5
6121
330
6117
100
AcDbEntity
  8
0
100
AcDbBlockBegin
  2
*D10
 70
     1
 10
0.0
 20
0.0
 30
0.0
  3
*D10
  1

  0
LINE
  5
6177
330
6117
100
AcDbEntity
  8
001
 62
     0
370
    -2
100
AcDbLine
 10
-5971.877335906152
 20
-732.6853655364307
 30
0.0
 11
-6003.832746906152
 21
-732.6853655364307
 31
0.0
  0
LINE
  5
6178
330
6117
100
AcDbEntity
  8
001
 62
     0
370
    -2
100
AcDbLine
 10
-5971.877335906152
 20
-626.6853655364309
 30
0.0
 11
-6003.832746906152
 21
-626.6853655364309
 31
0.0
  0
LINE
  5
6179
330
6117
100
AcDbEntity
  8
001
 62
     0
370
    -2
100
AcDbLine
 10
-6003.832746906152
 20
-721.4353655364306
 30
0.0
 11
-6003.832746906152
 21
-637.9353655364309
 31
0.0
  0
INSERT
  5
617A
330
6117
100
AcDbEntity
  8
001
 62
     0
370
    -2
100
AcDbBlockReference
  2
_Open
 10
-6003.832746906152
 20
-732.6853655364307
 30
0.0
 41
11.25
 42
11.25
 43
11.25
 50
270.0
  0
INSERT
  5
617B
330
6117
100
AcDbEntity
  8
001
 62
     0
370
    -2
100
AcDbBlockReference
  2
_Open
 10
-6003.832746906152
 20
-626.6853655364309
 30
0.0
 41
11.25
 42
11.25
 43
11.25
 50
90.0
  0
MTEXT
  5
617C
330
6117
100
AcDbEntity
  8
001
 62
     0
100
AcDbMText
 10
-6016.957746906151
 20
-679.6853655364318
 30
0.0
 40
11.25
 41
0.0
 71
     5
 72
     1
  1
\A1;106
 11
0.0000000000000001
 21
1.0
 31
0.0
 73
     1
 44
1.0
  0
POINT
  5
617D
330
6117
100
AcDbEntity
  8
DEFPOINTS
 62
     0
100
AcDbPoint
 10
-5962.502335906152
 20
-732.6853655364307
 30
0.0
  0
POINT
  5
617E
330
6117
100
AcDbEntity
  8
DEFPOINTS
 62
     0
100
AcDbPoint
 10
-5962.502335906152
 20
-626.6853655364309
 30
0.0
  0
POINT
  5
617F
330
6117
100
AcDbEntity
  8
DEFPOINTS
 62
     0
100
AcDbPoint
 10
-6003.832746906152
 20
-626.6853655364309
 30
0.0
  0
ENDBLK
  5
6122
330
6117
100
AcDbEntity
  8
0
100
AcDbBlockEnd
  0
BLOCK
  5
612F
330
6123
100
AcDbEntity
  8
0
100
AcDbBlockBegin
  2
*D11
 70
     1
 10
0.0
 20
0.0
 30
0.0
  3
*D11
  1

  0
ARC
  5
6180
330
6123
100
AcDbEntity
  8
001
 62
     0
370
    -2
100
AcDbCircle
 10
-6337.670745246182
 20
-116.5339451328695
 30
0.0
 40
354.4115089914153
100
AcDbArc
 50
76.36239474267862
 51
78.18119737133921
  0
ARC
  5
6181
330
6123
100
AcDbEntity
  8
001
 62
     0
370
    -2
100
AcDbCircle
 10
-6337.670745246182
 20
-116.5339451328695
 30
0.0
 40
354.4115089914153
100
AcDbArc
 50
91.8188026286605
 51
93.63760525732109
  0
ARC
  5
6182
330
6123
100
AcDbEntity
  8
001
 62
     0
370
    -2
100
AcDbCircle
 10
-6337.670745246182
 20
-116.5339451328695
 30
0.0
 40
354.4115089914153
100
AcDbArc
 50
79.9999999999998
 51
89.99999999999992
  0
INSERT
  5
6183
330
6123
100
AcDbEntity
  8
001
 62
     0
370
    -2
100
AcDbBlockReference
  2
_Open
 10
-6276.127832565634
 20
232.4932566786317
 30
0.0
 41
11.25
 42
11.25
 43
11.25
 50
169.0905986856695
  0
INSERT
  5
6184
330
6123
100
AcDbEntity
  8
001
 62
     0
370
    -2
100
AcDbBlockReference
  2
_Open
 10
-6337.670745246182
 20
237.8775638585456
 30
0.0
 41
11.25
 42
11.25
 43
11.25
 50
0.9094013143302165
  0
MTEXT
  5
6185
330
6123
100
AcDbEntity
  8
001
 62
     0
100
AcDbMText
 10
-6305.637827818152
 20
249.6039764795273
 30
0.0
 40
11.25
 41
0.0
 71
     5
 72
     1
  1
\A1;10°
 11
0.9961946980917455
 21
-0.0871557427476592
 31
0.0
 73
     1
 44
1.0
  0
POINT
  5
6186
330
6123
100
AcDbEntity
  8
DEFPOINTS
 62
     0
100
AcDbPoint
 10
-6296.526080367847
 20
235.4811600226075
 30
0.0
  0
POINT
  5
6187
330
6123
100
AcDbEntity
  8
DEFPOINTS
 62
     0
100
AcDbPoint
 10
-6337.670745246182
 20
-295.6945155342184
 30
0.0
  0
POINT
  5
6188
330
6123
100
AcDbEntity
  8
DEFPOINTS
 62
     0
100
AcDbPoint
 10
-6371.39339978545
 20
-307.7846227306706
 30
0.0
  0
POINT
  5
6189
330
6123
100
AcDbEntity
  8
DEFPOINTS
 62
     0
100
AcDbPoint
 10
-6274.08858794011
 20
244.0583876491245
 30
0.0
  0
POINT
  5
618A
330
6123
100
AcDbEntity
  8
DEFPOINTS
 62
     0
100
AcDbPoint
 10
-6337.670745246182
 20
239.4027221432218
 30
0.0
  0
ENDBLK
  5
6130
330
6123
100
AcDbEntity
  8
0
100
AcDbBlockEnd
  0
BLOCK
  5
613B
330
6131
100
AcDbEntity
  8
0
100
AcDbBlockBegin
  2
*D12
 70
     1
 10
0.0
 20
0.0
 30
0.0
  3
*D12
  1

  0
LINE
  5
618B
330
6131
100
AcDbEntity
  8
001
 62
     0
370
    -2
100
AcDbLine
 10
-6198.767420784505
 20
22.49463149951657
 30
0.0
 11
-6096.21071108504
 21
4.411116526815476
 31
0.0
  0
LINE
  5
618C
330
6131
100
AcDbEntity
  8
001
 62
     0
370
    -2
100
AcDbLine
 10
-6214.395756774528
 20
-66.13806627158215
 30
0.0
 11
-6111.839047075064
 21
-84.22158124428325
 31
0.0
  0
LINE
  5
618D
330
6131
100
AcDbEntity
  8
001
 62
     0
370
    -2
100
AcDbLine
 10
-6098.164253083792
 20
-6.667970694571749
 30
0.0
 11
-6109.88550507631
 21
-73.14249402289601
 31
0.0
  0
INSERT
  5
618E
330
6131
100
AcDbEntity
  8
001
 62
     0
370
    -2
100
AcDbBlockReference
  2
_Open
 10
-6096.21071108504
 20
4.411116526815476
 30
0.0
 41
11.25
 42
11.25
 43
11.25
 50
80.00000000000012
  0
INSERT
  5
618F
330
6131
100
AcDbEntity
  8
001
 62
     0
370
    -2
100
AcDbBlockReference
  2
_Open
 10
-6111.839047075064
 20
-84.22158124428325
 30
0.0
 41
11.25
 42
11.25
 43
11.25
 50
260.0
  0
MTEXT
  5
6190
330
6131
100
AcDbEntity
  8
001
 62
     0
100
AcDbMText
 10
-6116.950480838337
 20
-37.62610002685573
 30
0.0
 40
11.25
 41
0.0
 71
     5
 72
     1
  1
\A1;90
 11
0.1736481776669285
 21
0.9848077530122086
 31
0.0
 73
     1
 44
1.0
  0
POINT
  5
6191
330
6131
100
AcDbEntity
  8
DEFPOINTS
 62
     0
100
AcDbPoint
 10
-6207.999993468995
 20
24.12258316514408
 30
0.0
  0
POINT
  5
6192
330
6131
100
AcDbEntity
  8
DEFPOINTS
 62
     0
100
AcDbPoint
 10
-6223.628329459018
 20
-64.51011460595464
 30
0.0
  0
POINT
  5
6193
330
6131
100
AcDbEntity
  8
DEFPOINTS
 62
     0
100
AcDbPoint
 10
-6111.839047075064
 20
-84.22158124428325
 30
0.0
  0
ENDBLK
  5
613C
330
6131
100
AcDbEntity
  8
0
100
AcDbBlockEnd
  0
ENDSEC
  0
SECTION
  2
ENTITIES
  0
LWPOLYLINE
  5
5C4E
330
1E
100
AcDbEntity
  8
001
  6
DASHED
100
AcDbPolyline
 90
        4
 70
     1
 43
0.0
 10
-6936.946692462065
 20
-979.5151902799075
 10
-4864.246692462065
 20
-979.5151902799075
 10
-4864.246692462065
 20
486.1798097200931
 10
-6936.946692462065
 20
486.1798097200931
  0
LINE
  5
5C4F
330
1E
100
AcDbEntity
  8
001
100
AcDbLine
 10
-5673.673715960376
 20
12.80135186712777
 30
0.0
 11
-5760.298715960376
 21
12.80135186712777
 31
0.0
  0
TEXT
  5
5C50
330
1E
100
AcDbEntity
  8
001
100
AcDbText
 10
-5749.923715960375
 20
16.30135186712777
 30
0.0
 40
11.19999999999999
  1
テーパーコーン
 41
0.716146
100
AcDbText
  0
LINE
  5
5C51
330
1E
100
AcDbEntity
  8
001
 62
     3
100
AcDbLine
 10
-4906.246692462065
 20
-935.76519124178
 30
0.0
 11
-6860.506692462066
 21
-935.76519124178
 31
0.0
  0
LINE
  5
5C52
330
1E
100
AcDbEntity
  8
001
 62
     3
100
AcDbLine
 10
-6860.506692462066
 20
406.5548087582201
 30
0.0
 11
-4906.246692462065
 21
406.5548087582201
 31
0.0
  0
CIRCLE
  5
5C53
330
1E
100
AcDbEntity
  8
002
100
AcDbCircle
 10
-5608.070825818931
 20
-679.6853655364307
 30
0.0
 40
102.4999999999999
  0
LWPOLYLINE
  5
5C54
330
1E
100
AcDbEntity
  8
003
 62
     3
100
AcDbPolyline
 90
       58
 70
     0
 43
0.0
 10
-5811.252031654344
 20
-216.9475051328722
 10
-5491.846183019496
 20
-216.9475051328722
 10
-5491.627036960375
 20
-217.5637568588972
 10
-5491.968591960375
 20
-219.7053058588971
 10
-5493.094386960375
 20
-221.8565088588975
 10
-5494.549548960375
 20
-224.0271628588975
 10
-5495.879205960375
 20
-226.2270668588976
 10
-5496.628486960375
 20
-228.4660208588975
 10
-5496.296615960375
 20
-231.3719378588971
 10
-5494.971937960375
 20
-234.3139388588974
 10
-5493.332799960375
 20
-237.2492558588974
 10
-5492.057549960374
 20
-240.1351198588972
 10
-5491.824534960375
 20
-242.9287638588971
 10
-5492.721845960375
 20
-245.0969148588974
 10
-5494.268582960375
 20
-247.2087368588972
 10
-5495.992510960376
 20
-249.2959018588972
 10
-5497.421394960376
 20
-251.3900828588971
 10
-5498.082996960374
 20
-253.5229498588973
 10
-5497.509041960375
 20
-256.0593558588975
 10
-5495.957325960375
 20
-258.6536838588972
 10
-5494.100363960375
 20
-261.2701828588974
 10
-5492.610674960375
 20
-263.8730998588971
 10
-5492.160773960375
 20
-266.4266828588974
 10
-5492.954214960374
 20
-268.5542348588974
 10
-5494.486675960375
 20
-270.6416578588973
 10
-5496.241945960375
 20
-272.7111938588973
 10
-5497.703816960375
 20
-274.7850858588972
 10
-5498.356077960376
 20
-276.8855778588972
 10
-5497.738696960375
 20
-279.2525938588974
 10
-5496.150580960375
 20
-281.6492708588971
 10
-5494.237487960376
 20
-284.0457168588973
 10
-5492.645178960375
 20
-286.4120408588973
 10
-5492.019411960375
 20
-288.7183528588971
 10
-5492.631469960375
 20
-290.6815508588974
 10
-5494.040632960376
 20
-292.6100638588973
 10
-5495.798253960376
 20
-294.5386748588976
 10
-5497.455681960374
 20
-296.5021638588973
 10
-5498.564268960375
 20
-298.5353108588974
 10
-5498.422087960375
 20
-302.3496458588974
 10
-5496.397201960375
 20
-306.3512258588975
 10
-5493.721089960375
 20
-310.4012328588974
 10
-5491.625230960375
 20
-314.3608488588975
 10
-5491.341101960376
 20
-318.0912558588975
 10
-5492.509010960375
 20
-320.2723998588972
 10
-5494.380486960375
 20
-322.3598998588972
 10
-5496.455020960375
 20
-324.4057258588973
 10
-5498.232104960376
 20
-326.4618468588973
 10
-5499.211227960375
 20
-328.5802328588975
 10
-5498.811883960375
 20
-331.4379778588973
 10
-5497.094575960375
 20
-334.4347608588973
 10
-5494.866733960375
 20
-337.5226358588975
 10
-5492.935791960375
 20
-340.6536568588971
 10
-5492.109178960375
 20
-343.7798758588974
 10
-5492.699439960375
 20
-346.3776728588973
 10
-5494.150342960375
 20
-348.9449858588973
 10
-5495.968681960376
 20
-351.4886828588974
 10
-5497.661250960375
 20
-354.0156338588972
 10
-5498.734843960376
 20
-356.5327098588973
  0
LWPOLYLINE
  5
5C55
330
1E
100
AcDbEntity
  8
003
  6
Continuous
100
AcDbPolyline
 90
       12
 70
     1
 43
0.0
 10
-5591.9778012223
 20
263.4660548671277
 10
-5292.01270269845
 20
263.4660548671277
 10
-5192.01270269845
 20
83.46605486712769
 10
-5141.995251960376
 20
83.46605486712769
 10
-5141.995251960376
 20
85.76605486712765
 10
-5190.995251960376
 20
85.76605486712765
 10
-5290.995251960375
 20
265.7660548671276
 10
-5592.995251960376
 20
265.7660548671276
 10
-5692.995251960375
 20
85.76605486712765
 10
-5741.995251960376
 20
85.76605486712765
 10
-5741.995251960376
 20
83.46605486712769
 10
-5691.9778012223
 20
83.46605486712769
  0
LINE
  5
5C56
330
1E
100
AcDbEntity
  8
004
  6
CENTER
 62
     6
100
AcDbLine
 10
-5489.555299818931
 20
-679.6853655364307
 30
0.0
 11
-5729.92204481893
 21
-679.6853655364307
 31
0.0
  0
LINE
  5
5C57
330
1E
100
AcDbEntity
  8
003
100
AcDbLine
 10
-5741.995251960376
 20
83.46605486712769
 30
0.0
 11
-5514.202492391166
 21
83.46605486712769
 31
0.0
  0
TEXT
  5
5C58
330
1E
100
AcDbEntity
  8
001
100
AcDbText
 10
-5743.261210833131
 20
306.9515491837837
 30
0.0
 40
18.0
  1
角度なしアンカー頭部構造図
 41
0.787037
100
AcDbText
  0
LINE
  5
5C59
330
1E
100
AcDbEntity
  8
001
100
AcDbLine
 10
-5743.261210833131
 20
303.3905919629282
 30
0.0
 11
-5522.210283110112
 21
303.3905919629282
 31
0.0
  0
DIMENSION
  5
5C5A
330
1E
100
AcDbEntity
  8
001
100
AcDbDimension
  2
*D4
 10
-6463.136217637518
 20
-589.4948585364306
 30
0.0
 11
-6588.135966637516
 21
-576.3698585364307
 31
0.0
 70
    32
 71
     5
 42
249.9994979999992
  3
ISO-25
100
AcDbAlignedDimension
 13
-6713.135715637516
 23
-679.6853655364307
 33
0.0
 14
-6463.136217637518
 24
-618.8520325364309
 34
0.0
100
AcDbRotatedDimension
  0
LINE
  5
5C5B
330
1E
100
AcDbEntity
  8
001
 62
     3
100
AcDbLine
 10
-6860.506692462066
 20
-935.76519124178
 30
0.0
 11
-6860.506692462066
 21
406.5548087582201
 31
0.0
  0
LINE
  5
5C5C
330
1E
100
AcDbEntity
  8
004
  6
CENTER
 62
     6
100
AcDbLine
 10
-6321.351701637516
 20
-609.178055536431
 30
0.0
 11
-6321.351701637516
 21
-749.608896536431
 31
0.0
  0
DIMENSION
  5
5C5D
330
1E
100
AcDbEntity
  8
001
100
AcDbDimension
  2
*D5
 10
-5945.234385906153
 20
-602.8909205364309
 30
0.0
 11
-5906.796885906153
 21
-589.7659205364309
 31
0.0
 70
    32
 71
     5
 42
20.0
  3
ISO-25
100
AcDbAlignedDimension
 13
-5965.234385906153
 23
-637.1853655364309
 33
0.0
 14
-5945.234385906153
 24
-628.1853655364309
 34
0.0
100
AcDbRotatedDimension
  0
LINE
  5
5C5E
330
1E
100
AcDbEntity
  8
004
  6
CENTER
 62
     6
100
AcDbLine
 10
-6722.530673637514
 20
-679.6853655364307
 30
0.0
 11
-6440.372745637517
 21
-679.6853655364307
 31
0.0
  0
LINE
  5
5C5F
330
1E
100
AcDbEntity
  8
002
100
AcDbLine
 10
-6699.393713637515
 20
-725.5186985364312
 30
0.0
 11
-6554.085064637516
 21
-731.6398625364309
 31
0.0
  0
LINE
  5
5C60
330
1E
100
AcDbEntity
  8
002
100
AcDbLine
 10
-6554.085064637516
 20
-627.7308685364308
 30
0.0
 11
-6696.469550637515
 21
-633.8520325364308
 31
0.0
  0
LINE
  5
5C61
330
1E
100
AcDbEntity
  8
002
100
AcDbLine
 10
-6553.996837637517
 20
-631.8975905364307
 30
0.0
 11
-6696.290589637516
 21
-638.0148535364307
 31
0.0
  0
LWPOLYLINE
  5
5C62
330
1E
100
AcDbEntity
  8
002
100
AcDbPolyline
 90
       34
 70
     0
 43
0.0
 10
-6696.469550637515
 20
-633.8520325364308
 10
-6697.965126637517
 20
-634.0383825364308
 10
-6699.448636637517
 20
-634.5959285364308
 10
-6700.908108637516
 20
-635.5201735364309
 10
-6702.331768637517
 20
-636.8036585364309
 10
-6703.708127637516
 20
-638.4360285364307
 10
-6705.026082637516
 20
-640.4041125364308
 10
-6706.274998637517
 20
-642.6920305364308
 10
-6707.444798637516
 20
-645.2813225364309
 10
-6708.526043637515
 20
-648.1510965364309
 10
-6709.510010637515
 20
-651.2781975364307
 10
-6710.388758637517
 20
-654.6373945364309
 10
-6711.155199637516
 20
-658.2015835364309
 10
-6711.803147637517
 20
-661.9420055364307
 10
-6712.327375637517
 20
-665.8284835364306
 10
-6712.723654637516
 20
-669.8296565364312
 10
-6712.988784637516
 20
-673.9132415364306
 10
-6713.120628637516
 20
-678.0462895364312
 10
-6713.118122637516
 20
-682.1954535364307
 10
-6712.981286637516
 20
-686.3272555364305
 10
-6712.711223637516
 20
-690.4083575364307
 10
-6712.310113637515
 20
-694.405830536431
 10
-6711.781193637516
 20
-698.2874215364309
 10
-6711.128729637515
 20
-702.0218105364306
 10
-6710.357987637515
 20
-705.5788665364311
 10
-6709.475185637517
 20
-708.9298905364308
 10
-6708.487446637517
 20
-712.0478435364307
 10
-6707.402740637515
 20
-714.9075675364306
 10
-6706.229818637516
 20
-717.4859895364311
 10
-6704.978145637517
 20
-719.7623045364312
 10
-6703.657820637516
 20
-721.7181475364309
 10
-6702.279496637517
 20
-723.3377365364308
 10
-6700.854294637517
 20
-724.6080025364308
 10
-6699.393713637515
 20
-725.5186985364312
  0
LWPOLYLINE
  5
5C63
330
1E
100
AcDbEntity
  8
002
100
AcDbPolyline
 90
       19
 70
     0
 43
0.0
 10
-6696.469550637515
 20
-638.018698536431
 10
-6697.558997637516
 20
-638.1772535364309
 10
-6698.640152637516
 20
-638.6517095364308
 10
-6699.704788637517
 20
-639.4384565364309
 10
-6700.744802637517
 20
-640.5315065364309
 10
-6701.752278637515
 20
-641.9225415364308
 10
-6702.719550637515
 20
-643.6009735364307
 10
-6703.639255637516
 20
-645.5540305364309
 10
-6704.504395637515
 20
-647.766847536431
 10
-6705.308385637517
 20
-650.222582536431
 10
-6706.045105637517
 20
-652.9025485364309
 10
-6706.708951637516
 20
-655.7863475364309
 10
-6707.294868637517
 20
-658.8520325364306
 10
-6707.798397637517
 20
-662.0762715364308
 10
-6708.215708637516
 20
-665.4345265364309
 10
-6708.543623637516
 20
-668.9012385364308
 10
-6708.779647637514
 20
-672.4500245364311
 10
-6708.921984637516
 20
-676.0538765364308
 10
-6708.969550637515
 20
-679.6853655364307
  0
LINE
  5
5C64
330
1E
100
AcDbEntity
  8
002
100
AcDbLine
 10
-6707.133574637516
 20
-644.545064536431
 30
0.0
 11
-6696.439239637514
 21
-633.8507295364308
 31
0.0
  0
LINE
  5
5C65
330
1E
100
AcDbEntity
  8
002
100
AcDbLine
 10
-6711.217981637516
 20
-658.5289655364308
 30
0.0
 11
-6706.193862637516
 21
-653.5048465364309
 31
0.0
  0
LINE
  5
5C66
330
1E
100
AcDbEntity
  8
002
100
AcDbLine
 10
-6712.948858637516
 20
-673.136981536431
 30
0.0
 11
-6708.819331637517
 21
-673.2451165364304
 31
0.0
  0
LINE
  5
5C67
330
1E
100
AcDbEntity
  8
002
100
AcDbLine
 10
-6712.909947637516
 20
-672.4580675364308
 30
0.0
 11
-6708.785734637517
 21
-672.5660635364306
 31
0.0
  0
LINE
  5
5C68
330
1E
100
AcDbEntity
  8
002
100
AcDbLine
 10
-6712.732903637515
 20
-669.9433825364308
 30
0.0
 11
-6708.214685637516
 21
-665.4251645364306
 31
0.0
  0
LINE
  5
5C69
330
1E
100
AcDbEntity
  8
002
100
AcDbLine
 10
-6680.108709637515
 20
-637.3191885364311
 30
0.0
 11
-6675.750847637515
 21
-632.9613275364309
 31
0.0
  0
LINE
  5
5C6A
330
1E
100
AcDbEntity
  8
002
100
AcDbLine
 10
-6690.452905637515
 20
-637.7638895364309
 30
0.0
 11
-6686.095043637518
 21
-633.4060285364309
 31
0.0
  0
LINE
  5
5C6B
330
1E
100
AcDbEntity
  8
002
100
AcDbLine
 10
-6669.764513637516
 20
-636.8744875364306
 30
0.0
 11
-6665.406651637517
 21
-632.5166265364307
 31
0.0
  0
LINE
  5
5C6C
330
1E
100
AcDbEntity
  8
002
100
AcDbLine
 10
-6502.100138637516
 20
-627.6020325364308
 30
0.0
 11
-6491.683472637517
 21
-617.1853655364309
 31
0.0
  0
LINE
  5
5C6D
330
1E
100
AcDbEntity
  8
002
100
AcDbLine
 10
-6464.802883637516
 20
-617.1853655364309
 30
0.0
 11
-6504.802883637516
 21
-617.1853655364309
 31
0.0
  0
LINE
  5
5C6E
330
1E
100
AcDbEntity
  8
002
100
AcDbLine
 10
-6464.927188637516
 20
-742.1853655364307
 30
0.0
 11
-6504.802883637516
 21
-742.1853655364307
 31
0.0
  0
LINE
  5
5C6F
330
1E
100
AcDbEntity
  8
002
100
AcDbLine
 10
-6543.173805637517
 20
-627.6020325364308
 30
0.0
 11
-6495.734293637517
 21
-627.6020325364308
 31
0.0
  0
LINE
  5
5C70
330
1E
100
AcDbEntity
  8
002
100
AcDbLine
 10
-6649.076121637516
 20
-635.9850855364308
 30
0.0
 11
-6644.718260637515
 21
-631.6272245364309
 31
0.0
  0
LINE
  5
5C71
330
1E
100
AcDbEntity
  8
002
100
AcDbLine
 10
-6638.731925637516
 20
-635.540384536431
 30
0.0
 11
-6634.374064637515
 21
-631.1825235364308
 31
0.0
  0
LINE
  5
5C72
330
1E
100
AcDbEntity
  8
002
100
AcDbLine
 10
-6628.387729637515
 20
-635.0956835364306
 30
0.0
 11
-6624.029868637515
 21
-630.7378225364309
 31
0.0
  0
LINE
  5
5C73
330
1E
100
AcDbEntity
  8
002
100
AcDbLine
 10
-6659.420317637516
 20
-636.4297865364307
 30
0.0
 11
-6655.062455637516
 21
-632.0719255364308
 31
0.0
  0
LINE
  5
5C74
330
1E
100
AcDbEntity
  8
002
100
AcDbLine
 10
-6597.355141637516
 20
-633.7615805364309
 30
0.0
 11
-6592.997280637516
 21
-629.403719536431
 31
0.0
  0
LINE
  5
5C75
330
1E
100
AcDbEntity
  8
002
100
AcDbLine
 10
-6607.699337637516
 20
-634.2062815364308
 30
0.0
 11
-6603.341476637516
 21
-629.8484205364309
 31
0.0
  0
LINE
  5
5C76
330
1E
100
AcDbEntity
  8
002
100
AcDbLine
 10
-6587.010945637516
 20
-633.3168795364308
 30
0.0
 11
-6582.653084637517
 21
-628.9590185364309
 31
0.0
  0
LINE
  5
5C77
330
1E
100
AcDbEntity
  8
002
100
AcDbLine
 10
-6618.043533637515
 20
-634.6509825364307
 30
0.0
 11
-6613.685672637515
 21
-630.2931215364308
 31
0.0
  0
LINE
  5
5C78
330
1E
100
AcDbEntity
  8
002
100
AcDbLine
 10
-6546.469550637515
 20
-679.6853655364307
 30
0.0
 11
-6546.469550637515
 21
-735.5243225364306
 31
0.0
  0
LINE
  5
5C79
330
1E
100
AcDbEntity
  8
002
100
AcDbLine
 10
-6535.898171637517
 20
-725.8458155364309
 30
0.0
 11
-6506.437156637516
 21
-731.3255645364311
 31
0.0
  0
LINE
  5
5C7A
330
1E
100
AcDbEntity
  8
002
100
AcDbLine
 10
-6543.987363637516
 20
-736.307693536431
 30
0.0
 11
-6504.802883637516
 21
-742.1853655364307
 31
0.0
  0
ARC
  5
5C7B
330
1E
100
AcDbEntity
  8
002
100
AcDbCircle
 10
-6542.751193637515
 20
-728.0665575364305
 30
0.0
 40
8.333332999999999
100
AcDbArc
 50
227.9451880000098
 51
261.4692339999828
  0
ARC
  5
5C7C
330
1E
100
AcDbEntity
  8
002
100
AcDbCircle
 10
-6554.442986637515
 20
-739.9655065364308
 30
0.0
 40
8.333332999999999
100
AcDbArc
 50
47.94518800000982
 51
87.53834800001174
  0
LINE
  5
5C7D
330
1E
100
AcDbEntity
  8
002
100
AcDbLine
 10
-6548.860976637516
 20
-733.7779695364311
 30
0.0
 11
-6548.333203637516
 21
-734.2540935364309
 31
0.0
  0
LINE
  5
5C7E
330
1E
100
AcDbEntity
  8
002
100
AcDbLine
 10
-6504.802883637516
 20
-733.2918415364306
 30
0.0
 11
-6504.802883637516
 21
-742.1853655364307
 31
0.0
  0
LINE
  5
5C7F
330
1E
100
AcDbEntity
  8
002
100
AcDbLine
 10
-6505.802883637516
 20
-733.1058415364309
 30
0.0
 11
-6505.802883637516
 21
-742.035365536431
 31
0.0
  0
LINE
  5
5C80
330
1E
100
AcDbEntity
  8
002
100
AcDbLine
 10
-6505.702280637516
 20
-737.7698385364306
 30
0.0
 11
-6504.802883637516
 21
-742.1853655364307
 31
0.0
  0
ARC
  5
5C81
330
1E
100
AcDbEntity
  8
002
100
AcDbCircle
 10
-6505.182430637517
 20
-741.8250775364308
 30
0.0
 40
0.3
100
AcDbArc
 50
261.4692339999828
 51
11.5130479999828
  0
ARC
  5
5C82
330
1E
100
AcDbEntity
  8
002
100
AcDbCircle
 10
-6507.802883637516
 20
-735.2759315364306
 30
0.0
 40
2.0
100
AcDbArc
 50
270.0
 51
0.0
  0
ARC
  5
5C83
330
1E
100
AcDbEntity
  8
002
100
AcDbCircle
 10
-6500.802883637516
 20
-736.7718825364309
 30
0.0
 40
5.0
100
AcDbArc
 50
180.0
 51
191.5130479999828
  0
ARC
  5
5C84
330
1E
100
AcDbEntity
  8
002
100
AcDbCircle
 10
-6506.102883637516
 20
-737.5759315364307
 30
0.0
 40
0.3
100
AcDbArc
 50
0.0
 51
90.0
  0
ARC
  5
5C85
330
1E
100
AcDbEntity
  8
002
100
AcDbCircle
 10
-6506.802883637516
 20
-733.2918415364306
 30
0.0
 40
2.0
100
AcDbArc
 50
0.0
 51
79.4633920000208
  0
ARC
  5
5C86
330
1E
100
AcDbEntity
  8
002
100
AcDbCircle
 10
-6507.802883637516
 20
-733.1058415364309
 30
0.0
 40
2.0
100
AcDbArc
 50
0.0
 51
79.4633920000208
  0
LINE
  5
5C87
330
1E
100
AcDbEntity
  8
002
100
AcDbLine
 10
-6537.532443637516
 20
-737.2759315364305
 30
0.0
 11
-6506.102883637516
 21
-737.2759315364305
 31
0.0
  0
LINE
  5
5C88
330
1E
100
AcDbEntity
  8
002
100
AcDbLine
 10
-6541.698118637516
 20
-627.6020325364308
 30
0.0
 11
-6535.954140637516
 21
-621.8580535364308
 31
0.0
  0
LINE
  5
5C89
330
1E
100
AcDbEntity
  8
002
100
AcDbLine
 10
-6543.987363637516
 20
-623.0630375364308
 30
0.0
 11
-6504.802883637516
 21
-617.1853655364309
 31
0.0
  0
ARC
  5
5C8A
330
1E
100
AcDbEntity
  8
002
100
AcDbCircle
 10
-6543.173805637517
 20
-635.9353655364309
 30
0.0
 40
8.333332999999999
100
AcDbArc
 50
90.0
 51
133.156544999967
  0
ARC
  5
5C8B
330
1E
100
AcDbEntity
  8
002
100
AcDbCircle
 10
-6542.751193637515
 20
-631.3041735364309
 30
0.0
 40
8.333332999999999
100
AcDbArc
 50
98.53076600001719
 51
132.0548119999901
  0
LINE
  5
5C8C
330
1E
100
AcDbEntity
  8
002
100
AcDbLine
 10
-6566.322554637515
 20
-632.4274775364308
 30
0.0
 11
-6561.964692637516
 21
-628.0696165364308
 31
0.0
  0
ARC
  5
5C8D
330
1E
100
AcDbEntity
  8
002
100
AcDbCircle
 10
-6554.354759637516
 20
-623.571947536431
 30
0.0
 40
8.333332999999999
100
AcDbArc
 50
272.4616519999882
 51
313.1565449999671
  0
ARC
  5
5C8E
330
1E
100
AcDbEntity
  8
002
100
AcDbCircle
 10
-6554.442986637515
 20
-619.4052245364307
 30
0.0
 40
8.333332999999999
100
AcDbArc
 50
272.4616519999882
 51
312.0548119999901
  0
LINE
  5
5C8F
330
1E
100
AcDbEntity
  8
002
100
AcDbLine
 10
-6555.978358637516
 20
-631.9827765364309
 30
0.0
 11
-6550.980970637517
 21
-626.9853885364309
 31
0.0
  0
LINE
  5
5C90
330
1E
100
AcDbEntity
  8
002
100
AcDbLine
 10
-6548.860976637516
 20
-625.592761536431
 30
0.0
 11
-6548.333203637516
 21
-625.1166375364307
 31
0.0
  0
LINE
  5
5C91
330
1E
100
AcDbEntity
  8
002
100
AcDbLine
 10
-6576.666750637516
 20
-632.8721785364307
 30
0.0
 11
-6572.308888637516
 21
-628.5143175364307
 31
0.0
  0
ARC
  5
5C92
330
1E
100
AcDbEntity
  8
002
100
AcDbCircle
 10
-6506.802883637516
 20
-689.0976675364308
 30
0.0
 40
2.0
100
AcDbArc
 50
0.0
 51
79.4633920000208
  0
ARC
  5
5C93
330
1E
100
AcDbEntity
  8
002
100
AcDbCircle
 10
-6507.802883637516
 20
-689.9116675364307
 30
0.0
 40
2.0
100
AcDbArc
 50
0.0
 51
79.4633920000208
  0
LINE
  5
5C94
330
1E
100
AcDbEntity
  8
002
100
AcDbLine
 10
-6504.802883637516
 20
-689.0976675364308
 30
0.0
 11
-6504.802883637516
 21
-714.4672375364311
 31
0.0
  0
LINE
  5
5C95
330
1E
100
AcDbEntity
  8
002
100
AcDbLine
 10
-6505.802883637516
 20
-689.9116675364307
 30
0.0
 11
-6505.802883637516
 21
-713.6532375364309
 31
0.0
  0
LINE
  5
5C96
330
1E
100
AcDbEntity
  8
002
  6
CENTER
100
AcDbLine
 10
-6525.636217637518
 20
-693.004088536431
 30
0.0
 11
-6525.636217637518
 21
-710.7805155364308
 31
0.0
  0
CIRCLE
  5
5C97
330
1E
100
AcDbEntity
  8
002
100
AcDbCircle
 10
-6525.636217637518
 20
-701.7824525364308
 30
0.0
 40
5.0
  0
CIRCLE
  5
5C98
330
1E
100
AcDbEntity
  8
002
100
AcDbCircle
 10
-6525.636217637518
 20
-701.7824525364308
 30
0.0
 40
3.5
  0
ARC
  5
5C99
330
1E
100
AcDbEntity
  8
002
100
AcDbCircle
 10
-6506.802883637516
 20
-714.4672375364311
 30
0.0
 40
2.0
100
AcDbArc
 50
280.5366079999791
 51
0.0
  0
ARC
  5
5C9A
330
1E
100
AcDbEntity
  8
002
100
AcDbCircle
 10
-6507.802883637516
 20
-713.6532375364309
 30
0.0
 40
2.0
100
AcDbArc
 50
280.5366079999791
 51
0.0
  0
LINE
  5
5C9B
330
1E
100
AcDbEntity
  8
002
100
AcDbLine
 10
-6521.899128637517
 20
-627.6020325364308
 30
0.0
 11
-6512.661211637517
 21
-618.3641145364308
 31
0.0
  0
LINE
  5
5C9C
330
1E
100
AcDbEntity
  8
002
100
AcDbLine
 10
-6531.798623637516
 20
-627.6020325364308
 30
0.0
 11
-6524.307675637516
 21
-620.1110845364308
 31
0.0
  0
LINE
  5
5C9D
330
1E
100
AcDbEntity
  8
002
100
AcDbLine
 10
-6511.999633637516
 20
-627.6020325364308
 30
0.0
 11
-6501.582967637516
 21
-617.1853655364309
 31
0.0
  0
ARC
  5
5C9E
330
1E
100
AcDbEntity
  8
002
100
AcDbCircle
 10
-6535.532443637515
 20
-723.8795395364308
 30
0.0
 40
2.0
100
AcDbArc
 50
100.5366079999791
 51
259.4633920000208
  0
ARC
  5
5C9F
330
1E
100
AcDbEntity
  8
002
100
AcDbCircle
 10
-6535.532443637515
 20
-722.8795395364309
 30
0.0
 40
2.0
100
AcDbArc
 50
100.5366079999791
 51
194.4775120000169
  0
ARC
  5
5CA0
330
1E
100
AcDbEntity
  8
002
100
AcDbCircle
 10
-6535.532443637515
 20
-679.6845395364312
 30
0.0
 40
2.0
100
AcDbArc
 50
180.023667999991
 51
259.4633920000208
  0
ARC
  5
5CA1
330
1E
100
AcDbEntity
  8
002
100
AcDbCircle
 10
-6535.532443637515
 20
-680.6845395364311
 30
0.0
 40
2.0
100
AcDbArc
 50
180.023667999991
 51
259.4633920000208
  0
LINE
  5
5CA2
330
1E
100
AcDbEntity
  8
002
100
AcDbLine
 10
-6537.532443637516
 20
-680.6853655364307
 30
0.0
 11
-6537.532443637516
 21
-679.6853655364307
 31
0.0
  0
LINE
  5
5CA3
330
1E
100
AcDbEntity
  8
002
100
AcDbLine
 10
-6535.898171637517
 20
-721.9132625364304
 30
0.0
 11
-6506.437156637516
 21
-716.4335135364312
 31
0.0
  0
LINE
  5
5CA4
330
1E
100
AcDbEntity
  8
002
100
AcDbLine
 10
-6535.898171637517
 20
-720.9132625364304
 30
0.0
 11
-6507.437156637516
 21
-715.619513536431
 31
0.0
  0
LINE
  5
5CA5
330
1E
100
AcDbEntity
  8
002
  6
CENTER
100
AcDbLine
 10
-6537.674989637517
 20
-701.7824525364308
 30
0.0
 11
-6514.157841637516
 21
-701.7824525364308
 31
0.0
  0
LINE
  5
5CA6
330
1E
100
AcDbEntity
  8
002
100
AcDbLine
 10
-6535.910735637516
 20
-681.6493045364309
 30
0.0
 11
-6506.437156637516
 21
-687.1313905364309
 31
0.0
  0
LINE
  5
5CA7
330
1E
100
AcDbEntity
  8
002
100
AcDbLine
 10
-6535.910735637516
 20
-682.6493045364308
 30
0.0
 11
-6507.437156637516
 21
-687.9453905364312
 31
0.0
  0
DIMENSION
  5
5CA8
330
1E
100
AcDbEntity
  8
001
100
AcDbDimension
  2
*D9
 10
-6379.827980637515
 20
-617.185365536431
 30
0.0
 11
-6392.952980637516
 21
-679.6853655364319
 31
0.0
 70
    32
 71
     5
 42
124.9999999999997
  3
ISO-25
100
AcDbAlignedDimension
 13
-6464.927188637516
 23
-742.1853655364307
 33
0.0
 14
-6464.802883637516
 24
-617.1853655364309
 34
0.0
 50
90.0
100
AcDbRotatedDimension
  0
INSERT
  5
5CA9
330
1E
100
AcDbEntity
  8
001
  6
ByBlock
100
AcDbBlockReference
  2
PART2
 10
-7604.306721637517
 20
-1452.622756536431
 30
0.0
  0
LINE
  5
5CAA
330
1E
100
AcDbEntity
  8
002
100
AcDbLine
 10
-6463.136217637518
 20
-740.5186985364312
 30
0.0
 11
-6463.136217637518
 21
-618.8520325364309
 31
0.0
  0
LINE
  5
5CAB
330
1E
100
AcDbEntity
  8
002
100
AcDbLine
 10
-6464.802883637516
 20
-742.1853655364307
 30
0.0
 11
-6464.802883637516
 21
-679.6853655364307
 31
0.0
  0
ARC
  5
5CAC
330
1E
100
AcDbEntity
  8
002
100
AcDbCircle
 10
-6488.011411637517
 20
-740.5186985364312
 30
0.0
 40
1.666666999999999
100
AcDbArc
 50
261.4692339999828
 51
270.0
  0
LINE
  5
5CAD
330
1E
100
AcDbEntity
  8
002
100
AcDbLine
 10
-6463.260521637515
 20
-740.5186985364312
 30
0.0
 11
-6464.927188637516
 21
-742.1853655364307
 31
0.0
  0
LINE
  5
5CAE
330
1E
100
AcDbEntity
  8
002
100
AcDbLine
 10
-6464.002242637516
 20
-627.0186985364309
 30
0.0
 11
-6464.002242637516
 21
-660.816654536431
 31
0.0
  0
LINE
  5
5CAF
330
1E
100
AcDbEntity
  8
002
100
AcDbLine
 10
-6480.217815637516
 20
-625.518698536431
 30
0.0
 11
-6471.884482637516
 21
-617.1853655364309
 31
0.0
  0
LINE
  5
5CB0
330
1E
100
AcDbEntity
  8
002
100
AcDbLine
 10
-6490.117310637517
 20
-625.518698536431
 30
0.0
 11
-6481.783977637516
 21
-617.1853655364309
 31
0.0
  0
LINE
  5
5CB1
330
1E
100
AcDbEntity
  8
002
100
AcDbLine
 10
-6464.802883637516
 20
-617.1853655364309
 30
0.0
 11
-6463.136217637518
 21
-618.8520325364309
 31
0.0
  0
LINE
  5
5CB2
330
1E
100
AcDbEntity
  8
002
100
AcDbLine
 10
-6470.318320637516
 20
-625.518698536431
 30
0.0
 11
-6463.393935637516
 21
-618.5943135364309
 31
0.0
  0
LINE
  5
5CB3
330
1E
100
AcDbEntity
  8
002
100
AcDbLine
 10
-6464.002242637516
 20
-627.0186985364309
 30
0.0
 11
-6463.136217637518
 21
-625.518698536431
 31
0.0
  0
LINE
  5
5CB4
330
1E
100
AcDbEntity
  8
002
100
AcDbLine
 10
-6493.136217637517
 20
-627.6020325364308
 30
0.0
 11
-6493.136217637517
 21
-660.816654536431
 31
0.0
  0
LINE
  5
5CB5
330
1E
100
AcDbEntity
  8
002
100
AcDbLine
 10
-6495.734293637517
 20
-627.0186985364309
 30
0.0
 11
-6495.734293637517
 21
-679.6853655364307
 31
0.0
  0
LINE
  5
5CB6
330
1E
100
AcDbEntity
  8
002
100
AcDbLine
 10
-6495.734293637517
 20
-627.0186985364309
 30
0.0
 11
-6493.136217637517
 21
-625.518698536431
 31
0.0
  0
LINE
  5
5CB7
330
1E
100
AcDbEntity
  8
002
100
AcDbLine
 10
-6493.136217637517
 20
-625.518698536431
 30
0.0
 11
-6493.136217637517
 21
-627.6020325364308
 31
0.0
  0
LINE
  5
5CB8
330
1E
100
AcDbEntity
  8
002
100
AcDbLine
 10
-6493.136217637517
 20
-625.518698536431
 30
0.0
 11
-6463.136217637518
 21
-625.518698536431
 31
0.0
  0
LINE
  5
5CB9
330
1E
100
AcDbEntity
  8
002
100
AcDbLine
 10
-6495.734293637517
 20
-627.0186985364309
 30
0.0
 11
-6464.002242637516
 21
-627.0186985364309
 31
0.0
  0
DIMENSION
  5
5CBA
330
1E
100
AcDbEntity
  8
001
100
AcDbDimension
  2
*D10
 10
-6003.832746906152
 20
-626.6853655364309
 30
0.0
 11
-6016.957746906151
 21
-679.6853655364318
 31
0.0
 70
    32
 71
     5
 42
105.9999999999997
  3
ISO-25
100
AcDbAlignedDimension
 13
-5962.502335906152
 23
-732.6853655364307
 33
0.0
 14
-5962.502335906152
 24
-626.6853655364309
 34
0.0
 50
90.0
100
AcDbRotatedDimension
  0
LINE
  5
5CBB
330
1E
100
AcDbEntity
  8
004
  6
CENTER
 62
     6
100
AcDbLine
 10
-6067.589035906152
 20
-679.6853655364307
 30
0.0
 11
-6188.901790906152
 21
-679.6853655364307
 31
0.0
  0
CIRCLE
  5
5CBC
330
1E
100
AcDbEntity
  8
002
100
AcDbCircle
 10
-6127.849468906152
 20
-679.6853655364307
 30
0.0
 40
53.0
  0
CIRCLE
  5
5CBD
330
1E
100
AcDbEntity
  8
002
100
AcDbCircle
 10
-6127.849468906152
 20
-679.6853655364307
 30
0.0
 40
50.5
  0
CIRCLE
  5
5CBE
330
1E
100
AcDbEntity
  8
002
100
AcDbCircle
 10
-6127.849468906152
 20
-679.6853655364307
 30
0.0
 40
51.5
  0
CIRCLE
  5
5CBF
330
1E
100
AcDbEntity
  8
002
100
AcDbCircle
 10
-6127.849468906152
 20
-679.6853655364307
 30
0.0
 40
49.5
  0
LINE
  5
5CC0
330
1E
100
AcDbEntity
  8
004
  6
CENTER
 62
     6
100
AcDbLine
 10
-6332.490794637517
 20
-679.6853655364307
 30
0.0
 11
-6250.299176637516
 21
-679.6853655364307
 31
0.0
  0
ARC
  5
5CC1
330
1E
100
AcDbEntity
  8
002
100
AcDbCircle
 10
-6321.351701637516
 20
-679.6853655364307
 30
0.0
 40
62.5
100
AcDbArc
 50
270.0
 51
90.0
  0
ARC
  5
5CC2
330
1E
100
AcDbEntity
  8
002
100
AcDbCircle
 10
-6321.351701637516
 20
-679.6853655364307
 30
0.0
 40
54.166667
100
AcDbArc
 50
270.0
 51
90.0
  0
ARC
  5
5CC3
330
1E
100
AcDbEntity
  8
002
100
AcDbCircle
 10
-6321.351701637516
 20
-679.6853655364307
 30
0.0
 40
52.666667
100
AcDbArc
 50
270.0
 51
90.0
  0
ARC
  5
5CC4
330
1E
100
AcDbEntity
  8
002
100
AcDbCircle
 10
-6321.351701637516
 20
-679.6853655364307
 30
0.0
 40
52.083333
100
AcDbArc
 50
270.0
 51
90.0
  0
ARC
  5
5CC5
330
1E
100
AcDbEntity
  8
002
100
AcDbCircle
 10
-6321.351701637516
 20
-679.6853655364307
 30
0.0
 40
60.83333299999999
100
AcDbArc
 50
270.0
 51
90.0
  0
ARC
  5
5CC6
330
1E
100
AcDbEntity
  8
002
100
AcDbCircle
 10
-6321.351701637516
 20
-679.6853655364307
 30
0.0
 40
3.980626999999999
100
AcDbArc
 50
270.0
 51
90.0
  0
ARC
  5
5CC7
330
1E
100
AcDbEntity
  8
002
100
AcDbCircle
 10
-6321.351701637516
 20
-679.6853655364307
 30
0.0
 40
3.480626999999999
100
AcDbArc
 50
270.0
 51
90.0
  0
CIRCLE
  5
5CC8
330
1E
100
AcDbEntity
  8
002
100
AcDbCircle
 10
-6127.849468906152
 20
-679.6853655364307
 30
0.0
 40
31.990683
  0
CIRCLE
  5
5CC9
330
1E
100
AcDbEntity
  8
002
100
AcDbCircle
 10
-6127.849468906152
 20
-679.6853655364307
 30
0.0
 40
42.5
  0
CIRCLE
  5
5CCA
330
1E
100
AcDbEntity
  8
002
100
AcDbCircle
 10
-6127.849468906152
 20
-679.6853655364307
 30
0.0
 40
43.803009
  0
LINE
  5
5CCB
330
1E
100
AcDbEntity
  8
004
  6
CENTER
 62
     6
100
AcDbLine
 10
-6127.849468906152
 20
-621.8500975364311
 30
0.0
 11
-6127.849468906152
 21
-739.7015585364311
 31
0.0
  0
CIRCLE
  5
5CCC
330
1E
100
AcDbEntity
  8
002
100
AcDbCircle
 10
-6127.849468906152
 20
-679.6853655364307
 30
0.0
 40
30.490683
  0
INSERT
  5
5CCD
330
1E
100
AcDbEntity
  8
001
  6
ByBlock
100
AcDbBlockReference
  2
PART0
 10
-7197.055814906153
 20
-1233.93536553643
 30
0.0
  0
LINE
  5
5CCE
330
1E
100
AcDbEntity
  8
002
100
AcDbLine
 10
-5964.234385906153
 20
-730.1853655364307
 30
0.0
 11
-5964.234385906153
 21
-679.6853655364307
 31
0.0
  0
LINE
  5
5CCF
330
1E
100
AcDbEntity
  8
002
100
AcDbLine
 10
-5945.234385906153
 20
-731.1946825364307
 30
0.0
 11
-5945.234385906153
 21
-628.1853655364309
 31
0.0
  0
LINE
  5
5CD0
330
1E
100
AcDbEntity
  8
002
100
AcDbLine
 10
-5962.502335906152
 20
-732.6853655364307
 30
0.0
 11
-5962.502335906152
 21
-705.7009675364311
 31
0.0
  0
LINE
  5
5CD1
330
1E
100
AcDbEntity
  8
002
100
AcDbLine
 10
-5946.095032906153
 20
-732.6853655364307
 30
0.0
 11
-5946.095032906153
 21
-705.7009675364311
 31
0.0
  0
LINE
  5
5CD2
330
1E
100
AcDbEntity
  8
002
100
AcDbLine
 10
-5967.234385906152
 20
-729.1853655364307
 30
0.0
 11
-5967.234385906152
 21
-630.1853655364309
 31
0.0
  0
LINE
  5
5CD3
330
1E
100
AcDbEntity
  8
002
100
AcDbLine
 10
-5966.234385906153
 20
-730.1853655364307
 30
0.0
 11
-5966.234385906153
 21
-679.6853655364307
 31
0.0
  0
LINE
  5
5CD4
330
1E
100
AcDbEntity
  8
002
100
AcDbLine
 10
-5963.541565906153
 20
-731.1853655364306
 30
0.0
 11
-5945.234385906153
 21
-731.1853655364306
 31
0.0
  0
LINE
  5
5CD5
330
1E
100
AcDbEntity
  8
002
100
AcDbLine
 10
-5962.502335906152
 20
-732.6853655364307
 30
0.0
 11
-5946.095032906153
 21
-732.6853655364307
 31
0.0
  0
LINE
  5
5CD6
330
1E
100
AcDbEntity
  8
002
100
AcDbLine
 10
-5964.234385906153
 20
-730.1853655364307
 30
0.0
 11
-5962.502335906152
 21
-732.6853655364307
 31
0.0
  0
LINE
  5
5CD7
330
1E
100
AcDbEntity
  8
002
100
AcDbLine
 10
-5945.234385906153
 20
-731.1946825364307
 30
0.0
 11
-5946.100411906153
 21
-732.6946825364307
 31
0.0
  0
LINE
  5
5CD8
330
1E
100
AcDbEntity
  8
002
100
AcDbLine
 10
-5966.234385906153
 20
-730.1853655364307
 30
0.0
 11
-5967.234385906152
 21
-729.1853655364307
 31
0.0
  0
LINE
  5
5CD9
330
1E
100
AcDbEntity
  8
002
100
AcDbLine
 10
-5966.234385906153
 20
-730.1853655364307
 30
0.0
 11
-5964.234385906153
 21
-730.1853655364307
 31
0.0
  0
LINE
  5
5CDA
330
1E
100
AcDbEntity
  8
004
  6
CENTER
 62
     6
100
AcDbLine
 10
-5935.301009777821
 20
-679.6853655364307
 30
0.0
 11
-5979.119567862182
 21
-679.6853655364307
 31
0.0
  0
LINE
  5
5CDB
330
1E
100
AcDbEntity
  8
002
100
AcDbLine
 10
-5962.502335906152
 20
-626.6853655364309
 30
0.0
 11
-5946.100411906153
 21
-626.6853655364309
 31
0.0
  0
LINE
  5
5CDC
330
1E
100
AcDbEntity
  8
002
100
AcDbLine
 10
-5963.541565906153
 20
-628.1853655364309
 30
0.0
 11
-5945.234385906153
 21
-628.1853655364309
 31
0.0
  0
LINE
  5
5CDD
330
1E
100
AcDbEntity
  8
002
100
AcDbLine
 10
-5965.234385906153
 20
-647.6946825364309
 30
0.0
 11
-5945.234385906153
 21
-647.6946825364309
 31
0.0
  0
LINE
  5
5CDE
330
1E
100
AcDbEntity
  8
002
100
AcDbLine
 10
-5964.368360906152
 20
-649.1946825364309
 30
0.0
 11
-5946.100411906153
 21
-649.1946825364309
 31
0.0
  0
LINE
  5
5CDF
330
1E
100
AcDbEntity
  8
002
100
AcDbLine
 10
-5957.548970906152
 20
-647.6946825364309
 30
0.0
 11
-5945.234385906153
 21
-635.3800975364308
 31
0.0
  0
LINE
  5
5CE0
330
1E
100
AcDbEntity
  8
002
100
AcDbLine
 10
-5965.234385906153
 20
-645.480602536431
 30
0.0
 11
-5947.939148906153
 21
-628.1853655364309
 31
0.0
  0
LINE
  5
5CE1
330
1E
100
AcDbEntity
  8
002
100
AcDbLine
 10
-5965.234385906153
 20
-679.6853655364307
 30
0.0
 11
-5965.234385906153
 21
-637.1853655364309
 31
0.0
  0
LINE
  5
5CE2
330
1E
100
AcDbEntity
  8
002
100
AcDbLine
 10
-5964.368360906152
 20
-649.1946825364309
 30
0.0
 11
-5964.368360906152
 21
-661.4373965364311
 31
0.0
  0
LINE
  5
5CE3
330
1E
100
AcDbEntity
  8
002
100
AcDbLine
 10
-5965.234385906153
 20
-647.6946825364309
 30
0.0
 11
-5964.368360906152
 21
-649.1946825364309
 31
0.0
  0
LINE
  5
5CE4
330
1E
100
AcDbEntity
  8
002
100
AcDbLine
 10
-5964.234385906153
 20
-629.1853655364309
 30
0.0
 11
-5962.502335906152
 21
-626.6853655364309
 31
0.0
  0
LINE
  5
5CE5
330
1E
100
AcDbEntity
  8
002
100
AcDbLine
 10
-5947.649475906152
 20
-647.6946825364309
 30
0.0
 11
-5945.234385906153
 21
-645.2795925364309
 31
0.0
  0
LINE
  5
5CE6
330
1E
100
AcDbEntity
  8
002
100
AcDbLine
 10
-5946.100411906153
 20
-649.1946825364309
 30
0.0
 11
-5946.100411906153
 21
-661.4373965364311
 31
0.0
  0
LINE
  5
5CE7
330
1E
100
AcDbEntity
  8
002
100
AcDbLine
 10
-5945.234385906153
 20
-647.6946825364309
 30
0.0
 11
-5946.100411906153
 21
-649.1946825364309
 31
0.0
  0
LINE
  5
5CE8
330
1E
100
AcDbEntity
  8
002
100
AcDbLine
 10
-5945.234385906153
 20
-628.1853655364309
 30
0.0
 11
-5946.100411906153
 21
-626.6853655364309
 31
0.0
  0
LINE
  5
5CE9
330
1E
100
AcDbEntity
  8
002
100
AcDbLine
 10
-5966.234385906153
 20
-629.1853655364309
 30
0.0
 11
-5967.234385906152
 21
-630.1853655364309
 31
0.0
  0
LINE
  5
5CEA
330
1E
100
AcDbEntity
  8
002
100
AcDbLine
 10
-5965.234385906153
 20
-637.1853655364309
 30
0.0
 11
-5967.234385906152
 21
-635.882356536431
 31
0.0
  0
LINE
  5
5CEB
330
1E
100
AcDbEntity
  8
002
100
AcDbLine
 10
-5966.234385906153
 20
-629.1853655364309
 30
0.0
 11
-5964.234385906153
 21
-629.1853655364309
 31
0.0
  0
LINE
  5
5CEC
330
1E
100
AcDbEntity
  8
002
100
AcDbLine
 10
-5966.205777906153
 20
-636.552499536431
 30
0.0
 11
-5957.838643906153
 21
-628.1853655364309
 31
0.0
  0
LINE
  5
5CED
330
1E
100
AcDbEntity
  8
002
100
AcDbLine
 10
-6359.896452692923
 20
2.165549829889641
 30
0.0
 11
-6308.939390513994
 21
-6.819555089894265
 31
0.0
  0
LINE
  5
5CEE
330
1E
100
AcDbEntity
  8
002
100
AcDbLine
 10
-6303.936942495546
 20
53.22397506800644
 30
0.0
 11
-6346.52313877387
 21
60.73307047762137
 31
0.0
  0
LINE
  5
5CEF
330
1E
100
AcDbEntity
  8
002
100
AcDbLine
 10
-6309.820697866482
 20
-62.51262047906994
 30
0.0
 11
-6360.621148033491
 21
-59.47845204668147
 31
0.0
  0
LINE
  5
5CF0
330
1E
100
AcDbEntity
  8
002
100
AcDbLine
 10
-6366.847548131055
 20
-65.99626930593854
 30
0.0
 11
-6291.684605322636
 21
-71.63382448336665
 31
0.0
  0
LINE
  5
5CF1
330
1E
100
AcDbEntity
  8
002
100
AcDbLine
 10
-6364.941200268972
 20
-52.79338871530535
 30
0.0
 11
-6293.497873739172
 21
-65.39077477407364
 31
0.0
  0
LINE
  5
5CF2
330
1E
100
AcDbEntity
  8
002
100
AcDbLine
 10
-6300.515728085204
 20
-92.9237580378067
 30
0.0
 11
-6365.830593363498
 21
-89.02268463704785
 31
0.0
  0
LINE
  5
5CF3
330
1E
100
AcDbEntity
  8
002
100
AcDbLine
 10
-6303.120450750208
 20
-107.6958743329898
 30
0.0
 11
-6368.435316028502
 21
-103.794800932231
 31
0.0
  0
LINE
  5
5CF4
330
1E
100
AcDbEntity
  8
002
100
AcDbLine
 10
-6369.452270796059
 20
-80.7683856011215
 30
0.0
 11
-6294.289327987641
 21
-86.40594077854984
 31
0.0
  0
LINE
  5
5CF5
330
1E
100
AcDbEntity
  8
002
100
AcDbLine
 10
-6297.9110054202
 20
-78.15164174262372
 30
0.0
 11
-6363.225870698495
 21
-74.25056834186467
 31
0.0
  0
LINE
  5
5CF6
330
1E
100
AcDbEntity
  8
002
100
AcDbLine
 10
-6339.611487910699
 20
-57.25970041765322
 30
0.0
 11
-6320.510188307229
 21
-4.779311250624914
 31
0.0
  0
LINE
  5
5CF7
330
1E
100
AcDbEntity
  8
002
100
AcDbLine
 10
-6342.099873551202
 20
-56.82093089082513
 30
0.0
 11
-6332.549223779521
 21
-2.656504475153724
 31
0.0
  0
LINE
  5
5CF8
330
1E
100
AcDbEntity
  8
002
100
AcDbLine
 10
-6379.871161456074
 20
-139.856850781854
 30
0.0
 11
-6304.708218647657
 21
-145.4944059592824
 31
0.0
  0
LINE
  5
5CF9
330
1E
100
AcDbEntity
  8
002
100
AcDbLine
 10
-6310.934618745219
 20
-152.0122232185392
 30
0.0
 11
-6376.249484023514
 21
-148.1111498177804
 31
0.0
  0
LINE
  5
5CFA
330
1E
100
AcDbEntity
  8
002
100
AcDbLine
 10
-6305.72517341521
 20
-122.467990628173
 30
0.0
 11
-6371.040038693507
 21
-118.566917227414
 31
0.0
  0
LINE
  5
5CFB
330
1E
100
AcDbEntity
  8
002
100
AcDbLine
 10
-6372.056993461062
 20
-95.54050189630471
 30
0.0
 11
-6296.894050652645
 21
-101.178057073733
 31
0.0
  0
LINE
  5
5CFC
330
1E
100
AcDbEntity
  8
002
100
AcDbLine
 10
-6377.26643879107
 20
-125.0847344866711
 30
0.0
 11
-6302.103495982652
 21
-130.7222896640992
 31
0.0
  0
LINE
  5
5CFD
330
1E
100
AcDbEntity
  8
002
100
AcDbLine
 10
-6374.661716126066
 20
-110.3126181914878
 30
0.0
 11
-6299.498773317647
 21
-115.950173368916
 31
0.0
  0
LINE
  5
5CFE
330
1E
100
AcDbEntity
  8
002
100
AcDbLine
 10
-6308.329896080215
 20
-137.240106923356
 30
0.0
 11
-6373.644761358511
 21
-133.3390335225972
 31
0.0
  0
LINE
  5
5CFF
330
1E
100
AcDbEntity
  8
002
100
AcDbLine
 10
-6325.626425598641
 20
215.7164368971591
 30
0.0
 11
-6356.887177635041
 21
73.67828077122226
 31
0.0
  0
LINE
  5
5D00
330
1E
100
AcDbEntity
  8
002
100
AcDbLine
 10
-6352.799076977758
 20
72.86785028180452
 30
0.0
 11
-6322.065698219953
 21
211.9375888843415
 31
0.0
  0
LINE
  5
5D01
330
1E
100
AcDbEntity
  8
002
100
AcDbLine
 10
-6390.29005211609
 20
-198.9453159625866
 30
0.0
 11
-6315.127109307672
 21
-204.5828711400147
 31
0.0
  0
LINE
  5
5D02
330
1E
100
AcDbEntity
  8
002
100
AcDbLine
 10
-6398.104220111101
 20
-243.261664848136
 30
0.0
 11
-6322.941277302684
 21
-248.8992200255641
 31
0.0
  0
LINE
  5
5D03
330
1E
100
AcDbEntity
  8
002
100
AcDbLine
 10
-6329.167677400246
 20
-255.4170372848211
 30
0.0
 11
-6394.482542678542
 21
-251.515963884062
 31
0.0
  0
LINE
  5
5D04
330
1E
100
AcDbEntity
  8
002
100
AcDbLine
 10
-6400.708942776105
 20
-258.0337811433191
 30
0.0
 11
-6325.545999967688
 21
-263.6713363207472
 31
0.0
  0
LINE
  5
5D05
330
1E
100
AcDbEntity
  8
002
100
AcDbLine
 10
-6403.31366544111
 20
-272.8058974385021
 30
0.0
 11
-6335.641648085914
 21
-277.8815998731477
 31
0.0
  0
LINE
  5
5D06
330
1E
100
AcDbEntity
  8
002
100
AcDbLine
 10
-6331.772400065251
 20
-270.1891535800041
 30
0.0
 11
-6397.087265343547
 21
-266.2880801792453
 31
0.0
  0
LWPOLYLINE
  5
5D07
330
1E
100
AcDbEntity
  8
002
100
AcDbPolyline
 90
       24
 70
     0
 43
0.0
 10
-6326.60801416233
 20
-268.5960366667174
 10
-6329.02528016233
 20
-271.4371766667177
 10
-6331.57143316233
 20
-274.1398396667175
 10
-6334.249104162329
 20
-276.6944706667177
 10
-6337.06092616233
 20
-279.0915196667176
 10
-6340.00953116233
 20
-281.3214326667175
 10
-6342.773301162329
 20
-283.1761646667175
 10
-6345.63308116233
 20
-284.8959476667175
 10
-6348.57243916233
 20
-286.4883406667177
 10
-6351.574941162329
 20
-287.9609016667177
 10
-6354.62415516233
 20
-289.3211876667176
 10
-6359.47192916233
 20
-291.2509236667176
 10
-6364.387328162329
 20
-292.9750706667175
 10
-6369.363460162329
 20
-294.5457646667175
 10
-6374.39343016233
 20
-296.0151386667175
 10
-6379.470346162329
 20
-297.4353236667175
 10
-6384.690977162329
 20
-298.8993516667176
 10
-6389.876555162329
 20
-300.4732906667177
 10
-6394.95015816233
 20
-302.2639696667177
 10
-6399.83486216233
 20
-304.3782196667175
 10
-6404.45374516233
 20
-306.9228726667176
 10
-6406.339840162329
 20
-308.1722226667175
 10
-6408.16859816233
 20
-309.5114436667177
 10
-6409.945980162328
 20
-310.9311956667177
  0
LINE
  5
5D08
330
1E
100
AcDbEntity
  8
002
100
AcDbLine
 10
-6395.499497446097
 20
-228.4895485529527
 30
0.0
 11
-6320.33655463768
 21
-234.1271037303811
 31
0.0
  0
LINE
  5
5D09
330
1E
100
AcDbEntity
  8
002
100
AcDbLine
 10
-6392.894774781094
 20
-213.7174322577698
 30
0.0
 11
-6317.731831972676
 21
-219.3549874351979
 31
0.0
  0
LINE
  5
5D0A
330
1E
100
AcDbEntity
  8
002
100
AcDbLine
 10
-6326.562954735244
 20
-240.6449209896379
 30
0.0
 11
-6391.877820013538
 21
-236.7438475888791
 31
0.0
  0
LINE
  5
5D0B
330
1E
100
AcDbEntity
  8
002
100
AcDbLine
 10
-6323.958232070239
 20
-225.8728046944547
 30
0.0
 11
-6389.273097348534
 21
-221.9717312936959
 31
0.0
  0
LINE
  5
5D0C
330
1E
100
AcDbEntity
  8
002
100
AcDbLine
 10
-6321.353509405235
 20
-211.1006883992717
 30
0.0
 11
-6386.66837468353
 21
-207.1996149985127
 31
0.0
  0
LINE
  5
5D0D
330
1E
100
AcDbEntity
  8
002
100
AcDbLine
 10
-6385.080606786082
 20
-169.4010833722204
 30
0.0
 11
-6309.917663977664
 21
-175.0386385496485
 31
0.0
  0
LINE
  5
5D0E
330
1E
100
AcDbEntity
  8
002
100
AcDbLine
 10
-6318.74878674023
 20
-196.3285721040886
 30
0.0
 11
-6384.063652018527
 21
-192.4274987033297
 31
0.0
  0
LINE
  5
5D0F
330
1E
100
AcDbEntity
  8
002
100
AcDbLine
 10
-6313.539341410224
 20
-166.7843395137224
 30
0.0
 11
-6378.854206688519
 21
-162.8832661129633
 31
0.0
  0
LINE
  5
5D10
330
1E
100
AcDbEntity
  8
002
100
AcDbLine
 10
-6316.144064075226
 20
-181.5564558089054
 30
0.0
 11
-6381.458929353523
 21
-177.6553824081465
 31
0.0
  0
LINE
  5
5D11
330
1E
100
AcDbEntity
  8
002
100
AcDbLine
 10
-6387.685329451086
 20
-184.1731996674034
 30
0.0
 11
-6312.522386642668
 21
-189.8107548448317
 31
0.0
  0
LINE
  5
5D12
330
1E
100
AcDbEntity
  8
002
100
AcDbLine
 10
-6382.475884121078
 20
-154.6289670770372
 30
0.0
 11
-6307.312941312661
 21
-160.2665222544653
 31
0.0
  0
LWPOLYLINE
  5
5D13
330
1E
100
AcDbEntity
  8
003
  6
Continuous
100
AcDbPolyline
 90
       12
 70
     1
 43
0.0
 10
-6487.653294508106
 20
263.4660548671277
 10
-6187.688195984257
 20
263.4660548671277
 10
-6087.688195984258
 20
83.46605486712769
 10
-6037.670745246182
 20
83.46605486712769
 10
-6037.670745246182
 20
85.76605486712765
 10
-6086.670745246182
 20
85.76605486712765
 10
-6186.670745246182
 20
265.7660548671276
 10
-6488.670745246182
 20
265.7660548671276
 10
-6588.670745246183
 20
85.76605486712765
 10
-6637.670745246182
 20
85.76605486712765
 10
-6637.670745246182
 20
83.46605486712769
 10
-6587.653294508107
 20
83.46605486712769
  0
LINE
  5
5D14
330
1E
100
AcDbEntity
  8
004
  6
CENTER
 62
     6
100
AcDbLine
 10
-6371.393399785451
 20
-307.7846227306706
 30
0.0
 11
-6274.08858794011
 21
244.0583876491245
 31
0.0
  0
DIMENSION
  5
5D15
330
1E
100
AcDbEntity
  8
001
100
AcDbDimension
  2
*D11
 10
-6337.670745246182
 20
239.4027221432218
 30
0.0
 11
-6305.637827818152
 21
249.6039764795274
 31
0.0
 70
    34
 71
     5
 42
0.1745329251994352
  3
ISO-25
100
AcDb2LineAngularDimension
 13
-6371.393399785451
 23
-307.7846227306706
 33
0.0
 14
-6274.08858794011
 24
244.0583876491245
 34
0.0
 15
-6337.670745246182
 25
-295.6945155342184
 35
0.0
 16
-6296.526080367847
 26
235.4811600226075
 36
0.0
  0
LINE
  5
5D16
330
1E
100
AcDbEntity
  8
003
 48
0.25
100
AcDbLine
 10
-6711.054693400956
 20
68.20219365093499
 30
0.0
 11
-6637.670745246182
 21
83.46605486712769
 31
0.0
  0
LINE
  5
5D17
330
1E
100
AcDbEntity
  8
003
 62
     3
100
AcDbLine
 10
-6711.054693400956
 20
-216.9475051328722
 30
0.0
 11
-6411.056236072505
 21
-216.9475051328722
 31
0.0
  0
LINE
  5
5D18
330
1E
100
AcDbEntity
  8
001
100
AcDbLine
 10
-6715.225704275588
 20
-510.0088268918648
 30
0.0
 11
-6566.225704275588
 21
-510.0088268918648
 31
0.0
  0
TEXT
  5
5D19
330
1E
100
AcDbEntity
  8
001
100
AcDbText
 10
-6715.225704275588
 20
-510.0088268918648
 30
0.0
 40
16.0
  1
ヘッドキャップ（Ｌ型）
 41
0.703125
100
AcDbText
  0
LINE
  5
5D1A
330
1E
100
AcDbEntity
  8
001
100
AcDbLine
 10
-6702.675014256808
 20
-435.958451908248
 30
0.0
 11
-6550.675014256807
 21
-435.958451908248
 31
0.0
  0
TEXT
  5
5D1B
330
1E
100
AcDbEntity
  8
001
100
AcDbText
 10
-6702.675014256808
 20
-435.958451908248
 30
0.0
 40
18.0
  1
アンカー頭部部品図
 41
0.787037
100
AcDbText
  0
LINE
  5
5D1C
330
1E
100
AcDbEntity
  8
003
 62
     3
100
AcDbLine
 10
-6711.054693400956
 20
-114.9220399113441
 30
0.0
 11
-6711.054693400956
 21
-252.5227380518904
 31
0.0
  0
LINE
  5
5D1D
330
1E
100
AcDbEntity
  8
003
 62
     3
100
AcDbLine
 10
-6711.054693400956
 20
-68.32000291134363
 30
0.0
 11
-6711.054693400956
 21
106.0472456086722
 31
0.0
  0
LINE
  5
5D1E
330
1E
100
AcDbEntity
  8
003
 62
     3
100
AcDbLine
 10
-6691.330810400955
 20
-68.32000291134363
 30
0.0
 11
-6729.455091400956
 21
-114.9220399113441
 31
0.0
  0
LINE
  5
5D1F
330
1E
100
AcDbEntity
  8
003
 62
     3
100
AcDbLine
 10
-6711.054693400956
 20
-68.32000291134363
 30
0.0
 11
-6691.330810400955
 21
-68.32000291134363
 31
0.0
  0
LINE
  5
5D20
330
1E
100
AcDbEntity
  8
003
 62
     3
100
AcDbLine
 10
-6729.455091400956
 20
-114.9220399113441
 30
0.0
 11
-6711.054693400956
 21
-114.9220399113441
 31
0.0
  0
LINE
  5
5D21
330
1E
100
AcDbEntity
  8
003
100
AcDbLine
 10
-6426.354685273984
 20
-216.9475051328722
 30
0.0
 11
-6397.993668496141
 21
-56.10418629481751
 31
0.0
  0
LINE
  5
5D22
330
1E
100
AcDbEntity
  8
003
100
AcDbLine
 10
-6421.785265520496
 20
-216.9475051328722
 30
0.0
 11
-6393.562033607587
 21
-56.88560309431863
 31
0.0
  0
LINE
  5
5D23
330
1E
100
AcDbEntity
  8
002
100
AcDbLine
 10
-6391.467807263938
 20
-170.9826522336179
 30
0.0
 11
-6364.378691547898
 21
-17.35264276371344
 31
0.0
  0
ARC
  5
5D24
330
1E
100
AcDbEntity
  8
002
100
AcDbCircle
 10
-6381.049764317786
 20
-154.8804304760803
 30
0.0
 40
2.5
100
AcDbArc
 50
128.1896849999919
 51
211.8103149999947
  0
ARC
  5
5D25
330
1E
100
AcDbEntity
  8
002
100
AcDbCircle
 10
-6380.013864738547
 20
-155.0630875212045
 30
0.0
 40
2.5
100
AcDbArc
 50
128.1896849999919
 51
211.8103149999947
  0
LINE
  5
5D26
330
1E
100
AcDbEntity
  8
003
 62
     3
100
AcDbLine
 10
-6419.430174833578
 20
-253.9994023593192
 30
0.0
 11
-6421.229964294759
 21
-255.7879360446945
 31
0.0
  0
LINE
  5
5D27
330
1E
100
AcDbEntity
  8
003
 62
     3
100
AcDbLine
 10
-6420.892278656122
 20
-262.8175552516918
 30
0.0
 11
-6419.424388318265
 21
-265.5097989653238
 31
0.0
  0
LINE
  5
5D28
330
1E
100
AcDbEntity
  8
003
 62
     3
100
AcDbLine
 10
-6418.995069821789
 20
-272.3237018352267
 30
0.0
 11
-6420.717707237503
 21
-273.9782178024258
 31
0.0
  0
LINE
  5
5D29
330
1E
100
AcDbEntity
  8
003
 62
     3
100
AcDbLine
 10
-6429.330244189209
 20
-318.0650159825261
 30
0.0
 11
-6427.972333627879
 21
-321.4837742976499
 31
0.0
  0
LINE
  5
5D2A
330
1E
100
AcDbEntity
  8
003
 62
     3
100
AcDbLine
 10
-6432.840629733786
 20
-331.6275360849751
 30
0.0
 11
-6434.946285243697
 21
-333.8221854988314
 31
0.0
  0
LINE
  5
5D2B
330
1E
100
AcDbEntity
  8
003
 62
     3
100
AcDbLine
 10
-6434.946285243697
 20
-333.8221854988314
 30
0.0
 11
-6436.440653614127
 21
-336.1145939905465
 31
0.0
  0
LINE
  5
5D2C
330
1E
100
AcDbEntity
  8
003
 62
     3
100
AcDbLine
 10
-6430.608207040396
 20
-329.4382348117919
 30
0.0
 11
-6432.840629733786
 21
-331.6275360849751
 31
0.0
  0
LINE
  5
5D2D
330
1E
100
AcDbEntity
  8
003
 62
     3
100
AcDbLine
 10
-6427.972333627879
 20
-321.4837742976499
 30
0.0
 11
-6427.701140969076
 21
-324.7060388475506
 31
0.0
  0
LINE
  5
5D2E
330
1E
100
AcDbEntity
  8
003
 62
     3
100
AcDbLine
 10
-6427.701140969076
 20
-324.7060388475506
 30
0.0
 11
-6428.733537293176
 21
-327.1618717269038
 31
0.0
  0
LINE
  5
5D2F
330
1E
100
AcDbEntity
  8
003
 62
     3
100
AcDbLine
 10
-6428.733537293176
 20
-327.1618717269038
 30
0.0
 11
-6430.608207040396
 21
-329.4382348117919
 31
0.0
  0
LINE
  5
5D30
330
1E
100
AcDbEntity
  8
003
 62
     3
100
AcDbLine
 10
-6426.218402898886
 20
-303.2170719182945
 30
0.0
 11
-6428.616674022696
 21
-304.8715781758001
 31
0.0
  0
LINE
  5
5D31
330
1E
100
AcDbEntity
  8
003
 62
     3
100
AcDbLine
 10
-6432.055903578412
 20
-308.5040547115815
 30
0.0
 11
-6432.158868722578
 21
-311.387729501575
 31
0.0
  0
LINE
  5
5D32
330
1E
100
AcDbEntity
  8
003
 62
     3
100
AcDbLine
 10
-6432.158868722578
 20
-311.387729501575
 30
0.0
 11
-6430.988036396683
 21
-314.6371920387637
 31
0.0
  0
LINE
  5
5D33
330
1E
100
AcDbEntity
  8
003
 62
     3
100
AcDbLine
 10
-6430.988036396683
 20
-314.6371920387637
 30
0.0
 11
-6429.330244189209
 21
-318.0650159825261
 31
0.0
  0
LINE
  5
5D34
330
1E
100
AcDbEntity
  8
003
 62
     3
100
AcDbLine
 10
-6428.616674022696
 20
-304.8715781758001
 30
0.0
 11
-6430.723801788364
 21
-306.5878746795708
 31
0.0
  0
LINE
  5
5D35
330
1E
100
AcDbEntity
  8
003
 62
     3
100
AcDbLine
 10
-6430.723801788364
 20
-306.5878746795708
 30
0.0
 11
-6432.055903578412
 21
-308.5040547115815
 31
0.0
  0
LINE
  5
5D36
330
1E
100
AcDbEntity
  8
003
 62
     3
100
AcDbLine
 10
-6420.717707237503
 20
-273.9782178024258
 30
0.0
 11
-6422.783525810739
 21
-275.5723211840916
 31
0.0
  0
LINE
  5
5D37
330
1E
100
AcDbEntity
  8
003
 62
     3
100
AcDbLine
 10
-6426.201527385885
 20
-279.0279258387097
 30
0.0
 11
-6426.723858756516
 21
-282.8090019908445
 31
0.0
  0
LINE
  5
5D38
330
1E
100
AcDbEntity
  8
003
 62
     3
100
AcDbLine
 10
-6426.723858756516
 20
-282.8090019908445
 30
0.0
 11
-6425.424602399537
 21
-287.1014067630265
 31
0.0
  0
LINE
  5
5D39
330
1E
100
AcDbEntity
  8
003
 62
     3
100
AcDbLine
 10
-6425.424602399537
 20
-287.1014067630265
 30
0.0
 11
-6423.492422889097
 21
-291.5545870284126
 31
0.0
  0
LINE
  5
5D3A
330
1E
100
AcDbEntity
  8
003
 62
     3
100
AcDbLine
 10
-6423.492422889097
 20
-291.5545870284126
 30
0.0
 11
-6422.115984799336
 21
-295.8179896601606
 31
0.0
  0
LINE
  5
5D3B
330
1E
100
AcDbEntity
  8
003
 62
     3
100
AcDbLine
 10
-6422.115984799336
 20
-295.8179896601606
 30
0.0
 11
-6422.483950734788
 21
-299.5410618787241
 31
0.0
  0
LINE
  5
5D3C
330
1E
100
AcDbEntity
  8
003
 62
     3
100
AcDbLine
 10
-6422.483950734788
 20
-299.5410618787241
 30
0.0
 11
-6424.01286825363
 21
-301.4862641308284
 31
0.0
  0
LINE
  5
5D3D
330
1E
100
AcDbEntity
  8
003
 62
     3
100
AcDbLine
 10
-6424.01286825363
 20
-301.4862641308284
 30
0.0
 11
-6426.218402898886
 21
-303.2170719182945
 31
0.0
  0
LINE
  5
5D3E
330
1E
100
AcDbEntity
  8
003
 62
     3
100
AcDbLine
 10
-6422.783525810739
 20
-275.5723211840916
 30
0.0
 11
-6424.756730041917
 21
-277.2181710224312
 31
0.0
  0
LINE
  5
5D3F
330
1E
100
AcDbEntity
  8
003
 62
     3
100
AcDbLine
 10
-6424.756730041917
 20
-277.2181710224312
 30
0.0
 11
-6426.201527385885
 21
-279.0279258387097
 31
0.0
  0
LINE
  5
5D40
330
1E
100
AcDbEntity
  8
003
 62
     3
100
AcDbLine
 10
-6421.229964294759
 20
-255.7879360446945
 30
0.0
 11
-6422.237062592552
 21
-257.743252917422
 31
0.0
  0
LINE
  5
5D41
330
1E
100
AcDbEntity
  8
003
 62
     3
100
AcDbLine
 10
-6422.237062592552
 20
-257.743252917422
 30
0.0
 11
-6422.040089012098
 21
-260.1815157113021
 31
0.0
  0
LINE
  5
5D42
330
1E
100
AcDbEntity
  8
003
 62
     3
100
AcDbLine
 10
-6422.040089012098
 20
-260.1815157113021
 30
0.0
 11
-6420.892278656122
 21
-262.8175552516918
 31
0.0
  0
LINE
  5
5D43
330
1E
100
AcDbEntity
  8
003
 62
     3
100
AcDbLine
 10
-6418.267177920244
 20
-268.116674742796
 30
0.0
 11
-6418.051404602995
 21
-270.4966119804548
 31
0.0
  0
LINE
  5
5D44
330
1E
100
AcDbEntity
  8
002
100
AcDbLine
 10
-6398.003617494519
 20
-267.8188805961503
 30
0.0
 11
-6402.397313463786
 21
-271.2750980064049
 31
0.0
  0
LINE
  5
5D45
330
1E
100
AcDbEntity
  8
002
100
AcDbLine
 10
-6378.764355538987
 20
-297.2378342275756
 30
0.0
 11
-6402.296710673553
 21
-295.8323127696116
 31
0.0
  0
LINE
  5
5D46
330
1E
100
AcDbEntity
  8
002
100
AcDbLine
 10
-6344.71496276108
 20
-284.3438197343393
 30
0.0
 11
-6399.69198800855
 21
-281.0601964744284
 31
0.0
  0
LINE
  5
5D47
330
1E
100
AcDbEntity
  8
002
100
AcDbLine
 10
-6405.918388106113
 20
-287.5780137336853
 30
0.0
 11
-6359.071949273326
 21
-291.0917051076251
 31
0.0
  0
LINE
  5
5D48
330
1E
100
AcDbEntity
  8
002
100
AcDbLine
 10
-6405.580863329797
 20
-289.3299064833595
 30
0.0
 11
-6402.63423562352
 21
-294.0804210047454
 31
0.0
  0
LINE
  5
5D49
330
1E
100
AcDbEntity
  8
002
100
AcDbLine
 10
-6403.213062824526
 20
-297.3631131865167
 30
0.0
 11
-6407.606758793793
 21
-300.8193305967715
 31
0.0
  0
LINE
  5
5D4A
330
1E
100
AcDbEntity
  8
002
100
AcDbLine
 10
-6400.608340159521
 20
-282.5909968913333
 30
0.0
 11
-6405.002036128788
 21
-286.0472143015879
 31
0.0
  0
LINE
  5
5D4B
330
1E
100
AcDbEntity
  8
002
100
AcDbLine
 10
-6403.213062824526
 20
-297.3631131865165
 30
0.0
 11
-6407.606758793793
 21
-300.8193305967711
 31
0.0
  0
ARC
  5
5D4C
330
1E
100
AcDbEntity
  8
002
100
AcDbCircle
 10
-6406.061091388586
 20
-302.784250473036
 30
0.0
 40
2.5
100
AcDbArc
 50
128.1896849999919
 51
211.8103149999947
  0
LINE
  5
5D4D
330
1E
100
AcDbEntity
  8
002
100
AcDbLine
 10
-6408.185585994799
 20
-304.1020227785429
 30
0.0
 11
-6405.238958288524
 21
-308.8525372999288
 31
0.0
  0
ARC
  5
5D4E
330
1E
100
AcDbEntity
  8
002
100
AcDbCircle
 10
-6403.456368723583
 20
-288.0121341778531
 30
0.0
 40
2.5
100
AcDbArc
 50
128.1896849999919
 51
211.8103149999947
  0
LINE
  5
5D4F
330
1E
100
AcDbEntity
  8
002
100
AcDbLine
 10
-6402.976140664792
 20
-274.5577901881763
 30
0.0
 11
-6400.029512958515
 21
-279.3083047095622
 31
0.0
  0
ARC
  5
5D50
330
1E
100
AcDbEntity
  8
002
100
AcDbCircle
 10
-6402.15400739108
 20
-280.6260760302611
 30
0.0
 40
2.5
100
AcDbArc
 50
308.1896849999919
 51
31.81031499999473
  0
ARC
  5
5D51
330
1E
100
AcDbEntity
  8
002
100
AcDbCircle
 10
-6404.758730056085
 20
-295.3981923254445
 30
0.0
 40
2.5
100
AcDbArc
 50
308.1896849999919
 51
31.81031499999473
  0
ARC
  5
5D52
330
1E
100
AcDbEntity
  8
002
100
AcDbCircle
 10
-6404.758730056085
 20
-295.3981923254443
 30
0.0
 40
2.5
100
AcDbArc
 50
308.1896849999919
 51
31.81031499999473
  0
ARC
  5
5D53
330
1E
100
AcDbEntity
  8
002
100
AcDbCircle
 10
-6400.85164605858
 20
-273.2400178826694
 30
0.0
 40
2.5
100
AcDbArc
 50
128.1896849999919
 51
211.8103149999947
  0
LINE
  5
5D54
330
1E
100
AcDbEntity
  8
003
 62
     3
100
AcDbLine
 10
-6418.051404602995
 20
-270.4966119804548
 30
0.0
 11
-6418.995069821789
 21
-272.3237018352267
 31
0.0
  0
LINE
  5
5D55
330
1E
100
AcDbEntity
  8
002
100
AcDbLine
 10
-6382.138359344761
 20
-156.3808598267114
 30
0.0
 11
-6379.191731638485
 21
-161.1313743480971
 31
0.0
  0
ARC
  5
5D56
330
1E
100
AcDbEntity
  8
002
100
AcDbCircle
 10
-6382.352125650289
 20
-162.2664886236718
 30
0.0
 40
2.5
100
AcDbArc
 50
308.1896849999919
 51
31.81031499999473
  0
ARC
  5
5D57
330
1E
100
AcDbEntity
  8
002
100
AcDbCircle
 10
-6381.316226071049
 20
-162.4491456687962
 30
0.0
 40
2.5
100
AcDbArc
 50
308.1896849999919
 51
31.81031499999473
  0
ARC
  5
5D58
330
1E
100
AcDbEntity
  8
002
100
AcDbCircle
 10
-6387.828032733559
 20
-199.3794364067539
 30
0.0
 40
2.5
100
AcDbArc
 50
128.1896849999919
 51
211.8103149999947
  0
LINE
  5
5D59
330
1E
100
AcDbEntity
  8
003
 62
     3
100
AcDbLine
 10
-6409.652573325463
 20
-222.644844861456
 30
0.0
 11
-6409.908209536545
 21
-225.4365097619315
 31
0.0
  0
LINE
  5
5D5A
330
1E
100
AcDbEntity
  8
002
100
AcDbLine
 10
-6397.766695334784
 20
-245.0135575978101
 30
0.0
 11
-6394.820067628509
 21
-249.7640721191958
 31
0.0
  0
ARC
  5
5D5B
330
1E
100
AcDbEntity
  8
002
100
AcDbCircle
 10
-6396.944562061073
 20
-251.081843439895
 30
0.0
 40
2.5
100
AcDbArc
 50
308.1896849999919
 51
31.81031499999473
  0
LINE
  5
5D5C
330
1E
100
AcDbEntity
  8
002
100
AcDbLine
 10
-6395.398894829515
 20
-253.0467643009671
 30
0.0
 11
-6399.792590798782
 21
-256.5029817112217
 31
0.0
  0
LINE
  5
5D5D
330
1E
100
AcDbEntity
  8
002
100
AcDbLine
 10
-6400.371417999789
 20
-259.7856738929931
 30
0.0
 11
-6397.424790293511
 21
-264.536188414379
 31
0.0
  0
ARC
  5
5D5E
330
1E
100
AcDbEntity
  8
002
100
AcDbCircle
 10
-6398.246923393575
 20
-258.4679015874864
 30
0.0
 40
2.5
100
AcDbArc
 50
128.1896849999919
 51
211.8103149999947
  0
ARC
  5
5D5F
330
1E
100
AcDbEntity
  8
002
100
AcDbCircle
 10
-6399.549284726077
 20
-265.8539597350779
 30
0.0
 40
2.5
100
AcDbArc
 50
308.1896849999919
 51
31.81031499999473
  0
LINE
  5
5D60
330
1E
100
AcDbEntity
  8
002
100
AcDbLine
 10
-6390.189449499507
 20
-223.502531710601
 30
0.0
 11
-6394.583145468772
 21
-226.9587491208556
 31
0.0
  0
LINE
  5
5D61
330
1E
100
AcDbEntity
  8
002
100
AcDbLine
 10
-6392.794172164511
 20
-238.274648005784
 30
0.0
 11
-6397.187868133777
 21
-241.7308654160387
 31
0.0
  0
LINE
  5
5D62
330
1E
100
AcDbEntity
  8
002
100
AcDbLine
 10
-6395.16197266978
 20
-230.2414413026269
 30
0.0
 11
-6392.215344963505
 21
-234.9919558240126
 31
0.0
  0
ARC
  5
5D63
330
1E
100
AcDbEntity
  8
002
100
AcDbCircle
 10
-6395.642200728571
 20
-243.6957852923033
 30
0.0
 40
2.5
100
AcDbArc
 50
128.1896849999919
 51
211.8103149999947
  0
ARC
  5
5D64
330
1E
100
AcDbEntity
  8
002
100
AcDbCircle
 10
-6393.037478063567
 20
-228.92366899712
 30
0.0
 40
2.5
100
AcDbArc
 50
128.1896849999919
 51
211.8103149999947
  0
LINE
  5
5D65
330
1E
100
AcDbEntity
  8
002
100
AcDbLine
 10
-6392.557250004776
 20
-215.4693250074438
 30
0.0
 11
-6389.6106222985
 21
-220.2198395288296
 31
0.0
  0
ARC
  5
5D66
330
1E
100
AcDbEntity
  8
002
100
AcDbCircle
 10
-6394.339839396069
 20
-236.3097271447118
 30
0.0
 40
2.5
100
AcDbArc
 50
308.1896849999919
 51
31.81031499999473
  0
ARC
  5
5D67
330
1E
100
AcDbEntity
  8
002
100
AcDbCircle
 10
-6391.735116731065
 20
-221.5376108495286
 30
0.0
 40
2.5
100
AcDbArc
 50
308.1896849999919
 51
31.81031499999473
  0
LINE
  5
5D68
330
1E
100
AcDbEntity
  8
002
100
AcDbLine
 10
-6387.584726834504
 20
-208.7304154154178
 30
0.0
 11
-6391.978422803769
 21
-212.1866328256724
 31
0.0
  0
ARC
  5
5D69
330
1E
100
AcDbEntity
  8
002
100
AcDbCircle
 10
-6390.432755398562
 20
-214.1515527019371
 30
0.0
 40
2.5
100
AcDbArc
 50
128.1896849999919
 51
211.8103149999947
  0
LINE
  5
5D6A
330
1E
100
AcDbEntity
  8
002
100
AcDbLine
 10
-6389.952527339772
 20
-200.6972087122607
 30
0.0
 11
-6387.005899633495
 21
-205.4477232336464
 31
0.0
  0
ARC
  5
5D6B
330
1E
100
AcDbEntity
  8
002
100
AcDbCircle
 10
-6389.130394066061
 20
-206.7654945543456
 30
0.0
 40
2.5
100
AcDbArc
 50
308.1896849999919
 51
31.81031499999473
  0
LINE
  5
5D6C
330
1E
100
AcDbEntity
  8
002
100
AcDbLine
 10
-6387.347804674767
 20
-185.9250924170776
 30
0.0
 11
-6384.401176968492
 21
-190.6756069384634
 31
0.0
  0
LINE
  5
5D6D
330
1E
100
AcDbEntity
  8
002
100
AcDbLine
 10
-6384.980004169499
 20
-193.9582991202348
 30
0.0
 11
-6389.373700138765
 21
-197.4145165304894
 31
0.0
  0
ARC
  5
5D6E
330
1E
100
AcDbEntity
  8
002
100
AcDbCircle
 10
-6386.525671401058
 20
-191.9933782591624
 30
0.0
 40
2.5
100
AcDbArc
 50
308.1896849999919
 51
31.81031499999473
  0
LINE
  5
5D6F
330
1E
100
AcDbEntity
  8
002
100
AcDbLine
 10
-6383.174258923999
 20
-156.1982027815872
 30
0.0
 11
-6380.227631217723
 21
-160.9487173029729
 31
0.0
  0
ARC
  5
5D70
330
1E
100
AcDbEntity
  8
002
100
AcDbCircle
 10
-6383.65448698279
 20
-169.6525467712633
 30
0.0
 40
2.5
100
AcDbArc
 50
128.1896849999919
 51
211.8103149999947
  0
LINE
  5
5D71
330
1E
100
AcDbEntity
  8
002
100
AcDbLine
 10
-6380.806458418731
 20
-164.2314094847442
 30
0.0
 11
-6385.200154387996
 21
-167.6876268949988
 31
0.0
  0
LINE
  5
5D72
330
1E
100
AcDbEntity
  8
002
100
AcDbLine
 10
-6379.770558839491
 20
-164.4140665298684
 30
0.0
 11
-6384.164254808757
 21
-167.8702839401232
 31
0.0
  0
ARC
  5
5D73
330
1E
100
AcDbEntity
  8
002
100
AcDbCircle
 10
-6383.920948736053
 20
-177.2212619639792
 30
0.0
 40
2.5
100
AcDbArc
 50
308.1896849999919
 51
31.81031499999473
  0
LINE
  5
5D74
330
1E
100
AcDbEntity
  8
002
100
AcDbLine
 10
-6385.778981589003
 20
-170.9703190767702
 30
0.0
 11
-6385.071791122566
 21
-172.1104424483885
 31
0.0
  0
LINE
  5
5D75
330
1E
100
AcDbEntity
  8
002
100
AcDbLine
 10
-6384.743082009763
 20
-171.1529761218946
 30
0.0
 11
-6381.796454303489
 21
-175.9034906432803
 31
0.0
  0
ARC
  5
5D76
330
1E
100
AcDbEntity
  8
002
100
AcDbCircle
 10
-6382.618587403551
 20
-169.8352038163877
 30
0.0
 40
2.5
100
AcDbArc
 50
128.1896849999919
 51
211.8103149999947
  0
ARC
  5
5D77
330
1E
100
AcDbEntity
  8
002
100
AcDbCircle
 10
-6385.223310068555
 20
-184.6073201115707
 30
0.0
 40
2.5
100
AcDbArc
 50
128.1896849999919
 51
211.8103149999947
  0
LINE
  5
5D78
330
1E
100
AcDbEntity
  8
002
100
AcDbLine
 10
-6382.375281504495
 20
-179.1861828250516
 30
0.0
 11
-6386.768977473761
 21
-182.6424002353062
 31
0.0
  0
LINE
  5
5D79
330
1E
100
AcDbEntity
  8
002
100
AcDbLine
 10
-6385.071791122566
 20
-172.1104424483885
 30
0.0
 11
-6391.467807263938
 21
-170.9826522336179
 31
0.0
  0
LINE
  5
5D7A
330
1E
100
AcDbEntity
  8
003
 62
     3
100
AcDbLine
 10
-6414.31935208234
 20
-245.9261424580327
 30
0.0
 11
-6414.319711123924
 21
-248.5190552831741
 31
0.0
  0
LINE
  5
5D7B
330
1E
100
AcDbEntity
  8
003
 62
     3
100
AcDbLine
 10
-6414.319711123924
 20
-248.5190552831741
 30
0.0
 11
-6415.470543499974
 21
-250.4765054039744
 31
0.0
  0
LINE
  5
5D7C
330
1E
100
AcDbEntity
  8
003
 62
     3
100
AcDbLine
 10
-6417.342200173933
 20
-252.2661066981947
 30
0.0
 11
-6419.430174833578
 21
-253.9994023593192
 31
0.0
  0
LINE
  5
5D7D
330
1E
100
AcDbEntity
  8
003
 62
     3
100
AcDbLine
 10
-6419.424388318265
 20
-265.5097989653238
 30
0.0
 11
-6418.267177920244
 21
-268.116674742796
 31
0.0
  0
LINE
  5
5D7E
330
1E
100
AcDbEntity
  8
003
 62
     3
100
AcDbLine
 10
-6415.470543499974
 20
-250.4765054039744
 30
0.0
 11
-6417.342200173933
 21
-252.2661066981947
 31
0.0
  0
LINE
  5
5D7F
330
1E
100
AcDbEntity
  8
003
 62
     3
100
AcDbLine
 10
-6413.058336467591
 20
-229.2270558736836
 30
0.0
 11
-6415.118506526368
 21
-230.9831551918703
 31
0.0
  0
LINE
  5
5D80
330
1E
100
AcDbEntity
  8
003
 62
     3
100
AcDbLine
 10
-6415.33441756545
 20
-243.1040878358458
 30
0.0
 11
-6414.31935208234
 21
-245.9261424580327
 31
0.0
  0
LINE
  5
5D81
330
1E
100
AcDbEntity
  8
003
 62
     3
100
AcDbLine
 10
-6415.118506526368
 20
-230.9831551918703
 30
0.0
 11
-6416.889333282077
 21
-232.797397774184
 31
0.0
  0
LINE
  5
5D82
330
1E
100
AcDbEntity
  8
003
 62
     3
100
AcDbLine
 10
-6416.889333282077
 20
-232.797397774184
 30
0.0
 11
-6417.911252528842
 21
-234.7829757502875
 31
0.0
  0
LINE
  5
5D83
330
1E
100
AcDbEntity
  8
003
 62
     3
100
AcDbLine
 10
-6417.911252528842
 20
-234.7829757502875
 30
0.0
 11
-6417.786459474685
 21
-237.3805142836872
 31
0.0
  0
LINE
  5
5D84
330
1E
100
AcDbEntity
  8
003
 62
     3
100
AcDbLine
 10
-6417.786459474685
 20
-237.3805142836872
 30
0.0
 11
-6416.708817856882
 21
-240.2048812675996
 31
0.0
  0
LINE
  5
5D85
330
1E
100
AcDbEntity
  8
003
 62
     3
100
AcDbLine
 10
-6416.708817856882
 20
-240.2048812675996
 30
0.0
 11
-6415.33441756545
 21
-243.1040878358458
 31
0.0
  0
LINE
  5
5D86
330
1E
100
AcDbEntity
  8
003
 62
     3
100
AcDbLine
 10
-6411.168383836264
 20
-227.4159052564821
 30
0.0
 11
-6413.058336467591
 21
-229.2270558736836
 31
0.0
  0
LINE
  5
5D87
330
1E
100
AcDbEntity
  8
003
 62
     3
100
AcDbLine
 10
-6411.056236072505
 20
-216.9475051328722
 30
0.0
 11
-6409.652573325463
 21
-222.644844861456
 31
0.0
  0
LINE
  5
5D88
330
1E
100
AcDbEntity
  8
003
 62
     3
100
AcDbLine
 10
-6409.908209536545
 20
-225.4365097619315
 30
0.0
 11
-6411.168383836264
 21
-227.4159052564821
 31
0.0
  0
LINE
  5
5D89
330
1E
100
AcDbEntity
  8
003
100
AcDbLine
 10
-6637.670745246182
 20
83.46605486712769
 30
0.0
 11
-6383.220386051057
 21
83.46605486712769
 31
0.0
  0
LINE
  5
5D8A
330
1E
100
AcDbEntity
  8
003
100
AcDbLine
 10
-6473.046229038475
 20
70.85738563125051
 30
0.0
 11
-6475.269477615587
 21
83.46605486712769
 31
0.0
  0
LINE
  5
5D8B
330
1E
100
AcDbEntity
  8
002
100
AcDbLine
 10
-6422.457881426993
 20
-7.111714570338563
 30
0.0
 11
-6351.560898663949
 21
-19.61276548228624
 31
0.0
  0
LINE
  5
5D8C
330
1E
100
AcDbEntity
  8
002
100
AcDbLine
 10
-6369.159291660959
 20
-38.84907944128917
 30
0.0
 11
-6426.605365377374
 21
-28.71978670931753
 31
0.0
  0
LWPOLYLINE
  5
5D8D
330
1E
100
AcDbEntity
  8
003
100
AcDbPolyline
 90
        4
 70
     0
 43
0.0
 10
-6393.168110506381
 20
-56.9550623653854
 10
-6440.537363426269
 20
-48.60258501960607
 10
-6484.756588759812
 20
72.92223800392822
 10
-6383.220386051057
 20
55.0186659476908
  0
LWPOLYLINE
  5
5D8E
330
1E
100
AcDbEntity
  8
003
100
AcDbPolyline
 90
        4
 70
     0
 43
0.0
 10
-6389.347850597708
 20
-35.28929179911688
 10
-6428.740160718196
 20
-28.34336469243976
 10
-6464.272587497157
 20
69.3103559084559
 10
-6383.220386051057
 20
55.0186659476908
  0
LINE
  5
5D8F
330
1E
100
AcDbEntity
  8
003
100
AcDbLine
 10
-6383.220386051057
 20
55.01866594768898
 30
0.0
 11
-6473.046229038475
 21
70.85738563125051
 31
0.0
  0
LINE
  5
5D90
330
1E
100
AcDbEntity
  8
004
  6
CENTER
100
AcDbLine
 10
-6454.128566286044
 20
-26.95881287858947
 30
0.0
 11
-6427.408106789141
 21
-17.15936839572214
 31
0.0
  0
LINE
  5
5D91
330
1E
100
AcDbEntity
  8
003
100
AcDbLine
 10
-6447.59581693702
 20
-29.35607266090892
 30
0.0
 11
-6430.696440925899
 21
-23.15840602669459
 31
0.0
  0
LINE
  5
5D92
330
1E
100
AcDbEntity
  8
003
100
AcDbLine
 10
-6450.694650167303
 20
-20.90638416294541
 30
0.0
 11
-6433.795274156183
 21
-14.70871752873108
 31
0.0
  0
LINE
  5
5D93
330
1E
100
AcDbEntity
  8
002
100
AcDbLine
 10
-6422.457881426993
 20
-7.111714570338563
 30
0.0
 11
-6426.278141335666
 21
-28.77748513660731
 31
0.0
  0
LINE
  5
5D94
330
1E
100
AcDbEntity
  8
002
100
AcDbLine
 10
-6342.671492469044
 20
-0.8716753992102894
 30
0.0
 11
-6351.353901352389
 21
-50.11206304982079
 31
0.0
  0
LINE
  5
5D95
330
1E
100
AcDbEntity
  8
003
100
AcDbLine
 10
-6389.347850597708
 20
-35.28929179911688
 30
0.0
 11
-6393.168110506381
 21
-56.95506236538562
 31
0.0
  0
ARC
  5
5D96
330
1E
100
AcDbEntity
  8
002
100
AcDbCircle
 10
-6377.409142073543
 20
-140.2909712260213
 30
0.0
 40
2.5
100
AcDbArc
 50
128.1896849999919
 51
211.8103149999947
  0
LINE
  5
5D97
330
1E
100
AcDbEntity
  8
002
100
AcDbLine
 10
-6378.201735753727
 20
-149.4592931895611
 30
0.0
 11
-6382.595431722991
 21
-152.9155105998158
 31
0.0
  0
LINE
  5
5D98
330
1E
100
AcDbEntity
  8
002
100
AcDbLine
 10
-6380.569536258994
 20
-141.426086486404
 30
0.0
 11
-6377.622908552719
 21
-146.1766010077899
 31
0.0
  0
LINE
  5
5D99
330
1E
100
AcDbEntity
  8
002
100
AcDbLine
 10
-6377.165836174487
 20
-149.6419502346855
 30
0.0
 11
-6381.559532143754
 21
-153.09816764494
 31
0.0
  0
LINE
  5
5D9A
330
1E
100
AcDbEntity
  8
002
100
AcDbLine
 10
-6375.597013088722
 20
-134.6871768943781
 30
0.0
 11
-6379.990709057987
 21
-138.1433943046326
 31
0.0
  0
ARC
  5
5D9B
330
1E
100
AcDbEntity
  8
002
100
AcDbCircle
 10
-6378.445041652781
 20
-140.1083141808971
 30
0.0
 40
2.5
100
AcDbArc
 50
128.1896849999919
 51
211.8103149999947
  0
LINE
  5
5D9C
330
1E
100
AcDbEntity
  8
003
100
AcDbLine
 10
-6397.993668496141
 20
-56.10418629481751
 30
0.0
 11
-6393.168110506382
 21
-56.9550623653854
 31
0.0
  0
LINE
  5
5D9D
330
1E
100
AcDbEntity
  8
002
100
AcDbLine
 10
-6356.277940117452
 20
-49.24382216148592
 30
0.0
 11
-6351.353901352389
 21
-50.11206304982079
 31
0.0
  0
LINE
  5
5D9E
330
1E
100
AcDbEntity
  8
002
100
AcDbLine
 10
-6365.178122428706
 20
-75.59871171364557
 30
0.0
 11
-6369.571818397972
 21
-79.05492912390013
 31
0.0
  0
LINE
  5
5D9F
330
1E
100
AcDbEntity
  8
002
100
AcDbLine
 10
-6364.142222849467
 20
-75.78136875876976
 30
0.0
 11
-6368.535918818734
 21
-79.23758616902432
 31
0.0
  0
ARC
  5
5DA0
330
1E
100
AcDbEntity
  8
002
100
AcDbCircle
 10
-6370.897335411033
 20
-103.3606804880637
 30
0.0
 40
2.5
100
AcDbArc
 50
308.1896849999919
 51
31.81031499999473
  0
ARC
  5
5DA1
330
1E
100
AcDbEntity
  8
002
100
AcDbCircle
 10
-6366.990251413527
 20
-81.20250604528905
 30
0.0
 40
2.5
100
AcDbArc
 50
128.1896849999919
 51
211.8103149999947
  0
LINE
  5
5DA2
330
1E
100
AcDbEntity
  8
002
100
AcDbLine
 10
-6370.150645598979
 20
-82.33762130567152
 30
0.0
 11
-6367.204017892704
 21
-87.08813582705715
 31
0.0
  0
ARC
  5
5DA3
330
1E
100
AcDbEntity
  8
002
100
AcDbCircle
 10
-6369.328512325268
 20
-88.40590714775613
 30
0.0
 40
2.5
100
AcDbArc
 50
308.1896849999919
 51
31.81031499999473
  0
ARC
  5
5DA4
330
1E
100
AcDbEntity
  8
002
100
AcDbCircle
 10
-6368.292612746029
 20
-88.58856419288054
 30
0.0
 40
2.5
100
AcDbArc
 50
308.1896849999919
 51
31.81031499999473
  0
LINE
  5
5DA5
330
1E
100
AcDbEntity
  8
002
100
AcDbLine
 10
-6369.11474601974
 20
-82.52027835079593
 30
0.0
 11
-6366.168118313464
 21
-87.27079287218135
 31
0.0
  0
ARC
  5
5DA6
330
1E
100
AcDbEntity
  8
002
100
AcDbCircle
 10
-6366.723789660263
 20
-73.63379085257315
 30
0.0
 40
2.5
100
AcDbArc
 50
308.1896849999919
 51
31.81031499999473
  0
ARC
  5
5DA7
330
1E
100
AcDbEntity
  8
002
100
AcDbCircle
 10
-6365.687890081026
 20
-73.81644789769757
 30
0.0
 40
2.5
100
AcDbArc
 50
308.1896849999919
 51
31.81031499999473
  0
LINE
  5
5DA8
330
1E
100
AcDbEntity
  8
002
100
AcDbLine
 10
-6364.941200268972
 20
-52.79338871530535
 30
0.0
 11
-6361.994572562695
 21
-57.54390323669099
 31
0.0
  0
LINE
  5
5DA9
330
1E
100
AcDbEntity
  8
002
100
AcDbLine
 10
-6363.905300689732
 20
-52.97604576042954
 30
0.0
 11
-6360.958672983457
 21
-57.72656028181518
 31
0.0
  0
LINE
  5
5DAA
330
1E
100
AcDbEntity
  8
002
100
AcDbLine
 10
-6356.277940117452
 20
-49.24382216148592
 30
0.0
 11
-6357.146181005786
 21
-54.16786092654707
 31
0.0
  0
LINE
  5
5DAB
330
1E
100
AcDbEntity
  8
002
100
AcDbLine
 10
-6361.537500184464
 20
-61.00925246358679
 30
0.0
 11
-6365.93119615373
 21
-64.46546987384113
 31
0.0
  0
ARC
  5
5DAC
330
1E
100
AcDbEntity
  8
002
100
AcDbCircle
 10
-6364.119066995259
 20
-58.86167455739019
 30
0.0
 40
2.5
100
AcDbArc
 50
308.1896849999919
 51
31.81031499999473
  0
ARC
  5
5DAD
330
1E
100
AcDbEntity
  8
002
100
AcDbCircle
 10
-6363.083167416021
 20
-59.04433160251437
 30
0.0
 40
2.5
100
AcDbArc
 50
308.1896849999919
 51
31.81031499999473
  0
ARC
  5
5DAE
330
1E
100
AcDbEntity
  8
002
100
AcDbCircle
 10
-6365.421428327762
 20
-66.24773270498167
 30
0.0
 40
2.5
100
AcDbArc
 50
128.1896849999919
 51
211.8103149999947
  0
LINE
  5
5DAF
330
1E
100
AcDbEntity
  8
002
100
AcDbLine
 10
-6362.573399763702
 20
-60.8265954184626
 30
0.0
 11
-6366.967095732967
 21
-64.28281282871694
 31
0.0
  0
LINE
  5
5DB0
330
1E
100
AcDbEntity
  8
002
100
AcDbLine
 10
-6366.510023354736
 20
-67.74816205561274
 30
0.0
 11
-6363.563395648459
 21
-72.49867657699837
 31
0.0
  0
ARC
  5
5DB1
330
1E
100
AcDbEntity
  8
002
100
AcDbCircle
 10
-6364.385528748524
 20
-66.43038975010586
 30
0.0
 40
2.5
100
AcDbArc
 50
128.1896849999919
 51
211.8103149999947
  0
LINE
  5
5DB2
330
1E
100
AcDbEntity
  8
002
100
AcDbLine
 10
-6367.545922933975
 20
-67.56550501048832
 30
0.0
 11
-6364.599295227699
 21
-72.31601953187419
 31
0.0
  0
ARC
  5
5DB3
330
1E
100
AcDbEntity
  8
002
100
AcDbCircle
 10
-6377.142680320279
 20
-132.7222560333054
 30
0.0
 40
2.5
100
AcDbArc
 50
308.1896849999919
 51
31.81031499999473
  0
ARC
  5
5DB4
330
1E
100
AcDbEntity
  8
002
100
AcDbCircle
 10
-6376.106780741042
 20
-132.9049130784299
 30
0.0
 40
2.5
100
AcDbArc
 50
308.1896849999919
 51
31.81031499999473
  0
ARC
  5
5DB5
330
1E
100
AcDbEntity
  8
002
100
AcDbCircle
 10
-6379.747402985284
 20
-147.4943723284889
 30
0.0
 40
2.5
100
AcDbArc
 50
308.1896849999919
 51
31.81031499999473
  0
LINE
  5
5DB6
330
1E
100
AcDbEntity
  8
002
100
AcDbLine
 10
-6379.533636679756
 20
-141.6087435315282
 30
0.0
 11
-6376.58700897348
 21
-146.3592580529141
 31
0.0
  0
ARC
  5
5DB7
330
1E
100
AcDbEntity
  8
002
100
AcDbCircle
 10
-6378.711503406044
 20
-147.677029373613
 30
0.0
 40
2.5
100
AcDbArc
 50
308.1896849999919
 51
31.81031499999473
  0
LINE
  5
5DB8
330
1E
100
AcDbEntity
  8
002
100
AcDbLine
 10
-6374.561113509484
 20
-134.8698339395023
 30
0.0
 11
-6378.95480947875
 21
-138.3260513497568
 31
0.0
  0
ARC
  5
5DB9
330
1E
100
AcDbEntity
  8
002
100
AcDbCircle
 10
-6372.199696743535
 20
-110.7467386356552
 30
0.0
 40
2.5
100
AcDbArc
 50
128.1896849999919
 51
211.8103149999947
  0
LINE
  5
5DBA
330
1E
100
AcDbEntity
  8
002
100
AcDbLine
 10
-6374.324191349748
 20
-112.064510941162
 30
0.0
 11
-6371.377563643473
 21
-116.8150254625477
 31
0.0
  0
LINE
  5
5DBB
330
1E
100
AcDbEntity
  8
002
100
AcDbLine
 10
-6376.928914014752
 20
-126.8366272363453
 30
0.0
 11
-6373.982286308477
 21
-131.5871417577309
 31
0.0
  0
LINE
  5
5DBC
330
1E
100
AcDbEntity
  8
002
100
AcDbLine
 10
-6372.992290423717
 20
-119.9150605991949
 30
0.0
 11
-6377.385986392983
 21
-123.3712780094494
 31
0.0
  0
LINE
  5
5DBD
330
1E
100
AcDbEntity
  8
002
100
AcDbLine
 10
-6371.95639084448
 20
-120.0977176443191
 30
0.0
 11
-6376.350086813745
 21
-123.5539350545739
 31
0.0
  0
LINE
  5
5DBE
330
1E
100
AcDbEntity
  8
002
100
AcDbLine
 10
-6375.360090928987
 20
-111.8818538960379
 30
0.0
 11
-6372.41346322271
 21
-116.6323684174235
 31
0.0
  0
LINE
  5
5DBF
330
1E
100
AcDbEntity
  8
002
100
AcDbLine
 10
-6370.387567758714
 20
-105.1429443040117
 30
0.0
 11
-6374.781263727981
 21
-108.5991617142665
 31
0.0
  0
ARC
  5
5DC0
330
1E
100
AcDbEntity
  8
002
100
AcDbCircle
 10
-6373.235596322774
 20
-110.564081590531
 30
0.0
 40
2.5
100
AcDbArc
 50
128.1896849999919
 51
211.8103149999947
  0
LINE
  5
5DC1
330
1E
100
AcDbEntity
  8
002
100
AcDbLine
 10
-6377.96481359399
 20
-126.6539701912208
 30
0.0
 11
-6375.018185887714
 21
-131.4044847126067
 31
0.0
  0
ARC
  5
5DC2
330
1E
100
AcDbEntity
  8
002
100
AcDbCircle
 10
-6375.840318987777
 20
-125.3361978857139
 30
0.0
 40
2.5
100
AcDbArc
 50
128.1896849999919
 51
211.8103149999947
  0
ARC
  5
5DC3
330
1E
100
AcDbEntity
  8
002
100
AcDbCircle
 10
-6374.80441940854
 20
-125.5188549308384
 30
0.0
 40
2.5
100
AcDbArc
 50
128.1896849999919
 51
211.8103149999947
  0
ARC
  5
5DC4
330
1E
100
AcDbEntity
  8
002
100
AcDbCircle
 10
-6373.502058076038
 20
-118.1327967832469
 30
0.0
 40
2.5
100
AcDbArc
 50
308.1896849999919
 51
31.81031499999473
  0
ARC
  5
5DC5
330
1E
100
AcDbEntity
  8
002
100
AcDbCircle
 10
-6374.537957655275
 20
-117.9501397381225
 30
0.0
 40
2.5
100
AcDbArc
 50
308.1896849999919
 51
31.81031499999473
  0
ARC
  5
5DC6
330
1E
100
AcDbEntity
  8
002
100
AcDbCircle
 10
-6369.59497407853
 20
-95.97462234047203
 30
0.0
 40
2.5
100
AcDbArc
 50
128.1896849999919
 51
211.8103149999947
  0
ARC
  5
5DC7
330
1E
100
AcDbEntity
  8
002
100
AcDbCircle
 10
-6370.63087365777
 20
-95.79196529534783
 30
0.0
 40
2.5
100
AcDbArc
 50
128.1896849999919
 51
211.8103149999947
  0
ARC
  5
5DC8
330
1E
100
AcDbEntity
  8
002
100
AcDbCircle
 10
-6371.933234990272
 20
-103.1780234429395
 30
0.0
 40
2.5
100
AcDbArc
 50
308.1896849999919
 51
31.81031499999473
  0
LINE
  5
5DC9
330
1E
100
AcDbEntity
  8
002
100
AcDbLine
 10
-6369.351668179476
 20
-105.3256013491361
 30
0.0
 11
-6373.745364148741
 21
-108.7818187593907
 31
0.0
  0
ARC
  5
5DCA
330
1E
100
AcDbEntity
  8
002
100
AcDbCircle
 10
-6368.026150992766
 20
-81.01984900016464
 30
0.0
 40
2.5
100
AcDbArc
 50
128.1896849999919
 51
211.8103149999947
  0
LINE
  5
5DCB
330
1E
100
AcDbEntity
  8
002
100
AcDbLine
 10
-6372.755368263983
 20
-97.10973760085472
 30
0.0
 11
-6369.808740557707
 21
-101.8602521222403
 31
0.0
  0
LINE
  5
5DCC
330
1E
100
AcDbEntity
  8
002
100
AcDbLine
 10
-6371.719468684744
 20
-97.2923946459789
 30
0.0
 11
-6368.772840978468
 21
-102.0429091673645
 31
0.0
  0
LINE
  5
5DCD
330
1E
100
AcDbEntity
  8
002
100
AcDbLine
 10
-6367.78284509371
 20
-90.37082800882876
 30
0.0
 11
-6372.176541062977
 21
-93.8270454190831
 31
0.0
  0
LINE
  5
5DCE
330
1E
100
AcDbEntity
  8
002
100
AcDbLine
 10
-6366.746945514471
 20
-90.55348505395295
 30
0.0
 11
-6371.140641483737
 21
-94.00970246420753
 31
0.0
  0
LINE
  5
5DCF
330
1E
100
AcDbEntity
  8
002
100
AcDbLine
 10
-6382.7545724561
 20
-12.29387955079573
 30
0.0
 11
-6375.8302305125
 21
26.97601502676207
 31
0.0
  0
LINE
  5
5DD0
330
1E
100
AcDbEntity
  8
002
100
AcDbLine
 10
-6381.402640371298
 20
-14.22463866295697
 30
0.0
 11
-6382.7545724561
 21
-12.29387955079573
 31
0.0
  0
LINE
  5
5DD1
330
1E
100
AcDbEntity
  8
002
100
AcDbLine
 10
-6357.347609221559
 20
2.223833262228481
 30
0.0
 11
-6347.10236673921
 21
60.32749068994871
 31
0.0
  0
ARC
  5
5DD2
330
1E
100
AcDbEntity
  8
002
100
AcDbCircle
 10
-6360.936083061083
 20
74.66606853568942
 30
0.0
 40
8.333332999999999
100
AcDbArc
 50
306.8434549999962
 51
347.5383479999852
  0
ARC
  5
5DD3
330
1E
100
AcDbEntity
  8
002
100
AcDbCircle
 10
-6350.70204463647
 20
61.50809218652603
 30
0.0
 40
8.333332999999999
100
AcDbArc
 50
126.8434549999962
 51
169.9999999999961
  0
LINE
  5
5DD4
330
1E
100
AcDbEntity
  8
002
100
AcDbLine
 10
-6358.90877656811
 20
62.95516044951591
 30
0.0
 11
-6367.146561376319
 21
16.23636123280039
 31
0.0
  0
LINE
  5
5DD5
330
1E
100
AcDbEntity
  8
002
100
AcDbLine
 10
-6365.339031752286
 20
-17.18330887502065
 30
0.0
 11
-6369.159291660959
 21
-38.84907944128917
 31
0.0
  0
LINE
  5
5DD6
330
1E
100
AcDbEntity
  8
002
100
AcDbLine
 10
-6369.159291660959
 20
-38.84907944128917
 30
0.0
 11
-6368.19895145657
 21
-39.01841332998197
 31
0.0
  0
LINE
  5
5DD7
330
1E
100
AcDbEntity
  8
002
100
AcDbLine
 10
-6359.896452692923
 20
2.165549829889641
 30
0.0
 11
-6360.832369703033
 21
4.361430474247754
 31
0.0
  0
LINE
  5
5DD8
330
1E
100
AcDbEntity
  8
002
100
AcDbLine
 10
-6368.750209246137
 20
4.742132602731544
 30
0.0
 11
-6369.09750560147
 21
2.772517096707133
 31
0.0
  0
LINE
  5
5DD9
330
1E
100
AcDbEntity
  8
002
100
AcDbLine
 10
-6357.347609221559
 20
2.223833262228481
 30
0.0
 11
-6356.942029433887
 21
1.644605296888812
 31
0.0
  0
LINE
  5
5DDA
330
1E
100
AcDbEntity
  8
002
100
AcDbLine
 10
-6368.750209246137
 20
4.742132602731544
 30
0.0
 11
-6367.591753315458
 21
5.553292178076617
 31
0.0
  0
LINE
  5
5DDB
330
1E
100
AcDbEntity
  8
002
100
AcDbLine
 10
-6367.591753315458
 20
5.553292178076617
 30
0.0
 11
-6360.832369703033
 21
4.361430474247754
 31
0.0
  0
LINE
  5
5DDC
330
1E
100
AcDbEntity
  8
002
100
AcDbLine
 10
-6367.721032237307
 20
16.33765594522333
 30
0.0
 11
-6369.649395029664
 21
14.0395228240086
 31
0.0
  0
LINE
  5
5DDD
330
1E
100
AcDbEntity
  8
002
100
AcDbLine
 10
-6367.721032237307
 20
16.33765594522333
 30
0.0
 11
-6367.146561376319
 21
16.23636123280039
 31
0.0
  0
ARC
  5
5DDE
330
1E
100
AcDbEntity
  8
002
100
AcDbCircle
 10
-6355.336264227418
 20
61.89609866363594
 30
0.0
 40
8.333332999999999
100
AcDbArc
 50
127.9451880000292
 51
161.4692339999878
  0
ARC
  5
5DDF
330
1E
100
AcDbEntity
  8
002
100
AcDbCircle
 10
-6365.024182733558
 20
75.47649885145915
 30
0.0
 40
8.333332999999999
100
AcDbArc
 50
307.9451880000293
 51
347.5383479999852
  0
LINE
  5
5DE0
330
1E
100
AcDbEntity
  8
002
100
AcDbLine
 10
-6359.899955346582
 20
68.90483679061117
 30
0.0
 11
-6360.460491614395
 21
68.4677607244837
 31
0.0
  0
LINE
  5
5DE1
330
1E
100
AcDbEntity
  8
002
100
AcDbLine
 10
-6348.08793511061
 20
0.0833895779578597
 30
0.0
 11
-6351.560898663949
 21
-19.61276548228624
 31
0.0
  0
LINE
  5
5DE2
330
1E
100
AcDbEntity
  8
002
100
AcDbLine
 10
-6349.565146740129
 20
0.3438618444581607
 30
0.0
 11
-6353.038110293468
 21
-19.35229321578594
 31
0.0
  0
LINE
  5
5DE3
330
1E
100
AcDbEntity
  8
002
100
AcDbLine
 10
-6353.038110293468
 20
-19.35229321578594
 30
0.0
 11
-6351.410514827238
 21
-18.75989636317603
 31
0.0
  0
LINE
  5
5DE4
330
1E
100
AcDbEntity
  8
002
100
AcDbLine
 10
-6348.08793511061
 20
0.0833895779578597
 30
0.0
 11
-6349.715530403194
 21
-0.5090062898441375
 31
0.0
  0
LINE
  5
5DE5
330
1E
100
AcDbEntity
  8
002
100
AcDbLine
 10
-6349.555971286294
 20
0.3422439643868529
 30
0.0
 11
-6348.229143319841
 21
-0.7710964364159736
 31
0.0
  0
LINE
  5
5DE6
330
1E
100
AcDbEntity
  8
002
100
AcDbLine
 10
-6346.52313877387
 20
60.73307047762137
 30
0.0
 11
-6347.10236673921
 21
60.32749068994871
 31
0.0
  0
LINE
  5
5DE7
330
1E
100
AcDbEntity
  8
002
100
AcDbLine
 10
-6373.231244893442
 20
-14.91231291374765
 30
0.0
 11
-6374.858840359673
 21
-15.50470976635756
 31
0.0
  0
LINE
  5
5DE8
330
1E
100
AcDbEntity
  8
002
100
AcDbLine
 10
-6373.39080418399
 20
-15.76356415278655
 30
0.0
 11
-6374.717631976795
 21
-14.65022276717604
 31
0.0
  0
ARC
  5
5DE9
330
1E
100
AcDbEntity
  8
002
100
AcDbCircle
 10
-6377.104693600812
 20
10.15022871818746
 30
0.0
 40
1.666666999999999
100
AcDbArc
 50
161.4692339999878
 51
169.9999999999961
  0
LINE
  5
5DEA
330
1E
100
AcDbEntity
  8
002
100
AcDbLine
 10
-6363.237540012411
 20
64.54454769679
 30
0.0
 11
-6375.8302305125
 21
26.97601502676207
 31
0.0
  0
LINE
  5
5DEB
330
1E
100
AcDbEntity
  8
002
100
AcDbLine
 10
-6369.649395029664
 20
14.0395228240086
 30
0.0
 11
-6374.858840359673
 21
-15.50470976635756
 31
0.0
  0
LINE
  5
5DEC
330
1E
100
AcDbEntity
  8
002
100
AcDbLine
 10
-6367.721032237307
 20
16.33765594522333
 30
0.0
 11
-6373.381628730154
 21
-15.76518203285786
 31
0.0
  0
LINE
  5
5DED
330
1E
100
AcDbEntity
  8
002
100
AcDbLine
 10
-6369.09750560147
 20
2.772517096707133
 30
0.0
 11
-6371.860292483778
 21
1.500900287461945
 31
0.0
  0
LINE
  5
5DEE
330
1E
100
AcDbEntity
  8
003
100
AcDbLine
 10
-6475.269477615587
 20
83.46605486712769
 30
0.0
 11
-6383.220386051057
 21
83.46605486712769
 31
0.0
  0
TEXT
  5
5DEF
330
1E
100
AcDbEntity
  8
001
100
AcDbText
 10
-6628.893299327973
 20
306.9515491837837
 30
0.0
 40
18.0
  1
10°振りアンカー頭部構造図
 41
0.787037
100
AcDbText
  0
LINE
  5
5DF0
330
1E
100
AcDbEntity
  8
001
100
AcDbLine
 10
-6628.893299327973
 20
303.3100005241767
 30
0.0
 11
-6404.673379089392
 21
303.3100005241767
 31
0.0
  0
LINE
  5
5DF1
330
1E
100
AcDbEntity
  8
003
 48
0.25
100
AcDbLine
 10
-5964.144069038005
 20
68.17250621582707
 30
0.0
 11
-6037.670745246182
 21
83.46605486712769
 31
0.0
  0
LINE
  5
5DF2
330
1E
100
AcDbEntity
  8
003
 62
     3
100
AcDbLine
 10
-6297.426489221154
 20
-216.9475051328722
 30
0.0
 11
-5964.144069038006
 21
-216.9475051328722
 31
0.0
  0
LINE
  5
5DF3
330
1E
100
AcDbEntity
  8
003
100
AcDbLine
 10
-6264.749179513589
 20
-79.59878473315303
 30
0.0
 11
-6288.967464685843
 21
-216.9475051328722
 31
0.0
  0
LINE
  5
5DF4
330
1E
100
AcDbEntity
  8
003
100
AcDbLine
 10
-6260.317544625033
 20
-80.38020153265415
 30
0.0
 11
-6284.398044932357
 21
-216.9475051328722
 31
0.0
  0
LINE
  5
5DF5
330
1E
100
AcDbEntity
  8
004
  6
CENTER
 62
     6
100
AcDbLine
 10
-6337.670745246182
 20
-307.7846227306706
 30
0.0
 11
-6337.670745246182
 21
239.4027221432218
 31
0.0
  0
LINE
  5
5DF6
330
1E
100
AcDbEntity
  8
002
100
AcDbLine
 10
-6310.597093968901
 20
-153.7641159682134
 30
0.0
 11
-6307.650466262627
 21
-158.5146304895993
 31
0.0
  0
LINE
  5
5DF7
330
1E
100
AcDbEntity
  8
002
100
AcDbLine
 10
-6309.126209729196
 20
-154.0234725451723
 30
0.0
 11
-6306.17958202292
 21
-158.7739870665582
 31
0.0
  0
LINE
  5
5DF8
330
1E
100
AcDbEntity
  8
002
100
AcDbLine
 10
-6305.74059765463
 20
-186.098672268589
 30
0.0
 11
-6278.651481938589
 21
-32.46866279868436
 31
0.0
  0
TEXT
  5
5DF9
330
1E
100
AcDbEntity
  8
001
100
AcDbText
 10
-6197.471870573026
 20
-510.0088268918648
 30
0.0
 40
16.0
  1
両ネジジョイントプレート
 41
0.703125
100
AcDbText
  0
LINE
  5
5DFA
330
1E
100
AcDbEntity
  8
001
100
AcDbLine
 10
-6197.471870573026
 20
-510.0088268918648
 30
0.0
 11
-6034.971870573025
 21
-510.0088268918648
 31
0.0
  0
ARC
  5
5DFB
330
1E
100
AcDbEntity
  8
002
100
AcDbCircle
 10
-6329.31038068272
 20
-270.6232740241714
 30
0.0
 40
2.5
100
AcDbArc
 50
128.1896849999919
 51
211.8103149999947
  0
LINE
  5
5DFC
330
1E
100
AcDbEntity
  8
003
 62
     3
100
AcDbLine
 10
-6305.990858292582
 20
-267.6203548265366
 30
0.0
 11
-6307.141690668632
 21
-269.5778049473369
 31
0.0
  0
LINE
  5
5DFD
330
1E
100
AcDbEntity
  8
003
 62
     3
100
AcDbLine
 10
-6315.684015422286
 20
-320.5875636741907
 30
0.0
 11
-6317.889550067543
 21
-322.318371461657
 31
0.0
  0
LINE
  5
5DFE
330
1E
100
AcDbEntity
  8
003
 62
     3
100
AcDbLine
 10
-6323.830015891235
 20
-330.4890290449375
 30
0.0
 11
-6322.659183565338
 21
-333.738491582126
 31
0.0
  0
LINE
  5
5DFF
330
1E
100
AcDbEntity
  8
003
 62
     3
100
AcDbLine
 10
-6321.001391357866
 20
-337.1663155258884
 30
0.0
 11
-6319.643480796536
 21
-340.5850738410122
 31
0.0
  0
LINE
  5
5E00
330
1E
100
AcDbEntity
  8
003
 62
     3
100
AcDbLine
 10
-6319.643480796536
 20
-340.5850738410122
 30
0.0
 11
-6319.372288137732
 21
-343.8073383909129
 31
0.0
  0
LINE
  5
5E01
330
1E
100
AcDbEntity
  8
003
 62
     3
100
AcDbLine
 10
-6319.372288137732
 20
-343.8073383909129
 30
0.0
 11
-6320.178290842379
 21
-345.8983059862075
 31
0.0
  0
LINE
  5
5E02
330
1E
100
AcDbEntity
  8
003
 62
     3
100
AcDbLine
 10
-6320.178290842379
 20
-345.8983059862075
 30
0.0
 11
-6321.640185247314
 21
-347.8507131385281
 31
0.0
  0
LINE
  5
5E03
330
1E
100
AcDbEntity
  8
003
 62
     3
100
AcDbLine
 10
-6321.640185247314
 20
-347.8507131385281
 30
0.0
 11
-6323.464891050878
 21
-349.720455894716
 31
0.0
  0
LINE
  5
5E04
330
1E
100
AcDbEntity
  8
003
 62
     3
100
AcDbLine
 10
-6323.464891050878
 20
-349.720455894716
 30
0.0
 11
-6325.359326155451
 21
-351.5634316337177
 31
0.0
  0
LINE
  5
5E05
330
1E
100
AcDbEntity
  8
003
 62
     3
100
AcDbLine
 10
-6325.359326155451
 20
-351.5634316337177
 30
0.0
 11
-6327.030411765127
 21
-353.4355391831509
 31
0.0
  0
LINE
  5
5E06
330
1E
100
AcDbEntity
  8
003
 62
     3
100
AcDbLine
 10
-6322.659183565338
 20
-333.738491582126
 30
0.0
 11
-6321.001391357866
 21
-337.1663155258884
 31
0.0
  0
LINE
  5
5E07
330
1E
100
AcDbEntity
  8
003
 62
     3
100
AcDbLine
 10
-6317.889550067543
 20
-322.318371461657
 30
0.0
 11
-6320.287821191354
 21
-323.9728777191626
 31
0.0
  0
LINE
  5
5E08
330
1E
100
AcDbEntity
  8
003
 62
     3
100
AcDbLine
 10
-6320.287821191354
 20
-323.9728777191626
 30
0.0
 11
-6322.394948957021
 21
-325.6891742229331
 31
0.0
  0
LINE
  5
5E09
330
1E
100
AcDbEntity
  8
003
 62
     3
100
AcDbLine
 10
-6322.394948957021
 20
-325.6891742229331
 30
0.0
 11
-6323.727050747068
 21
-327.6053542549439
 31
0.0
  0
LINE
  5
5E0A
330
1E
100
AcDbEntity
  8
003
 62
     3
100
AcDbLine
 10
-6323.727050747068
 20
-327.6053542549439
 30
0.0
 11
-6323.830015891235
 21
-330.4890290449375
 31
0.0
  0
LINE
  5
5E0B
330
1E
100
AcDbEntity
  8
003
 62
     3
100
AcDbLine
 10
-6307.141690668632
 20
-269.5778049473369
 30
0.0
 11
-6309.013347342591
 21
-271.3674062415571
 31
0.0
  0
LINE
  5
5E0C
330
1E
100
AcDbEntity
  8
003
 62
     3
100
AcDbLine
 10
-6318.395005925173
 20
-301.9103015342068
 30
0.0
 11
-6317.095749568194
 21
-306.2027063063887
 31
0.0
  0
LINE
  5
5E0D
330
1E
100
AcDbEntity
  8
003
 62
     3
100
AcDbLine
 10
-6315.163570057753
 20
-310.655886571775
 30
0.0
 11
-6313.787131967995
 21
-314.919289203523
 31
0.0
  0
LINE
  5
5E0E
330
1E
100
AcDbEntity
  8
003
 62
     3
100
AcDbLine
 10
-6313.787131967995
 20
-314.919289203523
 30
0.0
 11
-6314.155097903445
 21
-318.6423614220862
 31
0.0
  0
LINE
  5
5E0F
330
1E
100
AcDbEntity
  8
003
 62
     3
100
AcDbLine
 10
-6314.155097903445
 20
-318.6423614220862
 30
0.0
 11
-6315.684015422286
 21
-320.5875636741907
 31
0.0
  0
LINE
  5
5E10
330
1E
100
AcDbEntity
  8
003
 62
     3
100
AcDbLine
 10
-6317.095749568194
 20
-306.2027063063887
 30
0.0
 11
-6315.163570057753
 21
-310.655886571775
 31
0.0
  0
LINE
  5
5E11
330
1E
100
AcDbEntity
  8
003
 62
     3
100
AcDbLine
 10
-6312.38885440616
 20
-293.0795173457882
 30
0.0
 11
-6314.454672979397
 21
-294.6736207274539
 31
0.0
  0
LINE
  5
5E12
330
1E
100
AcDbEntity
  8
003
 62
     3
100
AcDbLine
 10
-6313.711236180755
 20
-279.2828152546644
 30
0.0
 11
-6312.563425824778
 21
-281.9188547950541
 31
0.0
  0
LINE
  5
5E13
330
1E
100
AcDbEntity
  8
003
 62
     3
100
AcDbLine
 10
-6312.901111463418
 20
-274.8892355880568
 30
0.0
 11
-6313.908209761208
 21
-276.8445524607843
 31
0.0
  0
LINE
  5
5E14
330
1E
100
AcDbEntity
  8
003
 62
     3
100
AcDbLine
 10
-6314.454672979397
 20
-294.6736207274539
 30
0.0
 11
-6316.427877210575
 21
-296.3194705657938
 31
0.0
  0
LINE
  5
5E15
330
1E
100
AcDbEntity
  8
003
 62
     3
100
AcDbLine
 10
-6316.427877210575
 20
-296.3194705657938
 30
0.0
 11
-6317.872674554542
 21
-298.129225382072
 31
0.0
  0
LINE
  5
5E16
330
1E
100
AcDbEntity
  8
003
 62
     3
100
AcDbLine
 10
-6317.872674554542
 20
-298.129225382072
 30
0.0
 11
-6318.395005925173
 21
-301.9103015342068
 31
0.0
  0
LINE
  5
5E17
330
1E
100
AcDbEntity
  8
003
 62
     3
100
AcDbLine
 10
-6313.908209761208
 20
-276.8445524607843
 30
0.0
 11
-6313.711236180755
 21
-279.2828152546644
 31
0.0
  0
LINE
  5
5E18
330
1E
100
AcDbEntity
  8
003
 62
     3
100
AcDbLine
 10
-6311.095535486922
 20
-284.6110985086863
 30
0.0
 11
-6309.9383250889
 21
-287.2179742861583
 31
0.0
  0
LINE
  5
5E19
330
1E
100
AcDbEntity
  8
003
 62
     3
100
AcDbLine
 10
-6310.666216990446
 20
-291.425001378589
 30
0.0
 11
-6312.38885440616
 21
-293.0795173457882
 31
0.0
  0
LINE
  5
5E1A
330
1E
100
AcDbEntity
  8
003
 62
     3
100
AcDbLine
 10
-6312.563425824778
 20
-281.9188547950541
 30
0.0
 11
-6311.095535486922
 21
-284.6110985086863
 31
0.0
  0
LINE
  5
5E1B
330
1E
100
AcDbEntity
  8
003
 62
     3
100
AcDbLine
 10
-6309.9383250889
 20
-287.2179742861583
 30
0.0
 11
-6309.722551771653
 21
-289.5979115238171
 31
0.0
  0
LINE
  5
5E1C
330
1E
100
AcDbEntity
  8
003
 62
     3
100
AcDbLine
 10
-6309.722551771653
 20
-289.5979115238171
 30
0.0
 11
-6310.666216990446
 21
-291.425001378589
 31
0.0
  0
LINE
  5
5E1D
330
1E
100
AcDbEntity
  8
003
 62
     3
100
AcDbLine
 10
-6309.013347342591
 20
-271.3674062415571
 30
0.0
 11
-6311.101322002237
 21
-273.1007019026815
 31
0.0
  0
LINE
  5
5E1E
330
1E
100
AcDbEntity
  8
003
 62
     3
100
AcDbLine
 10
-6311.101322002237
 20
-273.1007019026815
 30
0.0
 11
-6312.901111463418
 21
-274.8892355880568
 31
0.0
  0
LINE
  5
5E1F
330
1E
100
AcDbEntity
  8
002
100
AcDbLine
 10
-6331.434875288933
 20
-271.9410463296783
 30
0.0
 11
-6330.666698194912
 21
-273.1794913603725
 31
0.0
  0
LINE
  5
5E20
330
1E
100
AcDbEntity
  8
003
 62
     3
100
AcDbLine
 10
-6297.688513994852
 20
-221.6421525796099
 30
0.0
 11
-6299.170758119897
 21
-223.5651817221369
 31
0.0
  0
LINE
  5
5E21
330
1E
100
AcDbEntity
  8
002
100
AcDbLine
 10
-6318.411261963913
 20
-198.0804648537628
 30
0.0
 11
-6315.464634257637
 21
-202.8309793751486
 31
0.0
  0
LINE
  5
5E22
330
1E
100
AcDbEntity
  8
003
 62
     3
100
AcDbLine
 10
-6308.379965025538
 20
-259.3061808109619
 30
0.0
 11
-6307.005564734107
 21
-262.2053873792081
 31
0.0
  0
LINE
  5
5E23
330
1E
100
AcDbEntity
  8
003
 62
     3
100
AcDbLine
 10
-6306.789653695023
 20
-250.0844547352325
 30
0.0
 11
-6308.560480450734
 21
-251.8986973175465
 31
0.0
  0
LINE
  5
5E24
330
1E
100
AcDbEntity
  8
002
100
AcDbLine
 10
-6326.225429958926
 20
-242.3968137393121
 30
0.0
 11
-6323.278802252649
 21
-247.1473282606978
 31
0.0
  0
LINE
  5
5E25
330
1E
100
AcDbEntity
  8
002
100
AcDbLine
 10
-6323.857629453656
 20
-250.4300204424692
 30
0.0
 11
-6328.251325422922
 21
-253.8862378527237
 31
0.0
  0
ARC
  5
5E26
330
1E
100
AcDbEntity
  8
002
100
AcDbCircle
 10
-6326.705658017716
 20
-255.8511577289884
 30
0.0
 40
2.5
100
AcDbArc
 50
128.1896849999919
 51
211.8103149999947
  0
LINE
  5
5E27
330
1E
100
AcDbEntity
  8
002
100
AcDbLine
 10
-6328.83015262393
 20
-257.1689300344951
 30
0.0
 11
-6325.883524917653
 21
-261.919444555881
 31
0.0
  0
ARC
  5
5E28
330
1E
100
AcDbEntity
  8
002
100
AcDbCircle
 10
-6328.008019350217
 20
-263.2372158765799
 30
0.0
 40
2.5
100
AcDbArc
 50
308.1896849999919
 51
31.81031499999473
  0
ARC
  5
5E29
330
1E
100
AcDbEntity
  8
002
100
AcDbCircle
 10
-6325.403296685213
 20
-248.465099581397
 30
0.0
 40
2.5
100
AcDbArc
 50
308.1896849999919
 51
31.81031499999473
  0
LINE
  5
5E2A
330
1E
100
AcDbEntity
  8
003
 62
     3
100
AcDbLine
 10
-6308.560480450734
 20
-251.8986973175465
 30
0.0
 11
-6309.582399697498
 21
-253.8842752936498
 31
0.0
  0
LINE
  5
5E2B
330
1E
100
AcDbEntity
  8
003
 62
     3
100
AcDbLine
 10
-6309.582399697498
 20
-253.8842752936498
 30
0.0
 11
-6309.457606643341
 21
-256.4818138270493
 31
0.0
  0
LINE
  5
5E2C
330
1E
100
AcDbEntity
  8
003
 62
     3
100
AcDbLine
 10
-6309.457606643341
 20
-256.4818138270493
 30
0.0
 11
-6308.379965025538
 21
-259.3061808109619
 31
0.0
  0
ARC
  5
5E2D
330
1E
100
AcDbEntity
  8
002
100
AcDbCircle
 10
-6320.193851355207
 20
-218.9208669910306
 30
0.0
 40
2.5
100
AcDbArc
 50
308.1896849999919
 51
31.81031499999473
  0
ARC
  5
5E2E
330
1E
100
AcDbEntity
  8
002
100
AcDbCircle
 10
-6321.496212687709
 20
-226.306925138622
 30
0.0
 40
2.5
100
AcDbArc
 50
128.1896849999919
 51
211.8103149999947
  0
ARC
  5
5E2F
330
1E
100
AcDbEntity
  8
002
100
AcDbCircle
 10
-6322.798574020211
 20
-233.6929832862137
 30
0.0
 40
2.5
100
AcDbArc
 50
308.1896849999919
 51
31.81031499999473
  0
LINE
  5
5E30
330
1E
100
AcDbEntity
  8
002
100
AcDbLine
 10
-6323.620707293922
 20
-227.6246974441289
 30
0.0
 11
-6320.674079587645
 21
-232.3752119655146
 31
0.0
  0
LINE
  5
5E31
330
1E
100
AcDbEntity
  8
002
100
AcDbLine
 10
-6321.252906788653
 20
-235.6579041472859
 30
0.0
 11
-6325.646602757919
 21
-239.1141215575407
 31
0.0
  0
ARC
  5
5E32
330
1E
100
AcDbEntity
  8
002
100
AcDbCircle
 10
-6324.100935352713
 20
-241.0790414338052
 30
0.0
 40
2.5
100
AcDbArc
 50
128.1896849999919
 51
211.8103149999947
  0
LINE
  5
5E33
330
1E
100
AcDbEntity
  8
002
100
AcDbLine
 10
-6318.648184123649
 20
-220.885787852103
 30
0.0
 11
-6323.041880092915
 21
-224.3420052623576
 31
0.0
  0
ARC
  5
5E34
330
1E
100
AcDbEntity
  8
002
100
AcDbCircle
 10
-6317.589128690202
 20
-204.1487506958476
 30
0.0
 40
2.5
100
AcDbArc
 50
308.1896849999919
 51
31.81031499999473
  0
LINE
  5
5E35
330
1E
100
AcDbEntity
  8
002
100
AcDbLine
 10
-6316.043461458645
 20
-206.1136715569198
 30
0.0
 11
-6320.43715742791
 21
-209.5698889671743
 31
0.0
  0
ARC
  5
5E36
330
1E
100
AcDbEntity
  8
002
100
AcDbCircle
 10
-6318.891490022704
 20
-211.5348088434391
 30
0.0
 40
2.5
100
AcDbArc
 50
128.1896849999919
 51
211.8103149999947
  0
LINE
  5
5E37
330
1E
100
AcDbEntity
  8
002
100
AcDbLine
 10
-6321.015984628918
 20
-212.8525811489457
 30
0.0
 11
-6318.069356922642
 21
-217.6030956703316
 31
0.0
  0
LINE
  5
5E38
330
1E
100
AcDbEntity
  8
003
 62
     3
100
AcDbLine
 10
-6302.839531004921
 20
-246.5172047998444
 30
0.0
 11
-6304.729483636249
 21
-248.3283554170461
 31
0.0
  0
LINE
  5
5E39
330
1E
100
AcDbEntity
  8
003
 62
     3
100
AcDbLine
 10
-6307.005564734107
 20
-262.2053873792081
 30
0.0
 11
-6305.990499250999
 21
-265.0274420013952
 31
0.0
  0
LINE
  5
5E3A
330
1E
100
AcDbEntity
  8
003
 62
     3
100
AcDbLine
 10
-6305.990499250999
 20
-265.0274420013952
 30
0.0
 11
-6305.990858292582
 21
-267.6203548265366
 31
0.0
  0
LINE
  5
5E3B
330
1E
100
AcDbEntity
  8
003
 62
     3
100
AcDbLine
 10
-6304.729483636249
 20
-248.3283554170461
 30
0.0
 11
-6306.789653695023
 21
-250.0844547352325
 31
0.0
  0
LINE
  5
5E3C
330
1E
100
AcDbEntity
  8
003
 62
     3
100
AcDbLine
 10
-6299.170758119897
 20
-223.5651817221369
 30
0.0
 11
-6300.980743050832
 21
-225.4501723809339
 31
0.0
  0
LINE
  5
5E3D
330
1E
100
AcDbEntity
  8
003
 62
     3
100
AcDbLine
 10
-6300.980743050832
 20
-225.4501723809339
 30
0.0
 11
-6302.672208893921
 21
-227.3857623810447
 31
0.0
  0
LINE
  5
5E3E
330
1E
100
AcDbEntity
  8
003
 62
     3
100
AcDbLine
 10
-6302.672208893921
 20
-227.3857623810447
 30
0.0
 11
-6303.798896913884
 21
-229.4605903586714
 31
0.0
  0
LINE
  5
5E3F
330
1E
100
AcDbEntity
  8
003
 62
     3
100
AcDbLine
 10
-6303.798896913884
 20
-229.4605903586714
 30
0.0
 11
-6303.976674971586
 21
-232.3799887442519
 31
0.0
  0
LINE
  5
5E40
330
1E
100
AcDbEntity
  8
003
 62
     3
100
AcDbLine
 10
-6303.976674971586
 20
-232.3799887442519
 30
0.0
 11
-6303.182994919286
 21
-235.5073220591175
 31
0.0
  0
LINE
  5
5E41
330
1E
100
AcDbEntity
  8
003
 62
     3
100
AcDbLine
 10
-6303.182994919286
 20
-235.5073220591175
 30
0.0
 11
-6302.078471556553
 21
-238.68267832491
 31
0.0
  0
LINE
  5
5E42
330
1E
100
AcDbEntity
  8
003
 62
     3
100
AcDbLine
 10
-6302.078471556553
 20
-238.68267832491
 30
0.0
 11
-6301.32372049412
 21
-241.7461444048185
 31
0.0
  0
LINE
  5
5E43
330
1E
100
AcDbEntity
  8
003
 62
     3
100
AcDbLine
 10
-6301.32372049412
 20
-241.7461444048185
 30
0.0
 11
-6301.579356705201
 21
-244.5378093052938
 31
0.0
  0
LINE
  5
5E44
330
1E
100
AcDbEntity
  8
003
 62
     3
100
AcDbLine
 10
-6301.579356705201
 20
-244.5378093052938
 30
0.0
 11
-6302.839531004921
 21
-246.5172047998444
 31
0.0
  0
ARC
  5
5E45
330
1E
100
AcDbEntity
  8
002
100
AcDbCircle
 10
-6309.774960695191
 20
-159.8324018102982
 30
0.0
 40
2.5
100
AcDbArc
 50
308.1896849999919
 51
31.81031499999473
  0
LINE
  5
5E46
330
1E
100
AcDbEntity
  8
002
100
AcDbLine
 10
-6306.758409223927
 20
-162.0566792483293
 30
0.0
 11
-6311.152105193194
 21
-165.5128966585841
 31
0.0
  0
LINE
  5
5E47
330
1E
100
AcDbEntity
  8
002
100
AcDbLine
 10
-6312.136613796002
 20
-184.9708820538182
 30
0.0
 11
-6305.74059765463
 21
-186.098672268589
 31
0.0
  0
ARC
  5
5E48
330
1E
100
AcDbEntity
  8
002
100
AcDbCircle
 10
-6314.984406025198
 20
-189.3766344006644
 30
0.0
 40
2.5
100
AcDbArc
 50
308.1896849999919
 51
31.81031499999473
  0
ARC
  5
5E49
330
1E
100
AcDbEntity
  8
002
100
AcDbCircle
 10
-6316.2867673577
 20
-196.7626925482559
 30
0.0
 40
2.5
100
AcDbArc
 50
128.1896849999919
 51
211.8103149999947
  0
LINE
  5
5E4A
330
1E
100
AcDbEntity
  8
002
100
AcDbLine
 10
-6313.438738793641
 20
-191.3415552617368
 30
0.0
 11
-6317.832434762905
 21
-194.7977726719914
 31
0.0
  0
LINE
  5
5E4B
330
1E
100
AcDbEntity
  8
002
100
AcDbLine
 10
-6309.363131888932
 20
-176.8287955435125
 30
0.0
 11
-6313.756827858196
 21
-180.2850129537673
 31
0.0
  0
LINE
  5
5E4C
330
1E
100
AcDbEntity
  8
002
100
AcDbLine
 10
-6310.834016128636
 20
-176.5694389665536
 30
0.0
 11
-6315.227712097904
 21
-180.0256563768084
 31
0.0
  0
ARC
  5
5E4D
330
1E
100
AcDbEntity
  8
002
100
AcDbCircle
 10
-6311.077322027693
 20
-167.2184599578897
 30
0.0
 40
2.5
100
AcDbArc
 50
128.1896849999919
 51
211.8103149999947
  0
LINE
  5
5E4E
330
1E
100
AcDbEntity
  8
002
100
AcDbLine
 10
-6315.80653929891
 20
-183.3083485585795
 30
0.0
 11
-6312.859911592633
 21
-188.0588630799654
 31
0.0
  0
ARC
  5
5E4F
330
1E
100
AcDbEntity
  8
002
100
AcDbCircle
 10
-6312.211160452991
 20
-182.2499328300316
 30
0.0
 40
2.5
100
AcDbArc
 50
128.1896849999919
 51
211.8103149999947
  0
LINE
  5
5E50
330
1E
100
AcDbEntity
  8
002
100
AcDbLine
 10
-6314.335655059204
 20
-183.5677051355385
 30
0.0
 11
-6313.628464592768
 21
-184.7078285071568
 31
0.0
  0
ARC
  5
5E51
330
1E
100
AcDbEntity
  8
002
100
AcDbCircle
 10
-6313.682044692696
 20
-181.9905762530727
 30
0.0
 40
2.5
100
AcDbArc
 50
128.1896849999919
 51
211.8103149999947
  0
LINE
  5
5E52
330
1E
100
AcDbEntity
  8
002
100
AcDbLine
 10
-6308.229293463633
 20
-161.7973226713704
 30
0.0
 11
-6312.622989432899
 21
-165.2535400816252
 31
0.0
  0
LINE
  5
5E53
330
1E
100
AcDbEntity
  8
002
100
AcDbLine
 10
-6311.730932394201
 20
-168.7955888403555
 30
0.0
 11
-6308.784304687924
 21
-173.5461033617411
 31
0.0
  0
LINE
  5
5E54
330
1E
100
AcDbEntity
  8
002
100
AcDbLine
 10
-6313.201816633906
 20
-168.5362322633966
 30
0.0
 11
-6310.255188927629
 21
-173.2867467847822
 31
0.0
  0
ARC
  5
5E55
330
1E
100
AcDbEntity
  8
002
100
AcDbCircle
 10
-6309.606437787987
 20
-167.4778165348486
 30
0.0
 40
2.5
100
AcDbArc
 50
128.1896849999919
 51
211.8103149999947
  0
ARC
  5
5E56
330
1E
100
AcDbEntity
  8
002
100
AcDbCircle
 10
-6310.908799120489
 20
-174.8638746824401
 30
0.0
 40
2.5
100
AcDbArc
 50
308.1896849999919
 51
31.81031499999473
  0
ARC
  5
5E57
330
1E
100
AcDbEntity
  8
002
100
AcDbCircle
 10
-6312.379683360195
 20
-174.6045181054812
 30
0.0
 40
2.5
100
AcDbArc
 50
308.1896849999919
 51
31.81031499999473
  0
ARC
  5
5E58
330
1E
100
AcDbEntity
  8
002
100
AcDbCircle
 10
-6308.304076455486
 20
-160.0917583872571
 30
0.0
 40
2.5
100
AcDbArc
 50
308.1896849999919
 51
31.81031499999473
  0
LINE
  5
5E59
330
1E
100
AcDbEntity
  8
002
100
AcDbLine
 10
-6326.46235211866
 20
-265.2021367376523
 30
0.0
 11
-6330.856048087926
 21
-268.6583541479069
 31
0.0
  0
LINE
  5
5E5A
330
1E
100
AcDbEntity
  8
003
 62
     3
100
AcDbLine
 10
-6297.426489221154
 20
-216.9475051328722
 30
0.0
 11
-6296.980271901539
 21
-219.5924489242774
 31
0.0
  0
LINE
  5
5E5B
330
1E
100
AcDbEntity
  8
003
 62
     3
100
AcDbLine
 10
-6296.980271901539
 20
-219.5924489242774
 30
0.0
 11
-6297.688513994852
 21
-221.6421525796099
 31
0.0
  0
LINE
  5
5E5C
330
1E
100
AcDbEntity
  8
003
100
AcDbLine
 10
-6238.334483372302
 20
83.46605486712793
 30
0.0
 11
-6135.269477615588
 21
83.46605486712793
 31
0.0
  0
LWPOLYLINE
  5
5E5D
330
1E
100
AcDbEntity
  8
003
100
AcDbPolyline
 90
        4
 70
     0
 43
0.0
 10
-6238.334483372302
 20
29.47137218112584
 10
-6134.657432563972
 20
11.1903108433346
 10
-6217.773849694907
 20
-87.8818028078656
 10
-6265.143102614794
 20
-79.52932546208626
  0
LWPOLYLINE
  5
5E5E
330
1E
100
AcDbEntity
  8
003
100
AcDbPolyline
 90
        4
 70
     0
 43
0.0
 10
-6238.334483372302
 20
29.47137218112561
 10
-6155.141433826626
 20
14.80219293880668
 10
-6221.930532585633
 20
-64.80948200249509
 10
-6261.322842706121
 20
-57.86355489581774
  0
LINE
  5
5E5F
330
1E
100
AcDbEntity
  8
003
100
AcDbLine
 10
-6146.367792285308
 20
13.25516321601208
 30
0.0
 11
-6238.334483372302
 21
29.47137218112766
 31
0.0
  0
DIMENSION
  5
5E60
330
1E
100
AcDbEntity
  8
001
100
AcDbDimension
  2
*D12
 10
-6111.839047075064
 20
-84.22158124428325
 30
0.0
 11
-6116.950480838337
 21
-37.62610002685573
 31
0.0
 70
    33
 71
     5
 42
90.0
  3
ISO-25
100
AcDbAlignedDimension
 13
-6207.999993468995
 23
24.12258316514408
 33
0.0
 14
-6223.628329459018
 24
-64.51011460595464
 34
0.0
  0
LINE
  5
5E61
330
1E
100
AcDbEntity
  8
003
100
AcDbLine
 10
-6238.334483372302
 20
83.46605486712769
 30
0.0
 11
-6037.670745246182
 21
83.46605486712769
 31
0.0
  0
LINE
  5
5E62
330
1E
100
AcDbEntity
  8
002
100
AcDbLine
 10
-6258.675534339353
 20
56.27133019478993
 30
0.0
 11
-6239.990812625585
 21
197.4655721154938
 31
0.0
  0
LINE
  5
5E63
330
1E
100
AcDbEntity
  8
002
100
AcDbLine
 10
-6254.556793751335
 20
55.63467314626996
 30
0.0
 11
-6235.860156994051
 21
196.9189478415287
 31
0.0
  0
LINE
  5
5E64
330
1E
100
AcDbEntity
  8
002
  6
CENTER
100
AcDbLine
 10
-6315.867628434041
 20
55.32767689732236
 30
0.0
 11
-6294.161606225676
 21
178.4286460238483
 31
0.0
  0
LINE
  5
5E65
330
1E
100
AcDbEntity
  8
002
100
AcDbLine
 10
-6321.600213132669
 20
59.38476608454402
 30
0.0
 11
-6301.283376345638
 21
174.6072731869723
 31
0.0
  0
LINE
  5
5E66
330
1E
100
AcDbEntity
  8
002
100
AcDbLine
 10
-6319.23820787111
 20
58.968280828356
 30
0.0
 11
-6298.948101628838
 21
114.7148890962544
 31
0.0
  0
LINE
  5
5E67
330
1E
100
AcDbEntity
  8
002
100
AcDbLine
 10
-6317.357511369712
 20
-61.18367690988271
 30
0.0
 11
-6276.550189617983
 21
170.2461450479861
 31
0.0
  0
LINE
  5
5E68
330
1E
100
AcDbEntity
  8
002
100
AcDbLine
 10
-6304.850452906458
 20
-63.38900876625257
 30
0.0
 11
-6264.043131154728
 21
168.0408131916162
 31
0.0
  0
LINE
  5
5E69
330
1E
100
AcDbEntity
  8
002
  6
CENTER
100
AcDbLine
 10
-6311.103982138083
 20
-62.28634283806764
 30
0.0
 11
-6269.428419498021
 21
174.0675178848623
 31
0.0
  0
LINE
  5
5E6A
330
1E
100
AcDbEntity
  8
002
100
AcDbLine
 10
-6304.495844418962
 20
11.7584610378808
 30
0.0
 11
-6279.481727337757
 21
80.48418333838595
 31
0.0
  0
LINE
  5
5E6B
330
1E
100
AcDbEntity
  8
002
100
AcDbLine
 10
-6309.093154669414
 20
57.17943422817393
 30
0.0
 11
-6288.776317882383
 21
172.4019413306023
 31
0.0
  0
LINE
  5
5E6C
330
1E
100
AcDbEntity
  8
002
100
AcDbLine
 10
-6294.495844389692
 20
68.47127940006067
 30
0.0
 11
-6269.481727482134
 21
137.1970007157581
 31
0.0
  0
LINE
  5
5E6D
330
1E
100
AcDbEntity
  8
002
100
AcDbLine
 10
-6259.675188492653
 20
-34.12231730209259
 30
0.0
 11
-6252.729261385976
 21
5.269992818395849
 31
0.0
  0
LINE
  5
5E6E
330
1E
100
AcDbEntity
  8
002
100
AcDbLine
 10
-6256.324635301069
 20
44.86680855132795
 30
0.0
 11
-6264.562420109278
 21
-1.851990665387575
 31
0.0
  0
LINE
  5
5E6F
330
1E
100
AcDbEntity
  8
002
  6
CENTER
100
AcDbLine
 10
-6263.074967487282
 20
28.24894068101389
 30
0.0
 11
-6249.259663815116
 21
25.81292989693042
 31
0.0
  0
LINE
  5
5E70
330
1E
100
AcDbEntity
  8
002
100
AcDbLine
 10
-6252.283344736455
 20
22.65562400788462
 30
0.0
 11
-6259.965476529483
 21
24.2185718845119
 31
0.0
  0
LINE
  5
5E71
330
1E
100
AcDbEntity
  8
002
100
AcDbLine
 10
-6252.27032015791
 20
23.16344221315489
 30
0.0
 11
-6259.878584370563
 21
24.71136180565713
 31
0.0
  0
LINE
  5
5E72
330
1E
100
AcDbEntity
  8
002
100
AcDbLine
 10
-6252.09562422057
 20
29.9745699163218
 30
0.0
 11
-6258.774534466402
 21
30.97273995507634
 31
0.0
  0
LINE
  5
5E73
330
1E
100
AcDbEntity
  8
002
100
AcDbLine
 10
-6252.108547051055
 20
29.47072642756143
 30
0.0
 11
-6258.846628785674
 21
30.47773882277692
 31
0.0
  0
ARC
  5
5E74
330
1E
100
AcDbEntity
  8
002
100
AcDbCircle
 10
-6250.414223887445
 20
55.17808280531586
 30
0.0
 40
8.333332999999999
100
AcDbArc
 50
172.4616519999938
 51
213.1565450000173
  0
LINE
  5
5E75
330
1E
100
AcDbEntity
  8
002
100
AcDbLine
 10
-6261.092531133367
 20
-57.90416504006384
 30
0.0
 11
-6224.228940439713
 21
-64.40421068514865
 31
0.0
  0
LINE
  5
5E76
330
1E
100
AcDbEntity
  8
002
100
AcDbLine
 10
-6291.487625730206
 20
-30.20530431996894
 30
0.0
 11
-6220.572292059491
 21
-42.70959099205924
 31
0.0
  0
LINE
  5
5E77
330
1E
100
AcDbEntity
  8
002
100
AcDbLine
 10
-6277.6911417342
 20
-32.63799668737738
 30
0.0
 11
-6281.511401642872
 21
-54.30376725364613
 31
0.0
  0
LINE
  5
5E78
330
1E
100
AcDbEntity
  8
002
100
AcDbLine
 10
-6314.495844274585
 20
-44.95435633949137
 30
0.0
 11
-6289.481727367028
 21
23.77136497620608
 31
0.0
  0
LINE
  5
5E79
330
1E
100
AcDbEntity
  8
002
100
AcDbLine
 10
-6310.21917767316
 20
-62.44235773788523
 30
0.0
 11
-6299.481727396297
 21
-32.941453385974
 31
0.0
  0
LINE
  5
5E7A
330
1E
100
AcDbEntity
  8
002
  6
CENTER
100
AcDbLine
 10
-6335.846344319574
 20
-57.9235968190103
 30
0.0
 11
-6326.295694547892
 21
-3.759170403338885
 31
0.0
  0
LINE
  5
5E7B
330
1E
100
AcDbEntity
  8
002
100
AcDbLine
 10
-6329.592815087946
 20
-59.02626274719523
 30
0.0
 11
-6320.042165316265
 21
-4.861836331523818
 31
0.0
  0
LINE
  5
5E7C
330
1E
100
AcDbEntity
  8
002
100
AcDbLine
 10
-6293.431104818433
 20
-9.554084282556914
 30
0.0
 11
-6302.11351370178
 21
-58.79447193316718
 31
0.0
  0
LINE
  5
5E7D
330
1E
100
AcDbEntity
  8
002
100
AcDbLine
 10
-6297.810402803618
 20
-102.7088574906381
 30
0.0
 11
-6302.204098772883
 21
-106.1650749008927
 31
0.0
  0
LINE
  5
5E7E
330
1E
100
AcDbEntity
  8
002
100
AcDbLine
 10
-6296.339518563911
 20
-102.968214067597
 30
0.0
 11
-6300.733214533178
 21
-106.4244314778516
 31
0.0
  0
LINE
  5
5E7F
330
1E
100
AcDbEntity
  8
002
100
AcDbLine
 10
-6301.312041734185
 20
-109.707123659623
 30
0.0
 11
-6298.365414027909
 21
-114.4576381810086
 31
0.0
  0
ARC
  5
5E80
330
1E
100
AcDbEntity
  8
002
100
AcDbCircle
 10
-6300.489908460473
 20
-115.7754095017078
 30
0.0
 40
2.5
100
AcDbArc
 50
308.1896849999919
 51
31.81031499999473
  0
ARC
  5
5E81
330
1E
100
AcDbEntity
  8
002
100
AcDbCircle
 10
-6296.582824462968
 20
-93.61723505893293
 30
0.0
 40
2.5
100
AcDbArc
 50
128.1896849999919
 51
211.8103149999947
  0
LINE
  5
5E82
330
1E
100
AcDbEntity
  8
002
100
AcDbLine
 10
-6300.178203308886
 20
-94.67565078748112
 30
0.0
 11
-6297.231575602609
 21
-99.42616530886652
 31
0.0
  0
LINE
  5
5E83
330
1E
100
AcDbEntity
  8
002
100
AcDbLine
 10
-6295.205680138614
 20
-87.93674119545494
 30
0.0
 11
-6299.599376107879
 21
-91.39295860570952
 31
0.0
  0
LINE
  5
5E84
330
1E
100
AcDbEntity
  8
002
100
AcDbLine
 10
-6297.189474936718
 20
-59.66271282150183
 30
0.0
 11
-6302.11351370178
 21
-58.79447193316718
 31
0.0
  0
LINE
  5
5E85
330
1E
100
AcDbEntity
  8
002
100
AcDbLine
 10
-6307.992371303897
 20
-138.9919996730302
 30
0.0
 11
-6305.045743597623
 21
-143.7425141944161
 31
0.0
  0
LINE
  5
5E86
330
1E
100
AcDbEntity
  8
002
100
AcDbLine
 10
-6305.624570798629
 20
-147.0252063761875
 30
0.0
 11
-6310.018266767895
 21
-150.481423786442
 31
0.0
  0
LINE
  5
5E87
330
1E
100
AcDbEntity
  8
002
100
AcDbLine
 10
-6304.153686558924
 20
-147.2845629531463
 30
0.0
 11
-6308.54738252819
 21
-150.7407803634009
 31
0.0
  0
ARC
  5
5E88
330
1E
100
AcDbEntity
  8
002
100
AcDbCircle
 10
-6305.867876697685
 20
-137.6742273675233
 30
0.0
 40
2.5
100
AcDbArc
 50
128.1896849999919
 51
211.8103149999947
  0
ARC
  5
5E89
330
1E
100
AcDbEntity
  8
002
100
AcDbCircle
 10
-6308.472599362689
 20
-152.4463436627065
 30
0.0
 40
2.5
100
AcDbArc
 50
128.1896849999919
 51
211.8103149999947
  0
ARC
  5
5E8A
330
1E
100
AcDbEntity
  8
002
100
AcDbCircle
 10
-6307.001715122984
 20
-152.7057002396654
 30
0.0
 40
2.5
100
AcDbArc
 50
128.1896849999919
 51
211.8103149999947
  0
ARC
  5
5E8B
330
1E
100
AcDbEntity
  8
002
100
AcDbCircle
 10
-6303.094631125477
 20
-130.5475257968907
 30
0.0
 40
2.5
100
AcDbArc
 50
308.1896849999919
 51
31.81031499999473
  0
ARC
  5
5E8C
330
1E
100
AcDbEntity
  8
002
100
AcDbCircle
 10
-6304.565515365182
 20
-130.2881692199318
 30
0.0
 40
2.5
100
AcDbArc
 50
308.1896849999919
 51
31.81031499999473
  0
ARC
  5
5E8D
330
1E
100
AcDbEntity
  8
002
100
AcDbCircle
 10
-6304.39699245798
 20
-137.9335839444822
 30
0.0
 40
2.5
100
AcDbArc
 50
128.1896849999919
 51
211.8103149999947
  0
ARC
  5
5E8E
330
1E
100
AcDbEntity
  8
002
100
AcDbCircle
 10
-6305.699353790482
 20
-145.319642092074
 30
0.0
 40
2.5
100
AcDbArc
 50
308.1896849999919
 51
31.81031499999473
  0
LINE
  5
5E8F
330
1E
100
AcDbEntity
  8
002
100
AcDbLine
 10
-6306.521487064192
 20
-139.2513562499891
 30
0.0
 11
-6303.574859357918
 21
-144.001870771375
 31
0.0
  0
ARC
  5
5E90
330
1E
100
AcDbEntity
  8
002
100
AcDbCircle
 10
-6307.170238030187
 20
-145.060285515115
 30
0.0
 40
2.5
100
AcDbArc
 50
308.1896849999919
 51
31.81031499999473
  0
LINE
  5
5E91
330
1E
100
AcDbEntity
  8
002
100
AcDbLine
 10
-6301.54896389392
 20
-132.5124466579632
 30
0.0
 11
-6305.942659863185
 21
-135.968664068218
 31
0.0
  0
LINE
  5
5E92
330
1E
100
AcDbEntity
  8
002
100
AcDbLine
 10
-6303.019848133625
 20
-132.2530900810042
 30
0.0
 11
-6307.41354410289
 21
-135.709307491259
 31
0.0
  0
LINE
  5
5E93
330
1E
100
AcDbEntity
  8
002
100
AcDbLine
 10
-6302.78292597389
 20
-109.447767082664
 30
0.0
 11
-6299.836298267614
 21
-114.1982816040497
 31
0.0
  0
ARC
  5
5E94
330
1E
100
AcDbEntity
  8
002
100
AcDbCircle
 10
-6301.792269792976
 20
-123.1614676492993
 30
0.0
 40
2.5
100
AcDbArc
 50
128.1896849999919
 51
211.8103149999947
  0
LINE
  5
5E95
330
1E
100
AcDbEntity
  8
002
100
AcDbLine
 10
-6303.916764399188
 20
-124.4792399548061
 30
0.0
 11
-6300.970136692913
 21
-129.2297544761918
 31
0.0
  0
LINE
  5
5E96
330
1E
100
AcDbEntity
  8
002
100
AcDbLine
 10
-6305.387648638895
 20
-124.2198833778472
 30
0.0
 11
-6302.441020932618
 21
-128.9703978992329
 31
0.0
  0
LINE
  5
5E97
330
1E
100
AcDbEntity
  8
002
100
AcDbLine
 10
-6298.944241228916
 20
-117.74033036278
 30
0.0
 11
-6303.337937198181
 21
-121.1965477730348
 31
0.0
  0
ARC
  5
5E98
330
1E
100
AcDbEntity
  8
002
100
AcDbCircle
 10
-6301.960792700178
 20
-115.5160529247489
 30
0.0
 40
2.5
100
AcDbArc
 50
308.1896849999919
 51
31.81031499999473
  0
LINE
  5
5E99
330
1E
100
AcDbEntity
  8
002
100
AcDbLine
 10
-6300.415125468621
 20
-117.4809737858211
 30
0.0
 11
-6304.808821437887
 21
-120.9371911960759
 31
0.0
  0
ARC
  5
5E9A
330
1E
100
AcDbEntity
  8
002
100
AcDbCircle
 10
-6303.263154032681
 20
-122.9021110723404
 30
0.0
 40
2.5
100
AcDbArc
 50
128.1896849999919
 51
211.8103149999947
  0
ARC
  5
5E9B
330
1E
100
AcDbEntity
  8
002
100
AcDbCircle
 10
-6299.187547127971
 20
-108.3893513541161
 30
0.0
 40
2.5
100
AcDbArc
 50
128.1896849999919
 51
211.8103149999947
  0
ARC
  5
5E9C
330
1E
100
AcDbEntity
  8
002
100
AcDbCircle
 10
-6300.658431367677
 20
-108.1299947771572
 30
0.0
 40
2.5
100
AcDbArc
 50
128.1896849999919
 51
211.8103149999947
  0
ARC
  5
5E9D
330
1E
100
AcDbEntity
  8
002
100
AcDbCircle
 10
-6298.053708702673
 20
-93.35787848197401
 30
0.0
 40
2.5
100
AcDbArc
 50
128.1896849999919
 51
211.8103149999947
  0
LINE
  5
5E9E
330
1E
100
AcDbEntity
  8
002
100
AcDbLine
 10
-6329.611488027751
 20
-59.02297020409855
 30
0.0
 11
-6329.574142178457
 21
-58.92036341509061
 31
0.0
  0
LINE
  5
5E9F
330
1E
100
AcDbEntity
  8
003
100
AcDbLine
 10
-6265.143102614794
 20
-79.52932546208649
 30
0.0
 11
-6261.322842706121
 21
-57.86355489581797
 31
0.0
  0
LINE
  5
5EA0
330
1E
100
AcDbEntity
  8
003
100
AcDbLine
 10
-6265.143102614793
 20
-79.52932546208626
 30
0.0
 11
-6260.317544625033
 21
-80.38020153265415
 31
0.0
  0
LINE
  5
5EA1
330
1E
100
AcDbEntity
  8
002
100
AcDbLine
 10
-6282.471741847261
 20
-54.13443336495266
 30
0.0
 11
-6261.092531133367
 21
-57.90416504006384
 31
0.0
  0
LINE
  5
5EA2
330
1E
100
AcDbEntity
  8
002
100
AcDbLine
 10
-6291.130073233905
 20
-73.42398147723088
 30
0.0
 11
-6295.523769203169
 21
-76.88019888748522
 31
0.0
  0
ARC
  5
5EA3
330
1E
100
AcDbEntity
  8
002
100
AcDbCircle
 10
-6295.448986037669
 20
-78.58576218679104
 30
0.0
 40
2.5
100
AcDbArc
 50
128.1896849999919
 51
211.8103149999947
  0
LINE
  5
5EA4
330
1E
100
AcDbEntity
  8
002
100
AcDbLine
 10
-6296.102596404177
 20
-80.16289106925682
 30
0.0
 11
-6293.155968697901
 21
-84.91340559064246
 31
0.0
  0
ARC
  5
5EA5
330
1E
100
AcDbEntity
  8
002
100
AcDbCircle
 10
-6295.280463130467
 20
-86.23117691134144
 30
0.0
 40
2.5
100
AcDbArc
 50
308.1896849999919
 51
31.81031499999473
  0
LINE
  5
5EA6
330
1E
100
AcDbEntity
  8
002
100
AcDbLine
 10
-6297.573480643881
 20
-79.90353449229792
 30
0.0
 11
-6294.626852937607
 21
-84.65404901368357
 31
0.0
  0
ARC
  5
5EA7
330
1E
100
AcDbEntity
  8
002
100
AcDbCircle
 10
-6296.751347370172
 20
-85.97182033438253
 30
0.0
 40
2.5
100
AcDbArc
 50
308.1896849999919
 51
31.81031499999473
  0
ARC
  5
5EA8
330
1E
100
AcDbEntity
  8
002
100
AcDbCircle
 10
-6297.885185795469
 20
-101.0032932065246
 30
0.0
 40
2.5
100
AcDbArc
 50
308.1896849999919
 51
31.81031499999473
  0
LINE
  5
5EA9
330
1E
100
AcDbEntity
  8
002
100
AcDbLine
 10
-6293.734795898909
 20
-88.19609777241385
 30
0.0
 11
-6298.128491868174
 21
-91.65231518266841
 31
0.0
  0
LINE
  5
5EAA
330
1E
100
AcDbEntity
  8
002
100
AcDbLine
 10
-6298.707319069181
 20
-94.93500736444003
 30
0.0
 11
-6295.760691362904
 21
-99.68552188582544
 31
0.0
  0
ARC
  5
5EAB
330
1E
100
AcDbEntity
  8
002
100
AcDbCircle
 10
-6299.356070035176
 20
-100.7439366295657
 30
0.0
 40
2.5
100
AcDbArc
 50
308.1896849999919
 51
31.81031499999473
  0
ARC
  5
5EAC
330
1E
100
AcDbEntity
  8
002
100
AcDbCircle
 10
-6293.978101797964
 20
-78.84511876374995
 30
0.0
 40
2.5
100
AcDbArc
 50
128.1896849999919
 51
211.8103149999947
  0
LINE
  5
5EAD
330
1E
100
AcDbEntity
  8
002
100
AcDbLine
 10
-6292.600957473609
 20
-73.16462490027197
 30
0.0
 11
-6296.994653442875
 21
-76.62084231052631
 31
0.0
  0
LINE
  5
5EAE
330
1E
100
AcDbEntity
  8
002
100
AcDbLine
 10
-6293.497873739172
 20
-65.39077477407364
 30
0.0
 11
-6290.551246032897
 21
-70.14128929545927
 31
0.0
  0
LINE
  5
5EAF
330
1E
100
AcDbEntity
  8
002
100
AcDbLine
 10
-6294.968757978878
 20
-65.13141819711472
 30
0.0
 11
-6292.022130272602
 21
-69.88193271850036
 31
0.0
  0
LINE
  5
5EB0
330
1E
100
AcDbEntity
  8
002
100
AcDbLine
 10
-6297.189474936718
 20
-59.66271282150183
 30
0.0
 11
-6298.057715825055
 21
-64.58675158656297
 31
0.0
  0
ARC
  5
5EB1
330
1E
100
AcDbEntity
  8
002
100
AcDbCircle
 10
-6292.675740465462
 20
-71.45906061615846
 30
0.0
 40
2.5
100
AcDbArc
 50
308.1896849999919
 51
31.81031499999473
  0
ARC
  5
5EB2
330
1E
100
AcDbEntity
  8
002
100
AcDbCircle
 10
-6294.146624705167
 20
-71.19970403919956
 30
0.0
 40
2.5
100
AcDbArc
 50
308.1896849999919
 51
31.81031499999473
  0
LINE
  5
5EB3
330
1E
100
AcDbEntity
  8
002
100
AcDbLine
 10
-6304.196971752439
 20
16.33283739948524
 30
0.0
 11
-6297.35943028152
 21
55.1104620343915
 31
0.0
  0
LINE
  5
5EB4
330
1E
100
AcDbEntity
  8
002
100
AcDbLine
 10
-6314.854280024536
 20
58.19527606752558
 30
0.0
 11
-6297.35943028152
 21
55.1104620343915
 31
0.0
  0
LINE
  5
5EB5
330
1E
100
AcDbEntity
  8
002
100
AcDbLine
 10
-6303.80833254415
 20
55.6779891727067
 30
0.0
 11
-6306.298879827815
 21
8.155525159146009
 31
0.0
  0
LINE
  5
5EB6
330
1E
100
AcDbEntity
  8
002
100
AcDbLine
 10
-6306.298879827815
 20
8.155525159146009
 30
0.0
 11
-6308.071149625661
 21
-1.895516324833124
 31
0.0
  0
LINE
  5
5EB7
330
1E
100
AcDbEntity
  8
002
100
AcDbLine
 10
-6308.071149625661
 20
-1.895516324833124
 30
0.0
 11
-6309.54398565934
 21
-6.712948653364492
 31
0.0
  0
LINE
  5
5EB8
330
1E
100
AcDbEntity
  8
002
100
AcDbLine
 10
-6304.343823154963
 20
16.15782606246352
 30
0.0
 11
-6303.554184212869
 21
17.09888144495425
 31
0.0
  0
ARC
  5
5EB9
330
1E
100
AcDbEntity
  8
002
100
AcDbCircle
 10
-6304.996974580957
 20
16.7058848619738
 30
0.0
 40
0.8526290000000001
100
AcDbArc
 50
176.9999999999938
 51
319.9999999999656
  0
ARC
  5
5EBA
330
1E
100
AcDbEntity
  8
002
100
AcDbCircle
 10
-6328.042205506895
 20
60.01294984369519
 30
0.0
 40
0.5
100
AcDbArc
 50
79.99999999999499
 51
176.9999999999938
  0
LINE
  5
5EBB
330
1E
100
AcDbEntity
  8
002
100
AcDbLine
 10
-6327.955381418061
 20
60.50535372020158
 30
0.0
 11
-6315.839087777547
 21
58.3689242451926
 31
0.0
  0
LINE
  5
5EBC
330
1E
100
AcDbEntity
  8
002
100
AcDbLine
 10
-6316.360032310548
 20
55.41450098615587
 30
0.0
 11
-6315.839087777547
 21
58.3689242451926
 31
0.0
  0
LINE
  5
5EBD
330
1E
100
AcDbEntity
  8
002
100
AcDbLine
 10
-6315.375224557536
 20
55.24085280848885
 30
0.0
 11
-6314.854280024536
 21
58.19527606752558
 31
0.0
  0
LINE
  5
5EBE
330
1E
100
AcDbEntity
  8
002
100
AcDbLine
 10
-6328.541520256612
 20
60.03911748534097
 30
0.0
 11
-6328.670129223201
 21
57.58510320699247
 31
0.0
  0
LINE
  5
5EBF
330
1E
100
AcDbEntity
  8
002
100
AcDbLine
 10
-6309.238207988163
 20
57.20501104191066
 30
0.0
 11
-6308.94810148446
 21
58.00207171888223
 31
0.0
  0
ARC
  5
5EC0
330
1E
100
AcDbEntity
  8
002
100
AcDbCircle
 10
-6303.309017794433
 20
55.65182153106116
 30
0.0
 40
0.5
100
AcDbArc
 50
79.99999999999499
 51
176.9999999999938
  0
LINE
  5
5EC1
330
1E
100
AcDbEntity
  8
002
100
AcDbLine
 10
-6303.963110137193
 20
52.72466031828958
 30
0.0
 11
-6304.429346372051
 21
53.31079915683995
 31
0.0
  0
LINE
  5
5EC2
330
1E
100
AcDbEntity
  8
002
100
AcDbLine
 10
-6334.588259027473
 20
-14.22044800642811
 30
0.0
 11
-6330.510188190179
 21
-3.016041464179579
 31
0.0
  0
LINE
  5
5EC3
330
1E
100
AcDbEntity
  8
002
100
AcDbLine
 10
-6278.562988980582
 20
-11.66802095112598
 30
0.0
 11
-6268.317746498233
 21
46.43563647659425
 31
0.0
  0
LINE
  5
5EC4
330
1E
100
AcDbEntity
  8
002
100
AcDbLine
 10
-6263.98794924829
 20
-1.953285377810516
 30
0.0
 11
-6269.648545741138
 21
-34.05612335589194
 31
0.0
  0
LINE
  5
5EC5
330
1E
100
AcDbEntity
  8
002
100
AcDbLine
 10
-6262.961888781612
 20
-4.772363032026078
 30
0.0
 11
-6268.171334111619
 21
-34.31659562239224
 31
0.0
  0
LINE
  5
5EC6
330
1E
100
AcDbEntity
  8
002
100
AcDbLine
 10
-6269.498161904426
 20
-33.20325423678173
 30
0.0
 11
-6268.171334111619
 21
-34.31659562239224
 31
0.0
  0
LINE
  5
5EC7
330
1E
100
AcDbEntity
  8
002
100
AcDbLine
 10
-6269.648545741138
 20
-34.05612335589194
 30
0.0
 11
-6268.020950274908
 21
-33.46372650328203
 31
0.0
  0
LINE
  5
5EC8
330
1E
100
AcDbEntity
  8
002
100
AcDbLine
 10
-6259.675188492653
 20
-34.12231730209259
 30
0.0
 11
-6261.605948763268
 21
-35.4742501980545
 31
0.0
  0
LINE
  5
5EC9
330
1E
100
AcDbEntity
  8
002
100
AcDbLine
 10
-6274.557283966107
 20
-10.85119490410852
 30
0.0
 11
-6267.79790133849
 21
-12.04305643428938
 31
0.0
  0
LINE
  5
5ECA
330
1E
100
AcDbEntity
  8
002
100
AcDbLine
 10
-6276.187793686885
 20
-12.59454527179946
 30
0.0
 11
-6274.557283966107
 21
-10.85119490410852
 31
0.0
  0
LINE
  5
5ECB
330
1E
100
AcDbEntity
  8
002
100
AcDbLine
 10
-6278.562988980582
 20
-11.66802095112598
 30
0.0
 11
-6279.142216945922
 21
-12.07360073879863
 31
0.0
  0
LINE
  5
5ECC
330
1E
100
AcDbEntity
  8
002
100
AcDbLine
 10
-6288.014662176867
 20
-10.50914925972483
 30
0.0
 11
-6286.687834210412
 21
-11.62248966052766
 31
0.0
  0
LINE
  5
5ECD
330
1E
100
AcDbEntity
  8
002
100
AcDbLine
 10
-6286.537450547348
 20
-10.76962152622536
 30
0.0
 11
-6288.165045839931
 21
-11.36201739402736
 31
0.0
  0
LINE
  5
5ECE
330
1E
100
AcDbEntity
  8
002
100
AcDbLine
 10
-6263.98794924829
 20
-1.953285377810516
 30
0.0
 11
-6264.562420109278
 21
-1.851990665387575
 31
0.0
  0
LINE
  5
5ECF
330
1E
100
AcDbEntity
  8
002
100
AcDbLine
 10
-6263.98794924829
 20
-1.953285377810516
 30
0.0
 11
-6262.961888781612
 21
-4.772363032026078
 31
0.0
  0
LINE
  5
5ED0
330
1E
100
AcDbEntity
  8
002
100
AcDbLine
 10
-6266.986741763145
 20
-13.20151236496872
 30
0.0
 11
-6267.334038118479
 21
-15.17112787099313
 31
0.0
  0
LINE
  5
5ED1
330
1E
100
AcDbEntity
  8
002
100
AcDbLine
 10
-6266.986741763145
 20
-13.20151236496872
 30
0.0
 11
-6267.79790133849
 21
-12.04305643428938
 31
0.0
  0
LINE
  5
5ED2
330
1E
100
AcDbEntity
  8
002
100
AcDbLine
 10
-6267.334038118479
 20
-15.17112787099313
 30
0.0
 11
-6265.172786235724
 21
-17.31098556857296
 31
0.0
  0
LINE
  5
5ED3
330
1E
100
AcDbEntity
  8
002
100
AcDbLine
 10
-6277.839537040723
 20
48.62229835983271
 30
0.0
 11
-6268.723326285907
 21
47.01486444193392
 31
0.0
  0
LINE
  5
5ED4
330
1E
100
AcDbEntity
  8
002
100
AcDbLine
 10
-6278.004799656367
 20
51.69771845353057
 30
0.0
 11
-6283.867564065253
 21
52.73148200035461
 31
0.0
  0
LINE
  5
5ED5
330
1E
100
AcDbEntity
  8
002
100
AcDbLine
 10
-6283.867564065253
 20
52.73148200035461
 30
0.0
 11
-6284.410095829447
 21
52.53401671108713
 31
0.0
  0
ARC
  5
5ED6
330
1E
100
AcDbEntity
  8
002
100
AcDbCircle
 10
-6278.091623745201
 20
51.20531457702441
 30
0.0
 40
0.5
100
AcDbArc
 50
342.9999999999943
 51
79.99999999999499
  0
LINE
  5
5ED7
330
1E
100
AcDbEntity
  8
002
100
AcDbLine
 10
-6278.478126094926
 20
48.2309700287135
 30
0.0
 11
-6277.839537040723
 21
48.62229835983271
 31
0.0
  0
LINE
  5
5ED8
330
1E
100
AcDbEntity
  8
002
100
AcDbLine
 10
-6268.723326285907
 20
47.01486444193392
 30
0.0
 11
-6268.317746498233
 21
46.43563647659425
 31
0.0
  0
LINE
  5
5ED9
330
1E
100
AcDbEntity
  8
002
100
AcDbLine
 10
-6290.010414100687
 20
-30.46577658646947
 30
0.0
 11
-6291.337241893493
 21
-29.35243520085873
 31
0.0
  0
LINE
  5
5EDA
330
1E
100
AcDbEntity
  8
002
100
AcDbLine
 10
-6291.526763532631
 20
5.550802494142089
 30
0.0
 11
-6293.299033330477
 21
-4.500238989837043
 31
0.0
  0
LINE
  5
5EDB
330
1E
100
AcDbEntity
  8
002
100
AcDbLine
 10
-6293.299033330477
 20
-4.500238989837043
 30
0.0
 11
-6293.56267808866
 21
-9.530884365075962
 31
0.0
  0
LINE
  5
5EDC
330
1E
100
AcDbEntity
  8
002
100
AcDbLine
 10
-6290.626966774634
 20
13.73917419210852
 30
0.0
 11
-6291.047125749614
 21
14.89354958858416
 31
0.0
  0
LINE
  5
5EDD
330
1E
100
AcDbEntity
  8
002
100
AcDbLine
 10
-6297.35943028152
 20
55.1104620343915
 30
0.0
 11
-6296.917154292701
 21
54.739348567457
 31
0.0
  0
LINE
  5
5EDE
330
1E
100
AcDbEntity
  8
002
100
AcDbLine
 10
-6277.613471498895
 20
51.05912841451936
 30
0.0
 11
-6291.526763532631
 21
5.550802494142089
 31
0.0
  0
LINE
  5
5EDF
330
1E
100
AcDbEntity
  8
002
100
AcDbLine
 10
-6290.705105536172
 20
13.95385736544835
 30
0.0
 11
-6283.867564065253
 21
52.73148200035461
 31
0.0
  0
LINE
  5
5EE0
330
1E
100
AcDbEntity
  8
002
100
AcDbLine
 10
-6288.014662176867
 20
-10.50914925972483
 30
0.0
 11
-6291.487625730206
 21
-30.20530431996894
 31
0.0
  0
LINE
  5
5EE1
330
1E
100
AcDbEntity
  8
002
100
AcDbLine
 10
-6286.537450547348
 20
-10.76962152622536
 30
0.0
 11
-6290.010414100687
 21
-30.46577658646947
 31
0.0
  0
LINE
  5
5EE2
330
1E
100
AcDbEntity
  8
002
100
AcDbLine
 10
-6294.167274218811
 20
-9.424277754898184
 30
0.0
 11
-6276.187793686885
 21
-12.59454527179946
 31
0.0
  0
ARC
  5
5EE3
330
1E
100
AcDbEntity
  8
002
100
AcDbCircle
 10
-6289.82575805021
 20
14.03079005743325
 30
0.0
 40
0.8526290000000001
100
AcDbArc
 50
200.0000000000165
 51
342.9999999999943
  0
LINE
  5
5EE4
330
1E
100
AcDbEntity
  8
002
100
AcDbLine
 10
-6220.572292059491
 20
-42.70959099205924
 30
0.0
 11
-6224.392551968163
 21
-64.37536155832799
 31
0.0
  0
ARC
  5
5EE5
330
1E
100
AcDbEntity
  8
002
100
AcDbCircle
 10
-6260.043919249081
 20
45.09348718897626
 30
0.0
 40
8.333332999999999
100
AcDbArc
 50
358.5307659999834
 51
32.05481199996854
  0
ARC
  5
5EE6
330
1E
100
AcDbEntity
  8
002
100
AcDbCircle
 10
-6264.531366247902
 20
46.3138766406696
 30
0.0
 40
8.333332999999999
100
AcDbArc
 50
349.999999999996
 51
33.15654500001734
  0
LINE
  5
5EE7
330
1E
100
AcDbEntity
  8
002
100
AcDbLine
 10
-6251.71332479641
 20
44.8798195518716
 30
0.0
 11
-6252.729261385976
 21
5.269992818395849
 31
0.0
  0
ARC
  5
5EE8
330
1E
100
AcDbEntity
  8
002
100
AcDbCircle
 10
-6246.295483299427
 20
54.54142575679611
 30
0.0
 40
8.333332999999999
100
AcDbArc
 50
172.4616519999938
 51
212.0548119999685
  0
LINE
  5
5EE9
330
1E
100
AcDbEntity
  8
002
100
AcDbLine
 10
-6253.358322762137
 20
50.11867239724529
 30
0.0
 11
-6252.981078801566
 21
49.51624037487886
 31
0.0
  0
LWPOLYLINE
  5
5EEA
330
1E
100
AcDbEntity
  8
002
100
AcDbPolyline
 90
       34
 70
     0
 43
0.0
 10
-6235.860156994051
 20
196.9189478415287
 10
-6235.783971698214
 20
198.4241630042638
 10
-6236.075439672081
 20
199.9819511896407
 10
-6236.732207502151
 20
201.5797448016724
 10
-6237.748977690056
 20
203.2046500538306
 10
-6239.117545916028
 20
204.8435581285448
 10
-6240.826869813811
 20
206.4832446307614
 10
-6242.863157384656
 20
208.1104785969659
 10
-6245.209978582835
 20
209.7121325436871
 10
-6247.848397869916
 20
211.2752830128165
 10
-6250.757127276383
 20
212.7873157483475
 10
-6253.912697363401
 20
214.2360330139733
 10
-6257.289647414511
 20
215.6097439929026
 10
-6260.860729821384
 20
216.8973668293126
 10
-6264.597131266008
 20
218.088510276653
 10
-6268.468704505
 20
219.1735643233816
 10
-6272.444211158092
 20
220.1437744813431
 10
-6276.491574401728
 20
220.9913117281416
 10
-6280.578138439779
 20
221.7093385673535
 10
-6284.670930578977
 20
222.2920603166353
 10
-6288.736927417218
 20
222.7347761056064
 10
-6292.743321666971
 20
223.0339147543261
 10
-6296.657788745571
 20
223.1870604563935
 10
-6300.448742996481
 20
223.1929796799895
 10
-6304.085598425387
 20
223.051622463917
 10
-6307.539008814849
 20
222.7641312472121
 10
-6310.781112180138
 20
222.3328250785609
 10
-6313.785747767017
 20
221.7611840612523
 10
-6316.528673337352
 20
221.0538206483377
 10
-6318.987757717943
 20
220.2164414988958
 10
-6321.143158113387
 20
219.2558036015045
 10
-6322.977485368116
 20
218.179658118561
 10
-6324.475937888219
 20
216.996687689053
 10
-6325.626425598641
 20
215.7164368971591
  0
LWPOLYLINE
  5
5EEB
330
1E
100
AcDbEntity
  8
002
100
AcDbPolyline
 90
       37
 70
     0
 43
0.0
 10
-6239.963522959872
 20
197.6424819730236
 10
-6239.930717949382
 20
198.7450022023672
 10
-6240.211615781263
 20
199.8943700796553
 10
-6240.80407031628
 20
201.081806558277
 10
-6241.70355607942
 20
202.2982399788534
 10
-6242.903203258716
 20
203.5343782432046
 10
-6244.393845042726
 20
204.7807801176752
 10
-6246.164098208328
 20
206.0279222451199
 10
-6248.200436353402
 20
207.2662790759586
 10
-6250.487306805962
 20
208.4863912074606
 10
-6253.007238786564
 20
209.6789372578791
 10
-6255.740983605523
 20
210.8348083429075
 10
-6258.667657234108
 20
211.9451748473191
 10
-6261.764905062467
 20
213.0015540624453
 10
-6265.009065846383
 20
213.9958766651975
 10
-6268.375358882638
 20
214.9205481540777
 10
-6271.838068287034
 20
215.7685036817524
 10
-6275.370743029332
 20
216.5332656659941
 10
-6278.946398357398
 20
217.2089935221652
 10
-6282.537718784144
 20
217.7905245324266
 10
-6286.117271733751
 20
218.2734176098897
 10
-6289.657711801237
 20
218.6539811916768
 10
-6293.131995440557
 20
218.9293110942253
 10
-6296.513582731211
 20
219.0973037507999
 10
-6299.776641404705
 20
219.1566739091822
 10
-6302.896245309436
 20
219.1069693178533
 10
-6305.848564473791
 20
218.9485697147415
 10
-6308.611046132313
 20
218.6826852379403
 10
-6311.162588915297
 20
218.3113475383975
 10
-6313.483699542576
 20
217.8373906996316
 10
-6315.556649460232
 20
217.2644382399478
 10
-6317.365603262762
 20
216.5968658465583
 10
-6318.896741786841
 20
215.839771293578
 10
-6320.138368636983
 20
214.9989404231898
 10
-6321.080999619799
 20
214.0807948817316
 10
-6321.717434337522
 20
213.0923488951052
 10
-6322.042811617843
 20
212.0411540552477
  0
LINE
  5
5EEC
330
1E
100
AcDbEntity
  8
002
100
AcDbLine
 10
-6303.962218477852
 20
159.4148045049168
 30
0.0
 11
-6298.604534794551
 21
174.1349211444726
 31
0.0
  0
LINE
  5
5EED
330
1E
100
AcDbEntity
  8
002
100
AcDbLine
 10
-6313.962218507124
 20
102.7019861427368
 30
0.0
 11
-6288.948101599566
 21
171.427707458434
 31
0.0
  0
LINE
  5
5EEE
330
1E
100
AcDbEntity
  8
002
100
AcDbLine
 10
-6301.283376345638
 20
174.6072731869723
 30
0.0
 11
-6288.776317882383
 21
172.4019413306023
 31
0.0
  0
LINE
  5
5EEF
330
1E
100
AcDbEntity
  8
002
100
AcDbLine
 10
-6284.495844360421
 20
125.1840977622405
 30
0.0
 11
-6268.604534160897
 21
168.8451116114886
 31
0.0
  0
LINE
  5
5EF0
330
1E
100
AcDbEntity
  8
002
100
AcDbLine
 10
-6276.550189617983
 20
170.2461450479861
 30
0.0
 11
-6264.043131154728
 21
168.0408131916162
 31
0.0
  0
LINE
  5
5EF1
330
1E
100
AcDbEntity
  8
002
100
AcDbLine
 10
-6280.620325647487
 20
221.7160401105932
 30
0.0
 11
-6281.236807435155
 21
217.591061353489
 31
0.0
  0
LINE
  5
5EF2
330
1E
100
AcDbEntity
  8
002
100
AcDbLine
 10
-6281.291921035825
 20
221.8207786395077
 30
0.0
 11
-6281.908429446341
 21
217.6956258616467
 31
0.0
  0
LINE
  5
5EF3
330
1E
100
AcDbEntity
  8
002
100
AcDbLine
 10
-6274.9289940153
 20
220.6804203530229
 30
0.0
 11
-6275.756937130811
 21
216.6109517947977
 31
0.0
  0
LINE
  5
5EF4
330
1E
100
AcDbEntity
  8
002
100
AcDbLine
 10
-6275.595147942084
 20
220.8154430668725
 30
0.0
 11
-6276.42381756194
 21
216.7424013809643
 31
0.0
  0
LINE
  5
5EF5
330
1E
100
AcDbEntity
  8
003
100
AcDbLine
 10
-6135.269477615588
 20
83.46605486712793
 30
0.0
 11
-6146.367792285308
 21
13.25516321601208
 31
0.0
  0
LINE
  5
5EF6
330
1E
100
AcDbEntity
  8
003
 62
     3
100
AcDbLine
 10
-5964.144069038006
 20
-114.9220399113441
 30
0.0
 11
-5964.144069038006
 21
-252.5227380518904
 31
0.0
  0
LINE
  5
5EF7
330
1E
100
AcDbEntity
  8
003
 62
     3
100
AcDbLine
 10
-5815.379200115149
 20
-114.9220399113441
 30
0.0
 11
-5815.379200115149
 21
-252.5227380518904
 31
0.0
  0
LINE
  5
5EF8
330
1E
100
AcDbEntity
  8
003
 62
     3
100
AcDbLine
 10
-5964.144069038006
 20
-68.32000291134363
 30
0.0
 11
-5964.144069038006
 21
106.0472456086722
 31
0.0
  0
LINE
  5
5EF9
330
1E
100
AcDbEntity
  8
003
 62
     3
100
AcDbLine
 10
-5944.420186038005
 20
-68.32000291134363
 30
0.0
 11
-5982.544467038006
 21
-114.9220399113441
 31
0.0
  0
LINE
  5
5EFA
330
1E
100
AcDbEntity
  8
003
 62
     3
100
AcDbLine
 10
-5982.544467038006
 20
-114.9220399113441
 30
0.0
 11
-5964.144069038006
 21
-114.9220399113441
 31
0.0
  0
LINE
  5
5EFB
330
1E
100
AcDbEntity
  8
003
 62
     3
100
AcDbLine
 10
-5964.144069038006
 20
-68.32000291134363
 30
0.0
 11
-5944.420186038005
 21
-68.32000291134363
 31
0.0
  0
LINE
  5
5EFC
330
1E
100
AcDbEntity
  8
003
 62
     3
100
AcDbLine
 10
-5815.379200115149
 20
-68.32000291134363
 30
0.0
 11
-5815.379200115149
 21
106.0472456086722
 31
0.0
  0
LINE
  5
5EFD
330
1E
100
AcDbEntity
  8
003
 48
0.25
100
AcDbLine
 10
-5815.379200115149
 20
68.20219365093499
 30
0.0
 11
-5741.995251960376
 21
83.46605486712769
 31
0.0
  0
LINE
  5
5EFE
330
1E
100
AcDbEntity
  8
003
 62
     3
100
AcDbLine
 10
-5795.655317115148
 20
-68.32000291134363
 30
0.0
 11
-5833.779598115149
 21
-114.9220399113441
 31
0.0
  0
LINE
  5
5EFF
330
1E
100
AcDbEntity
  8
003
 62
     3
100
AcDbLine
 10
-5815.379200115149
 20
-68.32000291134363
 30
0.0
 11
-5795.655317115148
 21
-68.32000291134363
 31
0.0
  0
LINE
  5
5F00
330
1E
100
AcDbEntity
  8
003
 62
     3
100
AcDbLine
 10
-5833.779598115149
 20
-114.9220399113441
 30
0.0
 11
-5815.379200115149
 21
-114.9220399113441
 31
0.0
  0
DIMENSION
  5
5F01
330
1E
100
AcDbEntity
  8
001
100
AcDbDimension
  2
*D7
 10
-5410.951204818931
 20
-577.1853655364308
 30
0.0
 11
-5424.076204818931
 21
-679.6853655364316
 31
0.0
 70
    32
 71
     5
 42
204.9999999999997
  3
ISO-25
100
AcDbAlignedDimension
 13
-5361.85654081893
 23
-782.1853655364307
 33
0.0
 14
-5361.85654081893
 24
-577.1853655364309
 34
0.0
 50
90.0
100
AcDbRotatedDimension
  0
LINE
  5
5F02
330
1E
100
AcDbEntity
  8
004
  6
CENTER
 62
     6
100
AcDbLine
 10
-5608.070825818931
 20
-565.2002395364308
 30
0.0
 11
-5608.070825818931
 21
-797.5425075364309
 31
0.0
  0
LINE
  5
5F03
330
1E
100
AcDbEntity
  8
002
100
AcDbLine
 10
-5361.85654081893
 20
-782.1853655364307
 30
0.0
 11
-5361.85654081893
 21
-577.1853655364309
 31
0.0
  0
LINE
  5
5F04
330
1E
100
AcDbEntity
  8
002
100
AcDbLine
 10
-5339.856540818931
 20
-577.1853655364309
 30
0.0
 11
-5339.856540818931
 21
-782.1853655364307
 31
0.0
  0
LINE
  5
5F05
330
1E
100
AcDbEntity
  8
002
100
AcDbLine
 10
-5361.85654081893
 20
-613.3606935364309
 30
0.0
 11
-5339.856540818931
 21
-591.360693536431
 31
0.0
  0
LINE
  5
5F06
330
1E
100
AcDbEntity
  8
002
100
AcDbLine
 10
-5361.85654081893
 20
-633.1596835364309
 30
0.0
 11
-5339.856540818931
 21
-611.1596835364309
 31
0.0
  0
LINE
  5
5F07
330
1E
100
AcDbEntity
  8
002
100
AcDbLine
 10
-5361.85654081893
 20
-623.260188536431
 30
0.0
 11
-5339.856540818931
 21
-601.260188536431
 31
0.0
  0
LINE
  5
5F08
330
1E
100
AcDbEntity
  8
001
 62
     3
100
AcDbLine
 10
-4906.246692462065
 20
-935.76519124178
 30
0.0
 11
-4906.246692462065
 21
406.5548087582201
 31
0.0
  0
LINE
  5
5F09
330
1E
100
AcDbEntity
  8
001
 62
     3
100
AcDbLine
 10
-4906.246692462065
 20
-883.26519124178
 30
0.0
 11
-5291.246692462066
 21
-883.26519124178
 31
0.0
  0
LINE
  5
5F0A
330
1E
100
AcDbEntity
  8
001
 62
     3
100
AcDbLine
 10
-4906.246692462065
 20
-813.26519124178
 30
0.0
 11
-5291.246692462066
 21
-813.26519124178
 31
0.0
  0
LINE
  5
5F0B
330
1E
100
AcDbEntity
  8
001
 62
     3
100
AcDbLine
 10
-4906.246692462065
 20
-883.26519124178
 30
0.0
 11
-5291.246692462066
 21
-883.26519124178
 31
0.0
  0
TEXT
  5
5F0C
330
1E
100
AcDbEntity
  8
001
100
AcDbText
 10
-5221.167334462067
 20
-868.7841002417799
 30
0.0
 40
22.0
  1
ＰＵＣ受圧板　アンカー頭部図面
 41
0.681818
100
AcDbText
  0
LINE
  5
5F0D
330
1E
100
AcDbEntity
  8
004
  6
CENTER
 62
     6
100
AcDbLine
 10
-5383.463684818931
 20
-679.6853655364307
 30
0.0
 11
-5321.752369818931
 21
-679.6853655364307
 31
0.0
  0
CIRCLE
  5
5F0E
330
1E
100
AcDbEntity
  8
002
100
AcDbCircle
 10
-5608.070825818931
 20
-679.6853655364307
 30
0.0
 40
44.5
  0
TEXT
  5
5F0F
330
1E
100
AcDbEntity
  8
001
100
AcDbText
 10
-5249.679378462065
 20
-836.4605582417803
 30
0.0
 40
16.0
  1
ＶＳＬ工法　Ｅ５－３用
 41
0.729167
100
AcDbText
  0
LINE
  5
5F10
330
1E
100
AcDbEntity
  8
001
 62
     3
100
AcDbLine
 10
-5291.246692462066
 20
-935.76519124178
 30
0.0
 11
-5291.246692462066
 21
-813.26519124178
 31
0.0
  0
LINE
  5
5F11
330
1E
100
AcDbEntity
  8
001
 62
     3
100
AcDbLine
 10
-5256.246692462066
 20
-935.76519124178
 30
0.0
 11
-5256.246692462066
 21
-813.26519124178
 31
0.0
  0
INSERT
  5
5F12
330
1E
100
AcDbEntity
  8
001
  6
ByBlock
100
AcDbBlockReference
  2
PART1
 10
-6650.570930818931
 20
-986.2210445364311
 30
0.0
  0
LINE
  5
5F13
330
1E
100
AcDbEntity
  8
002
100
AcDbLine
 10
-5361.85654081893
 20
-782.1853655364307
 30
0.0
 11
-5339.856540818931
 21
-782.1853655364307
 31
0.0
  0
LINE
  5
5F14
330
1E
100
AcDbEntity
  8
002
100
AcDbLine
 10
-5353.982727818931
 20
-635.1853655364309
 30
0.0
 11
-5339.856540818931
 21
-621.0591785364311
 31
0.0
  0
LINE
  5
5F15
330
1E
100
AcDbEntity
  8
002
100
AcDbLine
 10
-5344.08323281893
 20
-635.1853655364309
 30
0.0
 11
-5339.856540818931
 21
-630.958673536431
 31
0.0
  0
LINE
  5
5F16
330
1E
100
AcDbEntity
  8
002
100
AcDbLine
 10
-5361.85654081893
 20
-635.1853655364309
 30
0.0
 11
-5339.856540818931
 21
-635.1853655364309
 31
0.0
  0
TEXT
  5
5F17
330
1E
100
AcDbEntity
  8
001
100
AcDbText
 10
-5171.197175462066
 20
-921.8350362417799
 30
0.0
 40
21.0
  1
ＶＳＬ協会
 41
0.9920629999999999
100
AcDbText
  0
LINE
  5
5F18
330
1E
100
AcDbEntity
  8
001
 62
     3
100
AcDbLine
 10
-4958.746692462066
 20
-935.76519124178
 30
0.0
 11
-4958.746692462066
 21
-883.26519124178
 31
0.0
  0
LWPOLYLINE
  5
5F19
330
1E
100
AcDbEntity
  8
003
100
AcDbPolyline
 90
        4
 70
     0
 43
0.0
 10
-5376.995251960376
 20
-63.53394513287231
 10
-5328.895251960375
 20
-63.53394513287231
 10
-5252.695251960375
 20
68.46605486712769
 10
-5369.259311247861
 20
68.46605486712769
  0
LWPOLYLINE
  5
5F1A
330
1E
100
AcDbEntity
  8
003
100
AcDbPolyline
 90
        4
 70
     0
 43
0.0
 10
-5369.259311247861
 20
68.46605486712769
 10
-5273.495251960376
 20
68.46605486712769
 10
-5336.995251960376
 20
-41.5339451328723
 10
-5396.962978404147
 20
-41.5339451328723
  0
LINE
  5
5F1B
330
1E
100
AcDbEntity
  8
001
100
AcDbLine
 10
-5418.902094960374
 20
133.0285928671278
 30
0.0
 11
-5351.720811960375
 21
176.7181128671277
 31
0.0
  0
LINE
  5
5F1C
330
1E
100
AcDbEntity
  8
002
100
AcDbLine
 10
-5398.072891934734
 20
-41.5339451328723
 30
0.0
 11
-5339.162980960375
 21
-41.5339451328723
 31
0.0
  0
LINE
  5
5F1D
330
1E
100
AcDbEntity
  8
002
100
AcDbLine
 10
-5411.504568960376
 20
-19.5339451328723
 30
0.0
 11
-5339.495251960375
 21
-19.5339451328723
 31
0.0
  0
LINE
  5
5F1E
330
1E
100
AcDbEntity
  8
001
100
AcDbLine
 10
-5407.552427960375
 20
-230.0145840691655
 30
0.0
 11
-5341.873350960375
 21
-282.0865590691655
 31
0.0
  0
LWPOLYLINE
  5
5F1F
330
1E
100
AcDbEntity
  8
003
 62
     3
100
AcDbPolyline
 90
       58
 70
     0
 43
0.0
 10
-5064.341407291393
 20
-216.9475051328722
 10
-5381.846183019495
 20
-216.9475051328722
 10
-5381.627036960376
 20
-217.5637568588972
 10
-5381.968591960376
 20
-219.7053058588971
 10
-5383.094386960375
 20
-221.8565088588975
 10
-5384.549548960375
 20
-224.0271628588975
 10
-5385.879205960375
 20
-226.2270668588976
 10
-5386.628486960375
 20
-228.4660208588975
 10
-5386.296615960375
 20
-231.3719378588971
 10
-5384.971937960376
 20
-234.3139388588974
 10
-5383.332799960375
 20
-237.2492558588974
 10
-5382.057549960375
 20
-240.1351198588972
 10
-5381.824534960375
 20
-242.9287638588971
 10
-5382.721845960375
 20
-245.0969148588974
 10
-5384.268582960375
 20
-247.2087368588972
 10
-5385.992510960376
 20
-249.2959018588972
 10
-5387.421394960376
 20
-251.3900828588971
 10
-5388.082996960374
 20
-253.5229498588973
 10
-5387.509041960375
 20
-256.0593558588975
 10
-5385.957325960375
 20
-258.6536838588972
 10
-5384.100363960374
 20
-261.2701828588974
 10
-5382.610674960375
 20
-263.8730998588971
 10
-5382.160773960375
 20
-266.4266828588974
 10
-5382.954214960375
 20
-268.5542348588974
 10
-5384.486675960375
 20
-270.6416578588973
 10
-5386.241945960375
 20
-272.7111938588973
 10
-5387.703816960375
 20
-274.7850858588972
 10
-5388.356077960374
 20
-276.8855778588972
 10
-5387.738696960376
 20
-279.2525938588974
 10
-5386.150580960375
 20
-281.6492708588971
 10
-5384.237487960375
 20
-284.0457168588973
 10
-5382.645178960375
 20
-286.4120408588973
 10
-5382.019411960374
 20
-288.7183528588971
 10
-5382.631469960376
 20
-290.6815508588974
 10
-5384.040632960376
 20
-292.6100638588973
 10
-5385.798253960375
 20
-294.5386748588976
 10
-5387.455681960375
 20
-296.5021638588973
 10
-5388.564268960376
 20
-298.5353108588974
 10
-5388.422087960375
 20
-302.3496458588974
 10
-5386.397201960375
 20
-306.3512258588975
 10
-5383.721089960375
 20
-310.4012328588974
 10
-5381.625230960375
 20
-314.3608488588975
 10
-5381.341101960376
 20
-318.0912558588975
 10
-5382.509010960376
 20
-320.2723998588972
 10
-5384.380486960376
 20
-322.3598998588972
 10
-5386.455020960375
 20
-324.4057258588973
 10
-5388.232104960375
 20
-326.4618468588973
 10
-5389.211227960375
 20
-328.5802328588975
 10
-5388.811883960375
 20
-331.4379778588973
 10
-5387.094575960375
 20
-334.4347608588973
 10
-5384.866733960375
 20
-337.5226358588975
 10
-5382.935791960375
 20
-340.6536568588971
 10
-5382.109178960376
 20
-343.7798758588974
 10
-5382.539843960375
 20
-345.9790378588972
 10
-5383.640496960375
 20
-348.1556388588974
 10
-5385.112803960375
 20
-350.3138328588975
 10
-5386.658428960375
 20
-352.4577748588971
 10
-5387.979038960375
 20
-354.5916218588972
  0
DIMENSION
  5
5F20
330
1E
100
AcDbEntity
  8
001
100
AcDbDimension
  2
*D8
 10
-5339.856540818931
 20
-551.0610095364311
 30
0.0
 11
-5300.481540818931
 21
-537.9360095364311
 31
0.0
 70
    32
 71
     5
 42
22.0
  3
ISO-25
100
AcDbAlignedDimension
 13
-5361.85654081893
 23
-577.1853655364309
 33
0.0
 14
-5339.856540818931
 24
-577.1853655364309
 34
0.0
100
AcDbRotatedDimension
  0
LINE
  5
5F21
330
1E
100
AcDbEntity
  8
003
100
AcDbLine
 10
-5369.259311247861
 20
83.46605486712769
 30
0.0
 11
-5141.995251960376
 21
83.46605486712769
 31
0.0
  0
LINE
  5
5F22
330
1E
100
AcDbEntity
  8
001
100
AcDbLine
 10
-5393.621935244791
 20
2.466054867127695
 30
0.0
 11
-5283.55808611209
 21
99.30885555122632
 31
0.0
  0
LWPOLYLINE
  5
5F23
330
1E
100
AcDbEntity
  8
003
100
AcDbPolyline
 90
        4
 70
     0
 43
0.0
 10
-5369.259311247861
 20
68.46605486712769
 10
-5263.495251960375
 20
68.46605486712769
 10
-5254.495251960376
 20
83.46605486712769
 10
-5369.259311247861
 20
83.46605486712769
  0
LWPOLYLINE
  5
5F24
330
1E
100
AcDbEntity
  8
003
100
AcDbPolyline
 90
        3
 70
     0
 43
0.0
 10
-5511.895251960375
 20
-216.9475051328722
 10
-5511.895251960375
 20
-63.53394513287231
 10
-5506.995251960375
 20
-63.53394513287231
  0
LINE
  5
5F25
330
1E
100
AcDbEntity
  8
004
  6
CENTER
 62
     6
100
AcDbLine
 10
-5441.995251960376
 20
-355.4453110998569
 30
0.0
 11
-5441.995251960376
 21
246.8846888671277
 31
0.0
  0
LINE
  5
5F26
330
1E
100
AcDbEntity
  8
003
100
AcDbLine
 10
-5507.395251960375
 20
-216.9475051328722
 30
0.0
 11
-5507.395251960375
 21
-63.53394513287231
 31
0.0
  0
LINE
  5
5F27
330
1E
100
AcDbEntity
  8
002
100
AcDbLine
 10
-5398.489040960375
 20
-175.5339451328723
 30
0.0
 11
-5398.004568960375
 21
-19.5339451328723
 31
0.0
  0
LINE
  5
5F28
330
1E
100
AcDbEntity
  8
002
100
AcDbLine
 10
-5485.520096960375
 20
-175.5339451328723
 30
0.0
 11
-5486.004568960376
 21
-19.5339451328723
 31
0.0
  0
LINE
  5
5F29
330
1E
100
AcDbEntity
  8
002
100
AcDbLine
 10
-5479.504568960376
 20
-157.8672781328721
 30
0.0
 11
-5404.504568960376
 21
-150.3672781328721
 31
0.0
  0
LINE
  5
5F2A
330
1E
100
AcDbEntity
  8
002
100
AcDbLine
 10
-5476.193058960374
 20
-152.0339451328723
 30
0.0
 11
-5479.919838960375
 21
-156.2006121328722
 31
0.0
  0
LINE
  5
5F2B
330
1E
100
AcDbEntity
  8
002
100
AcDbLine
 10
-5475.141178960376
 20
-152.0339451328723
 30
0.0
 11
-5478.867958960375
 21
-156.2006121328722
 31
0.0
  0
LINE
  5
5F2C
330
1E
100
AcDbEntity
  8
002
100
AcDbLine
 10
-5405.141178960375
 20
-152.0339451328723
 30
0.0
 11
-5408.867958960374
 21
-156.2006121328722
 31
0.0
  0
LINE
  5
5F2D
330
1E
100
AcDbEntity
  8
002
100
AcDbLine
 10
-5403.647603960375
 20
-152.0339451328723
 30
0.0
 11
-5407.374383960376
 21
-156.2006121328722
 31
0.0
  0
LWPOLYLINE
  5
5F2E
330
1E
100
AcDbEntity
  8
003
100
AcDbPolyline
 90
        3
 70
     0
 43
0.0
 10
-5376.995251960376
 20
-63.53394513287231
 10
-5372.095251960375
 20
-63.53394513287231
 10
-5372.095251960375
 20
-216.9475051328722
  0
LINE
  5
5F2F
330
1E
100
AcDbEntity
  8
003
100
AcDbLine
 10
-5376.595251960375
 20
-63.53394513287231
 30
0.0
 11
-5376.595251960375
 21
-216.9475051328722
 31
0.0
  0
LINE
  5
5F30
330
1E
100
AcDbEntity
  8
001
100
AcDbLine
 10
-5485.584242960374
 20
-155.8791211328721
 30
0.0
 11
-5541.796190960375
 21
-213.3567781328722
 31
0.0
  0
LINE
  5
5F31
330
1E
100
AcDbEntity
  8
001
100
AcDbLine
 10
-5684.265387467777
 20
-510.0088268918648
 30
0.0
 11
-5535.265387467777
 21
-510.0088268918648
 31
0.0
  0
TEXT
  5
5F32
330
1E
100
AcDbEntity
  8
001
100
AcDbText
 10
-5684.265387467777
 20
-510.0088268918648
 30
0.0
 40
16.0
  1
メッキ付　円形プレート
 41
0.703125
100
AcDbText
  0
TEXT
  5
5F33
330
1E
100
AcDbEntity
  8
001
100
AcDbText
 10
-5637.171190960375
 20
-209.8567261328721
 30
0.0
 40
11.19999999999999
  1
ジョイントコネクタ
 41
0.716146
100
AcDbText
  0
LINE
  5
5F34
330
1E
100
AcDbEntity
  8
001
100
AcDbLine
 10
-5541.796190960375
 20
-213.3567781328722
 30
0.0
 11
-5647.671190960375
 21
-213.3567781328722
 31
0.0
  0
LINE
  5
5F35
330
1E
100
AcDbEntity
  8
002
100
AcDbLine
 10
-5479.504568960376
 20
-202.8672781328721
 30
0.0
 11
-5404.504568960376
 21
-195.3672781328721
 31
0.0
  0
LINE
  5
5F36
330
1E
100
AcDbEntity
  8
002
100
AcDbLine
 10
-5479.504568960376
 20
-247.8672781328721
 30
0.0
 11
-5404.504568960376
 21
-240.3672781328721
 31
0.0
  0
LINE
  5
5F37
330
1E
100
AcDbEntity
  8
002
100
AcDbLine
 10
-5409.504568960375
 20
-247.8672781328721
 30
0.0
 11
-5474.504568960376
 21
-255.367278132872
 31
0.0
  0
LINE
  5
5F38
330
1E
100
AcDbEntity
  8
002
100
AcDbLine
 10
-5479.504568960376
 20
-262.8672781328721
 30
0.0
 11
-5404.504568960376
 21
-255.367278132872
 31
0.0
  0
LINE
  5
5F39
330
1E
100
AcDbEntity
  8
002
100
AcDbLine
 10
-5409.504568960375
 20
-202.8672781328721
 30
0.0
 11
-5474.504568960376
 21
-210.3672781328721
 31
0.0
  0
LINE
  5
5F3A
330
1E
100
AcDbEntity
  8
002
100
AcDbLine
 10
-5409.504568960375
 20
-232.8672781328721
 30
0.0
 11
-5474.504568960376
 21
-240.3672781328721
 31
0.0
  0
LINE
  5
5F3B
330
1E
100
AcDbEntity
  8
002
100
AcDbLine
 10
-5409.504568960375
 20
-217.867278132872
 30
0.0
 11
-5474.504568960376
 21
-225.3672781328721
 31
0.0
  0
LINE
  5
5F3C
330
1E
100
AcDbEntity
  8
002
100
AcDbLine
 10
-5479.504568960376
 20
-217.867278132872
 30
0.0
 11
-5404.504568960376
 21
-210.3672781328721
 31
0.0
  0
LINE
  5
5F3D
330
1E
100
AcDbEntity
  8
002
100
AcDbLine
 10
-5479.504568960376
 20
-232.8672781328721
 30
0.0
 11
-5404.504568960376
 21
-225.3672781328721
 31
0.0
  0
LINE
  5
5F3E
330
1E
100
AcDbEntity
  8
002
100
AcDbLine
 10
-5409.504568960375
 20
-172.8672781328721
 30
0.0
 11
-5474.504568960376
 21
-180.3672781328721
 31
0.0
  0
LINE
  5
5F3F
330
1E
100
AcDbEntity
  8
002
100
AcDbLine
 10
-5409.504568960375
 20
-157.8672781328721
 30
0.0
 11
-5474.504568960376
 21
-165.3672781328721
 31
0.0
  0
LINE
  5
5F40
330
1E
100
AcDbEntity
  8
002
100
AcDbLine
 10
-5409.504568960375
 20
-187.8672781328721
 30
0.0
 11
-5474.504568960376
 21
-195.3672781328721
 31
0.0
  0
LINE
  5
5F41
330
1E
100
AcDbEntity
  8
002
100
AcDbLine
 10
-5479.504568960376
 20
-172.8672781328721
 30
0.0
 11
-5404.504568960376
 21
-165.3672781328721
 31
0.0
  0
LINE
  5
5F42
330
1E
100
AcDbEntity
  8
002
100
AcDbLine
 10
-5479.504568960376
 20
-187.8672781328721
 30
0.0
 11
-5404.504568960376
 21
-180.3672781328721
 31
0.0
  0
LINE
  5
5F43
330
1E
100
AcDbEntity
  8
002
100
AcDbLine
 10
-5479.504568960376
 20
-292.8672781328721
 30
0.0
 11
-5447.695879756225
 21
-289.6864092124569
 31
0.0
  0
LINE
  5
5F44
330
1E
100
AcDbEntity
  8
002
100
AcDbLine
 10
-5479.504568960376
 20
-277.8672781328721
 30
0.0
 11
-5408.799801009141
 21
-270.7968013377487
 31
0.0
  0
LINE
  5
5F45
330
1E
100
AcDbEntity
  8
002
100
AcDbLine
 10
-5420.507554952617
 20
-279.1368534396692
 30
0.0
 11
-5474.504568960376
 21
-285.3672781328721
 31
0.0
  0
LINE
  5
5F46
330
1E
100
AcDbEntity
  8
002
100
AcDbLine
 10
-5409.504568960375
 20
-262.8672781328721
 30
0.0
 11
-5474.504568960376
 21
-270.3672781328721
 31
0.0
  0
LWPOLYLINE
  5
5F47
330
1E
100
AcDbEntity
  8
002
100
AcDbPolyline
 90
       24
 70
     0
 43
0.0
 10
-5401.040185960376
 20
-262.5973259668433
 10
-5403.457451960376
 20
-265.4384659668435
 10
-5406.003604960375
 20
-268.1411289668433
 10
-5408.681275960375
 20
-270.6957599668435
 10
-5411.493097960375
 20
-273.0928089668434
 10
-5414.441702960376
 20
-275.3227219668433
 10
-5417.205472960375
 20
-277.1774539668433
 10
-5420.065252960376
 20
-278.8972369668433
 10
-5423.004610960376
 20
-280.4896299668434
 10
-5426.007112960375
 20
-281.9621909668435
 10
-5429.056326960375
 20
-283.3224769668433
 10
-5433.904100960376
 20
-285.2522129668434
 10
-5438.819499960374
 20
-286.9763599668433
 10
-5443.795631960375
 20
-288.5470539668433
 10
-5448.825601960376
 20
-290.0164279668434
 10
-5453.902517960376
 20
-291.4366129668433
 10
-5459.123148960375
 20
-292.9006409668433
 10
-5464.308726960375
 20
-294.4745799668435
 10
-5469.382329960375
 20
-296.2652589668434
 10
-5474.267033960376
 20
-298.3795089668433
 10
-5478.885916960375
 20
-300.9241619668435
 10
-5480.772011960374
 20
-302.1735119668433
 10
-5482.600769960375
 20
-303.5127329668434
 10
-5484.378151960374
 20
-304.9324849668435
  0
ARC
  5
5F48
330
1E
100
AcDbEntity
  8
002
100
AcDbCircle
 10
-5477.004568960376
 20
-270.3672781328721
 30
0.0
 40
2.5
100
AcDbArc
 50
318.1896850000156
 51
41.81031499998431
  0
LINE
  5
5F49
330
1E
100
AcDbEntity
  8
002
100
AcDbLine
 10
-5475.141178960376
 20
-272.033945132872
 30
0.0
 11
-5478.867958960375
 21
-276.2006121328722
 31
0.0
  0
LINE
  5
5F4A
330
1E
100
AcDbEntity
  8
002
100
AcDbLine
 10
-5478.867958960375
 20
-279.533945132872
 30
0.0
 11
-5475.141178960376
 21
-283.7006121328722
 31
0.0
  0
ARC
  5
5F4B
330
1E
100
AcDbEntity
  8
002
100
AcDbCircle
 10
-5477.004568960376
 20
-285.3672781328721
 30
0.0
 40
2.5
100
AcDbArc
 50
318.1896850000156
 51
41.81031499998431
  0
ARC
  5
5F4C
330
1E
100
AcDbEntity
  8
002
100
AcDbCircle
 10
-5477.004568960376
 20
-300.3672781328721
 30
0.0
 40
2.5
100
AcDbArc
 50
38.52449519845107
 51
41.81031499998431
  0
ARC
  5
5F4D
330
1E
100
AcDbEntity
  8
002
100
AcDbCircle
 10
-5477.004568960376
 20
-292.8672781328721
 30
0.0
 40
2.5
100
AcDbArc
 50
138.1896850000156
 51
221.8103149999843
  0
LINE
  5
5F4E
330
1E
100
AcDbEntity
  8
002
100
AcDbLine
 10
-5475.141178960376
 20
-287.0339451328721
 30
0.0
 11
-5478.867958960375
 21
-291.2006121328722
 31
0.0
  0
LINE
  5
5F4F
330
1E
100
AcDbEntity
  8
002
100
AcDbLine
 10
-5478.867958960375
 20
-294.533945132872
 30
0.0
 11
-5475.141178960376
 21
-298.7006121328722
 31
0.0
  0
ARC
  5
5F50
330
1E
100
AcDbEntity
  8
002
100
AcDbCircle
 10
-5477.004568960376
 20
-277.8672781328721
 30
0.0
 40
2.5
100
AcDbArc
 50
138.1896850000156
 51
221.8103149999843
  0
LWPOLYLINE
  5
5F51
330
1E
100
AcDbEntity
  8
001
100
AcDbPolyline
 90
        3
 70
     0
 43
0.0
 10
-5489.137617960376
 20
-162.195098132872
 10
-5485.584242960374
 20
-155.8791211328721
 10
-5491.819543960374
 20
-159.5722301328721
  0
LWPOLYLINE
  5
5F52
330
1E
100
AcDbEntity
  8
001
100
AcDbPolyline
 90
        2
 70
     0
 43
0.0
 10
-5491.846183019496
 20
-218.9475051328722
 10
-5491.847730552592
 20
-218.9475051328722
  0
LINE
  5
5F53
330
1E
100
AcDbEntity
  8
002
100
AcDbLine
 10
-5475.141178960376
 20
-197.0339451328723
 30
0.0
 11
-5478.867958960375
 21
-201.2006121328722
 31
0.0
  0
ARC
  5
5F54
330
1E
100
AcDbEntity
  8
002
100
AcDbCircle
 10
-5477.004568960376
 20
-247.8672781328721
 30
0.0
 40
2.5
100
AcDbArc
 50
138.1896850000156
 51
221.8103149999843
  0
LINE
  5
5F55
330
1E
100
AcDbEntity
  8
002
100
AcDbLine
 10
-5478.867958960375
 20
-249.5339451328721
 30
0.0
 11
-5475.141178960376
 21
-253.7006121328722
 31
0.0
  0
ARC
  5
5F56
330
1E
100
AcDbEntity
  8
002
100
AcDbCircle
 10
-5477.004568960376
 20
-255.367278132872
 30
0.0
 40
2.5
100
AcDbArc
 50
318.1896850000156
 51
41.81031499998431
  0
ARC
  5
5F57
330
1E
100
AcDbEntity
  8
002
100
AcDbCircle
 10
-5477.004568960376
 20
-262.8672781328721
 30
0.0
 40
2.5
100
AcDbArc
 50
138.1896850000156
 51
221.8103149999843
  0
LINE
  5
5F58
330
1E
100
AcDbEntity
  8
002
100
AcDbLine
 10
-5478.867958960375
 20
-264.533945132872
 30
0.0
 11
-5475.141178960376
 21
-268.7006121328722
 31
0.0
  0
LINE
  5
5F59
330
1E
100
AcDbEntity
  8
002
100
AcDbLine
 10
-5475.141178960376
 20
-257.033945132872
 30
0.0
 11
-5478.867958960375
 21
-261.2006121328722
 31
0.0
  0
ARC
  5
5F5A
330
1E
100
AcDbEntity
  8
002
100
AcDbCircle
 10
-5477.004568960376
 20
-217.867278132872
 30
0.0
 40
2.5
100
AcDbArc
 50
138.1896850000156
 51
221.8103149999843
  0
ARC
  5
5F5B
330
1E
100
AcDbEntity
  8
002
100
AcDbCircle
 10
-5477.004568960376
 20
-225.3672781328721
 30
0.0
 40
2.5
100
AcDbArc
 50
318.1896850000156
 51
41.81031499998431
  0
ARC
  5
5F5C
330
1E
100
AcDbEntity
  8
002
100
AcDbCircle
 10
-5477.004568960376
 20
-240.3672781328721
 30
0.0
 40
2.5
100
AcDbArc
 50
318.1896850000156
 51
41.81031499998431
  0
ARC
  5
5F5D
330
1E
100
AcDbEntity
  8
002
100
AcDbCircle
 10
-5477.004568960376
 20
-232.8672781328721
 30
0.0
 40
2.5
100
AcDbArc
 50
138.1896850000156
 51
221.8103149999843
  0
LINE
  5
5F5E
330
1E
100
AcDbEntity
  8
002
100
AcDbLine
 10
-5475.141178960376
 20
-242.033945132872
 30
0.0
 11
-5478.867958960375
 21
-246.2006121328722
 31
0.0
  0
LINE
  5
5F5F
330
1E
100
AcDbEntity
  8
002
100
AcDbLine
 10
-5478.867958960375
 20
-234.533945132872
 30
0.0
 11
-5475.141178960376
 21
-238.7006121328722
 31
0.0
  0
LINE
  5
5F60
330
1E
100
AcDbEntity
  8
002
100
AcDbLine
 10
-5475.141178960376
 20
-227.033945132872
 30
0.0
 11
-5478.867958960375
 21
-231.2006121328722
 31
0.0
  0
LINE
  5
5F61
330
1E
100
AcDbEntity
  8
002
100
AcDbLine
 10
-5478.867958960375
 20
-219.533945132872
 30
0.0
 11
-5475.141178960376
 21
-223.7006121328722
 31
0.0
  0
ARC
  5
5F62
330
1E
100
AcDbEntity
  8
002
100
AcDbCircle
 10
-5477.004568960376
 20
-210.3672781328721
 30
0.0
 40
2.5
100
AcDbArc
 50
318.1896850000156
 51
41.81031499998431
  0
ARC
  5
5F63
330
1E
100
AcDbEntity
  8
002
100
AcDbCircle
 10
-5477.004568960376
 20
-202.8672781328721
 30
0.0
 40
2.5
100
AcDbArc
 50
138.1896850000156
 51
221.8103149999843
  0
LINE
  5
5F64
330
1E
100
AcDbEntity
  8
002
100
AcDbLine
 10
-5478.867958960375
 20
-204.533945132872
 30
0.0
 11
-5475.141178960376
 21
-208.7006121328722
 31
0.0
  0
LINE
  5
5F65
330
1E
100
AcDbEntity
  8
002
100
AcDbLine
 10
-5475.141178960376
 20
-212.033945132872
 30
0.0
 11
-5478.867958960375
 21
-216.2006121328722
 31
0.0
  0
ARC
  5
5F66
330
1E
100
AcDbEntity
  8
002
100
AcDbCircle
 10
-5477.004568960376
 20
-187.8672781328721
 30
0.0
 40
2.5
100
AcDbArc
 50
138.1896850000156
 51
221.8103149999843
  0
ARC
  5
5F67
330
1E
100
AcDbEntity
  8
002
100
AcDbCircle
 10
-5477.004568960376
 20
-195.3672781328721
 30
0.0
 40
2.5
100
AcDbArc
 50
318.1896850000156
 51
41.81031499998431
  0
LINE
  5
5F68
330
1E
100
AcDbEntity
  8
002
100
AcDbLine
 10
-5478.867958960375
 20
-189.5339451328723
 30
0.0
 11
-5475.141178960376
 21
-193.7006121328722
 31
0.0
  0
LINE
  5
5F69
330
1E
100
AcDbEntity
  8
002
100
AcDbLine
 10
-5478.867958960375
 20
-159.5339451328723
 30
0.0
 11
-5475.141178960376
 21
-163.7006121328722
 31
0.0
  0
LINE
  5
5F6A
330
1E
100
AcDbEntity
  8
002
100
AcDbLine
 10
-5475.141178960376
 20
-167.0339451328723
 30
0.0
 11
-5478.867958960375
 21
-171.2006121328722
 31
0.0
  0
ARC
  5
5F6B
330
1E
100
AcDbEntity
  8
002
100
AcDbCircle
 10
-5477.004568960376
 20
-180.3672781328721
 30
0.0
 40
2.5
100
AcDbArc
 50
318.1896850000156
 51
41.81031499998431
  0
ARC
  5
5F6C
330
1E
100
AcDbEntity
  8
002
100
AcDbCircle
 10
-5477.004568960376
 20
-172.8672781328721
 30
0.0
 40
2.5
100
AcDbArc
 50
138.1896850000156
 51
221.8103149999843
  0
LINE
  5
5F6D
330
1E
100
AcDbEntity
  8
002
100
AcDbLine
 10
-5475.141178960376
 20
-182.0339451328722
 30
0.0
 11
-5478.867958960375
 21
-186.2006121328722
 31
0.0
  0
LINE
  5
5F6E
330
1E
100
AcDbEntity
  8
002
100
AcDbLine
 10
-5478.867958960375
 20
-174.5339451328723
 30
0.0
 11
-5475.141178960376
 21
-178.7006121328722
 31
0.0
  0
ARC
  5
5F6F
330
1E
100
AcDbEntity
  8
002
100
AcDbCircle
 10
-5477.004568960376
 20
-165.3672781328721
 30
0.0
 40
2.5
100
AcDbArc
 50
318.1896850000156
 51
41.81031499998431
  0
ARC
  5
5F70
330
1E
100
AcDbEntity
  8
002
100
AcDbCircle
 10
-5478.056448960375
 20
-165.3672781328721
 30
0.0
 40
2.5
100
AcDbArc
 50
318.1896850000156
 51
41.81031499998431
  0
ARC
  5
5F71
330
1E
100
AcDbEntity
  8
002
100
AcDbCircle
 10
-5477.004568960376
 20
-157.8672781328721
 30
0.0
 40
2.5
100
AcDbArc
 50
138.1896850000156
 51
221.8103149999843
  0
ARC
  5
5F72
330
1E
100
AcDbEntity
  8
002
100
AcDbCircle
 10
-5478.056448960375
 20
-172.8672781328721
 30
0.0
 40
2.5
100
AcDbArc
 50
138.1896850000156
 51
221.8103149999843
  0
ARC
  5
5F73
330
1E
100
AcDbEntity
  8
002
100
AcDbCircle
 10
-5478.056448960375
 20
-157.8672781328721
 30
0.0
 40
2.5
100
AcDbArc
 50
138.1896850000156
 51
221.8103149999843
  0
LINE
  5
5F74
330
1E
100
AcDbEntity
  8
002
100
AcDbLine
 10
-5479.919838960375
 20
-159.5339451328723
 30
0.0
 11
-5476.193058960374
 21
-163.7006121328722
 31
0.0
  0
LINE
  5
5F75
330
1E
100
AcDbEntity
  8
002
100
AcDbLine
 10
-5479.025411960375
 20
-175.5339451328723
 30
0.0
 11
-5485.520096960375
 21
-175.5339451328723
 31
0.0
  0
LINE
  5
5F76
330
1E
100
AcDbEntity
  8
002
100
AcDbLine
 10
-5476.193058960374
 20
-167.0339451328723
 30
0.0
 11
-5479.919838960375
 21
-171.2006121328722
 31
0.0
  0
LINE
  5
5F77
330
1E
100
AcDbEntity
  8
002
100
AcDbLine
 10
-5479.919838960375
 20
-174.5339451328723
 30
0.0
 11
-5479.025411960375
 21
-175.5339451328723
 31
0.0
  0
LINE
  5
5F78
330
1E
100
AcDbEntity
  8
002
100
AcDbLine
 10
-5405.141178960375
 20
-197.0339451328723
 30
0.0
 11
-5408.867958960374
 21
-201.2006121328722
 31
0.0
  0
LINE
  5
5F79
330
1E
100
AcDbEntity
  8
002
100
AcDbLine
 10
-5408.867958960374
 20
-249.5339451328721
 30
0.0
 11
-5405.141178960375
 21
-253.7006121328722
 31
0.0
  0
LINE
  5
5F7A
330
1E
100
AcDbEntity
  8
002
100
AcDbLine
 10
-5408.867958960374
 20
-264.533945132872
 30
0.0
 11
-5405.141178960375
 21
-268.7006121328722
 31
0.0
  0
LINE
  5
5F7B
330
1E
100
AcDbEntity
  8
002
100
AcDbLine
 10
-5405.141178960375
 20
-257.033945132872
 30
0.0
 11
-5408.867958960374
 21
-261.2006121328722
 31
0.0
  0
LINE
  5
5F7C
330
1E
100
AcDbEntity
  8
002
100
AcDbLine
 10
-5405.141178960375
 20
-242.033945132872
 30
0.0
 11
-5408.867958960374
 21
-246.2006121328722
 31
0.0
  0
LINE
  5
5F7D
330
1E
100
AcDbEntity
  8
002
100
AcDbLine
 10
-5408.867958960374
 20
-234.533945132872
 30
0.0
 11
-5405.141178960375
 21
-238.7006121328722
 31
0.0
  0
LINE
  5
5F7E
330
1E
100
AcDbEntity
  8
002
100
AcDbLine
 10
-5405.141178960375
 20
-227.033945132872
 30
0.0
 11
-5408.867958960374
 21
-231.2006121328722
 31
0.0
  0
LINE
  5
5F7F
330
1E
100
AcDbEntity
  8
002
100
AcDbLine
 10
-5408.867958960374
 20
-219.533945132872
 30
0.0
 11
-5405.141178960375
 21
-223.7006121328722
 31
0.0
  0
LINE
  5
5F80
330
1E
100
AcDbEntity
  8
002
100
AcDbLine
 10
-5408.867958960374
 20
-204.533945132872
 30
0.0
 11
-5405.141178960375
 21
-208.7006121328722
 31
0.0
  0
LINE
  5
5F81
330
1E
100
AcDbEntity
  8
002
100
AcDbLine
 10
-5405.141178960375
 20
-212.033945132872
 30
0.0
 11
-5408.867958960374
 21
-216.2006121328722
 31
0.0
  0
LINE
  5
5F82
330
1E
100
AcDbEntity
  8
002
100
AcDbLine
 10
-5408.867958960374
 20
-189.5339451328723
 30
0.0
 11
-5405.141178960375
 21
-193.7006121328722
 31
0.0
  0
LINE
  5
5F83
330
1E
100
AcDbEntity
  8
002
100
AcDbLine
 10
-5408.867958960374
 20
-159.5339451328723
 30
0.0
 11
-5405.141178960375
 21
-163.7006121328722
 31
0.0
  0
LINE
  5
5F84
330
1E
100
AcDbEntity
  8
002
100
AcDbLine
 10
-5405.141178960375
 20
-167.0339451328723
 30
0.0
 11
-5408.867958960374
 21
-171.2006121328722
 31
0.0
  0
LINE
  5
5F85
330
1E
100
AcDbEntity
  8
002
100
AcDbLine
 10
-5405.141178960375
 20
-182.0339451328722
 30
0.0
 11
-5408.867958960374
 21
-186.2006121328722
 31
0.0
  0
LINE
  5
5F86
330
1E
100
AcDbEntity
  8
002
100
AcDbLine
 10
-5408.867958960374
 20
-174.5339451328723
 30
0.0
 11
-5405.141178960375
 21
-178.7006121328722
 31
0.0
  0
ARC
  5
5F87
330
1E
100
AcDbEntity
  8
002
100
AcDbCircle
 10
-5407.004568960376
 20
-247.8672781328721
 30
0.0
 40
2.5
100
AcDbArc
 50
138.1896850000156
 51
221.8103149999843
  0
ARC
  5
5F88
330
1E
100
AcDbEntity
  8
002
100
AcDbCircle
 10
-5407.004568960376
 20
-262.8672781328721
 30
0.0
 40
2.5
100
AcDbArc
 50
138.1896850000156
 51
221.8103149999843
  0
ARC
  5
5F89
330
1E
100
AcDbEntity
  8
002
100
AcDbCircle
 10
-5407.004568960376
 20
-217.867278132872
 30
0.0
 40
2.5
100
AcDbArc
 50
138.1896850000156
 51
221.8103149999843
  0
ARC
  5
5F8A
330
1E
100
AcDbEntity
  8
002
100
AcDbCircle
 10
-5407.004568960376
 20
-232.8672781328721
 30
0.0
 40
2.5
100
AcDbArc
 50
138.1896850000156
 51
221.8103149999843
  0
ARC
  5
5F8B
330
1E
100
AcDbEntity
  8
002
100
AcDbCircle
 10
-5407.004568960376
 20
-202.8672781328721
 30
0.0
 40
2.5
100
AcDbArc
 50
138.1896850000156
 51
221.8103149999843
  0
ARC
  5
5F8C
330
1E
100
AcDbEntity
  8
002
100
AcDbCircle
 10
-5407.004568960376
 20
-187.8672781328721
 30
0.0
 40
2.5
100
AcDbArc
 50
138.1896850000156
 51
221.8103149999843
  0
ARC
  5
5F8D
330
1E
100
AcDbEntity
  8
002
100
AcDbCircle
 10
-5407.004568960376
 20
-172.8672781328721
 30
0.0
 40
2.5
100
AcDbArc
 50
138.1896850000156
 51
221.8103149999843
  0
ARC
  5
5F8E
330
1E
100
AcDbEntity
  8
002
100
AcDbCircle
 10
-5407.004568960376
 20
-157.8672781328721
 30
0.0
 40
2.5
100
AcDbArc
 50
138.1896850000156
 51
221.8103149999843
  0
LINE
  5
5F8F
330
1E
100
AcDbEntity
  8
003
100
AcDbLine
 10
-5372.095251960375
 20
-218.9475051328722
 30
0.0
 11
-5372.095251960375
 21
-218.9475051328722
 31
0.0
  0
ARC
  5
5F90
330
1E
100
AcDbEntity
  8
002
100
AcDbCircle
 10
-5407.004568960376
 20
-255.367278132872
 30
0.0
 40
2.5
100
AcDbArc
 50
318.1896850000156
 51
41.81031499998431
  0
LWPOLYLINE
  5
5F91
330
1E
100
AcDbEntity
  8
001
100
AcDbPolyline
 90
        3
 70
     0
 43
0.0
 10
-5400.901934960375
 20
-232.8936450691656
 10
-5407.552427960375
 20
-230.0145840691655
 10
-5403.232462960375
 20
-235.8331700691655
  0
ARC
  5
5F92
330
1E
100
AcDbEntity
  8
002
100
AcDbCircle
 10
-5407.004568960376
 20
-225.3672781328721
 30
0.0
 40
2.5
100
AcDbArc
 50
318.1896850000156
 51
41.81031499998431
  0
ARC
  5
5F93
330
1E
100
AcDbEntity
  8
002
100
AcDbCircle
 10
-5407.004568960376
 20
-240.3672781328721
 30
0.0
 40
2.5
100
AcDbArc
 50
318.1896850000156
 51
41.81031499998431
  0
ARC
  5
5F94
330
1E
100
AcDbEntity
  8
002
100
AcDbCircle
 10
-5407.004568960376
 20
-210.3672781328721
 30
0.0
 40
2.5
100
AcDbArc
 50
318.1896850000156
 51
41.81031499998431
  0
ARC
  5
5F95
330
1E
100
AcDbEntity
  8
002
100
AcDbCircle
 10
-5407.004568960376
 20
-195.3672781328721
 30
0.0
 40
2.5
100
AcDbArc
 50
318.1896850000156
 51
41.81031499998431
  0
LINE
  5
5F96
330
1E
100
AcDbEntity
  8
002
100
AcDbLine
 10
-5407.374383960376
 20
-159.5339451328723
 30
0.0
 11
-5403.647603960375
 21
-163.7006121328722
 31
0.0
  0
LINE
  5
5F97
330
1E
100
AcDbEntity
  8
002
100
AcDbLine
 10
-5403.647603960375
 20
-167.0339451328723
 30
0.0
 11
-5407.374383960376
 21
-171.2006121328722
 31
0.0
  0
ARC
  5
5F98
330
1E
100
AcDbEntity
  8
002
100
AcDbCircle
 10
-5407.004568960376
 20
-180.3672781328721
 30
0.0
 40
2.5
100
AcDbArc
 50
318.1896850000156
 51
41.81031499998431
  0
LINE
  5
5F99
330
1E
100
AcDbEntity
  8
002
100
AcDbLine
 10
-5407.374383960376
 20
-174.5339451328723
 30
0.0
 11
-5406.479956960374
 21
-175.5339451328723
 31
0.0
  0
ARC
  5
5F9A
330
1E
100
AcDbEntity
  8
002
100
AcDbCircle
 10
-5405.510993960375
 20
-172.8672781328721
 30
0.0
 40
2.5
100
AcDbArc
 50
138.1896850000156
 51
221.8103149999843
  0
ARC
  5
5F9B
330
1E
100
AcDbEntity
  8
002
100
AcDbCircle
 10
-5405.510993960375
 20
-165.3672781328721
 30
0.0
 40
2.5
100
AcDbArc
 50
318.1896850000156
 51
41.81031499998431
  0
ARC
  5
5F9C
330
1E
100
AcDbEntity
  8
002
100
AcDbCircle
 10
-5407.004568960376
 20
-165.3672781328721
 30
0.0
 40
2.5
100
AcDbArc
 50
318.1896850000156
 51
41.81031499998431
  0
ARC
  5
5F9D
330
1E
100
AcDbEntity
  8
002
100
AcDbCircle
 10
-5405.510993960375
 20
-157.8672781328721
 30
0.0
 40
2.5
100
AcDbArc
 50
138.1896850000156
 51
221.8103149999843
  0
LINE
  5
5F9E
330
1E
100
AcDbEntity
  8
002
100
AcDbLine
 10
-5398.489040960375
 20
-175.5339451328723
 30
0.0
 11
-5406.479956960374
 21
-175.5339451328723
 31
0.0
  0
LINE
  5
5F9F
330
1E
100
AcDbEntity
  8
002
100
AcDbLine
 10
-5544.827523960375
 20
-41.5339451328723
 30
0.0
 11
-5485.936813968519
 21
-41.35105474792908
 31
0.0
  0
LWPOLYLINE
  5
5FA0
330
1E
100
AcDbEntity
  8
003
100
AcDbPolyline
 90
        4
 70
     0
 43
0.0
 10
-5487.434764649152
 20
-41.5339451328723
 10
-5546.995251960376
 20
-41.5339451328723
 10
-5610.495251960376
 20
68.46605486712769
 10
-5514.202492391166
 20
68.46605486712769
  0
LINE
  5
5FA1
330
1E
100
AcDbEntity
  8
002
100
AcDbLine
 10
-5544.827523960375
 20
-41.5339451328723
 30
0.0
 11
-5489.657963729057
 21
-41.53394513287253
 31
0.0
  0
LINE
  5
5FA2
330
1E
100
AcDbEntity
  8
001
100
AcDbLine
 10
-5491.245802960374
 20
134.6031668671278
 30
0.0
 11
-5533.050360960374
 21
192.9763888671277
 31
0.0
  0
LWPOLYLINE
  5
5FA3
330
1E
100
AcDbEntity
  8
003
100
AcDbPolyline
 90
        4
 70
     0
 43
0.0
 10
-5514.202492391166
 20
68.46605486712769
 10
-5631.295251960375
 20
68.46605486712769
 10
-5555.095251960374
 20
-63.53394513287231
 10
-5506.995251960375
 20
-63.53394513287231
  0
LWPOLYLINE
  5
5FA4
330
1E
100
AcDbEntity
  8
003
100
AcDbPolyline
 90
        4
 70
     0
 43
0.0
 10
-5514.202492391166
 20
83.46605486712769
 10
-5629.495251960376
 20
83.46605486712769
 10
-5620.495251960376
 20
68.46605486712769
 10
-5514.202492391166
 20
68.46605486712769
  0
LINE
  5
5FA5
330
1E
100
AcDbEntity
  8
001
100
AcDbLine
 10
-5481.995251960376
 20
42.11605086712779
 30
0.0
 11
-5565.641077960376
 21
116.8824738671278
 31
0.0
  0
LINE
  5
5FA6
330
1E
100
AcDbEntity
  8
002
100
AcDbLine
 10
-5544.495251960376
 20
-19.5339451328723
 30
0.0
 11
-5472.504568960376
 21
-19.5339451328723
 31
0.0
  0
LINE
  5
5FA7
330
1E
100
AcDbEntity
  8
001
100
AcDbLine
 10
-5619.233710960376
 20
46.79415586712775
 30
0.0
 11
-5673.673715960376
 21
12.80135186712777
 31
0.0
  0
LWPOLYLINE
  5
5FA8
330
1E
100
AcDbEntity
  8
001
100
AcDbPolyline
 90
        3
 70
     0
 43
0.0
 10
-5624.177863960375
 20
41.49572286712782
 10
-5619.233710960376
 20
46.79415586712775
 10
-5626.164688960376
 20
44.67765486712778
  0
LINE
  5
5FA9
330
1E
100
AcDbEntity
  8
003
 62
     3
100
AcDbLine
 10
-5564.88859659346
 20
-47.29917545131093
 30
0.0
 11
-5549.32217259346
 21
-38.26111945131151
 31
0.0
  0
LINE
  5
5FAA
330
1E
100
AcDbEntity
  8
004
  6
CENTER
100
AcDbLine
 10
-5571.73837859346
 20
-46.07273545131056
 30
0.0
 11
-5547.125518593459
 21
-31.78220745131102
 31
0.0
  0
LINE
  5
5FAB
330
1E
100
AcDbEntity
  8
002
100
AcDbLine
 10
-5544.495251960376
 20
-19.5339451328723
 30
0.0
 11
-5544.495251960376
 21
-41.5339451328723
 31
0.0
  0
LINE
  5
5FAC
330
1E
100
AcDbEntity
  8
003
 62
     3
100
AcDbLine
 10
-5569.407624593459
 20
-39.51596345131065
 30
0.0
 11
-5553.841200593459
 21
-30.47790745131123
 31
0.0
  0
LINE
  5
5FAD
330
1E
100
AcDbEntity
  8
001
100
AcDbLine
 10
-5533.050360960374
 20
192.9763888671277
 30
0.0
 11
-5667.800360960375
 21
192.9763888671277
 31
0.0
  0
TEXT
  5
5FAE
330
1E
100
AcDbEntity
  8
001
100
AcDbText
 10
-5658.175360960375
 20
196.476425867128
 30
0.0
 40
11.19999999999999
  1
ヘッドキャップ　Ｌタイプ
 41
0.716146
100
AcDbText
  0
LINE
  5
5FAF
330
1E
100
AcDbEntity
  8
001
100
AcDbLine
 10
-5565.641077960376
 20
116.8824738671278
 30
0.0
 11
-5652.266077960376
 21
116.8824738671278
 31
0.0
  0
TEXT
  5
5FB0
330
1E
100
AcDbEntity
  8
001
100
AcDbText
 10
-5642.641077960376
 20
120.3825128671278
 30
0.0
 40
11.19999999999999
  1
アンカーヘッド
 41
0.716146
100
AcDbText
  0
LINE
  5
5FB1
330
1E
100
AcDbEntity
  8
002
100
AcDbLine
 10
-5390.040754960375
 20
71.41490186712781
 30
0.0
 11
-5396.161918960375
 21
213.7993878671277
 31
0.0
  0
LINE
  5
5FB2
330
1E
100
AcDbEntity
  8
002
  6
CENTER
100
AcDbLine
 10
-5425.252094960375
 20
-54.5339451328723
 30
0.0
 11
-5425.252094960375
 21
185.4660548671277
 31
0.0
  0
LINE
  5
5FB3
330
1E
100
AcDbEntity
  8
002
100
AcDbLine
 10
-5418.902094960374
 20
-54.5339451328723
 30
0.0
 11
-5418.902094960374
 21
180.4660548671277
 31
0.0
  0
LINE
  5
5FB4
330
1E
100
AcDbEntity
  8
002
100
AcDbLine
 10
-5431.602094960375
 20
-54.5339451328723
 30
0.0
 11
-5431.602094960375
 21
180.4660548671277
 31
0.0
  0
LINE
  5
5FB5
330
1E
100
AcDbEntity
  8
002
100
AcDbLine
 10
-5431.602094960375
 20
19.53344286712786
 30
0.0
 11
-5418.902094960374
 21
91.55872286712792
 31
0.0
  0
LINE
  5
5FB6
330
1E
100
AcDbEntity
  8
002
100
AcDbLine
 10
-5394.207476960374
 20
71.32667486712785
 30
0.0
 11
-5400.324740960376
 21
213.6204268671278
 31
0.0
  0
LINE
  5
5FB7
330
1E
100
AcDbEntity
  8
002
100
AcDbLine
 10
-5444.016830960375
 20
63.46605486712769
 30
0.0
 11
-5444.016830960375
 21
180.4660548671277
 31
0.0
  0
LINE
  5
5FB8
330
1E
100
AcDbEntity
  8
002
100
AcDbLine
 10
-5456.716830960375
 20
63.46605486712769
 30
0.0
 11
-5456.716830960375
 21
180.4660548671277
 31
0.0
  0
LINE
  5
5FB9
330
1E
100
AcDbEntity
  8
002
  6
CENTER
100
AcDbLine
 10
-5450.366830960374
 20
60.4660548671277
 30
0.0
 11
-5450.366830960374
 21
185.4660548671277
 31
0.0
  0
LINE
  5
5FBA
330
1E
100
AcDbEntity
  8
002
100
AcDbLine
 10
-5454.318387960375
 20
63.46605486712769
 30
0.0
 11
-5444.016830960375
 21
121.8890868671278
 31
0.0
  0
LINE
  5
5FBB
330
1E
100
AcDbEntity
  8
002
100
AcDbLine
 10
-5487.828585960375
 20
216.7235518671277
 30
0.0
 11
-5493.949749960375
 21
71.41490186712781
 31
0.0
  0
LINE
  5
5FBC
330
1E
100
AcDbEntity
  8
002
100
AcDbLine
 10
-5489.783026960374
 20
71.32667486712785
 30
0.0
 11
-5483.665763960374
 21
213.6204268671278
 31
0.0
  0
LINE
  5
5FBD
330
1E
100
AcDbEntity
  8
002
100
AcDbLine
 10
-5449.866830960374
 20
63.46605486712769
 30
0.0
 11
-5432.102094960375
 21
63.46605486712769
 31
0.0
  0
LINE
  5
5FBE
330
1E
100
AcDbEntity
  8
002
100
AcDbLine
 10
-5479.504568960376
 20
-82.86727813287212
 30
0.0
 11
-5404.504568960376
 21
-75.36727813287211
 31
0.0
  0
LINE
  5
5FBF
330
1E
100
AcDbEntity
  8
002
100
AcDbLine
 10
-5409.504568960375
 20
-127.8672781328721
 30
0.0
 11
-5474.504568960376
 21
-135.3672781328721
 31
0.0
  0
LINE
  5
5FC0
330
1E
100
AcDbEntity
  8
002
100
AcDbLine
 10
-5409.504568960375
 20
-142.8672781328721
 30
0.0
 11
-5474.504568960376
 21
-150.3672781328721
 31
0.0
  0
LINE
  5
5FC1
330
1E
100
AcDbEntity
  8
002
100
AcDbLine
 10
-5479.504568960376
 20
-142.8672781328721
 30
0.0
 11
-5404.504568960376
 21
-135.3672781328721
 31
0.0
  0
LINE
  5
5FC2
330
1E
100
AcDbEntity
  8
002
100
AcDbLine
 10
-5409.504568960375
 20
-82.86727813287212
 30
0.0
 11
-5474.504568960376
 21
-90.36727813287212
 31
0.0
  0
LINE
  5
5FC3
330
1E
100
AcDbEntity
  8
002
100
AcDbLine
 10
-5409.504568960375
 20
-112.8672781328721
 30
0.0
 11
-5474.504568960376
 21
-120.3672781328721
 31
0.0
  0
LINE
  5
5FC4
330
1E
100
AcDbEntity
  8
002
100
AcDbLine
 10
-5409.504568960375
 20
-97.86727813287212
 30
0.0
 11
-5474.504568960376
 21
-105.3672781328721
 31
0.0
  0
LINE
  5
5FC5
330
1E
100
AcDbEntity
  8
002
100
AcDbLine
 10
-5479.504568960376
 20
-97.86727813287212
 30
0.0
 11
-5404.504568960376
 21
-90.36727813287212
 31
0.0
  0
LINE
  5
5FC6
330
1E
100
AcDbEntity
  8
002
100
AcDbLine
 10
-5479.504568960376
 20
-112.8672781328721
 30
0.0
 11
-5404.504568960376
 21
-105.3672781328721
 31
0.0
  0
LINE
  5
5FC7
330
1E
100
AcDbEntity
  8
002
100
AcDbLine
 10
-5479.504568960376
 20
-127.8672781328721
 30
0.0
 11
-5404.504568960376
 21
-120.3672781328721
 31
0.0
  0
LINE
  5
5FC8
330
1E
100
AcDbEntity
  8
002
100
AcDbLine
 10
-5409.504568960375
 20
-67.86727813287211
 30
0.0
 11
-5474.504568960376
 21
-75.36727813287211
 31
0.0
  0
LINE
  5
5FC9
330
1E
100
AcDbEntity
  8
002
100
AcDbLine
 10
-5479.504568960376
 20
-67.86727813287211
 30
0.0
 11
-5404.504568960376
 21
-60.36727813287211
 31
0.0
  0
LINE
  5
5FCA
330
1E
100
AcDbEntity
  8
002
100
AcDbLine
 10
-5423.949013960375
 20
-54.5339451328723
 30
0.0
 11
-5474.504568960376
 21
-60.36727813287211
 31
0.0
  0
LINE
  5
5FCB
330
1E
100
AcDbEntity
  8
002
100
AcDbLine
 10
-5454.199374960375
 20
-54.5339451328723
 30
0.0
 11
-5444.501390960375
 21
0.4660548671276957
 31
0.0
  0
LINE
  5
5FCC
330
1E
100
AcDbEntity
  8
002
100
AcDbLine
 10
-5479.919838960375
 20
-54.5339451328723
 30
0.0
 11
-5407.374383960376
 21
-54.5339451328723
 31
0.0
  0
LINE
  5
5FCD
330
1E
100
AcDbEntity
  8
002
100
AcDbLine
 10
-5484.495251960376
 20
0.4660548671276957
 30
0.0
 11
-5432.752094960375
 21
0.4660548671276957
 31
0.0
  0
LINE
  5
5FCE
330
1E
100
AcDbEntity
  8
002
100
AcDbLine
 10
-5438.252094960375
 20
60.4660548671277
 30
0.0
 11
-5481.495251960375
 21
60.4660548671277
 31
0.0
  0
LINE
  5
5FCF
330
1E
100
AcDbEntity
  8
002
100
AcDbLine
 10
-5467.004568960376
 20
0.4660548671276957
 30
0.0
 11
-5467.004568960376
 21
-49.5339451328723
 31
0.0
  0
LINE
  5
5FD0
330
1E
100
AcDbEntity
  8
002
100
AcDbLine
 10
-5456.726147960375
 20
-54.5339451328723
 30
0.0
 11
-5456.726147960375
 21
0.4660548671276957
 31
0.0
  0
LINE
  5
5FD1
330
1E
100
AcDbEntity
  8
002
  6
CENTER
100
AcDbLine
 10
-5450.376147960374
 20
-54.5339451328723
 30
0.0
 11
-5450.376147960374
 21
0.4660548671276957
 31
0.0
  0
LWPOLYLINE
  5
5FD2
330
1E
100
AcDbEntity
  8
003
100
AcDbPolyline
 90
        3
 70
     0
 43
0.0
 10
-5506.995251960375
 20
-63.53394513287231
 10
-5506.995251960375
 20
-41.5339451328723
 10
-5489.657963729057
 20
-41.5339451328723
  0
ARC
  5
5FD3
330
1E
100
AcDbEntity
  8
002
100
AcDbCircle
 10
-5477.004568960376
 20
-75.36727813287211
 30
0.0
 40
2.5
100
AcDbArc
 50
318.1896850000156
 51
41.81031499998431
  0
ARC
  5
5FD4
330
1E
100
AcDbEntity
  8
002
100
AcDbCircle
 10
-5478.056448960375
 20
-75.36727813287211
 30
0.0
 40
2.5
100
AcDbArc
 50
318.1896850000156
 51
41.81031499998431
  0
LINE
  5
5FD5
330
1E
100
AcDbEntity
  8
002
100
AcDbLine
 10
-5478.867958960375
 20
-129.5339451328723
 30
0.0
 11
-5475.141178960376
 21
-133.7006121328722
 31
0.0
  0
LINE
  5
5FD6
330
1E
100
AcDbEntity
  8
002
100
AcDbLine
 10
-5475.141178960376
 20
-137.0339451328723
 30
0.0
 11
-5478.867958960375
 21
-141.2006121328722
 31
0.0
  0
ARC
  5
5FD7
330
1E
100
AcDbEntity
  8
002
100
AcDbCircle
 10
-5477.004568960376
 20
-150.3672781328721
 30
0.0
 40
2.5
100
AcDbArc
 50
318.1896850000156
 51
41.81031499998431
  0
ARC
  5
5FD8
330
1E
100
AcDbEntity
  8
002
100
AcDbCircle
 10
-5478.056448960375
 20
-150.3672781328721
 30
0.0
 40
2.5
100
AcDbArc
 50
318.1896850000156
 51
41.81031499998431
  0
ARC
  5
5FD9
330
1E
100
AcDbEntity
  8
002
100
AcDbCircle
 10
-5477.004568960376
 20
-142.8672781328721
 30
0.0
 40
2.5
100
AcDbArc
 50
138.1896850000156
 51
221.8103149999843
  0
LINE
  5
5FDA
330
1E
100
AcDbEntity
  8
002
100
AcDbLine
 10
-5478.867958960375
 20
-144.5339451328722
 30
0.0
 11
-5475.141178960376
 21
-148.7006121328722
 31
0.0
  0
ARC
  5
5FDB
330
1E
100
AcDbEntity
  8
002
100
AcDbCircle
 10
-5477.004568960376
 20
-135.3672781328721
 30
0.0
 40
2.5
100
AcDbArc
 50
318.1896850000156
 51
41.81031499998431
  0
ARC
  5
5FDC
330
1E
100
AcDbEntity
  8
002
100
AcDbCircle
 10
-5478.056448960375
 20
-135.3672781328721
 30
0.0
 40
2.5
100
AcDbArc
 50
318.1896850000156
 51
41.81031499998431
  0
LINE
  5
5FDD
330
1E
100
AcDbEntity
  8
002
100
AcDbLine
 10
-5478.867958960375
 20
-99.5339451328723
 30
0.0
 11
-5475.141178960376
 21
-103.7006121328722
 31
0.0
  0
LINE
  5
5FDE
330
1E
100
AcDbEntity
  8
002
100
AcDbLine
 10
-5475.141178960376
 20
-107.0339451328722
 30
0.0
 11
-5478.867958960375
 21
-111.2006121328722
 31
0.0
  0
ARC
  5
5FDF
330
1E
100
AcDbEntity
  8
002
100
AcDbCircle
 10
-5477.004568960376
 20
-120.3672781328721
 30
0.0
 40
2.5
100
AcDbArc
 50
318.1896850000156
 51
41.81031499998431
  0
ARC
  5
5FE0
330
1E
100
AcDbEntity
  8
002
100
AcDbCircle
 10
-5478.056448960375
 20
-120.3672781328721
 30
0.0
 40
2.5
100
AcDbArc
 50
318.1896850000156
 51
41.81031499998431
  0
ARC
  5
5FE1
330
1E
100
AcDbEntity
  8
002
100
AcDbCircle
 10
-5477.004568960376
 20
-127.8672781328721
 30
0.0
 40
2.5
100
AcDbArc
 50
138.1896850000156
 51
221.8103149999843
  0
ARC
  5
5FE2
330
1E
100
AcDbEntity
  8
002
100
AcDbCircle
 10
-5477.004568960376
 20
-112.8672781328721
 30
0.0
 40
2.5
100
AcDbArc
 50
138.1896850000156
 51
221.8103149999843
  0
LINE
  5
5FE3
330
1E
100
AcDbEntity
  8
002
100
AcDbLine
 10
-5478.867958960375
 20
-114.5339451328723
 30
0.0
 11
-5475.141178960376
 21
-118.7006121328722
 31
0.0
  0
LINE
  5
5FE4
330
1E
100
AcDbEntity
  8
002
100
AcDbLine
 10
-5475.141178960376
 20
-122.0339451328723
 30
0.0
 11
-5478.867958960375
 21
-126.2006121328722
 31
0.0
  0
ARC
  5
5FE5
330
1E
100
AcDbEntity
  8
002
100
AcDbCircle
 10
-5477.004568960376
 20
-105.3672781328721
 30
0.0
 40
2.5
100
AcDbArc
 50
318.1896850000156
 51
41.81031499998431
  0
ARC
  5
5FE6
330
1E
100
AcDbEntity
  8
002
100
AcDbCircle
 10
-5478.056448960375
 20
-105.3672781328721
 30
0.0
 40
2.5
100
AcDbArc
 50
318.1896850000156
 51
41.81031499998431
  0
ARC
  5
5FE7
330
1E
100
AcDbEntity
  8
002
100
AcDbCircle
 10
-5477.004568960376
 20
-82.86727813287212
 30
0.0
 40
2.5
100
AcDbArc
 50
138.1896850000156
 51
221.8103149999843
  0
ARC
  5
5FE8
330
1E
100
AcDbEntity
  8
002
100
AcDbCircle
 10
-5477.004568960376
 20
-90.36727813287212
 30
0.0
 40
2.5
100
AcDbArc
 50
318.1896850000156
 51
41.81031499998431
  0
ARC
  5
5FE9
330
1E
100
AcDbEntity
  8
002
100
AcDbCircle
 10
-5478.056448960375
 20
-90.36727813287212
 30
0.0
 40
2.5
100
AcDbArc
 50
318.1896850000156
 51
41.81031499998431
  0
ARC
  5
5FEA
330
1E
100
AcDbEntity
  8
002
100
AcDbCircle
 10
-5477.004568960376
 20
-97.86727813287212
 30
0.0
 40
2.5
100
AcDbArc
 50
138.1896850000156
 51
221.8103149999843
  0
LINE
  5
5FEB
330
1E
100
AcDbEntity
  8
002
100
AcDbLine
 10
-5478.867958960375
 20
-84.5339451328723
 30
0.0
 11
-5475.141178960376
 21
-88.70061213287227
 31
0.0
  0
LINE
  5
5FEC
330
1E
100
AcDbEntity
  8
002
100
AcDbLine
 10
-5475.141178960376
 20
-92.0339451328723
 30
0.0
 11
-5478.867958960375
 21
-96.20061213287227
 31
0.0
  0
LINE
  5
5FED
330
1E
100
AcDbEntity
  8
002
100
AcDbLine
 10
-5475.141178960376
 20
-77.0339451328723
 30
0.0
 11
-5478.867958960375
 21
-81.20061213287227
 31
0.0
  0
LINE
  5
5FEE
330
1E
100
AcDbEntity
  8
002
100
AcDbLine
 10
-5472.004568960375
 20
-49.5339451328723
 30
0.0
 11
-5472.004568960375
 21
-54.5339451328723
 31
0.0
  0
ARC
  5
5FEF
330
1E
100
AcDbEntity
  8
002
100
AcDbCircle
 10
-5477.004568960376
 20
-60.36727813287211
 30
0.0
 40
2.5
100
AcDbArc
 50
318.1896850000156
 51
41.81031499998431
  0
ARC
  5
5FF0
330
1E
100
AcDbEntity
  8
002
100
AcDbCircle
 10
-5478.056448960375
 20
-60.36727813287211
 30
0.0
 40
2.5
100
AcDbArc
 50
318.1896850000156
 51
41.81031499998431
  0
ARC
  5
5FF1
330
1E
100
AcDbEntity
  8
002
100
AcDbCircle
 10
-5477.004568960376
 20
-67.86727813287211
 30
0.0
 40
2.5
100
AcDbArc
 50
138.1896850000156
 51
221.8103149999843
  0
LINE
  5
5FF2
330
1E
100
AcDbEntity
  8
002
100
AcDbLine
 10
-5478.867958960375
 20
-69.5339451328723
 30
0.0
 11
-5475.141178960376
 21
-73.70061213287226
 31
0.0
  0
LINE
  5
5FF3
330
1E
100
AcDbEntity
  8
002
100
AcDbLine
 10
-5475.141178960376
 20
-62.0339451328723
 30
0.0
 11
-5478.867958960375
 21
-66.20061213287226
 31
0.0
  0
LINE
  5
5FF4
330
1E
100
AcDbEntity
  8
002
100
AcDbLine
 10
-5478.867958960375
 20
-54.5339451328723
 30
0.0
 11
-5475.141178960376
 21
-58.70061213287226
 31
0.0
  0
LINE
  5
5FF5
330
1E
100
AcDbEntity
  8
002
100
AcDbLine
 10
-5472.004568960375
 20
-49.5339451328723
 30
0.0
 11
-5467.004568960376
 21
-49.5339451328723
 31
0.0
  0
ARC
  5
5FF6
330
1E
100
AcDbEntity
  8
002
100
AcDbCircle
 10
-5478.056448960375
 20
-142.8672781328721
 30
0.0
 40
2.5
100
AcDbArc
 50
138.1896850000156
 51
221.8103149999843
  0
ARC
  5
5FF7
330
1E
100
AcDbEntity
  8
002
100
AcDbCircle
 10
-5478.056448960375
 20
-112.8672781328721
 30
0.0
 40
2.5
100
AcDbArc
 50
138.1896850000156
 51
221.8103149999843
  0
ARC
  5
5FF8
330
1E
100
AcDbEntity
  8
002
100
AcDbCircle
 10
-5478.056448960375
 20
-127.8672781328721
 30
0.0
 40
2.5
100
AcDbArc
 50
138.1896850000156
 51
221.8103149999843
  0
ARC
  5
5FF9
330
1E
100
AcDbEntity
  8
002
100
AcDbCircle
 10
-5478.056448960375
 20
-82.86727813287212
 30
0.0
 40
2.5
100
AcDbArc
 50
138.1896850000156
 51
221.8103149999843
  0
ARC
  5
5FFA
330
1E
100
AcDbEntity
  8
002
100
AcDbCircle
 10
-5478.056448960375
 20
-97.86727813287212
 30
0.0
 40
2.5
100
AcDbArc
 50
138.1896850000156
 51
221.8103149999843
  0
ARC
  5
5FFB
330
1E
100
AcDbEntity
  8
002
100
AcDbCircle
 10
-5478.056448960375
 20
-67.86727813287211
 30
0.0
 40
2.5
100
AcDbArc
 50
138.1896850000156
 51
221.8103149999843
  0
LINE
  5
5FFC
330
1E
100
AcDbEntity
  8
002
100
AcDbLine
 10
-5479.919838960375
 20
-129.5339451328723
 30
0.0
 11
-5476.193058960374
 21
-133.7006121328722
 31
0.0
  0
LINE
  5
5FFD
330
1E
100
AcDbEntity
  8
002
100
AcDbLine
 10
-5476.193058960374
 20
-137.0339451328723
 30
0.0
 11
-5479.919838960375
 21
-141.2006121328722
 31
0.0
  0
LINE
  5
5FFE
330
1E
100
AcDbEntity
  8
002
100
AcDbLine
 10
-5479.919838960375
 20
-144.5339451328722
 30
0.0
 11
-5476.193058960374
 21
-148.7006121328722
 31
0.0
  0
LINE
  5
5FFF
330
1E
100
AcDbEntity
  8
002
100
AcDbLine
 10
-5479.919838960375
 20
-99.5339451328723
 30
0.0
 11
-5476.193058960374
 21
-103.7006121328722
 31
0.0
  0
LINE
  5
6000
330
1E
100
AcDbEntity
  8
002
100
AcDbLine
 10
-5476.193058960374
 20
-107.0339451328722
 30
0.0
 11
-5479.919838960375
 21
-111.2006121328722
 31
0.0
  0
LINE
  5
6001
330
1E
100
AcDbEntity
  8
002
100
AcDbLine
 10
-5479.919838960375
 20
-114.5339451328723
 30
0.0
 11
-5476.193058960374
 21
-118.7006121328722
 31
0.0
  0
LINE
  5
6002
330
1E
100
AcDbEntity
  8
002
100
AcDbLine
 10
-5476.193058960374
 20
-122.0339451328723
 30
0.0
 11
-5479.919838960375
 21
-126.2006121328722
 31
0.0
  0
LINE
  5
6003
330
1E
100
AcDbEntity
  8
002
100
AcDbLine
 10
-5479.919838960375
 20
-84.5339451328723
 30
0.0
 11
-5476.193058960374
 21
-88.70061213287227
 31
0.0
  0
LINE
  5
6004
330
1E
100
AcDbEntity
  8
002
100
AcDbLine
 10
-5476.193058960374
 20
-92.0339451328723
 30
0.0
 11
-5479.919838960375
 21
-96.20061213287227
 31
0.0
  0
LINE
  5
6005
330
1E
100
AcDbEntity
  8
002
100
AcDbLine
 10
-5476.193058960374
 20
-77.0339451328723
 30
0.0
 11
-5479.919838960375
 21
-81.20061213287227
 31
0.0
  0
LINE
  5
6006
330
1E
100
AcDbEntity
  8
002
100
AcDbLine
 10
-5479.919838960375
 20
-69.5339451328723
 30
0.0
 11
-5476.193058960374
 21
-73.70061213287226
 31
0.0
  0
LINE
  5
6007
330
1E
100
AcDbEntity
  8
002
100
AcDbLine
 10
-5479.919838960375
 20
-54.5339451328723
 30
0.0
 11
-5476.193058960374
 21
-58.70061213287226
 31
0.0
  0
LINE
  5
6008
330
1E
100
AcDbEntity
  8
002
100
AcDbLine
 10
-5476.193058960374
 20
-62.0339451328723
 30
0.0
 11
-5479.919838960375
 21
-66.20061213287226
 31
0.0
  0
LINE
  5
6009
330
1E
100
AcDbEntity
  8
002
100
AcDbLine
 10
-5492.661918960376
 20
2.466054867127695
 30
0.0
 11
-5485.798260960375
 21
2.466054867127695
 31
0.0
  0
LINE
  5
600A
330
1E
100
AcDbEntity
  8
002
100
AcDbLine
 10
-5498.617579960376
 20
61.31720186712801
 30
0.0
 11
-5504.495251960376
 21
22.13272186712788
 31
0.0
  0
LINE
  5
600B
330
1E
100
AcDbEntity
  8
002
100
AcDbLine
 10
-5494.078585960375
 20
60.50364286712784
 30
0.0
 11
-5494.078585960375
 21
13.06413086712791
 31
0.0
  0
LINE
  5
600C
330
1E
100
AcDbEntity
  8
002
100
AcDbLine
 10
-5504.495251960376
 20
-17.74297413287195
 30
0.0
 11
-5504.495251960376
 21
22.13272186712788
 31
0.0
  0
LINE
  5
600D
330
1E
100
AcDbEntity
  8
002
100
AcDbLine
 10
-5494.661918960375
 20
13.06413086712791
 30
0.0
 11
-5494.661918960375
 21
-19.5339451328723
 31
0.0
  0
LINE
  5
600E
330
1E
100
AcDbEntity
  8
002
100
AcDbLine
 10
-5496.161918960375
 20
10.46605486712769
 30
0.0
 11
-5496.161918960375
 21
-19.5339451328723
 31
0.0
  0
LINE
  5
600F
330
1E
100
AcDbEntity
  8
002
100
AcDbLine
 10
-5502.828585960375
 20
-19.40964013287202
 30
0.0
 11
-5504.495251960376
 21
-17.74297413287195
 31
0.0
  0
LINE
  5
6010
330
1E
100
AcDbEntity
  8
002
100
AcDbLine
 10
-5494.671235960375
 20
-19.5339451328723
 30
0.0
 11
-5496.171235960375
 21
-18.66791913287215
 31
0.0
  0
LINE
  5
6011
330
1E
100
AcDbEntity
  8
002
100
AcDbLine
 10
-5494.661918960375
 20
-18.66791913287215
 30
0.0
 11
-5496.161918960375
 21
-19.5339451328723
 31
0.0
  0
ARC
  5
6012
330
1E
100
AcDbEntity
  8
002
100
AcDbCircle
 10
-5502.828585960375
 20
5.341248867127887
 30
0.0
 40
1.666666999999999
100
AcDbArc
 50
171.4692340000114
 51
180.0
  0
LINE
  5
6013
330
1E
100
AcDbEntity
  8
002
100
AcDbLine
 10
-5494.661918960375
 20
13.06413086712791
 30
0.0
 11
-5496.161918960375
 21
10.46605486712769
 31
0.0
  0
LINE
  5
6014
330
1E
100
AcDbEntity
  8
002
100
AcDbLine
 10
-5493.661918960375
 20
1.466054867127695
 30
0.0
 11
-5492.661918960376
 21
2.466054867127695
 31
0.0
  0
LINE
  5
6015
330
1E
100
AcDbEntity
  8
002
100
AcDbLine
 10
-5493.661918960375
 20
1.466054867127695
 30
0.0
 11
-5493.661918960375
 21
-0.5339451328723044
 31
0.0
  0
LINE
  5
6016
330
1E
100
AcDbEntity
  8
002
100
AcDbLine
 10
-5493.661918960375
 20
-0.5339451328723044
 30
0.0
 11
-5496.161918960375
 21
-2.26599613287226
 31
0.0
  0
LINE
  5
6017
330
1E
100
AcDbEntity
  8
002
100
AcDbLine
 10
-5494.661918960375
 20
13.06413086712791
 30
0.0
 11
-5494.078585960375
 21
13.06413086712791
 31
0.0
  0
ARC
  5
6018
330
1E
100
AcDbEntity
  8
002
100
AcDbCircle
 10
-5498.108670960375
 20
71.68459786712787
 30
0.0
 40
8.333332999999999
100
AcDbArc
 50
316.8434549999868
 51
357.5383479999851
  0
ARC
  5
6019
330
1E
100
AcDbEntity
  8
002
100
AcDbCircle
 10
-5502.275392960375
 20
71.77282486712783
 30
0.0
 40
8.333332999999999
100
AcDbArc
 50
317.9451879999822
 51
357.5383479999851
  0
ARC
  5
601A
330
1E
100
AcDbEntity
  8
002
100
AcDbCircle
 10
-5485.745251960376
 20
60.50364286712784
 30
0.0
 40
8.333332999999999
100
AcDbArc
 50
136.8434549999868
 51
180.0
  0
ARC
  5
601B
330
1E
100
AcDbEntity
  8
002
100
AcDbCircle
 10
-5490.376443960375
 20
60.08103086712799
 30
0.0
 40
8.333332999999999
100
AcDbArc
 50
137.9451879999822
 51
171.4692340000114
  0
LINE
  5
601C
330
1E
100
AcDbEntity
  8
002
100
AcDbLine
 10
-5496.087856960375
 20
66.19081386712787
 30
0.0
 11
-5496.563979960375
 21
65.66304186712796
 31
0.0
  0
LINE
  5
601D
330
1E
100
AcDbEntity
  8
002
100
AcDbLine
 10
-5474.004568960376
 20
0.4660548671276957
 30
0.0
 11
-5474.004568960376
 21
-19.5339451328723
 31
0.0
  0
LINE
  5
601E
330
1E
100
AcDbEntity
  8
002
100
AcDbLine
 10
-5472.504568960376
 20
0.4660548671276957
 30
0.0
 11
-5472.504568960376
 21
-19.5339451328723
 31
0.0
  0
LINE
  5
601F
330
1E
100
AcDbEntity
  8
002
100
AcDbLine
 10
-5474.004568960376
 20
-19.5339451328723
 30
0.0
 11
-5472.504568960376
 21
-18.66791913287215
 31
0.0
  0
LINE
  5
6020
330
1E
100
AcDbEntity
  8
002
100
AcDbLine
 10
-5473.995251960376
 20
0.4660548671276957
 30
0.0
 11
-5472.495251960376
 21
-0.399970132872113
 31
0.0
  0
LINE
  5
6021
330
1E
100
AcDbEntity
  8
002
100
AcDbLine
 10
-5472.504568960376
 20
0.4660548671276957
 30
0.0
 11
-5474.004568960376
 21
-0.399970132872113
 31
0.0
  0
LINE
  5
6022
330
1E
100
AcDbEntity
  8
002
100
AcDbLine
 10
-5456.726147960375
 20
-11.2762811328721
 30
0.0
 11
-5454.655656960374
 21
0.4660548671276957
 31
0.0
  0
ARC
  5
6023
330
1E
100
AcDbEntity
  8
002
100
AcDbCircle
 10
-5463.170037960376
 20
62.9660548671277
 30
0.0
 40
0.5
100
AcDbArc
 50
90.0
 51
187.0000000000056
  0
LINE
  5
6024
330
1E
100
AcDbEntity
  8
002
100
AcDbLine
 10
-5463.666310960375
 20
62.90511986712772
 30
0.0
 11
-5463.366830960374
 21
60.4660548671277
 31
0.0
  0
LINE
  5
6025
330
1E
100
AcDbEntity
  8
002
100
AcDbLine
 10
-5463.170037960376
 20
63.46605486712769
 30
0.0
 11
-5450.866830960375
 21
63.46605486712769
 31
0.0
  0
LINE
  5
6026
330
1E
100
AcDbEntity
  8
002
100
AcDbLine
 10
-5449.866830960374
 20
60.4660548671277
 30
0.0
 11
-5449.866830960374
 21
63.46605486712769
 31
0.0
  0
LINE
  5
6027
330
1E
100
AcDbEntity
  8
002
100
AcDbLine
 10
-5450.866830960375
 20
60.4660548671277
 30
0.0
 11
-5450.866830960375
 21
63.46605486712769
 31
0.0
  0
LINE
  5
6028
330
1E
100
AcDbEntity
  8
002
100
AcDbLine
 10
-5481.995251960376
 20
0.9660548671276956
 30
0.0
 11
-5481.995251960376
 21
59.9660548671277
 31
0.0
  0
LWPOLYLINE
  5
6029
330
1E
100
AcDbEntity
  8
001
100
AcDbPolyline
 90
        3
 70
     0
 43
0.0
 10
-5488.464230960374
 20
45.38260286712784
 10
-5481.995251960376
 20
42.11605086712779
 10
-5485.964275960376
 20
48.17945686712801
  0
LINE
  5
602A
330
1E
100
AcDbEntity
  8
002
100
AcDbLine
 10
-5484.495251960376
 20
0.4660548671276957
 30
0.0
 11
-5485.798260960375
 21
2.466054867127695
 31
0.0
  0
LINE
  5
602B
330
1E
100
AcDbEntity
  8
002
100
AcDbLine
 10
-5481.995251960376
 20
0.9660548671276956
 30
0.0
 11
-5481.495251960375
 21
0.4660548671276957
 31
0.0
  0
LINE
  5
602C
330
1E
100
AcDbEntity
  8
002
100
AcDbLine
 10
-5481.495251960375
 20
60.4660548671277
 30
0.0
 11
-5481.995251960376
 21
59.9660548671277
 31
0.0
  0
LINE
  5
602D
330
1E
100
AcDbEntity
  8
002
100
AcDbLine
 10
-5397.495251960376
 20
-19.5339451328723
 30
0.0
 11
-5397.495251960376
 21
-41.5339451328723
 31
0.0
  0
LINE
  5
602E
330
1E
100
AcDbEntity
  8
002
100
AcDbLine
 10
-5444.026147960375
 20
-54.5339451328723
 30
0.0
 11
-5444.026147960375
 21
0.4660548671276957
 31
0.0
  0
LINE
  5
602F
330
1E
100
AcDbEntity
  8
002
100
AcDbLine
 10
-5417.004568960376
 20
0.4660548671276957
 30
0.0
 11
-5417.004568960376
 21
-49.5339451328723
 31
0.0
  0
LINE
  5
6030
330
1E
100
AcDbEntity
  8
002
100
AcDbLine
 10
-5424.353640960375
 20
-54.5339451328723
 30
0.0
 11
-5418.902094960374
 21
-23.61668713287235
 31
0.0
  0
LINE
  5
6031
330
1E
100
AcDbEntity
  8
002
100
AcDbLine
 10
-5408.867958960374
 20
-129.5339451328723
 30
0.0
 11
-5405.141178960375
 21
-133.7006121328722
 31
0.0
  0
LINE
  5
6032
330
1E
100
AcDbEntity
  8
002
100
AcDbLine
 10
-5405.141178960375
 20
-137.0339451328723
 30
0.0
 11
-5408.867958960374
 21
-141.2006121328722
 31
0.0
  0
LINE
  5
6033
330
1E
100
AcDbEntity
  8
002
100
AcDbLine
 10
-5408.867958960374
 20
-144.5339451328722
 30
0.0
 11
-5405.141178960375
 21
-148.7006121328722
 31
0.0
  0
LINE
  5
6034
330
1E
100
AcDbEntity
  8
002
100
AcDbLine
 10
-5408.867958960374
 20
-99.5339451328723
 30
0.0
 11
-5405.141178960375
 21
-103.7006121328722
 31
0.0
  0
LINE
  5
6035
330
1E
100
AcDbEntity
  8
002
100
AcDbLine
 10
-5405.141178960375
 20
-107.0339451328722
 30
0.0
 11
-5408.867958960374
 21
-111.2006121328722
 31
0.0
  0
LINE
  5
6036
330
1E
100
AcDbEntity
  8
002
100
AcDbLine
 10
-5405.141178960375
 20
-122.0339451328723
 30
0.0
 11
-5408.867958960374
 21
-126.2006121328722
 31
0.0
  0
LINE
  5
6037
330
1E
100
AcDbEntity
  8
002
100
AcDbLine
 10
-5408.867958960374
 20
-114.5339451328723
 30
0.0
 11
-5405.141178960375
 21
-118.7006121328722
 31
0.0
  0
LINE
  5
6038
330
1E
100
AcDbEntity
  8
002
100
AcDbLine
 10
-5405.141178960375
 20
-92.0339451328723
 30
0.0
 11
-5408.867958960374
 21
-96.20061213287227
 31
0.0
  0
LINE
  5
6039
330
1E
100
AcDbEntity
  8
002
100
AcDbLine
 10
-5408.867958960374
 20
-84.5339451328723
 30
0.0
 11
-5405.141178960375
 21
-88.70061213287227
 31
0.0
  0
LINE
  5
603A
330
1E
100
AcDbEntity
  8
002
100
AcDbLine
 10
-5405.141178960375
 20
-77.0339451328723
 30
0.0
 11
-5408.867958960374
 21
-81.20061213287227
 31
0.0
  0
LINE
  5
603B
330
1E
100
AcDbEntity
  8
002
100
AcDbLine
 10
-5408.867958960374
 20
-54.5339451328723
 30
0.0
 11
-5405.141178960375
 21
-58.70061213287226
 31
0.0
  0
LINE
  5
603C
330
1E
100
AcDbEntity
  8
002
100
AcDbLine
 10
-5405.141178960375
 20
-62.0339451328723
 30
0.0
 11
-5408.867958960374
 21
-66.20061213287226
 31
0.0
  0
LINE
  5
603D
330
1E
100
AcDbEntity
  8
002
100
AcDbLine
 10
-5408.867958960374
 20
-69.5339451328723
 30
0.0
 11
-5405.141178960375
 21
-73.70061213287226
 31
0.0
  0
ARC
  5
603E
330
1E
100
AcDbEntity
  8
002
100
AcDbCircle
 10
-5407.004568960376
 20
-142.8672781328721
 30
0.0
 40
2.5
100
AcDbArc
 50
138.1896850000156
 51
221.8103149999843
  0
ARC
  5
603F
330
1E
100
AcDbEntity
  8
002
100
AcDbCircle
 10
-5407.004568960376
 20
-127.8672781328721
 30
0.0
 40
2.5
100
AcDbArc
 50
138.1896850000156
 51
221.8103149999843
  0
ARC
  5
6040
330
1E
100
AcDbEntity
  8
002
100
AcDbCircle
 10
-5407.004568960376
 20
-112.8672781328721
 30
0.0
 40
2.5
100
AcDbArc
 50
138.1896850000156
 51
221.8103149999843
  0
ARC
  5
6041
330
1E
100
AcDbEntity
  8
002
100
AcDbCircle
 10
-5407.004568960376
 20
-82.86727813287212
 30
0.0
 40
2.5
100
AcDbArc
 50
138.1896850000156
 51
221.8103149999843
  0
ARC
  5
6042
330
1E
100
AcDbEntity
  8
002
100
AcDbCircle
 10
-5407.004568960376
 20
-97.86727813287212
 30
0.0
 40
2.5
100
AcDbArc
 50
138.1896850000156
 51
221.8103149999843
  0
LINE
  5
6043
330
1E
100
AcDbEntity
  8
002
100
AcDbLine
 10
-5412.004568960376
 20
-49.5339451328723
 30
0.0
 11
-5412.004568960376
 21
-54.5339451328723
 31
0.0
  0
ARC
  5
6044
330
1E
100
AcDbEntity
  8
002
100
AcDbCircle
 10
-5407.004568960376
 20
-67.86727813287211
 30
0.0
 40
2.5
100
AcDbArc
 50
138.1896850000156
 51
221.8103149999843
  0
LINE
  5
6045
330
1E
100
AcDbEntity
  8
002
100
AcDbLine
 10
-5412.004568960376
 20
-49.5339451328723
 30
0.0
 11
-5417.004568960376
 21
-49.5339451328723
 31
0.0
  0
LINE
  5
6046
330
1E
100
AcDbEntity
  8
002
100
AcDbLine
 10
-5444.045108960375
 20
-54.5339451328723
 30
0.0
 11
-5444.026147960375
 21
-54.4264121328722
 31
0.0
  0
LWPOLYLINE
  5
6047
330
1E
100
AcDbEntity
  8
003
100
AcDbPolyline
 90
        3
 70
     0
 43
0.0
 10
-5376.995251960376
 20
-63.53394513287231
 10
-5376.995251960376
 20
-41.5339451328723
 10
-5394.332540191694
 20
-41.5339451328723
  0
ARC
  5
6048
330
1E
100
AcDbEntity
  8
002
100
AcDbCircle
 10
-5407.004568960376
 20
-75.36727813287211
 30
0.0
 40
2.5
100
AcDbArc
 50
318.1896850000156
 51
41.81031499998431
  0
ARC
  5
6049
330
1E
100
AcDbEntity
  8
002
100
AcDbCircle
 10
-5405.510993960375
 20
-75.36727813287211
 30
0.0
 40
2.5
100
AcDbArc
 50
318.1896850000156
 51
41.81031499998431
  0
LINE
  5
604A
330
1E
100
AcDbEntity
  8
002
100
AcDbLine
 10
-5407.374383960376
 20
-129.5339451328723
 30
0.0
 11
-5403.647603960375
 21
-133.7006121328722
 31
0.0
  0
LINE
  5
604B
330
1E
100
AcDbEntity
  8
002
100
AcDbLine
 10
-5403.647603960375
 20
-137.0339451328723
 30
0.0
 11
-5407.374383960376
 21
-141.2006121328722
 31
0.0
  0
ARC
  5
604C
330
1E
100
AcDbEntity
  8
002
100
AcDbCircle
 10
-5405.510993960375
 20
-150.3672781328721
 30
0.0
 40
2.5
100
AcDbArc
 50
318.1896850000156
 51
41.81031499998431
  0
ARC
  5
604D
330
1E
100
AcDbEntity
  8
002
100
AcDbCircle
 10
-5407.004568960376
 20
-150.3672781328721
 30
0.0
 40
2.5
100
AcDbArc
 50
318.1896850000156
 51
41.81031499998431
  0
ARC
  5
604E
330
1E
100
AcDbEntity
  8
002
100
AcDbCircle
 10
-5405.510993960375
 20
-142.8672781328721
 30
0.0
 40
2.5
100
AcDbArc
 50
138.1896850000156
 51
221.8103149999843
  0
LINE
  5
604F
330
1E
100
AcDbEntity
  8
002
100
AcDbLine
 10
-5407.374383960376
 20
-144.5339451328722
 30
0.0
 11
-5403.647603960375
 21
-148.7006121328722
 31
0.0
  0
ARC
  5
6050
330
1E
100
AcDbEntity
  8
002
100
AcDbCircle
 10
-5405.510993960375
 20
-135.3672781328721
 30
0.0
 40
2.5
100
AcDbArc
 50
318.1896850000156
 51
41.81031499998431
  0
ARC
  5
6051
330
1E
100
AcDbEntity
  8
002
100
AcDbCircle
 10
-5407.004568960376
 20
-135.3672781328721
 30
0.0
 40
2.5
100
AcDbArc
 50
318.1896850000156
 51
41.81031499998431
  0
LINE
  5
6052
330
1E
100
AcDbEntity
  8
002
100
AcDbLine
 10
-5407.374383960376
 20
-99.5339451328723
 30
0.0
 11
-5403.647603960375
 21
-103.7006121328722
 31
0.0
  0
LINE
  5
6053
330
1E
100
AcDbEntity
  8
002
100
AcDbLine
 10
-5403.647603960375
 20
-107.0339451328722
 30
0.0
 11
-5407.374383960376
 21
-111.2006121328722
 31
0.0
  0
ARC
  5
6054
330
1E
100
AcDbEntity
  8
002
100
AcDbCircle
 10
-5405.510993960375
 20
-120.3672781328721
 30
0.0
 40
2.5
100
AcDbArc
 50
318.1896850000156
 51
41.81031499998431
  0
ARC
  5
6055
330
1E
100
AcDbEntity
  8
002
100
AcDbCircle
 10
-5407.004568960376
 20
-120.3672781328721
 30
0.0
 40
2.5
100
AcDbArc
 50
318.1896850000156
 51
41.81031499998431
  0
ARC
  5
6056
330
1E
100
AcDbEntity
  8
002
100
AcDbCircle
 10
-5405.510993960375
 20
-127.8672781328721
 30
0.0
 40
2.5
100
AcDbArc
 50
138.1896850000156
 51
221.8103149999843
  0
ARC
  5
6057
330
1E
100
AcDbEntity
  8
002
100
AcDbCircle
 10
-5405.510993960375
 20
-112.8672781328721
 30
0.0
 40
2.5
100
AcDbArc
 50
138.1896850000156
 51
221.8103149999843
  0
LINE
  5
6058
330
1E
100
AcDbEntity
  8
002
100
AcDbLine
 10
-5403.647603960375
 20
-122.0339451328723
 30
0.0
 11
-5407.374383960376
 21
-126.2006121328722
 31
0.0
  0
LINE
  5
6059
330
1E
100
AcDbEntity
  8
002
100
AcDbLine
 10
-5407.374383960376
 20
-114.5339451328723
 30
0.0
 11
-5403.647603960375
 21
-118.7006121328722
 31
0.0
  0
ARC
  5
605A
330
1E
100
AcDbEntity
  8
002
100
AcDbCircle
 10
-5405.510993960375
 20
-105.3672781328721
 30
0.0
 40
2.5
100
AcDbArc
 50
318.1896850000156
 51
41.81031499998431
  0
ARC
  5
605B
330
1E
100
AcDbEntity
  8
002
100
AcDbCircle
 10
-5407.004568960376
 20
-105.3672781328721
 30
0.0
 40
2.5
100
AcDbArc
 50
318.1896850000156
 51
41.81031499998431
  0
ARC
  5
605C
330
1E
100
AcDbEntity
  8
002
100
AcDbCircle
 10
-5405.510993960375
 20
-82.86727813287212
 30
0.0
 40
2.5
100
AcDbArc
 50
138.1896850000156
 51
221.8103149999843
  0
ARC
  5
605D
330
1E
100
AcDbEntity
  8
002
100
AcDbCircle
 10
-5405.510993960375
 20
-90.36727813287212
 30
0.0
 40
2.5
100
AcDbArc
 50
318.1896850000156
 51
41.81031499998431
  0
ARC
  5
605E
330
1E
100
AcDbEntity
  8
002
100
AcDbCircle
 10
-5407.004568960376
 20
-90.36727813287212
 30
0.0
 40
2.5
100
AcDbArc
 50
318.1896850000156
 51
41.81031499998431
  0
ARC
  5
605F
330
1E
100
AcDbEntity
  8
002
100
AcDbCircle
 10
-5405.510993960375
 20
-97.86727813287212
 30
0.0
 40
2.5
100
AcDbArc
 50
138.1896850000156
 51
221.8103149999843
  0
LINE
  5
6060
330
1E
100
AcDbEntity
  8
002
100
AcDbLine
 10
-5403.647603960375
 20
-92.0339451328723
 30
0.0
 11
-5407.374383960376
 21
-96.20061213287227
 31
0.0
  0
LINE
  5
6061
330
1E
100
AcDbEntity
  8
002
100
AcDbLine
 10
-5407.374383960376
 20
-84.5339451328723
 30
0.0
 11
-5403.647603960375
 21
-88.70061213287227
 31
0.0
  0
LINE
  5
6062
330
1E
100
AcDbEntity
  8
002
100
AcDbLine
 10
-5403.647603960375
 20
-77.0339451328723
 30
0.0
 11
-5407.374383960376
 21
-81.20061213287227
 31
0.0
  0
ARC
  5
6063
330
1E
100
AcDbEntity
  8
002
100
AcDbCircle
 10
-5405.510993960375
 20
-60.36727813287211
 30
0.0
 40
2.5
100
AcDbArc
 50
318.1896850000156
 51
41.81031499998431
  0
ARC
  5
6064
330
1E
100
AcDbEntity
  8
002
100
AcDbCircle
 10
-5407.004568960376
 20
-60.36727813287211
 30
0.0
 40
2.5
100
AcDbArc
 50
318.1896850000156
 51
41.81031499998431
  0
ARC
  5
6065
330
1E
100
AcDbEntity
  8
002
100
AcDbCircle
 10
-5405.510993960375
 20
-67.86727813287211
 30
0.0
 40
2.5
100
AcDbArc
 50
138.1896850000156
 51
221.8103149999843
  0
LINE
  5
6066
330
1E
100
AcDbEntity
  8
002
100
AcDbLine
 10
-5407.374383960376
 20
-54.5339451328723
 30
0.0
 11
-5403.647603960375
 21
-58.70061213287226
 31
0.0
  0
LINE
  5
6067
330
1E
100
AcDbEntity
  8
002
100
AcDbLine
 10
-5407.374383960376
 20
-69.5339451328723
 30
0.0
 11
-5403.647603960375
 21
-73.70061213287226
 31
0.0
  0
LINE
  5
6068
330
1E
100
AcDbEntity
  8
002
100
AcDbLine
 10
-5403.647603960375
 20
-62.0339451328723
 30
0.0
 11
-5407.374383960376
 21
-66.20061213287226
 31
0.0
  0
LINE
  5
6069
330
1E
100
AcDbEntity
  8
002
100
AcDbLine
 10
-5417.752094960375
 20
0.4660548671276957
 30
0.0
 11
-5399.495251960376
 21
0.4660548671276957
 31
0.0
  0
LINE
  5
606A
330
1E
100
AcDbEntity
  8
002
100
AcDbLine
 10
-5411.752094960375
 20
60.4660548671277
 30
0.0
 11
-5402.495251960376
 21
60.4660548671277
 31
0.0
  0
LINE
  5
606B
330
1E
100
AcDbEntity
  8
002
100
AcDbLine
 10
-5438.551573960374
 20
62.90511986712772
 30
0.0
 11
-5432.752094960375
 21
15.6721498671277
 31
0.0
  0
LINE
  5
606C
330
1E
100
AcDbEntity
  8
002
100
AcDbLine
 10
-5432.102094960375
 20
24.09022286712797
 30
0.0
 11
-5432.102094960375
 21
63.46605486712769
 31
0.0
  0
LINE
  5
606D
330
1E
100
AcDbEntity
  8
002
100
AcDbLine
 10
-5418.402094960375
 20
24.09022286712797
 30
0.0
 11
-5418.402094960375
 21
63.46605486712769
 31
0.0
  0
LINE
  5
606E
330
1E
100
AcDbEntity
  8
002
100
AcDbLine
 10
-5411.952614960376
 20
62.90511986712772
 30
0.0
 11
-5417.752094960375
 21
15.6721498671277
 31
0.0
  0
LINE
  5
606F
330
1E
100
AcDbEntity
  8
002
100
AcDbLine
 10
-5431.602094960375
 20
-38.05426113287217
 30
0.0
 11
-5418.902094960374
 21
33.97101786712801
 31
0.0
  0
LINE
  5
6070
330
1E
100
AcDbEntity
  8
002
100
AcDbLine
 10
-5410.004568960376
 20
0.4660548671276957
 30
0.0
 11
-5410.004568960376
 21
-19.5339451328723
 31
0.0
  0
LINE
  5
6071
330
1E
100
AcDbEntity
  8
002
100
AcDbLine
 10
-5411.504568960376
 20
0.4660548671276957
 30
0.0
 11
-5411.504568960376
 21
-19.5339451328723
 31
0.0
  0
LINE
  5
6072
330
1E
100
AcDbEntity
  8
002
100
AcDbLine
 10
-5410.004568960376
 20
-19.5339451328723
 30
0.0
 11
-5411.504568960376
 21
-18.66791913287215
 31
0.0
  0
LINE
  5
6073
330
1E
100
AcDbEntity
  8
002
100
AcDbLine
 10
-5432.752094960375
 20
15.6721498671277
 30
0.0
 11
-5432.752094960375
 21
5.466054867127695
 31
0.0
  0
LINE
  5
6074
330
1E
100
AcDbEntity
  8
002
100
AcDbLine
 10
-5432.752094960375
 20
5.466054867127695
 30
0.0
 11
-5433.366016960375
 21
0.4660548671276957
 31
0.0
  0
ARC
  5
6075
330
1E
100
AcDbEntity
  8
002
100
AcDbCircle
 10
-5432.954722960374
 20
24.31868386712767
 30
0.0
 40
0.8526290000000001
100
AcDbArc
 50
187.0000000000056
 51
329.999999999967
  0
LINE
  5
6076
330
1E
100
AcDbEntity
  8
002
100
AcDbLine
 10
-5432.216324960375
 20
23.89236986712785
 30
0.0
 11
-5431.602094960375
 21
24.95624786712778
 31
0.0
  0
LINE
  5
6077
330
1E
100
AcDbEntity
  8
002
100
AcDbLine
 10
-5417.752094960375
 20
15.6721498671277
 30
0.0
 11
-5417.752094960375
 21
5.466054867127695
 31
0.0
  0
LINE
  5
6078
330
1E
100
AcDbEntity
  8
002
100
AcDbLine
 10
-5417.752094960375
 20
5.466054867127695
 30
0.0
 11
-5417.138171960375
 21
0.4660548671276957
 31
0.0
  0
LINE
  5
6079
330
1E
100
AcDbEntity
  8
002
100
AcDbLine
 10
-5410.004568960376
 20
0.4660548671276957
 30
0.0
 11
-5411.504568960376
 21
-0.399970132872113
 31
0.0
  0
LINE
  5
607A
330
1E
100
AcDbEntity
  8
002
100
AcDbLine
 10
-5411.504568960376
 20
0.4660548671276957
 30
0.0
 11
-5410.004568960376
 21
-0.399970132872113
 31
0.0
  0
LINE
  5
607B
330
1E
100
AcDbEntity
  8
002
100
AcDbLine
 10
-5418.287863960375
 20
23.89236986712785
 30
0.0
 11
-5418.902094960374
 21
24.95624786712778
 31
0.0
  0
ARC
  5
607C
330
1E
100
AcDbEntity
  8
002
100
AcDbCircle
 10
-5417.549465960376
 20
24.31868386712767
 30
0.0
 40
0.8526290000000001
100
AcDbArc
 50
210.0000000000328
 51
352.9999999999943
  0
LINE
  5
607D
330
1E
100
AcDbEntity
  8
002
100
AcDbLine
 10
-5438.191159960375
 20
59.96978186712794
 30
0.0
 11
-5438.752094960375
 21
60.4660548671277
 31
0.0
  0
LINE
  5
607E
330
1E
100
AcDbEntity
  8
002
100
AcDbLine
 10
-5432.102094960375
 20
63.46605486712769
 30
0.0
 11
-5431.602094960375
 21
63.17737986712791
 31
0.0
  0
ARC
  5
607F
330
1E
100
AcDbEntity
  8
002
100
AcDbCircle
 10
-5438.055300960376
 20
62.9660548671277
 30
0.0
 40
0.5
100
AcDbArc
 50
90.0
 51
187.0000000000056
  0
LINE
  5
6080
330
1E
100
AcDbEntity
  8
002
100
AcDbLine
 10
-5412.313028960375
 20
59.96978186712794
 30
0.0
 11
-5411.752094960375
 21
60.4660548671277
 31
0.0
  0
ARC
  5
6081
330
1E
100
AcDbEntity
  8
002
100
AcDbCircle
 10
-5412.448887960375
 20
62.9660548671277
 30
0.0
 40
0.5
100
AcDbArc
 50
352.9999999999943
 51
90.0
  0
LINE
  5
6082
330
1E
100
AcDbEntity
  8
002
100
AcDbLine
 10
-5418.402094960375
 20
63.46605486712769
 30
0.0
 11
-5418.902094960374
 21
63.17737986712791
 31
0.0
  0
LINE
  5
6083
330
1E
100
AcDbEntity
  8
002
100
AcDbLine
 10
-5412.448887960375
 20
63.46605486712769
 30
0.0
 11
-5418.402094960375
 21
63.46605486712769
 31
0.0
  0
LINE
  5
6084
330
1E
100
AcDbEntity
  8
002
100
AcDbLine
 10
-5444.164121960375
 20
63.46605486712769
 30
0.0
 11
-5444.016830960375
 21
64.30138286712781
 31
0.0
  0
LINE
  5
6085
330
1E
100
AcDbEntity
  8
002
100
AcDbLine
 10
-5398.192242960375
 20
2.466054867127695
 30
0.0
 11
-5391.328585960375
 21
2.466054867127695
 31
0.0
  0
ARC
  5
6086
330
1E
100
AcDbEntity
  8
002
100
AcDbCircle
 10
-5385.881833960375
 20
71.68459786712787
 30
0.0
 40
8.333332999999999
100
AcDbArc
 50
182.4616520000148
 51
223.1565450000131
  0
LINE
  5
6087
330
1E
100
AcDbEntity
  8
002
100
AcDbLine
 10
-5385.372923960375
 20
61.31720186712801
 30
0.0
 11
-5379.495251960376
 21
22.13272186712788
 31
0.0
  0
LINE
  5
6088
330
1E
100
AcDbEntity
  8
002
100
AcDbLine
 10
-5389.911918960375
 20
60.50364286712784
 30
0.0
 11
-5389.911918960375
 21
13.06413086712791
 31
0.0
  0
LINE
  5
6089
330
1E
100
AcDbEntity
  8
002
  6
CENTER
100
AcDbLine
 10
-5393.674035960375
 20
42.9660548671277
 30
0.0
 11
-5379.645608960374
 21
42.9660548671277
 31
0.0
  0
LINE
  5
608A
330
1E
100
AcDbEntity
  8
002
100
AcDbLine
 10
-5382.150447960375
 20
39.83402386712782
 30
0.0
 11
-5389.911918960375
 21
40.03726586712787
 31
0.0
  0
LINE
  5
608B
330
1E
100
AcDbEntity
  8
002
100
AcDbLine
 10
-5382.075092960374
 20
39.33165886712777
 30
0.0
 11
-5389.911918960375
 21
39.53687386712772
 31
0.0
  0
LINE
  5
608C
330
1E
100
AcDbEntity
  8
002
100
AcDbLine
 10
-5389.328585960375
 20
13.06413086712791
 30
0.0
 11
-5389.328585960375
 21
-19.5339451328723
 31
0.0
  0
LINE
  5
608D
330
1E
100
AcDbEntity
  8
002
100
AcDbLine
 10
-5387.828585960375
 20
10.46605486712769
 30
0.0
 11
-5387.828585960375
 21
-19.5339451328723
 31
0.0
  0
LINE
  5
608E
330
1E
100
AcDbEntity
  8
002
100
AcDbLine
 10
-5389.328585960375
 20
-19.5339451328723
 30
0.0
 11
-5387.828585960375
 21
-18.66791913287215
 31
0.0
  0
LINE
  5
608F
330
1E
100
AcDbEntity
  8
002
100
AcDbLine
 10
-5389.328585960375
 20
-18.66791913287215
 30
0.0
 11
-5387.828585960375
 21
-19.5339451328723
 31
0.0
  0
LINE
  5
6090
330
1E
100
AcDbEntity
  8
002
100
AcDbLine
 10
-5389.328585960375
 20
13.06413086712791
 30
0.0
 11
-5387.828585960375
 21
10.46605486712769
 31
0.0
  0
LWPOLYLINE
  5
6091
330
1E
100
AcDbEntity
  8
001
100
AcDbPolyline
 90
        3
 70
     0
 43
0.0
 10
-5389.693895919016
 20
8.55609160701465
 10
-5393.621935244791
 20
2.466054867127695
 10
-5387.175134698606
 20
5.776161203566744
  0
LINE
  5
6092
330
1E
100
AcDbEntity
  8
002
100
AcDbLine
 10
-5390.328585960375
 20
-0.5339451328723044
 30
0.0
 11
-5387.828585960375
 21
-2.26599613287226
 31
0.0
  0
LINE
  5
6093
330
1E
100
AcDbEntity
  8
002
100
AcDbLine
 10
-5390.328585960375
 20
1.466054867127695
 30
0.0
 11
-5391.328585960375
 21
2.466054867127695
 31
0.0
  0
LINE
  5
6094
330
1E
100
AcDbEntity
  8
002
100
AcDbLine
 10
-5390.328585960375
 20
1.466054867127695
 30
0.0
 11
-5390.328585960375
 21
-0.5339451328723044
 31
0.0
  0
LINE
  5
6095
330
1E
100
AcDbEntity
  8
002
100
AcDbLine
 10
-5389.328585960375
 20
13.06413086712791
 30
0.0
 11
-5389.911918960375
 21
13.06413086712791
 31
0.0
  0
LINE
  5
6096
330
1E
100
AcDbEntity
  8
002
100
AcDbLine
 10
-5379.495251960376
 20
-17.86727813287211
 30
0.0
 11
-5379.495251960376
 21
22.13272186712788
 31
0.0
  0
LINE
  5
6097
330
1E
100
AcDbEntity
  8
002
100
AcDbLine
 10
-5379.495251960376
 20
-17.86727813287211
 30
0.0
 11
-5381.161918960375
 21
-19.5339451328723
 31
0.0
  0
ARC
  5
6098
330
1E
100
AcDbEntity
  8
002
100
AcDbCircle
 10
-5381.715111960374
 20
71.77282486712783
 30
0.0
 40
8.333332999999999
100
AcDbArc
 50
182.4616520000148
 51
222.0548120000177
  0
ARC
  5
6099
330
1E
100
AcDbEntity
  8
002
100
AcDbCircle
 10
-5398.245251960376
 20
60.50364286712784
 30
0.0
 40
8.333332999999999
100
AcDbArc
 50
0.0
 51
43.15654500001311
  0
ARC
  5
609A
330
1E
100
AcDbEntity
  8
002
100
AcDbCircle
 10
-5393.614060960375
 20
60.08103086712799
 30
0.0
 40
8.333332999999999
100
AcDbArc
 50
8.530765999988513
 51
42.05481200001777
  0
LINE
  5
609B
330
1E
100
AcDbEntity
  8
002
100
AcDbLine
 10
-5383.086380960375
 20
46.07357786712782
 30
0.0
 11
-5389.896961960374
 21
45.89523586712789
 31
0.0
  0
LINE
  5
609C
330
1E
100
AcDbEntity
  8
002
100
AcDbLine
 10
-5383.161145960375
 20
46.5720108671278
 30
0.0
 11
-5389.911918960375
 21
46.39523586712789
 31
0.0
  0
LINE
  5
609D
330
1E
100
AcDbEntity
  8
002
100
AcDbLine
 10
-5387.902647960374
 20
66.19081386712787
 30
0.0
 11
-5387.426523960376
 21
65.66304186712796
 31
0.0
  0
LINE
  5
609E
330
1E
100
AcDbEntity
  8
002
100
AcDbLine
 10
-5401.995251960375
 20
0.9660548671276956
 30
0.0
 11
-5401.995251960375
 21
59.9660548671277
 31
0.0
  0
LINE
  5
609F
330
1E
100
AcDbEntity
  8
002
100
AcDbLine
 10
-5401.995251960375
 20
0.9660548671276956
 30
0.0
 11
-5402.495251960376
 21
0.4660548671276957
 31
0.0
  0
LINE
  5
60A0
330
1E
100
AcDbEntity
  8
002
100
AcDbLine
 10
-5402.495251960376
 20
60.4660548671277
 30
0.0
 11
-5401.995251960375
 21
59.9660548671277
 31
0.0
  0
LINE
  5
60A1
330
1E
100
AcDbEntity
  8
002
100
AcDbLine
 10
-5399.495251960376
 20
0.4660548671276957
 30
0.0
 11
-5398.192242960375
 21
2.466054867127695
 31
0.0
  0
LINE
  5
60A2
330
1E
100
AcDbEntity
  8
002
100
AcDbLine
 10
-5456.716830960375
 20
107.4515128671277
 30
0.0
 11
-5444.016830960375
 21
179.4767918671277
 31
0.0
  0
LINE
  5
60A3
330
1E
100
AcDbEntity
  8
002
100
AcDbLine
 10
-5456.716830960375
 20
180.4660548671277
 30
0.0
 11
-5444.016830960375
 21
180.4660548671277
 31
0.0
  0
LWPOLYLINE
  5
60A4
330
1E
100
AcDbEntity
  8
002
100
AcDbPolyline
 90
       34
 70
     0
 43
0.0
 10
-5396.161918960375
 20
213.7993878671277
 10
-5396.348268960375
 20
215.2949648671278
 10
-5396.905815960375
 20
216.7784738671278
 10
-5397.830059960376
 20
218.2379468671279
 10
-5399.113544960375
 20
219.6616058671279
 10
-5400.745914960374
 20
221.0379658671279
 10
-5402.713998960375
 20
222.3559208671276
 10
-5405.001916960375
 20
223.6048358671278
 10
-5407.591208960376
 20
224.7746358671279
 10
-5410.460982960375
 20
225.8558818671276
 10
-5413.588083960375
 20
226.8398478671278
 10
-5416.947280960376
 20
227.7185968671278
 10
-5420.511469960374
 20
228.4850368671277
 10
-5424.251892960376
 20
229.1329858671279
 10
-5428.138369960375
 20
229.6572138671276
 10
-5432.139542960374
 20
230.0534918671278
 10
-5436.223127960374
 20
230.3186228671277
 10
-5440.356175960374
 20
230.4504668671279
 10
-5444.505339960375
 20
230.4479608671276
 10
-5448.637141960375
 20
230.3111238671279
 10
-5452.718243960375
 20
230.0410608671277
 10
-5456.715716960374
 20
229.6399518671278
 10
-5460.597307960376
 20
229.1110308671277
 10
-5464.331696960375
 20
228.4585678671278
 10
-5467.888753960375
 20
227.6878248671278
 10
-5471.239776960376
 20
226.8050228671277
 10
-5474.357729960375
 20
225.817283867128
 10
-5477.217453960374
 20
224.7325778671279
 10
-5479.795875960375
 20
223.5596568671275
 10
-5482.072191960375
 20
222.3079838671278
 10
-5484.028033960375
 20
220.9876588671279
 10
-5485.647622960375
 20
219.6093348671279
 10
-5486.917889960376
 20
218.1841328671278
 10
-5487.828585960375
 20
216.7235518671277
  0
LWPOLYLINE
  5
60A5
330
1E
100
AcDbEntity
  8
002
100
AcDbPolyline
 90
       37
 70
     0
 43
0.0
 10
-5400.328585960375
 20
213.7993878671277
 10
-5400.487729960374
 20
214.8908548671279
 10
-5400.963945960375
 20
215.9739838671277
 10
-5401.753595960375
 20
217.0405018671278
 10
-5402.850647960375
 20
218.0822608671278
 10
-5404.246722960375
 20
219.0913028671279
 10
-5405.931153960375
 20
220.0599218671277
 10
-5407.891076960375
 20
220.9807158671278
 10
-5410.111516960374
 20
221.8466528671279
 10
-5412.575514960376
 20
222.6511178671278
 10
-5415.264246960376
 20
223.3879648671277
 10
-5418.157174960375
 20
224.0515658671279
 10
-5421.232198960375
 20
224.6368518671279
 10
-5424.465830960375
 20
225.1393508671278
 10
-5427.833367960374
 20
225.5552248671278
 10
-5431.309086960375
 20
225.8812978671276
 10
-5434.866435960375
 20
226.1150778671278
 10
-5438.478240960375
 20
226.2547788671276
 10
-5442.116912960376
 20
226.2993348671279
 10
-5445.754654960376
 20
226.2484048671276
 10
-5449.363679960375
 20
226.1023788671277
 10
-5452.916416960375
 20
225.8623698671278
 10
-5456.385728960374
 20
225.5302138671277
 10
-5459.745113960375
 20
225.1084478671277
 10
-5462.968908960374
 20
224.6002918671279
 10
-5466.032487960375
 20
224.0096288671279
 10
-5468.912448960375
 20
223.3409708671278
 10
-5471.586791960375
 20
222.599425867128
 10
-5474.035088960375
 20
221.790658867128
 10
-5476.238634960375
 20
220.9208458671278
 10
-5478.180599960374
 20
219.9966338671279
 10
-5479.846148960375
 20
219.0250818671279
 10
-5481.222557960375
 20
218.0136098671277
 10
-5482.299312960375
 20
216.9699468671278
 10
-5483.068188960374
 20
215.9020638671277
 10
-5483.523312960375
 20
214.8181188671278
 10
-5483.661208960375
 20
213.7263928671277
  0
LWPOLYLINE
  5
60A6
330
1E
100
AcDbEntity
  8
001
100
AcDbPolyline
 90
        3
 70
     0
 43
0.0
 10
-5496.846450960375
 20
139.2021648671279
 10
-5491.245802960374
 20
134.6031668671278
 10
-5493.796607960376
 20
141.3863398671278
  0
LINE
  5
60A7
330
1E
100
AcDbEntity
  8
002
100
AcDbLine
 10
-5456.716830960375
 20
165.0392178671277
 30
0.0
 11
-5453.996663960375
 21
180.4660548671277
 31
0.0
  0
LINE
  5
60A8
330
1E
100
AcDbEntity
  8
002
100
AcDbLine
 10
-5431.602094960375
 20
134.7088528671279
 30
0.0
 11
-5423.533864960375
 21
180.4660548671277
 31
0.0
  0
LINE
  5
60A9
330
1E
100
AcDbEntity
  8
002
100
AcDbLine
 10
-5431.602094960375
 20
77.121147867128
 30
0.0
 11
-5418.902094960374
 21
149.1464268671279
 31
0.0
  0
LWPOLYLINE
  5
60AA
330
1E
100
AcDbEntity
  8
001
100
AcDbPolyline
 90
        3
 70
     0
 43
0.0
 10
-5414.056415960375
 20
138.4172328671279
 10
-5418.902094960374
 20
133.0285928671278
 10
-5412.011293960375
 20
135.2724528671278
  0
LINE
  5
60AB
330
1E
100
AcDbEntity
  8
002
100
AcDbLine
 10
-5431.602094960375
 20
180.4660548671277
 30
0.0
 11
-5418.902094960374
 21
180.4660548671277
 31
0.0
  0
LINE
  5
60AC
330
1E
100
AcDbEntity
  8
002
100
AcDbLine
 10
-5438.763348960375
 20
230.4156378671277
 30
0.0
 11
-5438.872057960375
 21
226.2642228671277
 31
0.0
  0
LINE
  5
60AD
330
1E
100
AcDbEntity
  8
002
100
AcDbLine
 10
-5445.227629960374
 20
230.4337608671278
 30
0.0
 11
-5445.118446960375
 21
226.2642228671277
 31
0.0
  0
LINE
  5
60AE
330
1E
100
AcDbEntity
  8
002
100
AcDbLine
 10
-5444.548049960374
 20
230.4472348671279
 30
0.0
 11
-5444.438870960375
 21
226.2778728671278
 31
0.0
  0
LINE
  5
60AF
330
1E
100
AcDbEntity
  8
002
100
AcDbLine
 10
-5439.442828960375
 20
230.4329328671278
 30
0.0
 11
-5439.551632960375
 21
226.2778728671278
 31
0.0
  0
LINE
  5
60B0
330
1E
100
AcDbEntity
  8
003
 62
     3
100
AcDbLine
 10
-5068.468575752199
 20
-114.9220399113441
 30
0.0
 11
-5068.468575752199
 21
-252.5227380518904
 31
0.0
  0
LINE
  5
60B1
330
1E
100
AcDbEntity
  8
002
100
AcDbLine
 10
-5361.85654081893
 20
-603.461198536431
 30
0.0
 11
-5339.856540818931
 21
-581.4611985364311
 31
0.0
  0
LINE
  5
60B2
330
1E
100
AcDbEntity
  8
002
100
AcDbLine
 10
-5361.85654081893
 20
-593.5617035364309
 30
0.0
 11
-5345.480201818931
 21
-577.1853655364309
 31
0.0
  0
LINE
  5
60B3
330
1E
100
AcDbEntity
  8
002
100
AcDbLine
 10
-5361.85654081893
 20
-577.1853655364309
 30
0.0
 11
-5339.856540818931
 21
-577.1853655364309
 31
0.0
  0
LINE
  5
60B4
330
1E
100
AcDbEntity
  8
002
100
AcDbLine
 10
-5361.85654081893
 20
-583.662208536431
 30
0.0
 11
-5355.379696818931
 21
-577.1853655364309
 31
0.0
  0
TEXT
  5
60B5
330
1E
100
AcDbEntity
  8
001
100
AcDbText
 10
-5332.248350960376
 20
-279.1261859310575
 30
0.0
 40
11.19999999999999
  1
コルゲートシース
 41
0.716146
100
AcDbText
  0
LINE
  5
60B6
330
1E
100
AcDbEntity
  8
001
100
AcDbLine
 10
-5341.873350960375
 20
-282.0865590691655
 30
0.0
 11
-5245.623350960375
 21
-282.0865590691655
 31
0.0
  0
TEXT
  5
60B7
330
1E
100
AcDbEntity
  8
001
100
AcDbText
 10
-5277.966391137002
 20
102.8088555512263
 30
0.0
 40
11.19999999999999
  1
両ネジ　ジョイントプレート
 41
0.716146
100
AcDbText
  0
TEXT
  5
60B8
330
1E
100
AcDbEntity
  8
001
100
AcDbText
 10
-5235.601877960374
 20
-96.63065517223641
 30
0.0
 40
11.19999999999999
  1
メッキ付　円形プレート
 41
0.716146
100
AcDbText
  0
LINE
  5
60B9
330
1E
100
AcDbEntity
  8
001
100
AcDbLine
 10
-5254.56127449612
 20
-100.1306551722364
 30
0.0
 11
-5120.101877960375
 21
-100.1306551722364
 31
0.0
  0
LINE
  5
60BA
330
1E
100
AcDbEntity
  8
001
100
AcDbLine
 10
-5283.55808611209
 20
99.30885555122632
 30
0.0
 11
-5152.148508244791
 21
99.30885555122632
 31
0.0
  0
LINE
  5
60BB
330
1E
100
AcDbEntity
  8
001
100
AcDbLine
 10
-5221.299914553179
 20
137.4044487361088
 30
0.0
 11
-5154.118631553179
 21
181.0939687361087
 31
0.0
  0
DIMENSION
  5
60BC
330
1E
100
AcDbEntity
  8
001
100
AcDbDimension
  2
*D6
 10
-5207.685490030023
 20
-41.53394513287233
 30
0.0
 11
-5220.810490030022
 21
13.46605486712683
 31
0.0
 70
    32
 71
     5
 42
110.0
  3
ISO-25
100
AcDbAlignedDimension
 13
-5322.843272845654
 23
68.46605486712769
 33
0.0
 14
-5322.843272845654
 24
-41.5339451328723
 34
0.0
 50
90.0
100
AcDbRotatedDimension
  0
LINE
  5
60BD
330
1E
100
AcDbEntity
  8
001
100
AcDbLine
 10
-5355.919084960374
 20
-20.5339451328723
 30
0.0
 11
-5254.56127449612
 21
-100.1306551722364
 31
0.0
  0
LINE
  5
60BE
330
1E
100
AcDbEntity
  8
002
100
AcDbLine
 10
-5339.495251960375
 20
-19.5339451328723
 30
0.0
 11
-5339.495251960375
 21
-41.5339451328723
 31
0.0
  0
LWPOLYLINE
  5
60BF
330
1E
100
AcDbEntity
  8
001
100
AcDbPolyline
 90
        3
 70
     0
 43
0.0
 10
-5349.255320125744
 20
-23.38215201482444
 10
-5355.919084960374
 20
-20.5339451328723
 10
-5351.572199146543
 20
-26.33244727108194
  0
TEXT
  5
60C0
330
1E
100
AcDbEntity
  8
001
100
AcDbText
 10
-5342.095811960374
 20
180.2181308671279
 30
0.0
 40
11.19999999999999
  1
ＰＣ鋼より線
 41
0.716146
100
AcDbText
  0
LINE
  5
60C1
330
1E
100
AcDbEntity
  8
001
100
AcDbLine
 10
-5351.720811960375
 20
176.7181128671277
 30
0.0
 11
-5274.720811960374
 21
176.7181128671277
 31
0.0
  0
LWPOLYLINE
  5
60C2
330
1E
100
AcDbEntity
  8
001
100
AcDbPolyline
 90
        3
 70
     0
 43
0.0
 10
-5216.454235553179
 20
142.7930887361087
 10
-5221.299914553179
 20
137.4044487361088
 10
-5214.409113553178
 20
139.6483087361088
  0
LINE
  5
60C3
330
1E
100
AcDbEntity
  8
003
 62
     3
100
AcDbLine
 10
-5068.468575752199
 20
-68.32000291134363
 30
0.0
 11
-5068.468575752199
 21
106.0472456086722
 31
0.0
  0
LINE
  5
60C4
330
1E
100
AcDbEntity
  8
003
 48
0.25
100
AcDbLine
 10
-5068.468575752199
 20
68.17250621582707
 30
0.0
 11
-5141.995251960376
 21
83.46605486712769
 31
0.0
  0
LINE
  5
60C5
330
1E
100
AcDbEntity
  8
003
 62
     3
100
AcDbLine
 10
-5048.744692752197
 20
-68.32000291134363
 30
0.0
 11
-5086.868973752198
 21
-114.9220399113441
 31
0.0
  0
LINE
  5
60C6
330
1E
100
AcDbEntity
  8
003
 62
     3
100
AcDbLine
 10
-5086.868973752198
 20
-114.9220399113441
 30
0.0
 11
-5068.468575752199
 21
-114.9220399113441
 31
0.0
  0
LINE
  5
60C7
330
1E
100
AcDbEntity
  8
003
 62
     3
100
AcDbLine
 10
-5068.468575752199
 20
-68.32000291134363
 30
0.0
 11
-5048.744692752197
 21
-68.32000291134363
 31
0.0
  0
TEXT
  5
60C8
330
1E
100
AcDbEntity
  8
001
100
AcDbText
 10
-5144.493631553178
 20
166.7171821619781
 30
0.0
 40
11.19999999999999
  1
（高さ180mm)
 41
0.716146
100
AcDbText
  0
LINE
  5
60C9
330
1E
100
AcDbEntity
  8
001
100
AcDbLine
 10
-5154.118631553179
 20
181.0939687361087
 30
0.0
 11
-5077.118631553179
 21
181.0939687361087
 31
0.0
  0
TEXT
  5
60CA
330
1E
100
AcDbEntity
  8
001
100
AcDbText
 10
-5144.493631553178
 20
184.5939867361089
 30
0.0
 40
11.19999999999999
  1
ロングタイプ蓋
 41
0.716146
100
AcDbText
  0
ENDSEC
  0
SECTION
  2
OBJECTS
  0
DICTIONARY
  5
C
330
0
100
AcDbDictionary
281
     1
  3
ACAD_GROUP
350
D
  3
ACAD_LAYOUT
350
19
  3
ACAD_MLINESTYLE
350
16
  3
ACAD_PLOTSETTINGS
350
18
  3
ACAD_PLOTSTYLENAME
350
E
  3
AcDbVariableDictionary
350
4BD
  3
DWGPROPS
350
6196
  0
DICTIONARY
  5
D
102
{ACAD_REACTORS
330
C
102
}
330
C
100
AcDbDictionary
281
     1
  0
DICTIONARY
  5
19
102
{ACAD_REACTORS
330
C
102
}
330
C
100
AcDbDictionary
281
     1
  3
Model
350
21
  3
ﾚｲｱｳﾄ1
350
1D
  0
DICTIONARY
  5
16
102
{ACAD_REACTORS
330
C
102
}
330
C
100
AcDbDictionary
281
     1
  3
Standard
350
17
  0
DICTIONARY
  5
18
102
{ACAD_REACTORS
330
C
102
}
330
C
100
AcDbDictionary
281
     1
  0
ACDBDICTIONARYWDFLT
  5
E
102
{ACAD_REACTORS
330
C
102
}
330
C
100
AcDbDictionary
281
     1
  3
Normal
350
F
100
AcDbDictionaryWithDefault
340
F
  0
DICTIONARY
  5
4BD
102
{ACAD_REACTORS
330
C
102
}
330
C
100
AcDbDictionary
281
     1
  3
DIMASSOC
350
4BE
  0
XRECORD
  5
6196
102
{ACAD_REACTORS
330
C
102
}
330
C
100
AcDbXrecord
280
     1
  1
DWGPROPS COOKIE
  2

  3

  4

  6

  7

  8

  9

300
=
301
=
302
=
303
=
304
=
305
=
306
=
307
=
308
=
309
=
 40
0.5146406828703704
 41
2453874.389934525
 42
2454273.744220335
  1

 90
        0
  0
LAYOUT
  5
21
102
{ACAD_REACTORS
330
19
102
}
330
19
100
AcDbPlotSettings
  1

  2
EPSON LP-9000C
  4
A3
  6

 40
5.873749732971191
 41
5.873747825622558
 42
5.873748779296875
 43
5.873748779296875
 44
297.0106506347656
 45
419.9466552734374
 46
0.0
 47
0.0
 48
-2170.754641441107
 49
-983.9856957548217
140
-98.05464144110738
141
481.7093042451784
142
1.0
143
5.138045306919282
 70
 11952
 72
     1
 73
     1
 74
     4
  7
ZenithPrinter.ctb
 75
     0
147
0.1946265438051556
148
2170.754641441107
149
983.9856957548217
100
AcDbLayout
  1
Model
 70
     1
 71
     0
 10
0.0
 20
0.0
 11
12.0
 21
9.0
 12
0.0
 22
0.0
 32
0.0
 14
0.0
 24
0.0
 34
0.0
 15
0.0
 25
0.0
 35
0.0
146
0.0
 13
0.0
 23
0.0
 33
0.0
 16
1.0
 26
0.0
 36
0.0
 17
0.0
 27
1.0
 37
0.0
 76
     0
330
1E
  0
LAYOUT
  5
1D
102
{ACAD_REACTORS
330
19
102
}
330
19
100
AcDbPlotSettings
  1

  2
EPSON LP-9000C
  4

  6

 40
0.0
 41
0.0
 42
0.0
 43
0.0
 44
0.0
 45
0.0
 46
0.0
 47
0.0
 48
0.0
 49
0.0
140
0.0
141
0.0
142
1.0
143
1.0
 70
   688
 72
     0
 73
     0
 74
     5
  7
ZenithPrinter.ctb
 75
    16
147
1.0
148
0.0
149
0.0
100
AcDbLayout
  1
ﾚｲｱｳﾄ1
 70
     1
 71
     1
 10
0.0
 20
0.0
 11
12.0
 21
9.0
 12
0.0
 22
0.0
 32
0.0
 14
1.000000000000000E+20
 24
1.000000000000000E+20
 34
1.000000000000000E+20
 15
-1.000000000000000E+20
 25
-1.000000000000000E+20
 35
-1.000000000000000E+20
146
0.0
 13
0.0
 23
0.0
 33
0.0
 16
1.0
 26
0.0
 36
0.0
 17
0.0
 27
1.0
 37
0.0
 76
     0
330
1A
  0
MLINESTYLE
  5
17
102
{ACAD_REACTORS
330
16
102
}
330
16
100
AcDbMlineStyle
  2
STANDARD
 70
     0
  3

 62
   256
 51
90.0
 52
90.0
 71
     2
 49
0.5
 62
   256
  6
BYLAYER
 49
-0.5
 62
   256
  6
BYLAYER
  0
ACDBPLACEHOLDER
  5
F
102
{ACAD_REACTORS
330
E
102
}
330
E
  0
DICTIONARYVAR
  5
4BE
102
{ACAD_REACTORS
330
4BD
102
}
330
4BD
100
DictionaryVariables
280
     0
  1
1
  0
ENDSEC
  0
EOF
