  0
SECTION
  2
HEADER
  9
$ACADVER
  1
AC1015
  9
$ACADMAINTVER
 70
    13
  9
$DWGCODEPAGE
  3
ANSI_932
  9
$INSBASE
 10
0.0
 20
0.0
 30
0.0
  9
$EXTMIN
 10
4626.208893824445
 20
-3268.956043639016
 30
0.0
  9
$EXTMAX
 10
6698.908893824444
 20
-1803.261043639015
 30
0.0
  9
$LIMMIN
 10
4626.208893824445
 20
-3268.956043639016
  9
$LIMMAX
 10
6698.908893824444
 20
-1803.261043639015
  9
$ORTHOMODE
 70
     1
  9
$REGENMODE
 70
     1
  9
$FILLMODE
 70
     1
  9
$QTEXTMODE
 70
     0
  9
$MIRRTEXT
 70
     1
  9
$LTSCALE
 40
24.5
  9
$ATTMODE
 70
     1
  9
$TEXTSIZE
 40
0.2
  9
$TRACEWID
 40
0.05
  9
$TEXTSTYLE
  7
STANDARD
  9
$CLAYER
  8
002
  9
$CELTYPE
  6
ByLayer
  9
$CECOLOR
 62
   256
  9
$CELTSCALE
 40
1.0
  9
$DISPSILH
 70
     0
  9
$DIMSCALE
 40
15.0
  9
$DIMASZ
 40
0.75
  9
$DIMEXO
 40
0.625
  9
$DIMDLI
 40
3.75
  9
$DIMRND
 40
0.0
  9
$DIMDLE
 40
0.0
  9
$DIMEXE
 40
0.0
  9
$DIMTP
 40
0.0
  9
$DIMTM
 40
0.0
  9
$DIMTXT
 40
0.75
  9
$DIMCEN
 40
2.5
  9
$DIMTSZ
 40
0.0
  9
$DIMTOL
 70
     0
  9
$DIMLIM
 70
     0
  9
$DIMTIH
 70
     0
  9
$DIMTOH
 70
     0
  9
$DIMSE1
 70
     0
  9
$DIMSE2
 70
     0
  9
$DIMTAD
 70
     1
  9
$DIMZIN
 70
     8
  9
$DIMBLK
  1
Open
  9
$DIMASO
 70
     1
  9
$DIMSHO
 70
     1
  9
$DIMPOST
  1

  9
$DIMAPOST
  1

  9
$DIMALT
 70
     0
  9
$DIMALTD
 70
     2
  9
$DIMALTF
 40
0.0394
  9
$DIMLFAC
 40
1.0
  9
$DIMTOFL
 70
     1
  9
$DIMTVP
 40
1.0
  9
$DIMTIX
 70
     0
  9
$DIMSOXD
 70
     0
  9
$DIMSAH
 70
     0
  9
$DIMBLK1
  1

  9
$DIMBLK2
  1

  9
$DIMSTYLE
  2
ISO-25
  9
$DIMCLRD
 70
     0
  9
$DIMCLRE
 70
     0
  9
$DIMCLRT
 70
     0
  9
$DIMTFAC
 40
1.0
  9
$DIMGAP
 40
0.5
  9
$DIMJUST
 70
     0
  9
$DIMSD1
 70
     0
  9
$DIMSD2
 70
     0
  9
$DIMTOLJ
 70
     1
  9
$DIMTZIN
 70
     0
  9
$DIMALTZ
 70
     0
  9
$DIMALTTZ
 70
     0
  9
$DIMUPT
 70
     0
  9
$DIMDEC
 70
     0
  9
$DIMTDEC
 70
     0
  9
$DIMALTU
 70
     2
  9
$DIMALTTD
 70
     2
  9
$DIMTXSTY
  7
STANDARD
  9
$DIMAUNIT
 70
     0
  9
$DIMADEC
 70
     0
  9
$DIMALTRND
 40
0.0
  9
$DIMAZIN
 70
     0
  9
$DIMDSEP
 70
    46
  9
$DIMATFIT
 70
     3
  9
$DIMFRAC
 70
     0
  9
$DIMLDRBLK
  1

  9
$DIMLUNIT
 70
     2
  9
$DIMLWD
 70
    -2
  9
$DIMLWE
 70
    -2
  9
$DIMTMOVE
 70
     0
  9
$LUNITS
 70
     2
  9
$LUPREC
 70
     4
  9
$SKETCHINC
 40
0.1
  9
$FILLETRAD
 40
0.0
  9
$AUNITS
 70
     0
  9
$AUPREC
 70
     0
  9
$MENU
  1
.
  9
$ELEVATION
 40
0.0
  9
$PELEVATION
 40
0.0
  9
$THICKNESS
 40
0.0
  9
$LIMCHECK
 70
     0
  9
$CHAMFERA
 40
0.0
  9
$CHAMFERB
 40
0.0
  9
$CHAMFERC
 40
0.0
  9
$CHAMFERD
 40
0.0
  9
$SKPOLY
 70
     0
  9
$TDCREATE
 40
2453874.389934525
  9
$TDUCREATE
 40
2453874.014934525
  9
$TDUPDATE
 40
2454278.537433264
  9
$TDUUPDATE
 40
2454278.162433264
  9
$TDINDWG
 40
1.0105914005
  9
$TDUSRTIMER
 40
1.0105914005
  9
$USRTIMER
 70
     1
  9
$ANGBASE
 50
0.0
  9
$ANGDIR
 70
     0
  9
$PDMODE
 70
     0
  9
$PDSIZE
 40
0.0
  9
$PLINEWID
 40
0.0
  9
$SPLFRAME
 70
     0
  9
$SPLINETYPE
 70
     6
  9
$SPLINESEGS
 70
     8
  9
$HANDSEED
  5
9727
  9
$SURFTAB1
 70
     6
  9
$SURFTAB2
 70
     6
  9
$SURFTYPE
 70
     6
  9
$SURFU
 70
     6
  9
$SURFV
 70
     6
  9
$UCSBASE
  2

  9
$UCSNAME
  2

  9
$UCSORG
 10
0.0
 20
0.0
 30
0.0
  9
$UCSXDIR
 10
1.0
 20
0.0
 30
0.0
  9
$UCSYDIR
 10
0.0
 20
1.0
 30
0.0
  9
$UCSORTHOREF
  2

  9
$UCSORTHOVIEW
 70
     0
  9
$UCSORGTOP
 10
0.0
 20
0.0
 30
0.0
  9
$UCSORGBOTTOM
 10
0.0
 20
0.0
 30
0.0
  9
$UCSORGLEFT
 10
0.0
 20
0.0
 30
0.0
  9
$UCSORGRIGHT
 10
0.0
 20
0.0
 30
0.0
  9
$UCSORGFRONT
 10
0.0
 20
0.0
 30
0.0
  9
$UCSORGBACK
 10
0.0
 20
0.0
 30
0.0
  9
$PUCSBASE
  2

  9
$PUCSNAME
  2

  9
$PUCSORG
 10
0.0
 20
0.0
 30
0.0
  9
$PUCSXDIR
 10
1.0
 20
0.0
 30
0.0
  9
$PUCSYDIR
 10
0.0
 20
1.0
 30
0.0
  9
$PUCSORTHOREF
  2

  9
$PUCSORTHOVIEW
 70
     0
  9
$PUCSORGTOP
 10
0.0
 20
0.0
 30
0.0
  9
$PUCSORGBOTTOM
 10
0.0
 20
0.0
 30
0.0
  9
$PUCSORGLEFT
 10
0.0
 20
0.0
 30
0.0
  9
$PUCSORGRIGHT
 10
0.0
 20
0.0
 30
0.0
  9
$PUCSORGFRONT
 10
0.0
 20
0.0
 30
0.0
  9
$PUCSORGBACK
 10
0.0
 20
0.0
 30
0.0
  9
$USERI1
 70
     0
  9
$USERI2
 70
     0
  9
$USERI3
 70
     0
  9
$USERI4
 70
     0
  9
$USERI5
 70
     0
  9
$USERR1
 40
0.0
  9
$USERR2
 40
0.0
  9
$USERR3
 40
0.0
  9
$USERR4
 40
0.0
  9
$USERR5
 40
0.0
  9
$WORLDVIEW
 70
     1
  9
$SHADEDGE
 70
     3
  9
$SHADEDIF
 70
    70
  9
$TILEMODE
 70
     1
  9
$MAXACTVP
 70
    64
  9
$PINSBASE
 10
0.0
 20
0.0
 30
0.0
  9
$PLIMCHECK
 70
     0
  9
$PEXTMIN
 10
1.000000000000000E+20
 20
1.000000000000000E+20
 30
1.000000000000000E+20
  9
$PEXTMAX
 10
-1.000000000000000E+20
 20
-1.000000000000000E+20
 30
-1.000000000000000E+20
  9
$PLIMMIN
 10
0.0
 20
0.0
  9
$PLIMMAX
 10
12.0
 20
9.0
  9
$UNITMODE
 70
     0
  9
$VISRETAIN
 70
     1
  9
$PLINEGEN
 70
     0
  9
$PSLTSCALE
 70
     1
  9
$TREEDEPTH
 70
  3020
  9
$CMLSTYLE
  2
Standard
  9
$CMLJUST
 70
     0
  9
$CMLSCALE
 40
1.0
  9
$PROXYGRAPHICS
 70
     1
  9
$MEASUREMENT
 70
     0
  9
$CELWEIGHT
370
    -1
  9
$ENDCAPS
280
     0
  9
$JOINSTYLE
280
     0
  9
$LWDISPLAY
290
     0
  9
$INSUNITS
 70
     0
  9
$HYPERLINKBASE
  1

  9
$STYLESHEET
  1
ZenithProtter.ctb
  9
$XEDIT
290
     1
  9
$CEPSNTYPE
380
     0
  9
$PSTYLEMODE
290
     1
  9
$FINGERPRINTGUID
  2
{DB2F255E-76A1-4E9F-8FDF-6D653DC3006F}
  9
$VERSIONGUID
  2
{D7604F00-E42C-44B7-812B-3EB6C285CA63}
  9
$EXTNAMES
290
     1
  9
$PSVPSCALE
 40
0.0
  9
$OLESTARTUP
290
     0
  0
ENDSEC
  0
SECTION
  2
CLASSES
  0
CLASS
  1
ACDBDICTIONARYWDFLT
  2
AcDbDictionaryWithDefault
  3
AutoCAD 2000
 90
        0
280
     0
281
     0
  0
CLASS
  1
ACDBPLACEHOLDER
  2
AcDbPlaceHolder
  3
AutoCAD 2000
 90
        0
280
     0
281
     0
  0
CLASS
  1
LAYOUT
  2
AcDbLayout
  3
AutoCAD 2000
 90
        0
280
     0
281
     0
  0
CLASS
  1
DICTIONARYVAR
  2
AcDbDictionaryVar
  3
AutoCAD 2000
 90
        0
280
     0
281
     0
  0
ENDSEC
  0
SECTION
  2
TABLES
  0
TABLE
  2
VPORT
  5
8
330
0
100
AcDbSymbolTable
 70
     2
  0
VPORT
  5
9726
330
8
100
AcDbSymbolTableRecord
100
AcDbViewportTableRecord
  2
*Active
 70
     0
 10
0.0
 20
0.0
 11
1.0
 21
1.0
 12
5662.558898650326
 22
-2536.108540226428
 13
0.0
 23
0.0
 14
1.0
 24
1.0
 15
0.0
 25
0.0
 16
0.0
 26
0.0
 36
1.0
 17
0.0
 27
0.0
 37
0.0
 40
1477.815521513787
 41
1.723287671232876
 42
50.0
 43
0.0
 44
0.0
 50
0.0
 51
0.0
 71
     0
 72
   100
 73
     1
 74
     1
 75
     0
 76
     0
 77
     0
 78
     0
281
     0
 65
     1
110
0.0
120
0.0
130
0.0
111
1.0
121
0.0
131
0.0
112
0.0
122
1.0
132
0.0
 79
     0
146
0.0
  0
ENDTAB
  0
TABLE
  2
LTYPE
  5
5
330
0
100
AcDbSymbolTable
 70
     3
  0
LTYPE
  5
13
330
5
100
AcDbSymbolTableRecord
100
AcDbLinetypeTableRecord
  2
ByBlock
 70
     0
  3

 72
    65
 73
     0
 40
0.0
  0
LTYPE
  5
14
330
5
100
AcDbSymbolTableRecord
100
AcDbLinetypeTableRecord
  2
ByLayer
 70
     0
  3

 72
    65
 73
     0
 40
0.0
  0
LTYPE
  5
15
330
5
100
AcDbSymbolTableRecord
100
AcDbLinetypeTableRecord
  2
CONTINUOUS
 70
     0
  3
Solid-Line
 72
    65
 73
     0
 40
0.0
  0
LTYPE
  5
22
330
5
100
AcDbSymbolTableRecord
100
AcDbLinetypeTableRecord
  2
DASHED
 70
     0
  3
DASHED
 72
    65
 73
     2
 40
0.75
 49
0.5
 74
     0
 49
-0.25
 74
     0
  0
LTYPE
  5
24
330
5
100
AcDbSymbolTableRecord
100
AcDbLinetypeTableRecord
  2
CENTER
 70
     0
  3
CENTER
 72
    65
 73
     4
 40
2.0
 49
1.25
 74
     0
 49
-0.25
 74
     0
 49
0.25
 74
     0
 49
-0.25
 74
     0
  0
ENDTAB
  0
TABLE
  2
LAYER
  5
2
330
0
100
AcDbSymbolTable
 70
     6
  0
LAYER
  5
10
330
2
100
AcDbSymbolTableRecord
100
AcDbLayerTableRecord
  2
0
 70
     0
 62
     7
  6
CONTINUOUS
370
     5
390
F
  0
LAYER
  5
26
330
2
100
AcDbSymbolTableRecord
100
AcDbLayerTableRecord
  2
001
 70
     0
 62
     4
  6
CONTINUOUS
370
     5
390
F
  0
LAYER
  5
586
330
2
100
AcDbSymbolTableRecord
100
AcDbLayerTableRecord
  2
DEFPOINTS
 70
     0
 62
     7
  6
CONTINUOUS
290
     0
370
    -3
390
F
  0
LAYER
  5
587
330
2
100
AcDbSymbolTableRecord
100
AcDbLayerTableRecord
  2
003
 70
     0
 62
     3
  6
CONTINUOUS
370
    13
390
F
  0
LAYER
  5
2C96
330
2
100
AcDbSymbolTableRecord
100
AcDbLayerTableRecord
  2
002
 70
     0
 62
     1
  6
CONTINUOUS
370
    15
390
F
  0
LAYER
  5
445B
330
2
100
AcDbSymbolTableRecord
100
AcDbLayerTableRecord
  2
004
 70
     0
 62
     4
  6
CONTINUOUS
370
    -3
390
F
  0
ENDTAB
  0
TABLE
  2
STYLE
  5
3
330
0
100
AcDbSymbolTable
 70
     1
  0
STYLE
  5
11
330
3
100
AcDbSymbolTableRecord
100
AcDbTextStyleTableRecord
  2
STANDARD
 70
     0
 40
0.0
 41
1.0
 50
0.0
 71
     0
 42
0.2
  3
TXT
  4
BIGFONT
  0
ENDTAB
  0
TABLE
  2
VIEW
  5
6
330
0
100
AcDbSymbolTable
 70
     0
  0
ENDTAB
  0
TABLE
  2
UCS
  5
7
330
0
100
AcDbSymbolTable
 70
     0
  0
ENDTAB
  0
TABLE
  2
APPID
  5
9
330
0
100
AcDbSymbolTable
 70
     1
  0
APPID
  5
12
330
9
100
AcDbSymbolTableRecord
100
AcDbRegAppTableRecord
  2
ACAD
 70
     0
  0
ENDTAB
  0
TABLE
  2
DIMSTYLE
  5
A
330
0
100
AcDbSymbolTable
 70
     2
100
AcDbDimStyleTable
 71
     2
340
58A
340
4BA
  0
DIMSTYLE
105
4BA
330
A
100
AcDbSymbolTableRecord
100
AcDbDimStyleTableRecord
  2
Standard
 70
     0
340
11
  0
DIMSTYLE
105
58A
102
{ACAD_REACTORS
330
95F7
330
9441
330
9442
330
9499
330
949F
330
91A2
330
91BC
330
91CA
330
9240
102
}
330
A
100
AcDbSymbolTableRecord
100
AcDbDimStyleTableRecord
  2
ISO-25
 70
     0
 40
15.0
 41
0.75
 42
0.625
 43
3.75
 44
0.0
 73
     0
 74
     0
 77
     1
 78
     8
140
0.75
141
2.5
143
0.0394
145
1.0
147
0.5
172
     1
271
     0
272
     0
340
11
342
1390
  0
ENDTAB
  0
TABLE
  2
BLOCK_RECORD
  5
1
330
0
100
AcDbSymbolTable
 70
    13
  0
BLOCK_RECORD
  5
1E
330
1
100
AcDbSymbolTableRecord
100
AcDbBlockTableRecord
  2
*Model_Space
340
21
  0
BLOCK_RECORD
  5
1A
330
1
100
AcDbSymbolTableRecord
100
AcDbBlockTableRecord
  2
*Paper_Space
340
1D
  0
BLOCK_RECORD
  5
3F
330
1
100
AcDbSymbolTableRecord
100
AcDbBlockTableRecord
  2
PART0
340
0
102
{BLKREFS
331
9456
102
}
  0
BLOCK_RECORD
  5
56
330
1
100
AcDbSymbolTableRecord
100
AcDbBlockTableRecord
  2
PART1
340
0
102
{BLKREFS
331
95F2
102
}
  0
BLOCK_RECORD
  5
7D
330
1
100
AcDbSymbolTableRecord
100
AcDbBlockTableRecord
  2
PART2
340
0
102
{BLKREFS
331
923F
102
}
  0
BLOCK_RECORD
  5
1390
330
1
100
AcDbSymbolTableRecord
100
AcDbBlockTableRecord
  2
_Open
340
0
102
{BLKREFS
331
96B7
331
96B8
331
96C2
331
96C3
331
96CB
331
96CC
331
96D4
331
96D5
331
96DD
331
96DE
331
96E6
331
96E7
331
96F1
331
96F2
331
96FC
331
96FD
331
9705
331
9706
102
}
  0
BLOCK_RECORD
  5
963E
330
1
100
AcDbSymbolTableRecord
100
AcDbBlockTableRecord
  2
*D4
340
0
  0
BLOCK_RECORD
  5
964C
330
1
100
AcDbSymbolTableRecord
100
AcDbBlockTableRecord
  2
*D5
340
0
  0
BLOCK_RECORD
  5
965A
330
1
100
AcDbSymbolTableRecord
100
AcDbBlockTableRecord
  2
*D6
340
0
  0
BLOCK_RECORD
  5
9666
330
1
100
AcDbSymbolTableRecord
100
AcDbBlockTableRecord
  2
*D7
340
0
  0
BLOCK_RECORD
  5
9672
330
1
100
AcDbSymbolTableRecord
100
AcDbBlockTableRecord
  2
*D8
340
0
  0
BLOCK_RECORD
  5
967E
330
1
100
AcDbSymbolTableRecord
100
AcDbBlockTableRecord
  2
*D9
340
0
  0
BLOCK_RECORD
  5
968A
330
1
100
AcDbSymbolTableRecord
100
AcDbBlockTableRecord
  2
*D10
340
0
  0
BLOCK_RECORD
  5
969A
330
1
100
AcDbSymbolTableRecord
100
AcDbBlockTableRecord
  2
*D11
340
0
  0
BLOCK_RECORD
  5
96A6
330
1
100
AcDbSymbolTableRecord
100
AcDbBlockTableRecord
  2
*D12
340
0
  0
ENDTAB
  0
ENDSEC
  0
SECTION
  2
BLOCKS
  0
BLOCK
  5
1F
330
1E
100
AcDbEntity
  8
0
100
AcDbBlockBegin
  2
*Model_Space
 70
     0
 10
0.0
 20
0.0
 30
0.0
  3
*Model_Space
  1

  0
ENDBLK
  5
20
330
1E
100
AcDbEntity
  8
0
100
AcDbBlockEnd
  0
BLOCK
  5
1B
330
1A
100
AcDbEntity
 67
     1
  8
0
100
AcDbBlockBegin
  2
*Paper_Space
 70
     0
 10
0.0
 20
0.0
 30
0.0
  3
*Paper_Space
  1

  0
ENDBLK
  5
1C
330
1A
100
AcDbEntity
 67
     1
  8
0
100
AcDbBlockEnd
  0
BLOCK
  5
40
330
3F
100
AcDbEntity
  8
001
100
AcDbBlockBegin
  2
PART0
 70
     0
 10
0.0
 20
0.0
 30
0.0
  3
PART0
  1

  0
LINE
  5
41
330
3F
100
AcDbEntity
  8
001
100
AcDbLine
 10
1297.760835
 20
539.2649150000001
 30
0.0
 11
1297.760835
 21
586.240683
 31
0.0
  0
TEXT
  5
42
330
3F
100
AcDbEntity
  8
001
100
AcDbText
 10
1294.260835
 20
539.2649150000001
 30
0.0
 40
11.19999999999999
  1
M64
 50
90.00000300000001
 41
0.859375
100
AcDbText
  0
LWPOLYLINE
  5
43
330
3F
100
AcDbEntity
  8
001
100
AcDbPolyline
 90
        3
 70
     0
 43
0.0
 10
1299.636479
 20
579.240683
 10
1297.760835
 20
586.240683
 10
1295.885189999999
 20
579.240683
  0
LINE
  5
48
330
3F
100
AcDbEntity
  8
001
100
AcDbLine
 10
1255.321429
 20
586.240683
 30
0.0
 11
1301.260835
 21
586.240683
 31
0.0
  0
ENDBLK
  5
49
330
3F
100
AcDbEntity
  8
001
100
AcDbBlockEnd
  0
BLOCK
  5
57
330
56
100
AcDbEntity
  8
001
100
AcDbBlockBegin
  2
PART1
 70
     0
 10
0.0
 20
0.0
 30
0.0
  3
PART1
  1

  0
LINE
  5
58
330
56
100
AcDbEntity
  8
001
100
AcDbLine
 10
1361.259938999999
 20
290.352174
 30
0.0
 11
1361.259938999999
 21
351.035679
 31
0.0
  0
TEXT
  5
59
330
56
100
AcDbEntity
  8
001
100
AcDbText
 10
1357.759939
 20
290.352174
 30
0.0
 40
11.19999999999999
  1
%%c89
 50
90.00000300000001
 41
0.859375
100
AcDbText
  0
LWPOLYLINE
  5
5A
330
56
100
AcDbEntity
  8
001
100
AcDbPolyline
 90
        3
 70
     0
 43
0.0
 10
1363.135583
 20
344.035679
 10
1361.259938999999
 20
351.035679
 10
1359.384294999999
 20
344.035679
  0
LINE
  5
5F
330
56
100
AcDbEntity
  8
001
100
AcDbLine
 10
1314.21439
 20
351.035679
 30
0.0
 11
1364.759939
 21
351.035679
 31
0.0
  0
ENDBLK
  5
60
330
56
100
AcDbEntity
  8
001
100
AcDbBlockEnd
  0
BLOCK
  5
7E
330
7D
100
AcDbEntity
  8
001
100
AcDbBlockBegin
  2
PART2
 70
     0
 10
0.0
 20
0.0
 30
0.0
  3
PART2
  1

  0
LINE
  5
7F
330
7D
100
AcDbEntity
  8
001
100
AcDbLine
 10
1195.647475
 20
754.12531
 30
0.0
 11
1195.647475
 21
827.1040580000001
 31
0.0
  0
TEXT
  5
80
330
7D
100
AcDbEntity
  8
001
100
AcDbText
 10
1192.147475999999
 20
754.12531
 30
0.0
 40
11.19999999999999
  1
M106
 50
90.00000300000001
 41
0.9821429999999999
100
AcDbText
  0
LWPOLYLINE
  5
81
330
7D
100
AcDbEntity
  8
001
100
AcDbPolyline
 90
        3
 70
     0
 43
0.0
 10
1197.523119999999
 20
820.104058
 10
1195.647475
 20
827.1040580000001
 10
1193.771831
 20
820.104058
  0
LINE
  5
86
330
7D
100
AcDbEntity
  8
001
100
AcDbLine
 10
1144.670504
 20
827.1040580000001
 30
0.0
 11
1199.147474999999
 21
827.1040580000001
 31
0.0
  0
ENDBLK
  5
87
330
7D
100
AcDbEntity
  8
001
100
AcDbBlockEnd
  0
BLOCK
  5
1394
330
1390
100
AcDbEntity
  8
0
100
AcDbBlockBegin
  2
_Open
 70
     0
 10
0.0
 20
0.0
 30
0.0
  3
_Open
  1

  0
LINE
  5
1391
330
1390
100
AcDbEntity
  8
0
  6
ByBlock
 62
     0
370
    -2
100
AcDbLine
 10
-1.0
 20
0.1666666666666666
 30
0.0
 11
0.0
 21
0.0
 31
0.0
  0
LINE
  5
1392
330
1390
100
AcDbEntity
  8
0
  6
ByBlock
 62
     0
370
    -2
100
AcDbLine
 10
-1.0
 20
-0.1666666666666666
 30
0.0
 11
0.0
 21
0.0
 31
0.0
  0
LINE
  5
1393
330
1390
100
AcDbEntity
  8
0
  6
ByBlock
 62
     0
370
    -2
100
AcDbLine
 10
0.0
 20
0.0
 30
0.0
 11
-1.0
 21
0.0
 31
0.0
  0
ENDBLK
  5
1395
330
1390
100
AcDbEntity
  8
0
100
AcDbBlockEnd
  0
BLOCK
  5
964A
330
963E
100
AcDbEntity
  8
0
100
AcDbBlockBegin
  2
*D4
 70
     1
 10
0.0
 20
0.0
 30
0.0
  3
*D4
  1

  0
LINE
  5
96B2
330
963E
100
AcDbEntity
  8
001
  6
Continuous
 62
     0
370
    -2
100
AcDbLine
 10
6426.111931139645
 20
-2849.484804964928
 30
0.0
 11
6426.111931139645
 21
-2808.224160567629
 31
0.0
  0
LINE
  5
96B3
330
963E
100
AcDbEntity
  8
001
  6
Continuous
 62
     0
370
    -2
100
AcDbLine
 10
6401.111931139645
 20
-2849.484804964928
 30
0.0
 11
6401.111931139645
 21
-2808.224160567629
 31
0.0
  0
LINE
  5
96B4
330
963E
100
AcDbEntity
  8
001
  6
Continuous
 62
     0
370
    -2
100
AcDbLine
 10
6389.861931139645
 20
-2808.224160567629
 30
0.0
 11
6378.611931139645
 21
-2808.224160567629
 31
0.0
  0
LINE
  5
96B5
330
963E
100
AcDbEntity
  8
001
  6
Continuous
 62
     0
370
    -2
100
AcDbLine
 10
6437.361931139645
 20
-2808.224160567629
 30
0.0
 11
6484.486931139645
 21
-2808.224160567629
 31
0.0
  0
LINE
  5
96B6
330
963E
100
AcDbEntity
  8
001
  6
Continuous
 62
     0
370
    -2
100
AcDbLine
 10
6401.111931139645
 20
-2808.224160567629
 30
0.0
 11
6426.111931139645
 21
-2808.224160567629
 31
0.0
  0
INSERT
  5
96B7
330
963E
100
AcDbEntity
  8
001
  6
Continuous
 62
     0
370
    -2
100
AcDbBlockReference
  2
_Open
 10
6401.111931139645
 20
-2808.224160567629
 30
0.0
 41
11.25
 42
11.25
 43
11.25
  0
INSERT
  5
96B8
330
963E
100
AcDbEntity
  8
001
  6
Continuous
 62
     0
370
    -2
100
AcDbBlockReference
  2
_Open
 10
6426.111931139645
 20
-2808.224160567629
 30
0.0
 41
11.25
 42
11.25
 43
11.25
 50
180.0
  0
MTEXT
  5
96B9
330
963E
100
AcDbEntity
  8
001
  6
Continuous
 62
     0
100
AcDbMText
 10
6467.611931139645
 20
-2795.099160567628
 30
0.0
 40
11.25
 41
0.0
 71
     5
 72
     1
  1
\A1;25
 73
     1
 44
1.0
  0
POINT
  5
96BA
330
963E
100
AcDbEntity
  8
DEFPOINTS
  6
Continuous
 62
     0
100
AcDbPoint
 10
6426.111931139645
 20
-2858.859804964928
 30
0.0
  0
POINT
  5
96BB
330
963E
100
AcDbEntity
  8
DEFPOINTS
  6
Continuous
 62
     0
100
AcDbPoint
 10
6401.111931139645
 20
-2858.859804964928
 30
0.0
  0
POINT
  5
96BC
330
963E
100
AcDbEntity
  8
DEFPOINTS
  6
Continuous
 62
     0
100
AcDbPoint
 10
6401.111931139645
 20
-2808.224160567629
 30
0.0
  0
ENDBLK
  5
964B
330
963E
100
AcDbEntity
  8
0
100
AcDbBlockEnd
  0
BLOCK
  5
9658
330
964C
100
AcDbEntity
  8
0
100
AcDbBlockBegin
  2
*D5
 70
     1
 10
0.0
 20
0.0
 30
0.0
  3
*D5
  1

  0
LINE
  5
96BD
330
964C
100
AcDbEntity
  8
001
  6
Continuous
 62
     0
370
    -2
100
AcDbLine
 10
5750.070700957553
 20
-2900.484804964928
 30
0.0
 11
5750.070700957553
 21
-2881.51250726459
 31
0.0
  0
LINE
  5
96BE
330
964C
100
AcDbEntity
  8
001
  6
Continuous
 62
     0
370
    -2
100
AcDbLine
 10
5730.070700957552
 20
-2900.484804964928
 30
0.0
 11
5730.070700957552
 21
-2881.51250726459
 31
0.0
  0
LINE
  5
96BF
330
964C
100
AcDbEntity
  8
001
  6
Continuous
 62
     0
370
    -2
100
AcDbLine
 10
5718.820700957553
 20
-2881.51250726459
 30
0.0
 11
5707.570700957552
 21
-2881.51250726459
 31
0.0
  0
LINE
  5
96C0
330
964C
100
AcDbEntity
  8
001
  6
Continuous
 62
     0
370
    -2
100
AcDbLine
 10
5761.320700957552
 20
-2881.51250726459
 30
0.0
 11
5806.508200957552
 21
-2881.51250726459
 31
0.0
  0
LINE
  5
96C1
330
964C
100
AcDbEntity
  8
001
  6
Continuous
 62
     0
370
    -2
100
AcDbLine
 10
5730.070700957552
 20
-2881.51250726459
 30
0.0
 11
5750.070700957553
 21
-2881.51250726459
 31
0.0
  0
INSERT
  5
96C2
330
964C
100
AcDbEntity
  8
001
  6
Continuous
 62
     0
370
    -2
100
AcDbBlockReference
  2
_Open
 10
5730.070700957552
 20
-2881.51250726459
 30
0.0
 41
11.25
 42
11.25
 43
11.25
  0
INSERT
  5
96C3
330
964C
100
AcDbEntity
  8
001
  6
Continuous
 62
     0
370
    -2
100
AcDbBlockReference
  2
_Open
 10
5750.070700957553
 20
-2881.51250726459
 30
0.0
 41
11.25
 42
11.25
 43
11.25
 50
180.0
  0
MTEXT
  5
96C4
330
964C
100
AcDbEntity
  8
001
  6
Continuous
 62
     0
100
AcDbMText
 10
5790.570700957553
 20
-2868.387507264589
 30
0.0
 40
11.25
 41
0.0
 71
     5
 72
     1
  1
\A1;20
 73
     1
 44
1.0
  0
POINT
  5
96C5
330
964C
100
AcDbEntity
  8
DEFPOINTS
  6
Continuous
 62
     0
100
AcDbPoint
 10
5750.070700957553
 20
-2909.859804964928
 30
0.0
  0
POINT
  5
96C6
330
964C
100
AcDbEntity
  8
DEFPOINTS
  6
Continuous
 62
     0
100
AcDbPoint
 10
5730.070700957552
 20
-2909.859804964928
 30
0.0
  0
POINT
  5
96C7
330
964C
100
AcDbEntity
  8
DEFPOINTS
  6
Continuous
 62
     0
100
AcDbPoint
 10
5730.070700957552
 20
-2881.51250726459
 30
0.0
  0
ENDBLK
  5
9659
330
964C
100
AcDbEntity
  8
0
100
AcDbBlockEnd
  0
BLOCK
  5
9664
330
965A
100
AcDbEntity
  8
0
100
AcDbBlockBegin
  2
*D6
 70
     1
 10
0.0
 20
0.0
 30
0.0
  3
*D6
  1

  0
LINE
  5
96C8
330
965A
100
AcDbEntity
  8
001
  6
Continuous
 62
     0
370
    -2
100
AcDbLine
 10
5723.427750957553
 20
-2908.359804964928
 30
0.0
 11
5693.109977234676
 21
-2908.359804964928
 31
0.0
  0
LINE
  5
96C9
330
965A
100
AcDbEntity
  8
001
  6
Continuous
 62
     0
370
    -2
100
AcDbLine
 10
5723.427750957553
 20
-3014.359804964928
 30
0.0
 11
5693.109977234676
 21
-3014.359804964928
 31
0.0
  0
LINE
  5
96CA
330
965A
100
AcDbEntity
  8
001
  6
Continuous
 62
     0
370
    -2
100
AcDbLine
 10
5693.109977234676
 20
-2919.609804964928
 30
0.0
 11
5693.109977234676
 21
-3003.109804964928
 31
0.0
  0
INSERT
  5
96CB
330
965A
100
AcDbEntity
  8
001
  6
Continuous
 62
     0
370
    -2
100
AcDbBlockReference
  2
_Open
 10
5693.109977234676
 20
-2908.359804964928
 30
0.0
 41
11.25
 42
11.25
 43
11.25
 50
90.0
  0
INSERT
  5
96CC
330
965A
100
AcDbEntity
  8
001
  6
Continuous
 62
     0
370
    -2
100
AcDbBlockReference
  2
_Open
 10
5693.109977234676
 20
-3014.359804964928
 30
0.0
 41
11.25
 42
11.25
 43
11.25
 50
270.0
  0
MTEXT
  5
96CD
330
965A
100
AcDbEntity
  8
001
  6
Continuous
 62
     0
100
AcDbMText
 10
5679.984977234678
 20
-2961.359804964927
 30
0.0
 40
11.25
 41
0.0
 71
     5
 72
     1
  1
\A1;M106
 11
0.0000000000000001
 21
1.0
 31
0.0
 73
     1
 44
1.0
  0
POINT
  5
96CE
330
965A
100
AcDbEntity
  8
DEFPOINTS
  6
Continuous
 62
     0
100
AcDbPoint
 10
5732.802750957553
 20
-2908.359804964928
 30
0.0
  0
POINT
  5
96CF
330
965A
100
AcDbEntity
  8
DEFPOINTS
  6
Continuous
 62
     0
100
AcDbPoint
 10
5732.802750957553
 20
-3014.359804964928
 30
0.0
  0
POINT
  5
96D0
330
965A
100
AcDbEntity
  8
DEFPOINTS
  6
Continuous
 62
     0
100
AcDbPoint
 10
5693.109977234676
 20
-3014.359804964928
 30
0.0
  0
ENDBLK
  5
9665
330
965A
100
AcDbEntity
  8
0
100
AcDbBlockEnd
  0
BLOCK
  5
9670
330
9666
100
AcDbEntity
  8
0
100
AcDbBlockBegin
  2
*D7
 70
     1
 10
0.0
 20
0.0
 30
0.0
  3
*D7
  1

  0
LINE
  5
96D1
330
9666
100
AcDbEntity
  8
001
 62
     0
370
    -2
100
AcDbLine
 10
6354.932197263663
 20
-2230.97479849198
 30
0.0
 11
6424.374659783175
 21
-2230.97479849198
 31
0.0
  0
LINE
  5
96D2
330
9666
100
AcDbEntity
  8
001
 62
     0
370
    -2
100
AcDbLine
 10
6280.605377354572
 20
-2355.97479849198
 30
0.0
 11
6424.374659783175
 21
-2355.97479849198
 31
0.0
  0
LINE
  5
96D3
330
9666
100
AcDbEntity
  8
001
 62
     0
370
    -2
100
AcDbLine
 10
6424.374659783175
 20
-2242.22479849198
 30
0.0
 11
6424.374659783175
 21
-2344.72479849198
 31
0.0
  0
INSERT
  5
96D4
330
9666
100
AcDbEntity
  8
001
 62
     0
370
    -2
100
AcDbBlockReference
  2
_Open
 10
6424.374659783175
 20
-2230.97479849198
 30
0.0
 41
11.25
 42
11.25
 43
11.25
 50
90.0
  0
INSERT
  5
96D5
330
9666
100
AcDbEntity
  8
001
 62
     0
370
    -2
100
AcDbBlockReference
  2
_Open
 10
6424.374659783175
 20
-2355.97479849198
 30
0.0
 41
11.25
 42
11.25
 43
11.25
 50
270.0
  0
MTEXT
  5
96D6
330
9666
100
AcDbEntity
  8
001
 62
     0
100
AcDbMText
 10
6411.249659783177
 20
-2293.474798491979
 30
0.0
 40
11.25
 41
0.0
 71
     5
 72
     1
  1
\A1;125
 11
0.0000000000000001
 21
1.0
 31
0.0
 73
     1
 44
1.0
  0
POINT
  5
96D7
330
9666
100
AcDbEntity
  8
DEFPOINTS
 62
     0
100
AcDbPoint
 10
6345.557197263663
 20
-2230.97479849198
 30
0.0
  0
POINT
  5
96D8
330
9666
100
AcDbEntity
  8
DEFPOINTS
 62
     0
100
AcDbPoint
 10
6271.230377354572
 20
-2355.97479849198
 30
0.0
  0
POINT
  5
96D9
330
9666
100
AcDbEntity
  8
DEFPOINTS
 62
     0
100
AcDbPoint
 10
6424.374659783175
 20
-2355.97479849198
 30
0.0
  0
ENDBLK
  5
9671
330
9666
100
AcDbEntity
  8
0
100
AcDbBlockEnd
  0
BLOCK
  5
967C
330
9672
100
AcDbEntity
  8
0
100
AcDbBlockBegin
  2
*D8
 70
     1
 10
0.0
 20
0.0
 30
0.0
  3
*D8
  1

  0
LINE
  5
96DA
330
9672
100
AcDbEntity
  8
001
  6
Continuous
 62
     0
370
    -2
100
AcDbLine
 10
6392.736931139645
 20
-2858.859804964928
 30
0.0
 11
6347.335710163958
 21
-2858.859804964928
 31
0.0
  0
LINE
  5
96DB
330
9672
100
AcDbEntity
  8
001
  6
Continuous
 62
     0
370
    -2
100
AcDbLine
 10
6392.736931139645
 20
-3063.859804964928
 30
0.0
 11
6347.335710163958
 21
-3063.859804964928
 31
0.0
  0
LINE
  5
96DC
330
9672
100
AcDbEntity
  8
001
  6
Continuous
 62
     0
370
    -2
100
AcDbLine
 10
6347.335710163958
 20
-2870.109804964928
 30
0.0
 11
6347.335710163958
 21
-3052.609804964928
 31
0.0
  0
INSERT
  5
96DD
330
9672
100
AcDbEntity
  8
001
  6
Continuous
 62
     0
370
    -2
100
AcDbBlockReference
  2
_Open
 10
6347.335710163958
 20
-2858.859804964928
 30
0.0
 41
11.25
 42
11.25
 43
11.25
 50
90.0
  0
INSERT
  5
96DE
330
9672
100
AcDbEntity
  8
001
  6
Continuous
 62
     0
370
    -2
100
AcDbBlockReference
  2
_Open
 10
6347.335710163958
 20
-3063.859804964928
 30
0.0
 41
11.25
 42
11.25
 43
11.25
 50
270.0
  0
MTEXT
  5
96DF
330
9672
100
AcDbEntity
  8
001
  6
Continuous
 62
     0
100
AcDbMText
 10
6334.210710163958
 20
-2961.359804964927
 30
0.0
 40
11.25
 41
0.0
 71
     5
 72
     1
  1
\A1;φ205
 11
0.0000000000000001
 21
1.0
 31
0.0
 73
     1
 44
1.0
  0
POINT
  5
96E0
330
9672
100
AcDbEntity
  8
DEFPOINTS
  6
Continuous
 62
     0
100
AcDbPoint
 10
6402.111931139645
 20
-2858.859804964928
 30
0.0
  0
POINT
  5
96E1
330
9672
100
AcDbEntity
  8
DEFPOINTS
  6
Continuous
 62
     0
100
AcDbPoint
 10
6402.111931139645
 20
-3063.859804964928
 30
0.0
  0
POINT
  5
96E2
330
9672
100
AcDbEntity
  8
DEFPOINTS
  6
Continuous
 62
     0
100
AcDbPoint
 10
6347.335710163958
 20
-3063.859804964928
 30
0.0
  0
ENDBLK
  5
967D
330
9672
100
AcDbEntity
  8
0
100
AcDbBlockEnd
  0
BLOCK
  5
9688
330
967E
100
AcDbEntity
  8
0
100
AcDbBlockBegin
  2
*D9
 70
     1
 10
0.0
 20
0.0
 30
0.0
  3
*D9
  1

  0
LINE
  5
96E3
330
967E
100
AcDbEntity
  8
001
 62
     0
370
    -2
100
AcDbLine
 10
5328.477100070193
 20
-2271.900127203311
 30
0.0
 11
5410.832272319728
 21
-2286.421566071796
 31
0.0
  0
LINE
  5
96E4
330
967E
100
AcDbEntity
  8
001
 62
     0
370
    -2
100
AcDbLine
 10
5309.375800526831
 20
-2380.228980034654
 30
0.0
 11
5391.730972776366
 21
-2394.750418903139
 31
0.0
  0
LINE
  5
96E5
330
967E
100
AcDbEntity
  8
001
 62
     0
370
    -2
100
AcDbLine
 10
5408.878730320975
 20
-2297.500653293183
 30
0.0
 11
5393.684514775119
 21
-2383.671331681752
 31
0.0
  0
INSERT
  5
96E6
330
967E
100
AcDbEntity
  8
001
 62
     0
370
    -2
100
AcDbBlockReference
  2
_Open
 10
5410.832272319728
 20
-2286.421566071796
 30
0.0
 41
11.25
 42
11.25
 43
11.25
 50
80.00000000000019
  0
INSERT
  5
96E7
330
967E
100
AcDbEntity
  8
001
 62
     0
370
    -2
100
AcDbBlockReference
  2
_Open
 10
5391.730972776366
 20
-2394.750418903139
 30
0.0
 41
11.25
 42
11.25
 43
11.25
 50
260.0000000000001
  0
MTEXT
  5
96E8
330
967E
100
AcDbEntity
  8
001
 62
     0
100
AcDbMText
 10
5388.356020789763
 20
-2338.30686015559
 30
0.0
 40
11.25
 41
0.0
 71
     5
 72
     1
  1
\A1;110
 11
0.1736481776669276
 21
0.9848077530122086
 31
0.0
 73
     1
 44
1.0
  0
POINT
  5
96E9
330
967E
100
AcDbEntity
  8
DEFPOINTS
 62
     0
100
AcDbPoint
 10
5319.244527385704
 20
-2270.272175537683
 30
0.0
  0
POINT
  5
96EA
330
967E
100
AcDbEntity
  8
DEFPOINTS
 62
     0
100
AcDbPoint
 10
5300.143227842341
 20
-2378.601028369026
 30
0.0
  0
POINT
  5
96EB
330
967E
100
AcDbEntity
  8
DEFPOINTS
 62
     0
100
AcDbPoint
 10
5391.730972776366
 20
-2394.750418903139
 30
0.0
  0
ENDBLK
  5
9689
330
967E
100
AcDbEntity
  8
0
100
AcDbBlockEnd
  0
BLOCK
  5
9698
330
968A
100
AcDbEntity
  8
0
100
AcDbBlockBegin
  2
*D10
 70
     1
 10
0.0
 20
0.0
 30
0.0
  3
*D10
  1

  0
LINE
  5
96EC
330
968A
100
AcDbEntity
  8
001
 62
     0
370
    -2
100
AcDbLine
 10
5226.001539229942
 20
-2140.132332875452
 30
0.0
 11
5228.045437257728
 21
-2128.540811149308
 31
0.0
  0
LINE
  5
96ED
330
968A
100
AcDbEntity
  8
001
 62
     0
370
    -2
100
AcDbLine
 10
5170.289967196332
 20
-2135.076695148488
 30
0.0
 11
5170.289967196332
 21
-2123.487862262325
 31
0.0
  0
ARC
  5
96EE
330
968A
100
AcDbEntity
  8
001
 62
     0
370
    -2
100
AcDbCircle
 10
5170.289967196332
 20
-2456.088358491987
 30
0.0
 40
332.6004962296617
100
AcDbArc
 50
76.12382868938524
 51
78.06191434469268
  0
ARC
  5
96EF
330
968A
100
AcDbEntity
  8
001
 62
     0
370
    -2
100
AcDbCircle
 10
5170.289967196332
 20
-2456.088358491987
 30
0.0
 40
332.6004962296617
100
AcDbArc
 50
91.93808565530749
 51
93.87617131061494
  0
ARC
  5
96F0
330
968A
100
AcDbEntity
  8
001
 62
     0
370
    -2
100
AcDbCircle
 10
5170.289967196332
 20
-2456.088358491987
 30
0.0
 40
332.6004962296617
100
AcDbArc
 50
80.00000000000012
 51
90.00000000000005
  0
INSERT
  5
96F1
330
968A
100
AcDbEntity
  8
001
 62
     0
370
    -2
100
AcDbBlockReference
  2
_Open
 10
5228.045437257728
 20
-2128.540811149308
 30
0.0
 41
11.25
 42
11.25
 43
11.25
 50
169.0309571723464
  0
INSERT
  5
96F2
330
968A
100
AcDbEntity
  8
001
 62
     0
370
    -2
100
AcDbBlockReference
  2
_Open
 10
5170.289967196332
 20
-2123.487862262325
 30
0.0
 41
11.25
 42
11.25
 43
11.25
 50
0.9690428276537673
  0
MTEXT
  5
96F3
330
968A
100
AcDbEntity
  8
001
 62
     0
100
AcDbMText
 10
5200.421929607031
 20
-2111.67845215286
 30
0.0
 40
11.25
 41
0.0
 71
     5
 72
     1
  1
\A1;10°
 11
0.9961946980917456
 21
-0.0871557427476574
 31
0.0
 73
     1
 44
1.0
  0
POINT
  5
96F4
330
968A
100
AcDbEntity
  8
DEFPOINTS
 62
     0
100
AcDbPoint
 10
5208.902528043132
 20
-2125.736787832682
 30
0.0
  0
POINT
  5
96F5
330
968A
100
AcDbEntity
  8
DEFPOINTS
 62
     0
100
AcDbPoint
 10
5170.289967196332
 20
-2144.451695148488
 30
0.0
  0
POINT
  5
96F6
330
968A
100
AcDbEntity
  8
DEFPOINTS
 62
     0
100
AcDbPoint
 10
5224.373587564315
 20
-2149.364905559941
 30
0.0
  0
POINT
  5
96F7
330
968A
100
AcDbEntity
  8
DEFPOINTS
 62
     0
100
AcDbPoint
 10
5112.068375269392
 20
-2786.279414296444
 30
0.0
  0
POINT
  5
96F8
330
968A
100
AcDbEntity
  8
DEFPOINTS
 62
     0
100
AcDbPoint
 10
5170.289967196332
 20
-2782.609413148488
 30
0.0
  0
ENDBLK
  5
9699
330
968A
100
AcDbEntity
  8
0
100
AcDbBlockEnd
  0
BLOCK
  5
96A4
330
969A
100
AcDbEntity
  8
0
100
AcDbBlockBegin
  2
*D11
 70
     1
 10
0.0
 20
0.0
 30
0.0
  3
*D11
  1

  0
LINE
  5
96F9
330
969A
100
AcDbEntity
  8
001
  6
Continuous
 62
     0
370
    -2
100
AcDbLine
 10
4949.413961246433
 20
-2951.984804964928
 30
0.0
 11
4949.413961246433
 21
-2868.297657566577
 31
0.0
  0
LINE
  5
96FA
330
969A
100
AcDbEntity
  8
001
  6
Continuous
 62
     0
370
    -2
100
AcDbLine
 10
5109.413961246433
 20
-2893.984804964928
 30
0.0
 11
5109.413961246433
 21
-2868.297657566577
 31
0.0
  0
LINE
  5
96FB
330
969A
100
AcDbEntity
  8
001
  6
Continuous
 62
     0
370
    -2
100
AcDbLine
 10
4960.663961246433
 20
-2868.297657566577
 30
0.0
 11
5098.163961246434
 21
-2868.297657566577
 31
0.0
  0
INSERT
  5
96FC
330
969A
100
AcDbEntity
  8
001
  6
Continuous
 62
     0
370
    -2
100
AcDbBlockReference
  2
_Open
 10
4949.413961246433
 20
-2868.297657566577
 30
0.0
 41
11.25
 42
11.25
 43
11.25
 50
180.0
  0
INSERT
  5
96FD
330
969A
100
AcDbEntity
  8
001
  6
Continuous
 62
     0
370
    -2
100
AcDbBlockReference
  2
_Open
 10
5109.413961246433
 20
-2868.297657566577
 30
0.0
 41
11.25
 42
11.25
 43
11.25
  0
MTEXT
  5
96FE
330
969A
100
AcDbEntity
  8
001
  6
Continuous
 62
     0
100
AcDbMText
 10
5029.413961246433
 20
-2855.172657566577
 30
0.0
 40
11.25
 41
0.0
 71
     5
 72
     1
  1
\A1;160
 73
     1
 44
1.0
  0
POINT
  5
96FF
330
969A
100
AcDbEntity
  8
DEFPOINTS
  6
Continuous
 62
     0
100
AcDbPoint
 10
4949.413961246433
 20
-2961.359804964928
 30
0.0
  0
POINT
  5
9700
330
969A
100
AcDbEntity
  8
DEFPOINTS
  6
Continuous
 62
     0
100
AcDbPoint
 10
5109.413961246433
 20
-2903.359804964928
 30
0.0
  0
POINT
  5
9701
330
969A
100
AcDbEntity
  8
DEFPOINTS
  6
Continuous
 62
     0
100
AcDbPoint
 10
5109.413961246433
 20
-2868.297657566577
 30
0.0
  0
ENDBLK
  5
96A5
330
969A
100
AcDbEntity
  8
0
100
AcDbBlockEnd
  0
BLOCK
  5
96B0
330
96A6
100
AcDbEntity
  8
0
100
AcDbBlockBegin
  2
*D12
 70
     1
 10
0.0
 20
0.0
 30
0.0
  3
*D12
  1

  0
LINE
  5
9702
330
96A6
100
AcDbEntity
  8
001
  6
Continuous
 62
     0
370
    -2
100
AcDbLine
 10
5116.788961246434
 20
-2901.359804964928
 30
0.0
 11
5174.704300184216
 21
-2901.359804964928
 31
0.0
  0
LINE
  5
9703
330
96A6
100
AcDbEntity
  8
001
  6
Continuous
 62
     0
370
    -2
100
AcDbLine
 10
5116.788961246434
 20
-3021.359804964928
 30
0.0
 11
5174.704300184216
 21
-3021.359804964928
 31
0.0
  0
LINE
  5
9704
330
96A6
100
AcDbEntity
  8
001
  6
Continuous
 62
     0
370
    -2
100
AcDbLine
 10
5174.704300184216
 20
-2912.609804964928
 30
0.0
 11
5174.704300184216
 21
-3010.109804964928
 31
0.0
  0
INSERT
  5
9705
330
96A6
100
AcDbEntity
  8
001
  6
Continuous
 62
     0
370
    -2
100
AcDbBlockReference
  2
_Open
 10
5174.704300184216
 20
-2901.359804964928
 30
0.0
 41
11.25
 42
11.25
 43
11.25
 50
90.0
  0
INSERT
  5
9706
330
96A6
100
AcDbEntity
  8
001
  6
Continuous
 62
     0
370
    -2
100
AcDbBlockReference
  2
_Open
 10
5174.704300184216
 20
-3021.359804964928
 30
0.0
 41
11.25
 42
11.25
 43
11.25
 50
270.0
  0
MTEXT
  5
9707
330
96A6
100
AcDbEntity
  8
001
  6
Continuous
 62
     0
100
AcDbMText
 10
5161.579300184217
 20
-2961.359804964927
 30
0.0
 40
11.25
 41
0.0
 71
     5
 72
     1
  1
\A1;φ120
 11
0.0000000000000001
 21
1.0
 31
0.0
 73
     1
 44
1.0
  0
POINT
  5
9708
330
96A6
100
AcDbEntity
  8
DEFPOINTS
  6
Continuous
 62
     0
100
AcDbPoint
 10
5107.413961246433
 20
-2901.359804964928
 30
0.0
  0
POINT
  5
9709
330
96A6
100
AcDbEntity
  8
DEFPOINTS
  6
Continuous
 62
     0
100
AcDbPoint
 10
5107.413961246433
 20
-3021.359804964928
 30
0.0
  0
POINT
  5
970A
330
96A6
100
AcDbEntity
  8
DEFPOINTS
  6
Continuous
 62
     0
100
AcDbPoint
 10
5174.704300184216
 20
-3021.359804964928
 30
0.0
  0
ENDBLK
  5
96B1
330
96A6
100
AcDbEntity
  8
0
100
AcDbBlockEnd
  0
ENDSEC
  0
SECTION
  2
ENTITIES
  0
LINE
  5
9195
330
1E
100
AcDbEntity
  8
001
 62
     3
100
AcDbLine
 10
4702.648896457529
 20
-3225.206044600888
 30
0.0
 11
4702.648896457529
 21
-1882.886044600888
 31
0.0
  0
LINE
  5
9196
330
1E
100
AcDbEntity
  8
001
 62
     3
100
AcDbLine
 10
6656.90889645753
 20
-3225.206044600888
 30
0.0
 11
6656.90889645753
 21
-1882.886044600888
 31
0.0
  0
LINE
  5
9197
330
1E
100
AcDbEntity
  8
001
 62
     3
100
AcDbLine
 10
6271.908896457531
 20
-3225.206044600888
 30
0.0
 11
6271.908896457531
 21
-3102.706044600888
 31
0.0
  0
LINE
  5
9198
330
1E
100
AcDbEntity
  8
001
 62
     3
100
AcDbLine
 10
6306.908896457531
 20
-3225.206044600888
 30
0.0
 11
6306.908896457531
 21
-3102.706044600888
 31
0.0
  0
LWPOLYLINE
  5
9199
330
1E
100
AcDbEntity
  8
001
  6
DASHED
100
AcDbPolyline
 90
        4
 70
     1
 43
0.0
 10
4626.208893824445
 20
-3268.956043639016
 10
6698.908893824444
 20
-3268.956043639016
 10
6698.908893824444
 20
-1803.261043639015
 10
4626.208893824445
 20
-1803.261043639015
  0
LINE
  5
919A
330
1E
100
AcDbEntity
  8
001
 62
     3
100
AcDbLine
 10
6656.90889645753
 20
-3225.206044600888
 30
0.0
 11
4702.648896457529
 21
-3225.206044600888
 31
0.0
  0
LINE
  5
919B
330
1E
100
AcDbEntity
  8
001
 62
     3
100
AcDbLine
 10
6656.90889645753
 20
-3172.706044600888
 30
0.0
 11
6271.908896457531
 21
-3172.706044600888
 31
0.0
  0
LINE
  5
919C
330
1E
100
AcDbEntity
  8
001
 62
     3
100
AcDbLine
 10
6656.90889645753
 20
-3172.706044600888
 30
0.0
 11
6271.908896457531
 21
-3172.706044600888
 31
0.0
  0
TEXT
  5
919D
330
1E
100
AcDbEntity
  8
001
100
AcDbText
 10
6391.95841345753
 20
-3211.275889600888
 30
0.0
 40
21.0
  1
ＶＳＬ協会
 41
0.9920629999999999
100
AcDbText
  0
LINE
  5
919E
330
1E
100
AcDbEntity
  8
001
 62
     3
100
AcDbLine
 10
6604.408896457529
 20
-3225.206044600888
 30
0.0
 11
6604.408896457529
 21
-3172.706044600888
 31
0.0
  0
LWPOLYLINE
  5
919F
330
1E
100
AcDbEntity
  8
003
100
AcDbPolyline
 90
        3
 70
     0
 43
0.0
 10
5415.297620548795
 20
-2205.97479849198
 10
5380.296412149625
 20
-2281.037270044666
 10
5264.692954765016
 20
-2260.653261444578
  0
LINE
  5
91A0
330
1E
100
AcDbEntity
  8
003
100
AcDbLine
 10
5415.297620548795
 20
-2205.97479849198
 30
0.0
 11
5270.909811917677
 21
-2205.97479849198
 31
0.0
  0
LINE
  5
91A1
330
1E
100
AcDbEntity
  8
003
100
AcDbLine
 10
5466.653392114545
 20
-2205.97479849198
 30
0.0
 11
5310.595193948188
 21
-2205.974798491981
 31
0.0
  0
DIMENSION
  5
91A2
330
1E
100
AcDbEntity
  8
001
100
AcDbDimension
  2
*D9
 10
5391.730972776366
 20
-2394.750418903139
 30
0.0
 11
5388.356020789763
 21
-2338.30686015559
 31
0.0
 70
    33
 71
     5
 42
110.0000000000004
  3
ISO-25
100
AcDbAlignedDimension
 13
5319.244527385705
 23
-2270.272175537683
 33
0.0
 14
5300.143227842343
 24
-2378.601028369027
 34
0.0
  0
LWPOLYLINE
  5
91A3
330
1E
100
AcDbEntity
  8
003
  6
Continuous
100
AcDbPolyline
 90
       12
 70
     1
 43
0.0
 10
5020.140881214985
 20
-2095.97479849198
 10
5320.105979738833
 20
-2095.97479849198
 10
5420.105979738833
 20
-2205.97479849198
 10
5470.12343047691
 20
-2205.97479849198
 10
5470.12343047691
 20
-2203.674798491981
 10
5421.12343047691
 20
-2203.674798491981
 10
5321.12343047691
 20
-2093.674798491981
 10
5019.123430476909
 20
-2093.674798491981
 10
4919.12343047691
 20
-2203.674798491981
 10
4870.123430476909
 20
-2203.674798491981
 10
4870.123430476909
 20
-2205.97479849198
 10
4920.140881214986
 20
-2205.97479849198
  0
LINE
  5
91A4
330
1E
100
AcDbEntity
  8
003
  6
Continuous
100
AcDbLine
 10
5213.94584420177
 20
-2556.08835849198
 30
0.0
 11
5540.180068322722
 21
-2556.08835849198
 31
0.0
  0
LINE
  5
91A5
330
1E
100
AcDbEntity
  8
001
 62
     3
100
AcDbLine
 10
4702.648896457529
 20
-1882.886044600888
 30
0.0
 11
6656.90889645753
 21
-1882.886044600888
 31
0.0
  0
LINE
  5
91A6
330
1E
100
AcDbEntity
  8
003
100
AcDbLine
 10
5079.871676558366
 20
-2338.244511728323
 30
0.0
 11
5036.670607202442
 21
-2220.446769364814
 31
0.0
  0
LINE
  5
91A7
330
1E
100
AcDbEntity
  8
002
100
AcDbLine
 10
5249.964908643696
 20
-2300.055276215229
 30
0.0
 11
5265.899197195987
 21
-2190.649705939282
 31
0.0
  0
LINE
  5
91A8
330
1E
100
AcDbEntity
  8
002
100
AcDbLine
 10
5260.252015177689
 20
-2194.731088443912
 30
0.0
 11
5244.780772219237
 21
-2300.957363099089
 31
0.0
  0
LINE
  5
91A9
330
1E
100
AcDbEntity
  8
002
100
AcDbLine
 10
5211.908361328359
 20
-2280.921276678804
 30
0.0
 11
5236.922478235916
 21
-2212.195555363107
 31
0.0
  0
LINE
  5
91AA
330
1E
100
AcDbEntity
  8
002
100
AcDbLine
 10
5171.154125629732
 20
-2275.940442859947
 30
0.0
 11
5196.168242537289
 21
-2207.214721544251
 31
0.0
  0
LINE
  5
91AB
330
1E
100
AcDbEntity
  8
002
100
AcDbLine
 10
5195.32153782736
 20
-2252.037077110688
 30
0.0
 11
5181.408246778431
 21
-2297.545403204714
 31
0.0
  0
LINE
  5
91AC
330
1E
100
AcDbEntity
  8
002
100
AcDbLine
 10
5182.229904774891
 20
-2289.142348333407
 30
0.0
 11
5189.06744624581
 21
-2250.364723698502
 31
0.0
  0
LINE
  5
91AD
330
1E
100
AcDbEntity
  8
002
100
AcDbLine
 10
5168.738038558623
 20
-2286.763368299371
 30
0.0
 11
5175.575580029541
 21
-2247.985743664465
 31
0.0
  0
LINE
  5
91AE
330
1E
100
AcDbEntity
  8
002
100
AcDbLine
 10
5169.126676782106
 20
-2247.4182163525
 30
0.0
 11
5166.636130483249
 21
-2294.94068053971
 31
0.0
  0
LINE
  5
91AF
330
1E
100
AcDbEntity
  8
002
100
AcDbLine
 10
5155.650890314261
 20
-2288.135827596503
 30
0.0
 11
5162.423169243271
 21
-2249.728325229027
 31
0.0
  0
LINE
  5
91B0
330
1E
100
AcDbEntity
  8
002
100
AcDbLine
 10
5141.732630984652
 20
-2280.971005480409
 30
0.0
 11
5164.178206440997
 21
-2172.71355076478
 31
0.0
  0
LINE
  5
91B1
330
1E
100
AcDbEntity
  8
002
100
AcDbLine
 10
5168.088906682626
 20
-2178.480245790272
 30
0.0
 11
5146.295593842553
 21
-2283.591768951394
 31
0.0
  0
LINE
  5
91B2
330
1E
100
AcDbEntity
  8
002
100
AcDbLine
 10
5195.954616814851
 20
-2371.399457893083
 30
0.0
 11
5224.606566129896
 21
-2208.906178646068
 31
0.0
  0
LINE
  5
91B3
330
1E
100
AcDbEntity
  8
002
100
AcDbLine
 10
5208.461675278106
 20
-2373.604789749454
 30
0.0
 11
5237.11362459315
 21
-2211.111510502438
 31
0.0
  0
LINE
  5
91B4
330
1E
100
AcDbEntity
  8
002
  6
CENTER
100
AcDbLine
 10
5202.208146046479
 20
-2372.502123821269
 30
0.0
 11
5231.518352364663
 21
-2206.275683599715
 31
0.0
  0
LINE
  5
91B5
330
1E
100
AcDbEntity
  8
002
100
AcDbLine
 10
5168.084557404606
 20
-2366.485214465109
 30
0.0
 11
5196.736506719649
 21
-2203.991935218095
 31
0.0
  0
LWPOLYLINE
  5
91B6
330
1E
100
AcDbEntity
  8
003
100
AcDbPolyline
 90
        4
 70
     0
 43
0.0
 10
5143.195380168352
 20
-2239.229960952547
 10
5016.606908962216
 20
-2216.908998032269
 10
5068.727700289712
 20
-2360.1356125681
 10
5132.688664594311
 20
-2371.413656287133
  0
LINE
  5
91B7
330
1E
100
AcDbEntity
  8
003
 62
     3
100
AcDbLine
 10
4793.269443959771
 20
-2415.573616065664
 30
0.0
 11
4793.269443959771
 21
-2187.012172555865
 31
0.0
  0
LINE
  5
91B8
330
1E
100
AcDbEntity
  8
002
100
AcDbLine
 10
5155.577498941351
 20
-2364.279882608738
 30
0.0
 11
5184.229448256395
 21
-2201.786603361725
 31
0.0
  0
LINE
  5
91B9
330
1E
100
AcDbEntity
  8
002
  6
CENTER
100
AcDbLine
 10
5161.831028172978
 20
-2365.382548536924
 30
0.0
 11
5191.141234491162
 21
-2199.15610831537
 31
0.0
  0
LINE
  5
91BA
330
1E
100
AcDbEntity
  8
004
 62
     6
100
AcDbLine
 10
5224.373587564315
 20
-2149.364905559942
 30
0.0
 11
5144.937302868434
 21
-2599.870462773664
 31
0.0
  0
LINE
  5
91BB
330
1E
100
AcDbEntity
  8
004
  6
CENTER
 62
     6
100
AcDbLine
 10
5170.289967196334
 20
-2144.451695148488
 30
0.0
 11
5170.289967196334
 21
-2599.870462773664
 31
0.0
  0
DIMENSION
  5
91BC
330
1E
100
AcDbEntity
  8
001
100
AcDbDimension
  2
*D10
 10
5170.289967196334
 20
-2782.609413148488
 30
0.0
 11
5200.421929607031
 21
-2111.678452152859
 31
0.0
 70
    34
 71
     5
 42
0.1745329251994316
  3
ISO-25
100
AcDb2LineAngularDimension
 13
5224.373587564315
 23
-2149.364905559942
 33
0.0
 14
5112.068375269394
 24
-2786.279414296445
 34
0.0
 15
5170.289967196334
 25
-2144.451695148488
 35
0.0
 16
5208.902528043132
 26
-2125.736787832682
 36
0.0
  0
LWPOLYLINE
  5
91BD
330
1E
100
AcDbEntity
  8
003
100
AcDbPolyline
 90
        4
 70
     0
 43
0.0
 10
5136.235738398454
 20
-2349.699715639881
 10
5080.524902997782
 20
-2339.876392240934
 10
5037.090910224869
 20
-2220.520880127741
 10
5143.195380168352
 20
-2239.229960952548
  0
LINE
  5
91BE
330
1E
100
AcDbEntity
  8
004
  6
CENTER
100
AcDbLine
 10
5055.136497429935
 20
-2338.491840427084
 30
0.0
 11
5081.856956926838
 21
-2328.692395944217
 31
0.0
  0
LINE
  5
91BF
330
1E
100
AcDbEntity
  8
003
 62
     3
100
AcDbLine
 10
5079.786611461378
 20
-2585.202791869186
 30
0.0
 11
5077.896658656403
 21
-2587.013943471195
 31
0.0
  0
LINE
  5
91C0
330
1E
100
AcDbEntity
  8
003
 62
     3
100
AcDbLine
 10
5079.443147373365
 20
-2574.192910113265
 30
0.0
 11
5080.54766975129
 21
-2577.36826620541
 31
0.0
  0
LINE
  5
91C1
330
1E
100
AcDbEntity
  8
003
 62
     3
100
AcDbLine
 10
5079.953932413923
 20
-2566.071350261544
 30
0.0
 11
5078.827245552415
 21
-2568.146177428012
 31
0.0
  0
LINE
  5
91C2
330
1E
100
AcDbEntity
  8
002
100
AcDbLine
 10
5107.413961246433
 20
-2901.359804964928
 30
0.0
 11
5072.244912246433
 21
-2901.359804964928
 31
0.0
  0
LINE
  5
91C3
330
1E
100
AcDbEntity
  8
002
100
AcDbLine
 10
5076.815884246434
 20
-2909.859804964928
 30
0.0
 11
5108.547935246432
 21
-2909.859804964928
 31
0.0
  0
LINE
  5
91C4
330
1E
100
AcDbEntity
  8
002
100
AcDbLine
 10
5079.413961246434
 20
-2908.359804964928
 30
0.0
 11
5109.413961246433
 21
-2908.359804964928
 31
0.0
  0
LINE
  5
91C5
330
1E
100
AcDbEntity
  8
002
100
AcDbLine
 10
5071.413961246434
 20
-2976.888947964928
 30
0.0
 11
5107.413961246433
 21
-2976.888947964928
 31
0.0
  0
LINE
  5
91C6
330
1E
100
AcDbEntity
  8
002
100
AcDbLine
 10
5071.413961246434
 20
-2975.888947964928
 30
0.0
 11
5107.413961246433
 21
-2975.888947964928
 31
0.0
  0
LINE
  5
91C7
330
1E
100
AcDbEntity
  8
002
100
AcDbLine
 10
5069.758497246432
 20
-2911.359804964928
 30
0.0
 11
5079.758497246433
 21
-2901.359804964928
 31
0.0
  0
LINE
  5
91C8
330
1E
100
AcDbEntity
  8
003
  6
Continuous
100
AcDbLine
 10
4793.269443959771
 20
-2556.088358491981
 30
0.0
 11
5086.402479649573
 21
-2556.088358491981
 31
0.0
  0
LINE
  5
91C9
330
1E
100
AcDbEntity
  8
004
  6
CENTER
 62
     6
100
AcDbLine
 10
5127.41678928001
 20
-2961.359804964928
 30
0.0
 11
4925.09974296019
 21
-2961.359804964928
 31
0.0
  0
DIMENSION
  5
91CA
330
1E
100
AcDbEntity
  8
001
  6
Continuous
100
AcDbDimension
  2
*D11
 10
5109.413961246433
 20
-2868.297657566577
 30
0.0
 11
5029.413961246433
 21
-2855.172657566577
 31
0.0
 70
    32
 71
     5
 42
160.0
  3
ISO-25
100
AcDbAlignedDimension
 13
4949.413961246433
 23
-2961.359804964928
 33
0.0
 14
5109.413961246433
 24
-2903.359804964928
 34
0.0
100
AcDbRotatedDimension
  0
LINE
  5
91CB
330
1E
100
AcDbEntity
  8
002
100
AcDbLine
 10
5071.413961246434
 20
-3003.786211964928
 30
0.0
 11
5107.413961246433
 21
-3003.786211964928
 31
0.0
  0
LINE
  5
91CC
330
1E
100
AcDbEntity
  8
002
100
AcDbLine
 10
5069.913961246434
 20
-3019.815354964928
 30
0.0
 11
5107.413961246433
 21
-3019.815354964928
 31
0.0
  0
LINE
  5
91CD
330
1E
100
AcDbEntity
  8
002
100
AcDbLine
 10
5070.413961246433
 20
-3019.315354964928
 30
0.0
 11
5107.413961246433
 21
-3019.315354964928
 31
0.0
  0
LINE
  5
91CE
330
1E
100
AcDbEntity
  8
002
100
AcDbLine
 10
5107.413961246433
 20
-3021.359804964928
 30
0.0
 11
5071.112532246433
 21
-3021.359804964928
 31
0.0
  0
LINE
  5
91CF
330
1E
100
AcDbEntity
  8
003
 62
     3
100
AcDbLine
 10
5098.862817531886
 20
-2365.449246804709
 30
0.0
 11
5065.414535282548
 21
-2555.143881822812
 31
0.0
  0
LINE
  5
91D0
330
1E
100
AcDbEntity
  8
003
 62
     3
100
AcDbLine
 10
5108.218491185501
 20
-2367.098904492544
 30
0.0
 11
5075.061088095464
 21
-2555.143881822811
 31
0.0
  0
TEXT
  5
91D1
330
1E
100
AcDbEntity
  8
001
100
AcDbText
 10
4874.268355246433
 20
-2832.328261964928
 30
0.0
 40
16.0
  1
ヘッドキャップ（Ｓ型）
 41
0.703125
100
AcDbText
  0
LINE
  5
91D2
330
1E
100
AcDbEntity
  8
001
100
AcDbLine
 10
4874.268355246433
 20
-2832.328261964928
 30
0.0
 11
5023.268355246433
 21
-2832.328261964928
 31
0.0
  0
TEXT
  5
91D3
330
1E
100
AcDbEntity
  8
001
100
AcDbText
 10
4845.375227246433
 20
-2787.618855964928
 30
0.0
 40
18.0
  1
アンカー頭部部品図
 41
0.787037
100
AcDbText
  0
LINE
  5
91D4
330
1E
100
AcDbEntity
  8
001
100
AcDbLine
 10
4845.375227246433
 20
-2787.618855964928
 30
0.0
 11
4997.375227246434
 21
-2787.618855964928
 31
0.0
  0
LINE
  5
91D5
330
1E
100
AcDbEntity
  8
002
100
AcDbLine
 10
5076.815884246434
 20
-2909.859804964928
 30
0.0
 11
5076.815884246434
 21
-2961.359804964928
 31
0.0
  0
LINE
  5
91D6
330
1E
100
AcDbEntity
  8
002
100
AcDbLine
 10
4954.413961246434
 20
-2919.565132964928
 30
0.0
 11
4954.413961246434
 21
-2961.359804964928
 31
0.0
  0
LINE
  5
91D7
330
1E
100
AcDbEntity
  8
002
100
AcDbLine
 10
4949.413961246433
 20
-2942.608887964928
 30
0.0
 11
4954.413961246434
 21
-2937.608887964928
 31
0.0
  0
LINE
  5
91D8
330
1E
100
AcDbEntity
  8
002
100
AcDbLine
 10
4949.413961246433
 20
-3008.007140964928
 30
0.0
 11
4949.413961246433
 21
-2914.712468964928
 31
0.0
  0
LINE
  5
91D9
330
1E
100
AcDbEntity
  8
002
100
AcDbLine
 10
5064.774868246432
 20
-3016.310772964928
 30
0.0
 11
4954.264455246434
 21
-3013.004905964928
 31
0.0
  0
LINE
  5
91DA
330
1E
100
AcDbEntity
  8
002
100
AcDbLine
 10
4949.413961246433
 20
-2957.248247964928
 30
0.0
 11
4954.413961246434
 21
-2957.379177964928
 31
0.0
  0
LINE
  5
91DB
330
1E
100
AcDbEntity
  8
002
100
AcDbLine
 10
4949.413961246433
 20
-2957.748247964928
 30
0.0
 11
4954.413961246434
 21
-2957.879177964928
 31
0.0
  0
LINE
  5
91DC
330
1E
100
AcDbEntity
  8
002
100
AcDbLine
 10
4949.413961246433
 20
-2952.508382964928
 30
0.0
 11
4954.413961246434
 21
-2947.508382964928
 31
0.0
  0
ARC
  5
91DD
330
1E
100
AcDbEntity
  8
002
100
AcDbCircle
 10
4954.413961246434
 20
-3008.007140964928
 30
0.0
 40
5.0
100
AcDbArc
 50
180.0
 51
268.286534999979
  0
ARC
  5
91DE
330
1E
100
AcDbEntity
  8
002
100
AcDbCircle
 10
5071.413961246434
 20
-2978.888947964928
 30
0.0
 40
2.0
100
AcDbArc
 50
90.0
 51
180.0
  0
ARC
  5
91DF
330
1E
100
AcDbEntity
  8
002
100
AcDbCircle
 10
5071.413961246434
 20
-2977.888947964928
 30
0.0
 40
2.0
100
AcDbArc
 50
90.0
 51
180.0
  0
ARC
  5
91E0
330
1E
100
AcDbEntity
  8
002
100
AcDbCircle
 10
5071.413961246434
 20
-3001.786211964928
 30
0.0
 40
2.0
100
AcDbArc
 50
180.0
 51
270.0
  0
ARC
  5
91E1
330
1E
100
AcDbEntity
  8
002
100
AcDbCircle
 10
5069.913961246434
 20
-3020.315354964928
 30
0.0
 40
0.5
100
AcDbArc
 50
90.0
 51
180.0
  0
ARC
  5
91E2
330
1E
100
AcDbEntity
  8
002
100
AcDbCircle
 10
5070.413961246433
 20
-3020.315354964928
 30
0.0
 40
1.0
100
AcDbArc
 50
90.0
 51
180.0
  0
ARC
  5
91E3
330
1E
100
AcDbEntity
  8
002
100
AcDbCircle
 10
5064.685165246433
 20
-3019.309430964928
 30
0.0
 40
3.0
100
AcDbArc
 50
30.96375699999684
 51
88.28653499997901
  0
ARC
  5
91E4
330
1E
100
AcDbEntity
  8
002
100
AcDbCircle
 10
5071.112532246433
 20
-3018.359804964928
 30
0.0
 40
3.0
100
AcDbArc
 50
210.9637569999968
 51
270.0
  0
LINE
  5
91E5
330
1E
100
AcDbEntity
  8
002
100
AcDbLine
 10
5067.257644246433
 20
-3017.765943964928
 30
0.0
 11
5068.540053246433
 21
-3019.903292964928
 31
0.0
  0
LINE
  5
91E6
330
1E
100
AcDbEntity
  8
002
100
AcDbLine
 10
5069.413961246433
 20
-3020.832628964928
 30
0.0
 11
5069.413961246433
 21
-2961.359804964928
 31
0.0
  0
LINE
  5
91E7
330
1E
100
AcDbEntity
  8
002
100
AcDbLine
 10
4998.425967246433
 20
-2913.395870964928
 30
0.0
 11
5003.582458246434
 21
-2908.239379964928
 31
0.0
  0
LINE
  5
91E8
330
1E
100
AcDbEntity
  8
002
100
AcDbLine
 10
5064.774868246432
 20
-2906.408837964928
 30
0.0
 11
4954.264455246434
 21
-2909.714704964928
 31
0.0
  0
LINE
  5
91E9
330
1E
100
AcDbEntity
  8
002
100
AcDbLine
 10
4959.264455246433
 20
-2914.567368964928
 30
0.0
 11
5066.563466246433
 21
-2911.357569964928
 31
0.0
  0
LINE
  5
91EA
330
1E
100
AcDbEntity
  8
002
100
AcDbLine
 10
4957.081186246433
 20
-2915.142671964927
 30
0.0
 11
4962.763395246433
 21
-2909.460462964928
 31
0.0
  0
ARC
  5
91EB
330
1E
100
AcDbEntity
  8
002
100
AcDbCircle
 10
4959.413961246433
 20
-2919.565132964928
 30
0.0
 40
5.0
100
AcDbArc
 50
91.71346499996891
 51
180.0
  0
LINE
  5
91EC
330
1E
100
AcDbEntity
  8
002
100
AcDbLine
 10
4949.413961246433
 20
-2932.709392964928
 30
0.0
 11
4954.413961246434
 21
-2927.709392964928
 31
0.0
  0
LINE
  5
91ED
330
1E
100
AcDbEntity
  8
002
100
AcDbLine
 10
4950.047022246433
 20
-2912.277340964928
 30
0.0
 11
4951.978832246433
 21
-2910.345530964928
 31
0.0
  0
ARC
  5
91EE
330
1E
100
AcDbEntity
  8
002
100
AcDbCircle
 10
4954.413961246434
 20
-2914.712468964928
 30
0.0
 40
5.0
100
AcDbArc
 50
91.71346499996891
 51
180.0
  0
LINE
  5
91EF
330
1E
100
AcDbEntity
  8
002
100
AcDbLine
 10
4949.413961246433
 20
-2922.809897964928
 30
0.0
 11
4954.991499246433
 21
-2917.232358964928
 31
0.0
  0
LINE
  5
91F0
330
1E
100
AcDbEntity
  8
002
100
AcDbLine
 10
4988.221201246433
 20
-2913.701141964928
 30
0.0
 11
4993.377692246433
 21
-2908.544650964928
 31
0.0
  0
LINE
  5
91F1
330
1E
100
AcDbEntity
  8
002
100
AcDbLine
 10
4978.016436246433
 20
-2914.006411964928
 30
0.0
 11
4983.172926246433
 21
-2908.849921964928
 31
0.0
  0
LINE
  5
91F2
330
1E
100
AcDbEntity
  8
002
100
AcDbLine
 10
4967.811670246434
 20
-2914.311682964928
 30
0.0
 11
4972.968161246434
 21
-2909.155192964928
 31
0.0
  0
LINE
  5
91F3
330
1E
100
AcDbEntity
  8
002
100
AcDbLine
 10
5025.853894246434
 20
-2907.573140964928
 30
0.0
 11
5025.984779246433
 21
-2912.571461964928
 31
0.0
  0
LINE
  5
91F4
330
1E
100
AcDbEntity
  8
002
100
AcDbLine
 10
5026.353894246433
 20
-2907.558182964928
 30
0.0
 11
5026.484779246434
 21
-2912.556504964928
 31
0.0
  0
LINE
  5
91F5
330
1E
100
AcDbEntity
  8
002
100
AcDbLine
 10
5032.979609246434
 20
-2907.359977964928
 30
0.0
 11
5032.848518246432
 21
-2912.366136964928
 31
0.0
  0
LINE
  5
91F6
330
1E
100
AcDbEntity
  8
002
100
AcDbLine
 10
5032.478825246433
 20
-2907.374958964928
 30
0.0
 11
5032.347734246433
 21
-2912.381116964928
 31
0.0
  0
LINE
  5
91F7
330
1E
100
AcDbEntity
  8
002
100
AcDbLine
 10
5032.947859246434
 20
-2908.572463964928
 30
0.0
 11
5034.196755246433
 21
-2907.323567964928
 31
0.0
  0
LINE
  5
91F8
330
1E
100
AcDbEntity
  8
002
  6
CENTER
100
AcDbLine
 10
5029.413961246433
 20
-2916.333578964928
 30
0.0
 11
5029.413961246433
 21
-2902.731119964928
 31
0.0
  0
LINE
  5
91F9
330
1E
100
AcDbEntity
  8
002
100
AcDbLine
 10
5008.630733246433
 20
-2913.090599964928
 30
0.0
 11
5013.787223246433
 21
-2907.934108964928
 31
0.0
  0
LINE
  5
91FA
330
1E
100
AcDbEntity
  8
002
100
AcDbLine
 10
5018.835498246433
 20
-2912.785328964928
 30
0.0
 11
5023.991989246434
 21
-2907.628838964928
 31
0.0
  0
LINE
  5
91FB
330
1E
100
AcDbEntity
  8
002
100
AcDbLine
 10
5079.413961246434
 20
-2908.359804964928
 30
0.0
 11
5079.413961246434
 21
-2936.868460964928
 31
0.0
  0
LINE
  5
91FC
330
1E
100
AcDbEntity
  8
002
100
AcDbLine
 10
5071.112532246433
 20
-2901.359804964928
 30
0.0
 11
5072.244912246433
 21
-2901.359804964928
 31
0.0
  0
LINE
  5
91FD
330
1E
100
AcDbEntity
  8
002
100
AcDbLine
 10
5076.820795246433
 20
-2909.856969964928
 30
0.0
 11
5079.413961246434
 21
-2908.359804964928
 31
0.0
  0
LINE
  5
91FE
330
1E
100
AcDbEntity
  8
002
100
AcDbLine
 10
5067.257644246433
 20
-2904.953666964928
 30
0.0
 11
5067.957448246433
 21
-2903.787326964928
 31
0.0
  0
LINE
  5
91FF
330
1E
100
AcDbEntity
  8
002
100
AcDbLine
 10
5059.654561246433
 20
-2911.564245964928
 30
0.0
 11
5064.811280246434
 21
-2906.407526964928
 31
0.0
  0
ARC
  5
9200
330
1E
100
AcDbEntity
  8
002
100
AcDbCircle
 10
5064.685165246433
 20
-2903.410178964928
 30
0.0
 40
3.0
100
AcDbArc
 50
271.7134649999688
 51
329.0362430000032
  0
LINE
  5
9201
330
1E
100
AcDbEntity
  8
002
100
AcDbLine
 10
5049.449796246433
 20
-2911.869516964928
 30
0.0
 11
5054.606286246433
 21
-2906.713025964928
 31
0.0
  0
LINE
  5
9202
330
1E
100
AcDbEntity
  8
002
100
AcDbLine
 10
5039.245030246433
 20
-2912.174787964928
 30
0.0
 11
5044.401521246434
 21
-2907.018296964928
 31
0.0
  0
LINE
  5
9203
330
1E
100
AcDbEntity
  8
002
100
AcDbLine
 10
5068.540053246433
 20
-2902.816317964928
 30
0.0
 11
5067.957448246433
 21
-2903.787326964928
 31
0.0
  0
LINE
  5
9204
330
1E
100
AcDbEntity
  8
002
100
AcDbLine
 10
5066.413961246433
 20
-2911.359804964928
 30
0.0
 11
5076.815884246434
 21
-2911.359804964928
 31
0.0
  0
ARC
  5
9205
330
1E
100
AcDbEntity
  8
002
100
AcDbCircle
 10
5071.112532246433
 20
-2904.359804964928
 30
0.0
 40
3.0
100
AcDbArc
 50
90.0
 51
149.0362430000031
  0
LINE
  5
9206
330
1E
100
AcDbEntity
  8
003
 62
     3
100
AcDbLine
 10
4793.269443959771
 20
-2462.175653065664
 30
0.0
 11
4793.269443959771
 21
-2599.671518591488
 31
0.0
  0
LINE
  5
9207
330
1E
100
AcDbEntity
  8
003
 62
     3
100
AcDbLine
 10
4793.269443959771
 20
-2415.573616065664
 30
0.0
 11
4812.993326959771
 21
-2415.573616065664
 31
0.0
  0
LINE
  5
9208
330
1E
100
AcDbEntity
  8
003
 62
     3
100
AcDbLine
 10
4812.993326959771
 20
-2415.573616065664
 30
0.0
 11
4774.86904595977
 21
-2462.175653065664
 31
0.0
  0
LINE
  5
9209
330
1E
100
AcDbEntity
  8
003
 62
     3
100
AcDbLine
 10
4774.86904595977
 20
-2462.175653065664
 30
0.0
 11
4793.269443959771
 21
-2462.175653065664
 31
0.0
  0
LINE
  5
920A
330
1E
100
AcDbEntity
  8
003
 62
     3
100
AcDbLine
 10
5073.168534664501
 20
-2595.167401707549
 30
0.0
 11
5074.246177267111
 21
-2597.991768865111
 31
0.0
  0
LINE
  5
920B
330
1E
100
AcDbEntity
  8
003
 62
     3
100
AcDbLine
 10
5076.6356432153
 20
-2603.713029070735
 30
0.0
 11
5076.635284173718
 21
-2606.305941895877
 31
0.0
  0
LINE
  5
920C
330
1E
100
AcDbEntity
  8
003
 62
     3
100
AcDbLine
 10
5075.620576573736
 20
-2600.890975259708
 30
0.0
 11
5076.6356432153
 21
-2603.713029070735
 31
0.0
  0
LINE
  5
920D
330
1E
100
AcDbEntity
  8
003
 62
     3
100
AcDbLine
 10
5075.484450639212
 20
-2608.263392827836
 30
0.0
 11
5073.612794950061
 21
-2610.052994295705
 31
0.0
  0
LINE
  5
920E
330
1E
100
AcDbEntity
  8
003
 62
     3
100
AcDbLine
 10
5071.524819305608
 20
-2611.786289783182
 30
0.0
 11
5069.725030829233
 21
-2613.574823642205
 31
0.0
  0
LINE
  5
920F
330
1E
100
AcDbEntity
  8
003
 62
     3
100
AcDbLine
 10
5073.612794950061
 20
-2610.052994295705
 30
0.0
 11
5071.524819305608
 21
-2611.786289783182
 31
0.0
  0
LINE
  5
9210
330
1E
100
AcDbEntity
  8
003
 62
     3
100
AcDbLine
 10
5076.635284173718
 20
-2606.305941895877
 30
0.0
 11
5075.484450639212
 21
-2608.263392827836
 31
0.0
  0
LINE
  5
9211
330
1E
100
AcDbEntity
  8
003
 62
     3
100
AcDbLine
 10
5074.246177267111
 20
-2597.991768865111
 30
0.0
 11
5075.620576573736
 21
-2600.890975259708
 31
0.0
  0
LINE
  5
9212
330
1E
100
AcDbEntity
  8
003
 62
     3
100
AcDbLine
 10
5072.68781720375
 20
-2625.903562340306
 30
0.0
 11
5072.903590694646
 21
-2628.283498593157
 31
0.0
  0
LINE
  5
9213
330
1E
100
AcDbEntity
  8
003
 62
     3
100
AcDbLine
 10
5071.959925475853
 20
-2630.11058844793
 30
0.0
 11
5070.237286901683
 21
-2631.765105226288
 31
0.0
  0
LINE
  5
9214
330
1E
100
AcDbEntity
  8
003
 62
     3
100
AcDbLine
 10
5072.903590694646
 20
-2628.283498593157
 30
0.0
 11
5071.959925475853
 21
-2630.11058844793
 31
0.0
  0
LINE
  5
9215
330
1E
100
AcDbEntity
  8
003
 62
     3
100
AcDbLine
 10
5070.062716467873
 20
-2620.604442849202
 30
0.0
 11
5071.530605820921
 21
-2623.296686389187
 31
0.0
  0
LINE
  5
9216
330
1E
100
AcDbEntity
  8
003
 62
     3
100
AcDbLine
 10
5071.530605820921
 20
-2623.296686389187
 30
0.0
 11
5072.68781720375
 21
-2625.903562340306
 31
0.0
  0
LINE
  5
9217
330
1E
100
AcDbEntity
  8
003
 62
     3
100
AcDbLine
 10
5068.914905127088
 20
-2617.968403135165
 30
0.0
 11
5070.062716467873
 21
-2620.604442849202
 31
0.0
  0
LINE
  5
9218
330
1E
100
AcDbEntity
  8
003
 62
     3
100
AcDbLine
 10
5068.717932531441
 20
-2615.530140514932
 30
0.0
 11
5068.914905127088
 21
-2617.968403135165
 31
0.0
  0
LINE
  5
9219
330
1E
100
AcDbEntity
  8
003
 62
     3
100
AcDbLine
 10
5069.725030829233
 20
-2613.574823642205
 30
0.0
 11
5068.717932531441
 21
-2615.530140514932
 31
0.0
  0
LINE
  5
921A
330
1E
100
AcDbEntity
  8
003
 62
     3
100
AcDbLine
 10
5068.171468328447
 20
-2633.359208607954
 30
0.0
 11
5066.198264270916
 21
-2635.005057461486
 31
0.0
  0
LINE
  5
921B
330
1E
100
AcDbEntity
  8
003
 62
     3
100
AcDbLine
 10
5064.753466753301
 20
-2636.814813262572
 30
0.0
 11
5064.231136367479
 21
-2640.595889588355
 31
0.0
  0
LINE
  5
921C
330
1E
100
AcDbEntity
  8
003
 62
     3
100
AcDbLine
 10
5066.198264270916
 20
-2635.005057461486
 30
0.0
 11
5064.753466753301
 21
-2636.814813262572
 31
0.0
  0
LINE
  5
921D
330
1E
100
AcDbEntity
  8
003
 62
     3
100
AcDbLine
 10
5064.231136367479
 20
-2640.595889588355
 30
0.0
 11
5065.530391739648
 21
-2644.888294186888
 31
0.0
  0
LINE
  5
921E
330
1E
100
AcDbEntity
  8
003
 62
     3
100
AcDbLine
 10
5070.237286901683
 20
-2631.765105226288
 30
0.0
 11
5068.171468328447
 21
-2633.359208607954
 31
0.0
  0
LINE
  5
921F
330
1E
100
AcDbEntity
  8
003
 62
     3
100
AcDbLine
 10
5068.839010324658
 20
-2653.604877257671
 30
0.0
 11
5068.471043404398
 21
-2657.327949302586
 31
0.0
  0
LINE
  5
9220
330
1E
100
AcDbEntity
  8
003
 62
     3
100
AcDbLine
 10
5058.796125416607
 20
-2669.174616925438
 30
0.0
 11
5059.966958727311
 21
-2672.424079636274
 31
0.0
  0
LINE
  5
9221
330
1E
100
AcDbEntity
  8
003
 62
     3
100
AcDbLine
 10
5058.899090560775
 20
-2666.290942135443
 30
0.0
 11
5058.796125416607
 21
-2669.174616925438
 31
0.0
  0
LINE
  5
9222
330
1E
100
AcDbEntity
  8
003
 62
     3
100
AcDbLine
 10
5060.231193509279
 20
-2664.374761292274
 30
0.0
 11
5058.899090560775
 21
-2666.290942135443
 31
0.0
  0
LINE
  5
9223
330
1E
100
AcDbEntity
  8
003
 62
     3
100
AcDbLine
 10
5062.338320290137
 20
-2662.658464614855
 30
0.0
 11
5060.231193509279
 21
-2664.374761292274
 31
0.0
  0
LINE
  5
9224
330
1E
100
AcDbEntity
  8
003
 62
     3
100
AcDbLine
 10
5064.736592398756
 20
-2661.003958530997
 30
0.0
 11
5062.338320290137
 21
-2662.658464614855
 31
0.0
  0
LINE
  5
9225
330
1E
100
AcDbEntity
  8
003
 62
     3
100
AcDbLine
 10
5066.942127044012
 20
-2659.273150743532
 30
0.0
 11
5064.736592398756
 21
-2661.003958530997
 31
0.0
  0
LINE
  5
9226
330
1E
100
AcDbEntity
  8
003
 62
     3
100
AcDbLine
 10
5063.25385317011
 20
-2682.492926271413
 30
0.0
 11
5062.221457830819
 21
-2684.948759324415
 31
0.0
  0
LINE
  5
9227
330
1E
100
AcDbEntity
  8
003
 62
     3
100
AcDbLine
 10
5060.346788257247
 20
-2687.225121424495
 30
0.0
 11
5058.1143644054
 21
-2689.414423508837
 31
0.0
  0
LINE
  5
9228
330
1E
100
AcDbEntity
  8
003
 62
     3
100
AcDbLine
 10
5062.221457830819
 20
-2684.948759324415
 30
0.0
 11
5060.346788257247
 21
-2687.225121424495
 31
0.0
  0
LINE
  5
9229
330
1E
100
AcDbEntity
  8
003
 62
     3
100
AcDbLine
 10
5058.1143644054
 20
-2689.414423508837
 30
0.0
 11
5056.008708895489
 21
-2691.609072922694
 31
0.0
  0
LINE
  5
922A
330
1E
100
AcDbEntity
  8
003
 62
     3
100
AcDbLine
 10
5061.624749949976
 20
-2675.851903406389
 30
0.0
 11
5062.982661669763
 21
-2679.270660910353
 31
0.0
  0
LINE
  5
922B
330
1E
100
AcDbEntity
  8
003
 62
     3
100
AcDbLine
 10
5062.982661669763
 20
-2679.270660910353
 30
0.0
 11
5063.25385317011
 21
-2682.492926271413
 31
0.0
  0
LINE
  5
922C
330
1E
100
AcDbEntity
  8
003
 62
     3
100
AcDbLine
 10
5056.008708895489
 20
-2691.609072922694
 30
0.0
 11
5054.514340525059
 21
-2693.901481414409
 31
0.0
  0
LINE
  5
922D
330
1E
100
AcDbEntity
  8
003
 62
     3
100
AcDbLine
 10
5059.966958727311
 20
-2672.424079636274
 30
0.0
 11
5061.624749949976
 21
-2675.851903406389
 31
0.0
  0
LINE
  5
922E
330
1E
100
AcDbEntity
  8
003
 62
     3
100
AcDbLine
 10
5068.471043404398
 20
-2657.327949302586
 30
0.0
 11
5066.942127044012
 21
-2659.273150743532
 31
0.0
  0
LINE
  5
922F
330
1E
100
AcDbEntity
  8
003
 62
     3
100
AcDbLine
 10
5067.462571250089
 20
-2649.341474452275
 30
0.0
 11
5068.839010324658
 21
-2653.604877257671
 31
0.0
  0
LINE
  5
9230
330
1E
100
AcDbEntity
  8
003
 62
     3
100
AcDbLine
 10
5065.530391739648
 20
-2644.888294186888
 30
0.0
 11
5067.462571250089
 21
-2649.341474452275
 31
0.0
  0
LINE
  5
9231
330
1E
100
AcDbEntity
  8
003
 62
     3
100
AcDbLine
 10
5073.043741610344
 20
-2592.56986317415
 30
0.0
 11
5073.168534664501
 21
-2595.167401707549
 31
0.0
  0
LINE
  5
9232
330
1E
100
AcDbEntity
  8
003
 62
     3
100
AcDbLine
 10
5074.065662015565
 20
-2590.584284386887
 30
0.0
 11
5073.043741610344
 21
-2592.56986317415
 31
0.0
  0
LINE
  5
9233
330
1E
100
AcDbEntity
  8
003
 62
     3
100
AcDbLine
 10
5075.836487612819
 20
-2588.770042615733
 30
0.0
 11
5074.065662015565
 21
-2590.584284386887
 31
0.0
  0
LINE
  5
9234
330
1E
100
AcDbEntity
  8
003
 62
     3
100
AcDbLine
 10
5077.896658656403
 20
-2587.013943471195
 30
0.0
 11
5075.836487612819
 21
-2588.770042615733
 31
0.0
  0
LINE
  5
9235
330
1E
100
AcDbEntity
  8
003
 62
     3
100
AcDbLine
 10
5078.827245552415
 20
-2568.146177428012
 30
0.0
 11
5078.649467321064
 21
-2571.0655767984
 31
0.0
  0
LINE
  5
9236
330
1E
100
AcDbEntity
  8
003
 62
     3
100
AcDbLine
 10
5078.649467321064
 20
-2571.0655767984
 30
0.0
 11
5079.443147373365
 21
-2574.192910113265
 31
0.0
  0
LINE
  5
9237
330
1E
100
AcDbEntity
  8
003
100
AcDbLine
 10
5061.66924677896
 20
-2340.889100209403
 30
0.0
 11
5078.568622790079
 21
-2334.691433575189
 31
0.0
  0
LINE
  5
9238
330
1E
100
AcDbEntity
  8
003
100
AcDbLine
 10
5058.570413548676
 20
-2332.43941171144
 30
0.0
 11
5075.469789559796
 21
-2326.241745077225
 31
0.0
  0
ARC
  5
9239
330
1E
100
AcDbEntity
  8
002
100
AcDbCircle
 10
5289.259252246434
 20
-2961.359804964928
 30
0.0
 40
60.0
100
AcDbArc
 50
135.9711609999901
 51
164.0288390000099
  0
LINE
  5
923A
330
1E
100
AcDbEntity
  8
004
  6
CENTER
 62
     6
100
AcDbLine
 10
5184.759550246432
 20
-2961.359804964928
 30
0.0
 11
5385.792740246433
 21
-2961.359804964928
 31
0.0
  0
ARC
  5
923B
330
1E
100
AcDbEntity
  8
002
100
AcDbCircle
 10
5289.259252246434
 20
-2961.359804964928
 30
0.0
 40
60.0
100
AcDbArc
 50
195.97116099999
 51
224.0288390000098
  0
CIRCLE
  5
923C
330
1E
100
AcDbEntity
  8
002
100
AcDbCircle
 10
5289.259252246434
 20
-2961.359804964928
 30
0.0
 40
53.0
  0
CIRCLE
  5
923D
330
1E
100
AcDbEntity
  8
002
100
AcDbCircle
 10
5289.259252246434
 20
-2961.359804964928
 30
0.0
 40
51.5
  0
CIRCLE
  5
923E
330
1E
100
AcDbEntity
  8
002
100
AcDbCircle
 10
5289.259252246434
 20
-2961.359804964928
 30
0.0
 40
50.0
  0
INSERT
  5
923F
330
1E
100
AcDbEntity
  8
001
  6
ByBlock
 62
     0
100
AcDbBlockReference
  2
PART2
 10
3955.421462442226
 20
-3736.445246786648
 30
0.0
  0
DIMENSION
  5
9240
330
1E
100
AcDbEntity
  8
001
  6
Continuous
100
AcDbDimension
  2
*D12
 10
5174.704300184216
 20
-3021.359804964928
 30
0.0
 11
5161.579300184217
 21
-2961.359804964927
 31
0.0
 70
    32
  1
φ120
 71
     5
 42
120.0
  3
ISO-25
100
AcDbAlignedDimension
 13
5107.413961246433
 23
-2901.359804964928
 33
0.0
 14
5107.413961246433
 24
-3021.359804964928
 34
0.0
 50
90.0
100
AcDbRotatedDimension
  0
LINE
  5
9241
330
1E
100
AcDbEntity
  8
002
100
AcDbLine
 10
5109.413961246433
 20
-3019.359804964928
 30
0.0
 11
5109.413961246433
 21
-2903.359804964928
 31
0.0
  0
LINE
  5
9242
330
1E
100
AcDbEntity
  8
002
100
AcDbLine
 10
5107.413961246433
 20
-3021.359804964928
 30
0.0
 11
5109.413961246433
 21
-3019.359804964928
 31
0.0
  0
LINE
  5
9243
330
1E
100
AcDbEntity
  8
002
100
AcDbLine
 10
5107.413961246433
 20
-3021.359804964928
 30
0.0
 11
5107.413961246433
 21
-2961.359804964928
 31
0.0
  0
ARC
  5
9244
330
1E
100
AcDbEntity
  8
002
100
AcDbCircle
 10
5232.536633246434
 20
-2945.125748964928
 30
0.0
 40
1.0
100
AcDbArc
 50
164.0288390000099
 51
255.0000000000055
  0
ARC
  5
9245
330
1E
100
AcDbEntity
  8
002
100
AcDbCircle
 10
5232.985062246434
 20
-2947.316457964928
 30
0.0
 40
1.0
100
AcDbArc
 50
345.9879069999931
 51
75.00000000000555
  0
LINE
  5
9246
330
1E
100
AcDbEntity
  8
002
100
AcDbLine
 10
5232.277814246433
 20
-2946.091674964928
 30
0.0
 11
5233.243881246433
 21
-2946.350531964928
 31
0.0
  0
ARC
  5
9247
330
1E
100
AcDbEntity
  8
002
100
AcDbCircle
 10
5232.985062246434
 20
-2975.403152964928
 30
0.0
 40
1.0
100
AcDbArc
 50
284.9999999999944
 51
14.01209300000682
  0
ARC
  5
9248
330
1E
100
AcDbEntity
  8
002
100
AcDbCircle
 10
5232.536633246434
 20
-2977.593860964928
 30
0.0
 40
1.0
100
AcDbArc
 50
104.9999999999944
 51
195.97116099999
  0
LINE
  5
9249
330
1E
100
AcDbEntity
  8
002
100
AcDbLine
 10
5233.243881246433
 20
-2976.369078964928
 30
0.0
 11
5232.277814246433
 21
-2976.627935964928
 31
0.0
  0
ARC
  5
924A
330
1E
100
AcDbEntity
  8
002
100
AcDbCircle
 10
5289.259252246434
 20
-2961.359804964928
 30
0.0
 40
57.0
100
AcDbArc
 50
165.9879069999931
 51
194.0120930000068
  0
LINE
  5
924B
330
1E
100
AcDbEntity
  8
002
100
AcDbLine
 10
5108.547935246432
 20
-2909.859804964928
 30
0.0
 11
5108.547935246432
 21
-2936.868460964928
 31
0.0
  0
LINE
  5
924C
330
1E
100
AcDbEntity
  8
002
100
AcDbLine
 10
5108.542903246434
 20
-2909.868520964928
 30
0.0
 11
5109.413961246433
 21
-2908.359804964928
 31
0.0
  0
LINE
  5
924D
330
1E
100
AcDbEntity
  8
002
100
AcDbLine
 10
5082.657992246433
 20
-2908.359804964928
 30
0.0
 11
5089.657992246433
 21
-2901.359804964928
 31
0.0
  0
LINE
  5
924E
330
1E
100
AcDbEntity
  8
002
100
AcDbLine
 10
5092.557487246434
 20
-2908.359804964928
 30
0.0
 11
5099.557487246434
 21
-2901.359804964928
 31
0.0
  0
LINE
  5
924F
330
1E
100
AcDbEntity
  8
002
100
AcDbLine
 10
5102.456982246433
 20
-2908.359804964928
 30
0.0
 11
5108.435471246433
 21
-2902.381315964928
 31
0.0
  0
LINE
  5
9250
330
1E
100
AcDbEntity
  8
002
100
AcDbLine
 10
5107.413961246433
 20
-2901.359804964928
 30
0.0
 11
5109.413961246433
 21
-2903.359804964928
 31
0.0
  0
ARC
  5
9251
330
1E
100
AcDbEntity
  8
002
100
AcDbCircle
 10
5289.259252246434
 20
-2961.359804964928
 30
0.0
 40
60.0
100
AcDbArc
 50
15.97116099999004
 51
44.02883900000989
  0
CIRCLE
  5
9252
330
1E
100
AcDbEntity
  8
002
100
AcDbCircle
 10
5289.259252246434
 20
-2961.359804964928
 30
0.0
 40
46.5
  0
LINE
  5
9253
330
1E
100
AcDbEntity
  8
004
  6
CENTER
 62
     6
100
AcDbLine
 10
5289.259252246434
 20
-2888.722147964928
 30
0.0
 11
5289.259252246434
 21
-3031.283335964928
 31
0.0
  0
ARC
  5
9254
330
1E
100
AcDbEntity
  8
002
100
AcDbCircle
 10
5289.259252246434
 20
-2961.359804964928
 30
0.0
 40
57.0
100
AcDbArc
 50
285.9879069999866
 51
314.0120929999809
  0
ARC
  5
9255
330
1E
100
AcDbEntity
  8
002
100
AcDbCircle
 10
5289.259252246434
 20
-2961.359804964928
 30
0.0
 40
60.0
100
AcDbArc
 50
255.9711610000016
 51
284.0288389999983
  0
ARC
  5
9256
330
1E
100
AcDbEntity
  8
002
100
AcDbCircle
 10
5274.957047246434
 20
-3018.600061964928
 30
0.0
 40
1.0
100
AcDbArc
 50
165.0000000000055
 51
255.9711610000016
  0
LINE
  5
9257
330
1E
100
AcDbEntity
  8
002
100
AcDbLine
 10
5274.249978246434
 20
-3017.375175964928
 30
0.0
 11
5273.991122246433
 21
-3018.341242964928
 31
0.0
  0
ARC
  5
9258
330
1E
100
AcDbEntity
  8
002
100
AcDbCircle
 10
5273.284053246434
 20
-3017.116356964928
 30
0.0
 40
1.0
100
AcDbArc
 50
345.0000000000055
 51
74.01209300001333
  0
ARC
  5
9259
330
1E
100
AcDbEntity
  8
002
100
AcDbCircle
 10
5248.960261246433
 20
-3003.073008964928
 30
0.0
 40
1.0
100
AcDbArc
 50
45.98790700001909
 51
135.0
  0
LINE
  5
925A
330
1E
100
AcDbEntity
  8
002
100
AcDbLine
 10
5247.545944246433
 20
-3003.073112964928
 30
0.0
 11
5248.253155246432
 21
-3002.365902964928
 31
0.0
  0
ARC
  5
925B
330
1E
100
AcDbEntity
  8
002
100
AcDbCircle
 10
5246.838838246434
 20
-3002.366005964928
 30
0.0
 40
1.0
100
AcDbArc
 50
224.0288390000098
 51
315.0
  0
ARC
  5
925C
330
1E
100
AcDbEntity
  8
002
100
AcDbCircle
 10
5289.259252246434
 20
-2961.359804964928
 30
0.0
 40
57.0
100
AcDbArc
 50
225.987907000019
 51
254.0120930000133
  0
CIRCLE
  5
925D
330
1E
100
AcDbEntity
  8
002
100
AcDbCircle
 10
5289.259252246434
 20
-2961.359804964928
 30
0.0
 40
3.480626999999999
  0
CIRCLE
  5
925E
330
1E
100
AcDbEntity
  8
002
100
AcDbCircle
 10
5289.259252246434
 20
-2961.359804964928
 30
0.0
 40
3.980626999999999
  0
ARC
  5
925F
330
1E
100
AcDbEntity
  8
002
100
AcDbCircle
 10
5303.561456246433
 20
-3018.600061964928
 30
0.0
 40
1.0
100
AcDbArc
 50
284.0288389999983
 51
14.99999999999445
  0
LINE
  5
9260
330
1E
100
AcDbEntity
  8
002
100
AcDbLine
 10
5304.268525246434
 20
-3017.375175964928
 30
0.0
 11
5304.527382246433
 21
-3018.341242964928
 31
0.0
  0
ARC
  5
9261
330
1E
100
AcDbEntity
  8
002
100
AcDbCircle
 10
5305.234451246434
 20
-3017.116356964928
 30
0.0
 40
1.0
100
AcDbArc
 50
105.9879069999866
 51
194.9999999999944
  0
LINE
  5
9262
330
1E
100
AcDbEntity
  8
002
100
AcDbLine
 10
5346.240689246434
 20
-2946.091674964928
 30
0.0
 11
5345.274622246432
 21
-2946.350531964928
 31
0.0
  0
ARC
  5
9263
330
1E
100
AcDbEntity
  8
002
100
AcDbCircle
 10
5345.533441246434
 20
-2947.316457964928
 30
0.0
 40
1.0
100
AcDbArc
 50
104.9999999999944
 51
194.0120930000068
  0
ARC
  5
9264
330
1E
100
AcDbEntity
  8
002
100
AcDbCircle
 10
5345.981870246434
 20
-2945.125748964928
 30
0.0
 40
1.0
100
AcDbArc
 50
284.9999999999944
 51
15.97116099999004
  0
LINE
  5
9265
330
1E
100
AcDbEntity
  8
002
100
AcDbLine
 10
5345.274622246432
 20
-2976.369078964928
 30
0.0
 11
5346.240689246434
 21
-2976.627935964928
 31
0.0
  0
ARC
  5
9266
330
1E
100
AcDbEntity
  8
002
100
AcDbCircle
 10
5345.533441246434
 20
-2975.403152964928
 30
0.0
 40
1.0
100
AcDbArc
 50
165.9879069999931
 51
255.0000000000055
  0
ARC
  5
9267
330
1E
100
AcDbEntity
  8
002
100
AcDbCircle
 10
5345.981870246434
 20
-2977.593860964928
 30
0.0
 40
1.0
100
AcDbArc
 50
344.0288390000099
 51
75.00000000000555
  0
ARC
  5
9268
330
1E
100
AcDbEntity
  8
002
100
AcDbCircle
 10
5289.259252246434
 20
-2961.359804964928
 30
0.0
 40
57.0
100
AcDbArc
 50
345.9879069999931
 51
14.01209300000682
  0
ARC
  5
9269
330
1E
100
AcDbEntity
  8
002
100
AcDbCircle
 10
5331.679666246434
 20
-3002.366005964928
 30
0.0
 40
1.0
100
AcDbArc
 50
225.0
 51
315.97116099999
  0
ARC
  5
926A
330
1E
100
AcDbEntity
  8
002
100
AcDbCircle
 10
5329.558242246434
 20
-3003.073008964928
 30
0.0
 40
1.0
100
AcDbArc
 50
45.0
 51
134.0120929999808
  0
LINE
  5
926B
330
1E
100
AcDbEntity
  8
002
100
AcDbLine
 10
5330.972559246434
 20
-3003.073112964928
 30
0.0
 11
5330.265349246434
 21
-3002.365902964928
 31
0.0
  0
ARC
  5
926C
330
1E
100
AcDbEntity
  8
002
100
AcDbCircle
 10
5289.259252246434
 20
-2961.359804964928
 30
0.0
 40
60.0
100
AcDbArc
 50
315.97116099999
 51
344.0288390000099
  0
ARC
  5
926D
330
1E
100
AcDbEntity
  8
002
100
AcDbCircle
 10
5289.259252246434
 20
-2961.359804964928
 30
0.0
 40
57.0
100
AcDbArc
 50
45.98790700001909
 51
74.01209300001333
  0
ARC
  5
926E
330
1E
100
AcDbEntity
  8
002
100
AcDbCircle
 10
5289.259252246434
 20
-2961.359804964928
 30
0.0
 40
60.0
100
AcDbArc
 50
75.97116100000163
 51
104.0288389999983
  0
ARC
  5
926F
330
1E
100
AcDbEntity
  8
002
100
AcDbCircle
 10
5273.284053246434
 20
-2905.603253964928
 30
0.0
 40
1.0
100
AcDbArc
 50
285.9879069999866
 51
14.99999999999445
  0
ARC
  5
9270
330
1E
100
AcDbEntity
  8
002
100
AcDbCircle
 10
5274.957047246434
 20
-2904.119548964928
 30
0.0
 40
1.0
100
AcDbArc
 50
104.0288389999983
 51
194.9999999999944
  0
LINE
  5
9271
330
1E
100
AcDbEntity
  8
002
100
AcDbLine
 10
5273.991122246433
 20
-2904.378367964928
 30
0.0
 11
5274.249978246434
 21
-2905.344434964928
 31
0.0
  0
ARC
  5
9272
330
1E
100
AcDbEntity
  8
002
100
AcDbCircle
 10
5248.960261246433
 20
-2919.646601964928
 30
0.0
 40
1.0
100
AcDbArc
 50
225.0
 51
314.0120929999809
  0
LINE
  5
9273
330
1E
100
AcDbEntity
  8
002
100
AcDbLine
 10
5248.253155246432
 20
-2920.353707964928
 30
0.0
 11
5247.545944246433
 21
-2919.646497964928
 31
0.0
  0
ARC
  5
9274
330
1E
100
AcDbEntity
  8
002
100
AcDbCircle
 10
5246.838838246434
 20
-2920.353604964928
 30
0.0
 40
1.0
100
AcDbArc
 50
45.0
 51
135.9711609999901
  0
ARC
  5
9275
330
1E
100
AcDbEntity
  8
002
100
AcDbCircle
 10
5289.259252246434
 20
-2961.359804964928
 30
0.0
 40
57.0
100
AcDbArc
 50
105.9879069999866
 51
134.0120929999808
  0
ARC
  5
9276
330
1E
100
AcDbEntity
  8
002
100
AcDbCircle
 10
5303.561456246433
 20
-2904.119548964928
 30
0.0
 40
1.0
100
AcDbArc
 50
345.0000000000055
 51
75.97116100000163
  0
ARC
  5
9277
330
1E
100
AcDbEntity
  8
002
100
AcDbCircle
 10
5305.234451246434
 20
-2905.603253964928
 30
0.0
 40
1.0
100
AcDbArc
 50
165.0000000000055
 51
254.0120930000133
  0
LINE
  5
9278
330
1E
100
AcDbEntity
  8
002
100
AcDbLine
 10
5304.527382246433
 20
-2904.378367964928
 30
0.0
 11
5304.268525246434
 21
-2905.344434964928
 31
0.0
  0
ARC
  5
9279
330
1E
100
AcDbEntity
  8
002
100
AcDbCircle
 10
5331.679666246434
 20
-2920.353604964928
 30
0.0
 40
1.0
100
AcDbArc
 50
44.02883900000989
 51
135.0
  0
ARC
  5
927A
330
1E
100
AcDbEntity
  8
002
100
AcDbCircle
 10
5329.558242246434
 20
-2919.646601964928
 30
0.0
 40
1.0
100
AcDbArc
 50
225.987907000019
 51
315.0
  0
LINE
  5
927B
330
1E
100
AcDbEntity
  8
002
100
AcDbLine
 10
5330.265349246434
 20
-2920.353707964928
 30
0.0
 11
5330.972559246434
 21
-2919.646497964928
 31
0.0
  0
LINE
  5
927C
330
1E
100
AcDbEntity
  8
002
100
AcDbLine
 10
5227.753662073109
 20
-2365.836794802139
 30
0.0
 11
5285.199734804717
 21
-2375.966087360464
 31
0.0
  0
LINE
  5
927D
330
1E
100
AcDbEntity
  8
003
 62
     3
100
AcDbLine
 10
5261.356096778899
 20
-2394.101196119752
 30
0.0
 11
5232.959926243696
 21
-2555.14388182281
 31
0.0
  0
LINE
  5
927E
330
1E
100
AcDbEntity
  8
003
 62
     3
100
AcDbLine
 10
5252.000423125283
 20
-2392.451538431916
 30
0.0
 11
5223.313373430782
 21
-2555.14388182281
 31
0.0
  0
LINE
  5
927F
330
1E
100
AcDbEntity
  8
002
100
AcDbLine
 10
5241.12938023086
 20
-2324.531950488617
 30
0.0
 11
5243.290632113614
 21
-2326.671808186196
 31
0.0
  0
LINE
  5
9280
330
1E
100
AcDbEntity
  8
002
100
AcDbLine
 10
5245.501529567727
 20
-2314.133185649649
 30
0.0
 11
5240.292084237719
 21
-2343.677418240015
 31
0.0
  0
LINE
  5
9281
330
1E
100
AcDbEntity
  8
002
100
AcDbLine
 10
5244.475469101049
 20
-2311.314107995435
 30
0.0
 11
5238.8148726082
 21
-2343.416945973515
 31
0.0
  0
LINE
  5
9282
330
1E
100
AcDbEntity
  8
002
100
AcDbLine
 10
5218.12473434111
 20
-2339.768716362438
 30
0.0
 11
5289.040068011822
 21
-2352.273003034528
 31
0.0
  0
LWPOLYLINE
  5
9283
330
1E
100
AcDbEntity
  8
003
100
AcDbPolyline
 90
        4
 70
     0
 43
0.0
 10
5229.100805584792
 20
-2388.413718011622
 10
5291.491214021073
 20
-2399.41483035636
 10
5389.455124252638
 20
-2282.652198096969
 10
5264.692954765016
 20
-2260.653261444579
  0
LWPOLYLINE
  5
9284
330
1E
100
AcDbEntity
  8
003
100
AcDbPolyline
 90
        4
 70
     0
 43
0.0
 10
5264.692954765016
 20
-2260.653261444579
 10
5368.971122989984
 20
-2279.040316001497
 10
5287.334531130347
 20
-2376.34250955099
 10
5233.077344993605
 20
-2366.77550373776
  0
LINE
  5
9285
330
1E
100
AcDbEntity
  8
002
100
AcDbLine
 10
5197.881427677113
 20
-2478.359000882825
 30
0.0
 11
5200.828055383389
 21
-2483.109515404211
 31
0.0
  0
LINE
  5
9286
330
1E
100
AcDbEntity
  8
002
100
AcDbLine
 10
5196.410543437408
 20
-2478.099644305867
 30
0.0
 11
5199.357171143685
 21
-2482.850158827252
 31
0.0
  0
LINE
  5
9287
330
1E
100
AcDbEntity
  8
002
100
AcDbLine
 10
5203.853411509015
 20
-2495.658848550917
 30
0.0
 11
5231.419639006773
 21
-2342.112966760942
 31
0.0
  0
LINE
  5
9288
330
1E
100
AcDbEntity
  8
002
100
AcDbLine
 10
5124.86927806155
 20
-2480.716388164365
 30
0.0
 11
5127.815905767825
 21
-2485.466902685749
 31
0.0
  0
LINE
  5
9289
330
1E
100
AcDbEntity
  8
002
100
AcDbLine
 10
5124.531753285232
 20
-2478.96449541469
 30
0.0
 11
5199.694696093651
 21
-2484.602050592118
 31
0.0
  0
LINE
  5
928A
330
1E
100
AcDbEntity
  8
002
100
AcDbLine
 10
5193.468295996087
 20
-2491.119867851375
 30
0.0
 11
5128.153430717792
 21
-2487.218794450616
 31
0.0
  0
LINE
  5
928B
330
1E
100
AcDbEntity
  8
002
100
AcDbLine
 10
5121.927030620228
 20
-2493.736611709874
 30
0.0
 11
5197.089973428646
 21
-2499.374166887301
 31
0.0
  0
LINE
  5
928C
330
1E
100
AcDbEntity
  8
002
100
AcDbLine
 10
5119.322307955225
 20
-2508.508728005056
 30
0.0
 11
5194.485250763642
 21
-2514.146283182484
 31
0.0
  0
LINE
  5
928D
330
1E
100
AcDbEntity
  8
002
100
AcDbLine
 10
5190.863573331083
 20
-2505.891984146558
 30
0.0
 11
5125.548708052789
 21
-2501.990910745799
 31
0.0
  0
LINE
  5
928E
330
1E
100
AcDbEntity
  8
002
100
AcDbLine
 10
5188.258850666079
 20
-2520.664100441742
 30
0.0
 11
5122.943985387784
 21
-2516.763027040983
 31
0.0
  0
LINE
  5
928F
330
1E
100
AcDbEntity
  8
002
100
AcDbLine
 10
5116.717585290221
 20
-2523.28084430024
 30
0.0
 11
5191.880528098638
 21
-2528.918399477668
 31
0.0
  0
LWPOLYLINE
  5
9290
330
1E
100
AcDbEntity
  8
002
100
AcDbPolyline
 90
       24
 70
     0
 43
0.0
 10
5189.840825178777
 20
-2565.550108973037
 10
5186.966924097387
 20
-2567.928331836594
 10
5183.990140377834
 20
-2570.147800484263
 10
5180.909542199255
 20
-2572.198648209606
 10
5177.724194902937
 20
-2574.071012882932
 10
5174.433165509562
 20
-2575.755028608966
 10
5171.389312554158
 20
-2577.101659438335
 10
5168.274341854317
 20
-2578.298719484705
 10
5165.10312316446
 20
-2579.356506296738
 10
5161.890528382271
 20
-2580.285316785579
 10
5158.651427609471
 20
-2581.095446530277
 10
5153.542207049643
 20
-2582.154058383501
 10
5148.402089020714
 20
-2582.998461637579
 10
5143.228807496329
 20
-2583.681197012758
 10
5138.020099925499
 20
-2584.254802795814
 10
5132.773701150108
 20
-2584.771814782957
 10
5127.378157471438
 20
-2585.307047848564
 10
5121.998048414081
 20
-2585.956609008681
 10
5116.690576698838
 20
-2586.839061655883
 10
5111.512946668836
 20
-2588.072971499645
 10
5106.522360523935
 20
-2589.776904886965
 10
5104.447972194249
 20
-2590.679757493534
 10
5102.414443851323
 20
-2591.681072223237
 10
5100.417526930119
 20
-2592.770615854874
  0
LINE
  5
9291
330
1E
100
AcDbEntity
  8
002
100
AcDbLine
 10
5166.030378347129
 20
-2579.047212489043
 30
0.0
 11
5112.525094727768
 21
-2575.851492221715
 31
0.0
  0
LINE
  5
9292
330
1E
100
AcDbEntity
  8
002
100
AcDbLine
 10
5114.112862625217
 20
-2538.052960595424
 30
0.0
 11
5189.275805433634
 21
-2543.690515772851
 31
0.0
  0
LINE
  5
9293
330
1E
100
AcDbEntity
  8
002
100
AcDbLine
 10
5183.049405336071
 20
-2550.208333032108
 30
0.0
 11
5117.734540057774
 21
-2546.30725963135
 31
0.0
  0
LINE
  5
9294
330
1E
100
AcDbEntity
  8
002
100
AcDbLine
 10
5111.508139960212
 20
-2552.825076890606
 30
0.0
 11
5186.67108276863
 21
-2558.462632068035
 31
0.0
  0
LINE
  5
9295
330
1E
100
AcDbEntity
  8
002
100
AcDbLine
 10
5108.903417295209
 20
-2567.59719318579
 30
0.0
 11
5179.703578470963
 21
-2572.907520326872
 31
0.0
  0
LINE
  5
9296
330
1E
100
AcDbEntity
  8
002
100
AcDbLine
 10
5180.444682671067
 20
-2564.980449327292
 30
0.0
 11
5115.129817392772
 21
-2561.079375926533
 31
0.0
  0
LINE
  5
9297
330
1E
100
AcDbEntity
  8
002
100
AcDbLine
 10
5185.654128001075
 20
-2535.436216736924
 30
0.0
 11
5120.339262722779
 21
-2531.535143336166
 31
0.0
  0
LINE
  5
9298
330
1E
100
AcDbEntity
  8
002
100
AcDbLine
 10
5119.659832731541
 20
-2510.260620754731
 30
0.0
 11
5122.606460437818
 21
-2515.011135276116
 31
0.0
  0
LINE
  5
9299
330
1E
100
AcDbEntity
  8
002
100
AcDbLine
 10
5122.02763323681
 20
-2518.293827457887
 30
0.0
 11
5117.633937267545
 21
-2521.750044868142
 31
0.0
  0
ARC
  5
929A
330
1E
100
AcDbEntity
  8
002
100
AcDbCircle
 10
5121.784327337756
 20
-2508.942848449223
 30
0.0
 40
2.5
100
AcDbArc
 50
128.1896849999879
 51
211.8103149999947
  0
LINE
  5
929B
330
1E
100
AcDbEntity
  8
002
100
AcDbLine
 10
5106.298694630204
 20
-2582.369309480974
 30
0.0
 11
5135.175088363318
 21
-2584.535167507721
 31
0.0
  0
ARC
  5
929C
330
1E
100
AcDbEntity
  8
002
100
AcDbCircle
 10
5117.877243340249
 20
-2531.101022891998
 30
0.0
 40
2.5
100
AcDbArc
 50
308.1896849999879
 51
31.81031499999473
  0
LINE
  5
929D
330
1E
100
AcDbEntity
  8
002
100
AcDbLine
 10
5117.055110066537
 20
-2525.032737049915
 30
0.0
 11
5120.001737772813
 21
-2529.783251571299
 31
0.0
  0
ARC
  5
929E
330
1E
100
AcDbEntity
  8
002
100
AcDbCircle
 10
5119.179604672751
 20
-2523.714964744407
 30
0.0
 40
2.5
100
AcDbArc
 50
128.1896849999879
 51
211.8103149999947
  0
ARC
  5
929F
330
1E
100
AcDbEntity
  8
002
100
AcDbCircle
 10
5108.760714012736
 20
-2582.80342992514
 30
0.0
 40
2.5
100
AcDbArc
 50
128.1896849999879
 51
211.8103149999947
  0
LINE
  5
92A0
330
1E
100
AcDbEntity
  8
003
 62
     3
100
AcDbLine
 10
5081.302420813723
 20
-2580.431732285319
 30
0.0
 11
5081.046784602641
 21
-2583.223397185794
 31
0.0
  0
LINE
  5
92A1
330
1E
100
AcDbEntity
  8
002
100
AcDbLine
 10
5106.636219406521
 20
-2584.121202230647
 30
0.0
 11
5109.582847112798
 21
-2588.871716752032
 31
0.0
  0
LINE
  5
92A2
330
1E
100
AcDbEntity
  8
003
 62
     3
100
AcDbLine
 10
5081.046784602641
 20
-2583.223397185794
 30
0.0
 11
5079.786611461378
 21
-2585.202791869186
 31
0.0
  0
ARC
  5
92A3
330
1E
100
AcDbEntity
  8
002
100
AcDbCircle
 10
5115.272520675245
 20
-2545.873139187182
 30
0.0
 40
2.5
100
AcDbArc
 50
308.1896849999879
 51
31.81031499999473
  0
ARC
  5
92A4
330
1E
100
AcDbEntity
  8
002
100
AcDbCircle
 10
5116.574882007746
 20
-2538.48708103959
 30
0.0
 40
2.5
100
AcDbArc
 50
128.1896849999879
 51
211.8103149999947
  0
ARC
  5
92A5
330
1E
100
AcDbEntity
  8
002
100
AcDbCircle
 10
5113.970159342744
 20
-2553.259197334774
 30
0.0
 40
2.5
100
AcDbArc
 50
128.1896849999879
 51
211.8103149999947
  0
LINE
  5
92A6
330
1E
100
AcDbEntity
  8
003
 62
     3
100
AcDbLine
 10
5085.24925030068
 20
-2555.927085385237
 30
0.0
 11
5085.645870391113
 21
-2558.278036978426
 31
0.0
  0
LINE
  5
92A7
330
1E
100
AcDbEntity
  8
002
100
AcDbLine
 10
5114.213465241798
 20
-2562.610176343437
 30
0.0
 11
5109.819769272533
 21
-2566.066393753692
 31
0.0
  0
LINE
  5
92A8
330
1E
100
AcDbEntity
  8
002
100
AcDbLine
 10
5109.240942071526
 20
-2569.349085935463
 30
0.0
 11
5112.187569777802
 21
-2574.099600456848
 31
0.0
  0
LINE
  5
92A9
330
1E
100
AcDbEntity
  8
002
100
AcDbLine
 10
5111.608742576795
 20
-2577.38229263862
 30
0.0
 11
5107.215046607529
 21
-2580.838510048874
 31
0.0
  0
ARC
  5
92AA
330
1E
100
AcDbEntity
  8
002
100
AcDbCircle
 10
5111.365436677739
 20
-2568.031313629957
 30
0.0
 40
2.5
100
AcDbArc
 50
128.1896849999879
 51
211.8103149999947
  0
ARC
  5
92AB
330
1E
100
AcDbEntity
  8
002
100
AcDbCircle
 10
5110.063075345237
 20
-2575.417371777549
 30
0.0
 40
2.5
100
AcDbArc
 50
308.1896849999879
 51
31.81031499999473
  0
ARC
  5
92AC
330
1E
100
AcDbEntity
  8
002
100
AcDbCircle
 10
5112.667798010241
 20
-2560.645255482365
 30
0.0
 40
2.5
100
AcDbArc
 50
308.1896849999879
 51
31.81031499999473
  0
LINE
  5
92AD
330
1E
100
AcDbEntity
  8
003
 62
     3
100
AcDbLine
 10
5080.54766975129
 20
-2577.36826620541
 30
0.0
 11
5081.302420813723
 21
-2580.431732285319
 31
0.0
  0
LINE
  5
92AE
330
1E
100
AcDbEntity
  8
003
 62
     3
100
AcDbLine
 10
5081.64539924182
 20
-2564.135760435082
 30
0.0
 11
5079.953932413923
 21
-2566.071350261544
 31
0.0
  0
LINE
  5
92AF
330
1E
100
AcDbEntity
  8
003
 62
     3
100
AcDbLine
 10
5083.455384172754
 20
-2562.250769776285
 30
0.0
 11
5081.64539924182
 21
-2564.135760435082
 31
0.0
  0
LINE
  5
92B0
330
1E
100
AcDbEntity
  8
003
 62
     3
100
AcDbLine
 10
5084.93762731299
 20
-2560.32774046011
 30
0.0
 11
5083.455384172754
 21
-2562.250769776285
 31
0.0
  0
LINE
  5
92B1
330
1E
100
AcDbEntity
  8
003
 62
     3
100
AcDbLine
 10
5085.645870391113
 20
-2558.278036978426
 30
0.0
 11
5084.93762731299
 21
-2560.32774046011
 31
0.0
  0
LINE
  5
92B2
330
1E
100
AcDbEntity
  8
002
100
AcDbLine
 10
5111.84566473653
 20
-2554.57696964028
 30
0.0
 11
5114.792292442806
 21
-2559.327484161665
 31
0.0
  0
LINE
  5
92B3
330
1E
100
AcDbEntity
  8
002
100
AcDbLine
 10
5114.450387401533
 20
-2539.804853345097
 30
0.0
 11
5117.397015107809
 21
-2544.555367866482
 31
0.0
  0
LINE
  5
92B4
330
1E
100
AcDbEntity
  8
002
100
AcDbLine
 10
5116.818187906802
 20
-2547.838060048254
 30
0.0
 11
5112.424491937537
 21
-2551.294277458508
 31
0.0
  0
LINE
  5
92B5
330
1E
100
AcDbEntity
  8
002
100
AcDbLine
 10
5119.422910571807
 20
-2533.06594375307
 30
0.0
 11
5115.029214602541
 21
-2536.522161163324
 31
0.0
  0
ARC
  5
92B6
330
1E
100
AcDbEntity
  8
002
100
AcDbCircle
 10
5125.691411335261
 20
-2486.784674006449
 30
0.0
 40
2.5
100
AcDbArc
 50
308.1896849999879
 51
31.81031499999473
  0
LINE
  5
92B7
330
1E
100
AcDbEntity
  8
002
100
AcDbLine
 10
5122.264555396546
 20
-2495.488504459549
 30
0.0
 11
5125.211183102821
 21
-2500.239018980933
 31
0.0
  0
ARC
  5
92B8
330
1E
100
AcDbEntity
  8
002
100
AcDbCircle
 10
5124.389050002759
 20
-2494.17073215404
 30
0.0
 40
2.5
100
AcDbArc
 50
128.1896849999879
 51
211.8103149999947
  0
ARC
  5
92B9
330
1E
100
AcDbEntity
  8
002
100
AcDbCircle
 10
5120.481966005254
 20
-2516.328906596815
 30
0.0
 40
2.5
100
AcDbArc
 50
308.1896849999879
 51
31.81031499999473
  0
LINE
  5
92BA
330
1E
100
AcDbEntity
  8
002
100
AcDbLine
 10
5124.632355901813
 20
-2503.521711162704
 30
0.0
 11
5120.238659932549
 21
-2506.977928572958
 31
0.0
  0
ARC
  5
92BB
330
1E
100
AcDbEntity
  8
002
100
AcDbCircle
 10
5123.086688670258
 20
-2501.556790301632
 30
0.0
 40
2.5
100
AcDbArc
 50
308.1896849999879
 51
31.81031499999473
  0
LINE
  5
92BC
330
1E
100
AcDbEntity
  8
002
100
AcDbLine
 10
5127.237078566817
 20
-2488.749594867522
 30
0.0
 11
5122.843382597553
 21
-2492.205812277776
 31
0.0
  0
LINE
  5
92BD
330
1E
100
AcDbEntity
  8
003
 62
     3
100
AcDbLine
 10
5206.674475212651
 20
-2593.639839895101
 30
0.0
 11
5207.468155264951
 21
-2596.767173209967
 31
0.0
  0
LINE
  5
92BE
330
1E
100
AcDbEntity
  8
003
 62
     3
100
AcDbLine
 10
5201.637802841648
 20
-2632.627257392406
 30
0.0
 11
5199.549827197195
 21
-2634.360552879882
 31
0.0
  0
LINE
  5
92BF
330
1E
100
AcDbEntity
  8
003
 62
     3
100
AcDbLine
 10
5199.549827197195
 20
-2634.360552879882
 30
0.0
 11
5197.75003872082
 21
-2636.149086738906
 31
0.0
  0
LINE
  5
92C0
330
1E
100
AcDbEntity
  8
003
 62
     3
100
AcDbLine
 10
5196.742940423028
 20
-2638.104403611633
 30
0.0
 11
5196.939913018675
 21
-2640.542666231866
 31
0.0
  0
LINE
  5
92C1
330
1E
100
AcDbEntity
  8
003
 62
     3
100
AcDbLine
 10
5197.75003872082
 20
-2636.149086738906
 30
0.0
 11
5196.742940423028
 21
-2638.104403611633
 31
0.0
  0
LINE
  5
92C2
330
1E
100
AcDbEntity
  8
003
 62
     3
100
AcDbLine
 10
5196.939913018675
 20
-2640.542666231866
 30
0.0
 11
5198.087724359459
 21
-2643.178705945903
 31
0.0
  0
LINE
  5
92C3
330
1E
100
AcDbEntity
  8
003
 62
     3
100
AcDbLine
 10
5198.087724359459
 20
-2643.178705945903
 30
0.0
 11
5199.555613712508
 21
-2645.870949485888
 31
0.0
  0
LINE
  5
92C4
330
1E
100
AcDbEntity
  8
003
 62
     3
100
AcDbLine
 10
5200.712825095337
 20
-2648.477825437007
 30
0.0
 11
5200.928598586233
 21
-2650.857761689858
 31
0.0
  0
LINE
  5
92C5
330
1E
100
AcDbEntity
  8
003
 62
     3
100
AcDbLine
 10
5199.98493336744
 20
-2652.684851544631
 30
0.0
 11
5198.26229479327
 21
-2654.339368322989
 31
0.0
  0
LINE
  5
92C6
330
1E
100
AcDbEntity
  8
003
 62
     3
100
AcDbLine
 10
5200.928598586233
 20
-2650.857761689858
 30
0.0
 11
5199.98493336744
 21
-2652.684851544631
 31
0.0
  0
LINE
  5
92C7
330
1E
100
AcDbEntity
  8
003
 62
     3
100
AcDbLine
 10
5193.555399631235
 20
-2667.46255728359
 30
0.0
 11
5195.487579141676
 21
-2671.915737548976
 31
0.0
  0
LINE
  5
92C8
330
1E
100
AcDbEntity
  8
003
 62
     3
100
AcDbLine
 10
5194.223272162504
 20
-2657.579320558187
 30
0.0
 11
5192.778474644889
 21
-2659.389076359273
 31
0.0
  0
LINE
  5
92C9
330
1E
100
AcDbEntity
  8
003
 62
     3
100
AcDbLine
 10
5192.256144259066
 20
-2663.170152685056
 30
0.0
 11
5193.555399631235
 21
-2667.46255728359
 31
0.0
  0
LINE
  5
92CA
330
1E
100
AcDbEntity
  8
003
 62
     3
100
AcDbLine
 10
5192.778474644889
 20
-2659.389076359273
 30
0.0
 11
5192.256144259066
 21
-2663.170152685056
 31
0.0
  0
LINE
  5
92CB
330
1E
100
AcDbEntity
  8
003
 62
     3
100
AcDbLine
 10
5196.196476220034
 20
-2655.933471704654
 30
0.0
 11
5194.223272162504
 21
-2657.579320558187
 31
0.0
  0
LINE
  5
92CC
330
1E
100
AcDbEntity
  8
003
 62
     3
100
AcDbLine
 10
5198.26229479327
 20
-2654.339368322989
 30
0.0
 11
5196.196476220034
 21
-2655.933471704654
 31
0.0
  0
LINE
  5
92CD
330
1E
100
AcDbEntity
  8
003
 62
     3
100
AcDbLine
 10
5194.967134935599
 20
-2681.847413840233
 30
0.0
 11
5192.761600290343
 21
-2683.578221627698
 31
0.0
  0
LINE
  5
92CE
330
1E
100
AcDbEntity
  8
003
 62
     3
100
AcDbLine
 10
5186.821133308194
 20
-2691.748880022139
 30
0.0
 11
5187.991966618898
 21
-2694.998342732975
 31
0.0
  0
LINE
  5
92CF
330
1E
100
AcDbEntity
  8
003
 62
     3
100
AcDbLine
 10
5186.924098452362
 20
-2688.865205232145
 30
0.0
 11
5186.821133308194
 21
-2691.748880022139
 31
0.0
  0
LINE
  5
92D0
330
1E
100
AcDbEntity
  8
003
 62
     3
100
AcDbLine
 10
5188.256201400866
 20
-2686.949024388974
 30
0.0
 11
5186.924098452362
 21
-2688.865205232145
 31
0.0
  0
LINE
  5
92D1
330
1E
100
AcDbEntity
  8
003
 62
     3
100
AcDbLine
 10
5190.363328181724
 20
-2685.232727711556
 30
0.0
 11
5188.256201400866
 21
-2686.949024388974
 31
0.0
  0
LINE
  5
92D2
330
1E
100
AcDbEntity
  8
003
 62
     3
100
AcDbLine
 10
5192.761600290343
 20
-2683.578221627698
 30
0.0
 11
5190.363328181724
 21
-2685.232727711556
 31
0.0
  0
LINE
  5
92D3
330
1E
100
AcDbEntity
  8
003
 62
     3
100
AcDbLine
 10
5196.864018216245
 20
-2676.179140354372
 30
0.0
 11
5196.496051295985
 21
-2679.902212399287
 31
0.0
  0
LINE
  5
92D4
330
1E
100
AcDbEntity
  8
003
 62
     3
100
AcDbLine
 10
5196.496051295985
 20
-2679.902212399287
 30
0.0
 11
5194.967134935599
 21
-2681.847413840233
 31
0.0
  0
LINE
  5
92D5
330
1E
100
AcDbEntity
  8
003
 62
     3
100
AcDbLine
 10
5195.487579141676
 20
-2671.915737548976
 30
0.0
 11
5196.864018216245
 21
-2676.179140354372
 31
0.0
  0
LINE
  5
92D6
330
1E
100
AcDbEntity
  8
003
 62
     3
100
AcDbLine
 10
5199.555613712508
 20
-2645.870949485888
 30
0.0
 11
5200.712825095337
 21
-2648.477825437007
 31
0.0
  0
LINE
  5
92D7
330
1E
100
AcDbEntity
  8
003
 62
     3
100
AcDbLine
 10
5207.468155264951
 20
-2596.767173209967
 30
0.0
 11
5208.572677642877
 21
-2599.942529302111
 31
0.0
  0
LINE
  5
92D8
330
1E
100
AcDbEntity
  8
003
 62
     3
100
AcDbLine
 10
5209.071792494228
 20
-2605.797660282495
 30
0.0
 11
5207.811619352965
 21
-2607.777054965886
 31
0.0
  0
LINE
  5
92D9
330
1E
100
AcDbEntity
  8
003
 62
     3
100
AcDbLine
 10
5209.32742870531
 20
-2603.005995382019
 30
0.0
 11
5209.071792494228
 21
-2605.797660282495
 31
0.0
  0
LINE
  5
92DA
330
1E
100
AcDbEntity
  8
003
 62
     3
100
AcDbLine
 10
5208.572677642877
 20
-2599.942529302111
 30
0.0
 11
5209.32742870531
 21
-2603.005995382019
 31
0.0
  0
LINE
  5
92DB
330
1E
100
AcDbEntity
  8
003
 62
     3
100
AcDbLine
 10
5203.861495504406
 20
-2611.344305712434
 30
0.0
 11
5202.090669907152
 21
-2613.158547483588
 31
0.0
  0
LINE
  5
92DC
330
1E
100
AcDbEntity
  8
003
 62
     3
100
AcDbLine
 10
5205.921666547989
 20
-2609.588206567895
 30
0.0
 11
5203.861495504406
 21
-2611.344305712434
 31
0.0
  0
LINE
  5
92DD
330
1E
100
AcDbEntity
  8
003
 62
     3
100
AcDbLine
 10
5207.811619352965
 20
-2607.777054965886
 30
0.0
 11
5205.921666547989
 21
-2609.588206567895
 31
0.0
  0
LINE
  5
92DE
330
1E
100
AcDbEntity
  8
003
 62
     3
100
AcDbLine
 10
5203.645584465323
 20
-2623.465238356409
 30
0.0
 11
5204.660651106887
 21
-2626.287292167437
 31
0.0
  0
LINE
  5
92DF
330
1E
100
AcDbEntity
  8
003
 62
     3
100
AcDbLine
 10
5204.660651106887
 20
-2626.287292167437
 30
0.0
 11
5204.660292065304
 21
-2628.880204992578
 31
0.0
  0
LINE
  5
92E0
330
1E
100
AcDbEntity
  8
003
 62
     3
100
AcDbLine
 10
5203.509458530799
 20
-2630.837655924538
 30
0.0
 11
5201.637802841648
 21
-2632.627257392406
 31
0.0
  0
LINE
  5
92E1
330
1E
100
AcDbEntity
  8
003
 62
     3
100
AcDbLine
 10
5204.660292065304
 20
-2628.880204992578
 30
0.0
 11
5203.509458530799
 21
-2630.837655924538
 31
0.0
  0
LINE
  5
92E2
330
1E
100
AcDbEntity
  8
003
 62
     3
100
AcDbLine
 10
5202.271185158698
 20
-2620.566031961811
 30
0.0
 11
5203.645584465323
 21
-2623.465238356409
 31
0.0
  0
LINE
  5
92E3
330
1E
100
AcDbEntity
  8
003
 62
     3
100
AcDbLine
 10
5201.193542556088
 20
-2617.74166480425
 30
0.0
 11
5202.271185158698
 21
-2620.566031961811
 31
0.0
  0
LINE
  5
92E4
330
1E
100
AcDbEntity
  8
003
 62
     3
100
AcDbLine
 10
5201.068749501931
 20
-2615.144126270851
 30
0.0
 11
5201.193542556088
 21
-2617.74166480425
 31
0.0
  0
LINE
  5
92E5
330
1E
100
AcDbEntity
  8
003
 62
     3
100
AcDbLine
 10
5202.090669907152
 20
-2613.158547483588
 30
0.0
 11
5201.068749501931
 21
-2615.144126270851
 31
0.0
  0
ARC
  5
92E6
330
1E
100
AcDbEntity
  8
002
100
AcDbCircle
 10
5198.703560950825
 20
-2484.427286724908
 30
0.0
 40
2.5
100
AcDbArc
 50
308.1896849999879
 51
31.81031499999473
  0
LINE
  5
92E7
330
1E
100
AcDbEntity
  8
002
100
AcDbLine
 10
5203.853411509015
 20
-2495.658848550917
 30
0.0
 11
5195.983895478545
 21
-2494.271240549626
 31
0.0
  0
ARC
  5
92E8
330
1E
100
AcDbEntity
  8
002
100
AcDbCircle
 10
5197.23267671112
 20
-2484.16793014795
 30
0.0
 40
2.5
100
AcDbArc
 50
308.1896849999879
 51
31.81031499999473
  0
LINE
  5
92E9
330
1E
100
AcDbEntity
  8
002
100
AcDbLine
 10
5200.249228182382
 20
-2486.392207585983
 30
0.0
 11
5195.855532213117
 21
-2489.848424996237
 31
0.0
  0
LINE
  5
92EA
330
1E
100
AcDbEntity
  8
002
100
AcDbLine
 10
5198.778343942677
 20
-2486.132851009025
 30
0.0
 11
5194.384647973411
 21
-2489.589068419278
 31
0.0
  0
LINE
  5
92EB
330
1E
100
AcDbEntity
  8
002
100
AcDbLine
 10
5195.27670501211
 20
-2493.131117178008
 30
0.0
 11
5195.983895478545
 21
-2494.271240549626
 31
0.0
  0
LINE
  5
92EC
330
1E
100
AcDbEntity
  8
002
100
AcDbLine
 10
5193.805820772404
 20
-2492.871760601049
 30
0.0
 11
5196.75244847868
 21
-2497.622275122434
 31
0.0
  0
ARC
  5
92ED
330
1E
100
AcDbEntity
  8
002
100
AcDbCircle
 10
5194.627954046115
 20
-2498.940046443134
 30
0.0
 40
2.5
100
AcDbArc
 50
308.1896849999879
 51
31.81031499999473
  0
LINE
  5
92EE
330
1E
100
AcDbEntity
  8
002
100
AcDbLine
 10
5191.201098107399
 20
-2507.643876896233
 30
0.0
 11
5194.147725813675
 21
-2512.394391417618
 31
0.0
  0
ARC
  5
92EF
330
1E
100
AcDbEntity
  8
002
100
AcDbCircle
 10
5192.023231381111
 20
-2513.712162738317
 30
0.0
 40
2.5
100
AcDbArc
 50
308.1896849999879
 51
31.81031499999473
  0
ARC
  5
92F0
330
1E
100
AcDbEntity
  8
002
100
AcDbCircle
 10
5190.72087004861
 20
-2521.098220885908
 30
0.0
 40
2.5
100
AcDbArc
 50
128.1896849999879
 51
211.8103149999947
  0
LINE
  5
92F1
330
1E
100
AcDbEntity
  8
002
100
AcDbLine
 10
5193.568898612669
 20
-2515.67708359939
 30
0.0
 11
5189.175202643403
 21
-2519.133301009644
 31
0.0
  0
LINE
  5
92F2
330
1E
100
AcDbEntity
  8
002
100
AcDbLine
 10
5188.596375442397
 20
-2522.415993191417
 30
0.0
 11
5191.543003148672
 21
-2527.166507712802
 31
0.0
  0
ARC
  5
92F3
330
1E
100
AcDbEntity
  8
002
100
AcDbCircle
 10
5193.325592713613
 20
-2506.326104590725
 30
0.0
 40
2.5
100
AcDbArc
 50
128.1896849999879
 51
211.8103149999947
  0
ARC
  5
92F4
330
1E
100
AcDbEntity
  8
002
100
AcDbCircle
 10
5189.418508716108
 20
-2528.4842790335
 30
0.0
 40
2.5
100
AcDbArc
 50
308.1896849999879
 51
31.81031499999473
  0
LINE
  5
92F5
330
1E
100
AcDbEntity
  8
002
100
AcDbLine
 10
5196.173621277673
 20
-2500.904967304206
 30
0.0
 11
5191.779925308408
 21
-2504.36118471446
 31
0.0
  0
ARC
  5
92F6
330
1E
100
AcDbEntity
  8
002
100
AcDbCircle
 10
5197.401199618322
 20
-2491.8133448725
 30
0.0
 40
2.5
100
AcDbArc
 50
128.1896849999879
 51
211.8103149999947
  0
ARC
  5
92F7
330
1E
100
AcDbEntity
  8
002
100
AcDbCircle
 10
5195.930315378618
 20
-2491.553988295542
 30
0.0
 40
2.5
100
AcDbArc
 50
128.1896849999879
 51
211.8103149999947
  0
ARC
  5
92F8
330
1E
100
AcDbEntity
  8
002
100
AcDbCircle
 10
5186.813786051104
 20
-2543.256395328683
 30
0.0
 40
2.5
100
AcDbArc
 50
308.1896849999879
 51
31.81031499999473
  0
ARC
  5
92F9
330
1E
100
AcDbEntity
  8
002
100
AcDbCircle
 10
5185.511424718602
 20
-2550.642453476276
 30
0.0
 40
2.5
100
AcDbArc
 50
128.1896849999879
 51
211.8103149999947
  0
LINE
  5
92FA
330
1E
100
AcDbEntity
  8
002
100
AcDbLine
 10
5183.386930112387
 20
-2551.960225781783
 30
0.0
 11
5186.333557818664
 21
-2556.710740303168
 31
0.0
  0
ARC
  5
92FB
330
1E
100
AcDbEntity
  8
002
100
AcDbCircle
 10
5188.116147383606
 20
-2535.870337181092
 30
0.0
 40
2.5
100
AcDbArc
 50
128.1896849999879
 51
211.8103149999947
  0
LINE
  5
92FC
330
1E
100
AcDbEntity
  8
002
100
AcDbLine
 10
5185.991652777392
 20
-2537.188109486599
 30
0.0
 11
5188.938280483668
 21
-2541.938624007984
 31
0.0
  0
LINE
  5
92FD
330
1E
100
AcDbEntity
  8
002
100
AcDbLine
 10
5188.359453282661
 20
-2545.221316189756
 30
0.0
 11
5183.965757313395
 21
-2548.67753360001
 31
0.0
  0
LINE
  5
92FE
330
1E
100
AcDbEntity
  8
002
100
AcDbLine
 10
5180.782207447385
 20
-2566.732342076964
 30
0.0
 11
5183.219116329722
 21
-2570.661094599104
 31
0.0
  0
ARC
  5
92FF
330
1E
100
AcDbEntity
  8
002
100
AcDbCircle
 10
5182.906702053598
 20
-2565.414569771458
 30
0.0
 40
2.5
100
AcDbArc
 50
128.1896849999879
 51
211.8103149999947
  0
LINE
  5
9300
330
1E
100
AcDbEntity
  8
002
100
AcDbLine
 10
5185.754730617658
 20
-2559.99343248494
 30
0.0
 11
5181.361034648392
 21
-2563.449649895194
 31
0.0
  0
ARC
  5
9301
330
1E
100
AcDbEntity
  8
002
100
AcDbCircle
 10
5184.209063386099
 20
-2558.028511623867
 30
0.0
 40
2.5
100
AcDbArc
 50
308.1896849999879
 51
31.81031499999473
  0
LINE
  5
9302
330
1E
100
AcDbEntity
  8
002
100
AcDbLine
 10
5190.964175947664
 20
-2530.449199894572
 30
0.0
 11
5186.570479978399
 21
-2533.905417304826
 31
0.0
  0
LINE
  5
9303
330
1E
100
AcDbEntity
  8
003
 62
     3
100
AcDbLine
 10
5213.6708782827
 20
-2580.852300075127
 30
0.0
 11
5212.962635204577
 21
-2582.902003556811
 31
0.0
  0
LINE
  5
9304
330
1E
100
AcDbEntity
  8
003
 62
     3
100
AcDbLine
 10
5211.480392064341
 20
-2584.825032872986
 30
0.0
 11
5209.670407133407
 21
-2586.710023531783
 31
0.0
  0
LINE
  5
9305
330
1E
100
AcDbEntity
  8
003
 62
     3
100
AcDbLine
 10
5206.852253444002
 20
-2590.720440524713
 30
0.0
 11
5206.674475212651
 21
-2593.639839895101
 31
0.0
  0
LINE
  5
9306
330
1E
100
AcDbEntity
  8
003
 62
     3
100
AcDbLine
 10
5207.97894030551
 20
-2588.645613358245
 30
0.0
 11
5206.852253444002
 21
-2590.720440524713
 31
0.0
  0
LINE
  5
9307
330
1E
100
AcDbEntity
  8
003
 62
     3
100
AcDbLine
 10
5209.670407133407
 20
-2586.710023531783
 30
0.0
 11
5207.97894030551
 21
-2588.645613358245
 31
0.0
  0
LINE
  5
9308
330
1E
100
AcDbEntity
  8
003
 62
     3
100
AcDbLine
 10
5212.962635204577
 20
-2582.902003556811
 30
0.0
 11
5211.480392064341
 21
-2584.825032872986
 31
0.0
  0
LINE
  5
9309
330
1E
100
AcDbEntity
  8
003
 62
     3
100
AcDbLine
 10
5213.964014445006
 20
-2556.126826594582
 30
0.0
 11
5215.135028548964
 21
-2558.605972862173
 31
0.0
  0
LINE
  5
930A
330
1E
100
AcDbEntity
  8
003
 62
     3
100
AcDbLine
 10
5213.274258192267
 20
-2578.501348481937
 30
0.0
 11
5213.6708782827
 21
-2580.852300075127
 31
0.0
  0
LINE
  5
930B
330
1E
100
AcDbEntity
  8
003
 62
     3
100
AcDbLine
 10
5215.531648639395
 20
-2560.956924455362
 30
0.0
 11
5214.823405561273
 21
-2563.006627937047
 31
0.0
  0
LINE
  5
930C
330
1E
100
AcDbEntity
  8
003
 62
     3
100
AcDbLine
 10
5214.823405561273
 20
-2563.006627937047
 30
0.0
 11
5213.341162421038
 21
-2564.929657253222
 31
0.0
  0
LINE
  5
930D
330
1E
100
AcDbEntity
  8
003
 62
     3
100
AcDbLine
 10
5215.135028548964
 20
-2558.605972862173
 30
0.0
 11
5215.531648639395
 21
-2560.956924455362
 31
0.0
  0
LINE
  5
930E
330
1E
100
AcDbEntity
  8
003
 62
     3
100
AcDbLine
 10
5211.10566356792
 20
-2566.764535414349
 30
0.0
 11
5209.661542745361
 21
-2568.908936739757
 31
0.0
  0
LINE
  5
930F
330
1E
100
AcDbEntity
  8
003
 62
     3
100
AcDbLine
 10
5209.661542745361
 20
-2568.908936739757
 30
0.0
 11
5209.725113878818
 21
-2571.116663075001
 31
0.0
  0
LINE
  5
9310
330
1E
100
AcDbEntity
  8
003
 62
     3
100
AcDbLine
 10
5210.729604662745
 20
-2573.524195902459
 30
0.0
 11
5212.103244088309
 21
-2576.022202214346
 31
0.0
  0
LINE
  5
9311
330
1E
100
AcDbEntity
  8
003
 62
     3
100
AcDbLine
 10
5209.725113878818
 20
-2571.116663075001
 30
0.0
 11
5210.729604662745
 21
-2573.524195902459
 31
0.0
  0
LINE
  5
9312
330
1E
100
AcDbEntity
  8
003
 62
     3
100
AcDbLine
 10
5212.103244088309
 20
-2576.022202214346
 30
0.0
 11
5213.274258192267
 21
-2578.501348481937
 31
0.0
  0
LINE
  5
9313
330
1E
100
AcDbEntity
  8
003
 62
     3
100
AcDbLine
 10
5213.341162421038
 20
-2564.929657253222
 30
0.0
 11
5211.10566356792
 21
-2566.764535414349
 31
0.0
  0
LINE
  5
9314
330
1E
100
AcDbEntity
  8
002
100
AcDbLine
 10
5155.805614790228
 20
-2359.242972528194
 30
0.0
 11
5164.488023673574
 21
-2310.002584877584
 31
0.0
  0
LINE
  5
9315
330
1E
100
AcDbEntity
  8
002
100
AcDbLine
 10
5160.000872277667
 20
-2365.059842673678
 30
0.0
 11
5176.168242478748
 21
-2320.640358268611
 31
0.0
  0
LINE
  5
9316
330
1E
100
AcDbEntity
  8
002
100
AcDbLine
 10
5199.791662204832
 20
-2372.07603252154
 30
0.0
 11
5148.991212037823
 21
-2369.041864089151
 31
0.0
  0
LINE
  5
9317
330
1E
100
AcDbEntity
  8
002
100
AcDbLine
 10
5206.491909321107
 20
-2417.25928637546
 30
0.0
 11
5141.177044042811
 21
-2413.358212974701
 31
0.0
  0
LINE
  5
9318
330
1E
100
AcDbEntity
  8
002
100
AcDbLine
 10
5203.887186656103
 20
-2432.031402670642
 30
0.0
 11
5138.572321377807
 21
-2428.130329269884
 31
0.0
  0
LINE
  5
9319
330
1E
100
AcDbEntity
  8
002
100
AcDbLine
 10
5144.671159802342
 20
-2362.356800757774
 30
0.0
 11
5216.114486332141
 21
-2374.954186816543
 31
0.0
  0
LINE
  5
931A
330
1E
100
AcDbEntity
  8
002
100
AcDbLine
 10
5142.76481194026
 20
-2375.559681348408
 30
0.0
 11
5217.927754748679
 21
-2381.197236525837
 31
0.0
  0
LINE
  5
931B
330
1E
100
AcDbEntity
  8
002
100
AcDbLine
 10
5211.701354651115
 20
-2387.715053785092
 30
0.0
 11
5146.38648937282
 21
-2383.813980384335
 31
0.0
  0
LINE
  5
931C
330
1E
100
AcDbEntity
  8
002
100
AcDbLine
 10
5209.096631986111
 20
-2402.487170080276
 30
0.0
 11
5143.781766707815
 21
-2398.586096679517
 31
0.0
  0
LINE
  5
931D
330
1E
100
AcDbEntity
  8
002
100
AcDbLine
 10
5137.555366610253
 20
-2405.103913938774
 30
0.0
 11
5212.71830941867
 21
-2410.741469116203
 31
0.0
  0
LINE
  5
931E
330
1E
100
AcDbEntity
  8
002
100
AcDbLine
 10
5140.160089275257
 20
-2390.331797643592
 30
0.0
 11
5215.323032083674
 21
-2395.969352821019
 31
0.0
  0
LINE
  5
931F
330
1E
100
AcDbEntity
  8
002
100
AcDbLine
 10
5132.345921280244
 20
-2434.64814652914
 30
0.0
 11
5207.508864088662
 21
-2440.285701706569
 31
0.0
  0
LINE
  5
9320
330
1E
100
AcDbEntity
  8
002
100
AcDbLine
 10
5134.950643945249
 20
-2419.876030233958
 30
0.0
 11
5210.113586753666
 21
-2425.513585411385
 31
0.0
  0
LINE
  5
9321
330
1E
100
AcDbEntity
  8
002
100
AcDbLine
 10
5198.677741326095
 20
-2461.575635261008
 30
0.0
 11
5133.3628760478
 21
-2457.67456186025
 31
0.0
  0
LINE
  5
9322
330
1E
100
AcDbEntity
  8
002
100
AcDbLine
 10
5196.073018661091
 20
-2476.347751556192
 30
0.0
 11
5130.758153382795
 21
-2472.446678155433
 31
0.0
  0
LINE
  5
9323
330
1E
100
AcDbEntity
  8
002
100
AcDbLine
 10
5127.136475950237
 20
-2464.192379119506
 30
0.0
 11
5202.299418758655
 21
-2469.829934296935
 31
0.0
  0
LINE
  5
9324
330
1E
100
AcDbEntity
  8
002
100
AcDbLine
 10
5129.74119861524
 20
-2449.420262824324
 30
0.0
 11
5204.904141423658
 21
-2455.057818001752
 31
0.0
  0
LINE
  5
9325
330
1E
100
AcDbEntity
  8
002
100
AcDbLine
 10
5201.282463991098
 20
-2446.803518965826
 30
0.0
 11
5135.967598712804
 21
-2442.902445565067
 31
0.0
  0
LINE
  5
9326
330
1E
100
AcDbEntity
  8
002
100
AcDbLine
 10
5161.524424960703
 20
-2309.480022464512
 30
0.0
 11
5159.89682966812
 21
-2310.072418332313
 31
0.0
  0
LINE
  5
9327
330
1E
100
AcDbEntity
  8
002
100
AcDbLine
 10
5161.524424960703
 20
-2309.480022464512
 30
0.0
 11
5158.051461407365
 21
-2329.176177524756
 31
0.0
  0
LINE
  5
9328
330
1E
100
AcDbEntity
  8
002
100
AcDbLine
 10
5160.056388785019
 20
-2309.221168078084
 30
0.0
 11
5161.383216751474
 21
-2310.334508478885
 31
0.0
  0
LINE
  5
9329
330
1E
100
AcDbEntity
  8
002
100
AcDbLine
 10
5149.715907378391
 20
-2307.397862212579
 30
0.0
 11
5164.488023673574
 21
-2310.002584877584
 31
0.0
  0
ARC
  5
932A
330
1E
100
AcDbEntity
  8
002
100
AcDbCircle
 10
5145.493293076054
 20
-2368.425086599859
 30
0.0
 40
2.5
100
AcDbArc
 50
308.1896849999879
 51
31.81031499999473
  0
ARC
  5
932B
330
1E
100
AcDbEntity
  8
002
100
AcDbCircle
 10
5146.529192655293
 20
-2368.607743644983
 30
0.0
 40
2.5
100
AcDbArc
 50
308.1896849999879
 51
31.81031499999473
  0
LINE
  5
932C
330
1E
100
AcDbEntity
  8
003
100
AcDbLine
 10
5123.444132043811
 20
-2347.444210312955
 30
0.0
 11
5119.623872135139
 21
-2369.109980879224
 31
0.0
  0
LINE
  5
932D
330
1E
100
AcDbEntity
  8
002
100
AcDbLine
 10
5118.144552807375
 20
-2480.546064276087
 30
0.0
 11
5144.756556741699
 21
-2326.831927126252
 31
0.0
  0
LINE
  5
932E
330
1E
100
AcDbEntity
  8
002
100
AcDbLine
 10
5124.540568948749
 20
-2481.673854490859
 30
0.0
 11
5118.144552807375
 21
-2480.546064276087
 31
0.0
  0
LINE
  5
932F
330
1E
100
AcDbEntity
  8
002
100
AcDbLine
 10
5142.066437137339
 20
-2377.128917052958
 30
0.0
 11
5145.013064843614
 21
-2381.879431574343
 31
0.0
  0
LINE
  5
9330
330
1E
100
AcDbEntity
  8
002
100
AcDbLine
 10
5143.102336716577
 20
-2377.311574098083
 30
0.0
 11
5146.048964422853
 21
-2382.062088619468
 31
0.0
  0
ARC
  5
9331
330
1E
100
AcDbEntity
  8
002
100
AcDbCircle
 10
5144.190931743552
 20
-2375.811144747451
 30
0.0
 40
2.5
100
AcDbArc
 50
128.1896849999879
 51
211.8103149999947
  0
ARC
  5
9332
330
1E
100
AcDbEntity
  8
002
100
AcDbCircle
 10
5145.226831322792
 20
-2375.993801792575
 30
0.0
 40
2.5
100
AcDbArc
 50
128.1896849999879
 51
211.8103149999947
  0
ARC
  5
9333
330
1E
100
AcDbEntity
  8
002
100
AcDbCircle
 10
5142.88857041105
 20
-2383.197202895041
 30
0.0
 40
2.5
100
AcDbArc
 50
308.1896849999879
 51
31.81031499999473
  0
ARC
  5
9334
330
1E
100
AcDbEntity
  8
002
100
AcDbCircle
 10
5143.924469990289
 20
-2383.379859940166
 30
0.0
 40
2.5
100
AcDbArc
 50
308.1896849999879
 51
31.81031499999473
  0
LINE
  5
9335
330
1E
100
AcDbEntity
  8
002
100
AcDbLine
 10
5148.074859886849
 20
-2370.572664506057
 30
0.0
 11
5143.681163917584
 21
-2374.028881916311
 31
0.0
  0
LINE
  5
9336
330
1E
100
AcDbEntity
  8
002
100
AcDbLine
 10
5147.038960307612
 20
-2370.390007460932
 30
0.0
 11
5142.645264338346
 21
-2373.846224871186
 31
0.0
  0
ARC
  5
9337
330
1E
100
AcDbEntity
  8
002
100
AcDbCircle
 10
5141.586209078549
 20
-2390.583261042633
 30
0.0
 40
2.5
100
AcDbArc
 50
128.1896849999879
 51
211.8103149999947
  0
ARC
  5
9338
330
1E
100
AcDbEntity
  8
002
100
AcDbCircle
 10
5142.622108657787
 20
-2390.765918087758
 30
0.0
 40
2.5
100
AcDbArc
 50
128.1896849999879
 51
211.8103149999947
  0
LINE
  5
9339
330
1E
100
AcDbEntity
  8
002
100
AcDbLine
 10
5139.461714472336
 20
-2391.90103334814
 30
0.0
 11
5142.40834217861
 21
-2396.651547869526
 31
0.0
  0
LINE
  5
933A
330
1E
100
AcDbEntity
  8
002
100
AcDbLine
 10
5140.497614051573
 20
-2392.083690393265
 30
0.0
 11
5143.444241757849
 21
-2396.834204914651
 31
0.0
  0
LINE
  5
933B
330
1E
100
AcDbEntity
  8
002
100
AcDbLine
 10
5136.856991807331
 20
-2406.673149643324
 30
0.0
 11
5139.803619513607
 21
-2411.423664164709
 31
0.0
  0
LINE
  5
933C
330
1E
100
AcDbEntity
  8
002
100
AcDbLine
 10
5137.892891386569
 20
-2406.855806688449
 30
0.0
 11
5140.839519092845
 21
-2411.606321209834
 31
0.0
  0
ARC
  5
933D
330
1E
100
AcDbEntity
  8
002
100
AcDbCircle
 10
5137.679125081042
 20
-2412.741435485408
 30
0.0
 40
2.5
100
AcDbArc
 50
308.1896849999879
 51
31.81031499999473
  0
ARC
  5
933E
330
1E
100
AcDbEntity
  8
002
100
AcDbCircle
 10
5138.715024660281
 20
-2412.924092530533
 30
0.0
 40
2.5
100
AcDbArc
 50
308.1896849999879
 51
31.81031499999473
  0
ARC
  5
933F
330
1E
100
AcDbEntity
  8
002
100
AcDbCircle
 10
5140.283847746046
 20
-2397.969319190225
 30
0.0
 40
2.5
100
AcDbArc
 50
308.1896849999879
 51
31.81031499999473
  0
ARC
  5
9340
330
1E
100
AcDbEntity
  8
002
100
AcDbCircle
 10
5141.319747325285
 20
-2398.15197623535
 30
0.0
 40
2.5
100
AcDbArc
 50
308.1896849999879
 51
31.81031499999473
  0
ARC
  5
9341
330
1E
100
AcDbEntity
  8
002
100
AcDbCircle
 10
5140.017385992782
 20
-2405.538034382941
 30
0.0
 40
2.5
100
AcDbArc
 50
128.1896849999879
 51
211.8103149999947
  0
LINE
  5
9342
330
1E
100
AcDbEntity
  8
002
100
AcDbLine
 10
5141.829514977604
 20
-2399.934240051298
 30
0.0
 11
5137.435819008338
 21
-2403.390457461552
 31
0.0
  0
LINE
  5
9343
330
1E
100
AcDbEntity
  8
002
100
AcDbLine
 10
5142.865414556841
 20
-2400.116897096423
 30
0.0
 11
5138.471718587577
 21
-2403.573114506677
 31
0.0
  0
ARC
  5
9344
330
1E
100
AcDbEntity
  8
002
100
AcDbCircle
 10
5138.981486413545
 20
-2405.355377337816
 30
0.0
 40
2.5
100
AcDbArc
 50
128.1896849999879
 51
211.8103149999947
  0
LINE
  5
9345
330
1E
100
AcDbEntity
  8
002
100
AcDbLine
 10
5144.434237642608
 20
-2385.162123756116
 30
0.0
 11
5140.040541673342
 21
-2388.61834116637
 31
0.0
  0
LINE
  5
9346
330
1E
100
AcDbEntity
  8
002
100
AcDbLine
 10
5145.470137221845
 20
-2385.344780801241
 30
0.0
 11
5141.076441252581
 21
-2388.800998211495
 31
0.0
  0
LINE
  5
9347
330
1E
100
AcDbEntity
  8
002
100
AcDbLine
 10
5126.438101147315
 20
-2465.761614824057
 30
0.0
 11
5129.38472885359
 21
-2470.512129345442
 31
0.0
  0
LINE
  5
9348
330
1E
100
AcDbEntity
  8
002
100
AcDbLine
 10
5127.474000726554
 20
-2465.944271869181
 30
0.0
 11
5130.42062843283
 21
-2470.694786390566
 31
0.0
  0
ARC
  5
9349
330
1E
100
AcDbEntity
  8
002
100
AcDbCircle
 10
5125.957873088525
 20
-2479.215958813732
 30
0.0
 40
2.5
100
AcDbArc
 50
128.1896849999879
 51
211.8103149999947
  0
ARC
  5
934A
330
1E
100
AcDbEntity
  8
002
100
AcDbCircle
 10
5126.993772667763
 20
-2479.398615858857
 30
0.0
 40
2.5
100
AcDbArc
 50
128.1896849999879
 51
211.8103149999947
  0
LINE
  5
934B
330
1E
100
AcDbEntity
  8
002
100
AcDbLine
 10
5123.833378482311
 20
-2480.53373111924
 30
0.0
 11
5124.540568948749
 21
-2481.673854490859
 31
0.0
  0
LINE
  5
934C
330
1E
100
AcDbEntity
  8
002
100
AcDbLine
 10
5128.805901652583
 20
-2473.794821527214
 30
0.0
 11
5124.412205683318
 21
-2477.251038937469
 31
0.0
  0
LINE
  5
934D
330
1E
100
AcDbEntity
  8
002
100
AcDbLine
 10
5129.841801231822
 20
-2473.977478572339
 30
0.0
 11
5125.448105262557
 21
-2477.433695982592
 31
0.0
  0
ARC
  5
934E
330
1E
100
AcDbEntity
  8
002
100
AcDbCircle
 10
5127.260234421027
 20
-2471.82990066614
 30
0.0
 40
2.5
100
AcDbArc
 50
308.1896849999879
 51
31.81031499999473
  0
ARC
  5
934F
330
1E
100
AcDbEntity
  8
002
100
AcDbCircle
 10
5128.296134000265
 20
-2472.012557711265
 30
0.0
 40
2.5
100
AcDbArc
 50
308.1896849999879
 51
31.81031499999473
  0
ARC
  5
9350
330
1E
100
AcDbEntity
  8
002
100
AcDbCircle
 10
5135.074402416038
 20
-2427.513551780592
 30
0.0
 40
2.5
100
AcDbArc
 50
308.1896849999879
 51
31.81031499999473
  0
ARC
  5
9351
330
1E
100
AcDbEntity
  8
002
100
AcDbCircle
 10
5136.110301995277
 20
-2427.696208825716
 30
0.0
 40
2.5
100
AcDbArc
 50
308.1896849999879
 51
31.81031499999473
  0
ARC
  5
9352
330
1E
100
AcDbEntity
  8
002
100
AcDbCircle
 10
5133.772041083537
 20
-2434.899609928183
 30
0.0
 40
2.5
100
AcDbArc
 50
128.1896849999879
 51
211.8103149999947
  0
LINE
  5
9353
330
1E
100
AcDbEntity
  8
002
100
AcDbLine
 10
5131.647546477323
 20
-2436.217382233691
 30
0.0
 11
5134.594174183598
 21
-2440.967896755076
 31
0.0
  0
LINE
  5
9354
330
1E
100
AcDbEntity
  8
002
100
AcDbLine
 10
5132.683446056561
 20
-2436.400039278815
 30
0.0
 11
5135.630073762837
 21
-2441.1505538002
 31
0.0
  0
ARC
  5
9355
330
1E
100
AcDbEntity
  8
002
100
AcDbCircle
 10
5132.469679751034
 20
-2442.285668075774
 30
0.0
 40
2.5
100
AcDbArc
 50
308.1896849999879
 51
31.81031499999473
  0
ARC
  5
9356
330
1E
100
AcDbEntity
  8
002
100
AcDbCircle
 10
5134.807940662774
 20
-2435.082266973308
 30
0.0
 40
2.5
100
AcDbArc
 50
128.1896849999879
 51
211.8103149999947
  0
ARC
  5
9357
330
1E
100
AcDbEntity
  8
002
100
AcDbCircle
 10
5137.412663327779
 20
-2420.310150678124
 30
0.0
 40
2.5
100
AcDbArc
 50
128.1896849999879
 51
211.8103149999947
  0
ARC
  5
9358
330
1E
100
AcDbEntity
  8
002
100
AcDbCircle
 10
5136.376763748541
 20
-2420.127493633
 30
0.0
 40
2.5
100
AcDbArc
 50
128.1896849999879
 51
211.8103149999947
  0
LINE
  5
9359
330
1E
100
AcDbEntity
  8
002
100
AcDbLine
 10
5134.252269142326
 20
-2421.445265938508
 30
0.0
 11
5137.198896848603
 21
-2426.195780459893
 31
0.0
  0
LINE
  5
935A
330
1E
100
AcDbEntity
  8
002
100
AcDbLine
 10
5135.288168721565
 20
-2421.627922983633
 30
0.0
 11
5138.234796427841
 21
-2426.378437505018
 31
0.0
  0
ARC
  5
935B
330
1E
100
AcDbEntity
  8
002
100
AcDbCircle
 10
5133.505579330273
 20
-2442.468325120899
 30
0.0
 40
2.5
100
AcDbArc
 50
308.1896849999879
 51
31.81031499999473
  0
LINE
  5
935C
330
1E
100
AcDbEntity
  8
002
100
AcDbLine
 10
5136.620069647595
 20
-2429.478472641664
 30
0.0
 11
5132.226373678331
 21
-2432.934690051919
 31
0.0
  0
LINE
  5
935D
330
1E
100
AcDbEntity
  8
002
100
AcDbLine
 10
5137.655969226834
 20
-2429.661129686789
 30
0.0
 11
5133.262273257568
 21
-2433.117347097043
 31
0.0
  0
LINE
  5
935E
330
1E
100
AcDbEntity
  8
002
100
AcDbLine
 10
5129.042823812319
 20
-2450.989498528874
 30
0.0
 11
5131.989451518594
 21
-2455.74001305026
 31
0.0
  0
LINE
  5
935F
330
1E
100
AcDbEntity
  8
002
100
AcDbLine
 10
5130.078723391557
 20
-2451.172155573999
 30
0.0
 11
5133.025351097834
 21
-2455.922670095383
 31
0.0
  0
ARC
  5
9360
330
1E
100
AcDbEntity
  8
002
100
AcDbCircle
 10
5129.864957086031
 20
-2457.057784370957
 30
0.0
 40
2.5
100
AcDbArc
 50
308.1896849999879
 51
31.81031499999473
  0
LINE
  5
9361
330
1E
100
AcDbEntity
  8
002
100
AcDbLine
 10
5132.446523896826
 20
-2459.205362277156
 30
0.0
 11
5128.052827927561
 21
-2462.661579687411
 31
0.0
  0
ARC
  5
9362
330
1E
100
AcDbEntity
  8
002
100
AcDbCircle
 10
5129.598495332767
 20
-2464.626499563674
 30
0.0
 40
2.5
100
AcDbArc
 50
128.1896849999879
 51
211.8103149999947
  0
LINE
  5
9363
330
1E
100
AcDbEntity
  8
002
100
AcDbLine
 10
5131.410624317588
 20
-2459.022705232031
 30
0.0
 11
5127.016928348322
 21
-2462.478922642286
 31
0.0
  0
ARC
  5
9364
330
1E
100
AcDbEntity
  8
002
100
AcDbCircle
 10
5130.900856665269
 20
-2457.240441416082
 30
0.0
 40
2.5
100
AcDbArc
 50
308.1896849999879
 51
31.81031499999473
  0
ARC
  5
9365
330
1E
100
AcDbEntity
  8
002
100
AcDbCircle
 10
5131.167318418533
 20
-2449.671726223366
 30
0.0
 40
2.5
100
AcDbArc
 50
128.1896849999879
 51
211.8103149999947
  0
ARC
  5
9366
330
1E
100
AcDbEntity
  8
002
100
AcDbCircle
 10
5132.203217997772
 20
-2449.854383268491
 30
0.0
 40
2.5
100
AcDbArc
 50
128.1896849999879
 51
211.8103149999947
  0
ARC
  5
9367
330
1E
100
AcDbEntity
  8
002
100
AcDbCircle
 10
5128.562595753528
 20
-2464.443842518549
 30
0.0
 40
2.5
100
AcDbArc
 50
128.1896849999879
 51
211.8103149999947
  0
LINE
  5
9368
330
1E
100
AcDbEntity
  8
002
100
AcDbLine
 10
5134.015346982592
 20
-2444.250588936847
 30
0.0
 11
5129.621651013327
 21
-2447.706806347102
 31
0.0
  0
LINE
  5
9369
330
1E
100
AcDbEntity
  8
002
100
AcDbLine
 10
5135.05124656183
 20
-2444.433245981972
 30
0.0
 11
5130.657550592565
 21
-2447.889463392227
 31
0.0
  0
LINE
  5
936A
330
1E
100
AcDbEntity
  8
002
100
AcDbLine
 10
5139.224792312599
 20
-2414.706356346482
 30
0.0
 11
5134.831096343334
 21
-2418.162573756736
 31
0.0
  0
LINE
  5
936B
330
1E
100
AcDbEntity
  8
002
100
AcDbLine
 10
5140.260691891838
 20
-2414.889013391606
 30
0.0
 11
5135.866995922572
 21
-2418.345230801861
 31
0.0
  0
LINE
  5
936C
330
1E
100
AcDbEntity
  8
002
100
AcDbLine
 10
5087.15447864432
 20
-2316.675126612809
 30
0.0
 11
5158.051461407365
 21
-2329.176177524756
 31
0.0
  0
LINE
  5
936D
330
1E
100
AcDbEntity
  8
002
100
AcDbLine
 10
5082.659699323412
 20
-2340.25281443146
 30
0.0
 11
5120.409616994778
 21
-2346.909143436445
 31
0.0
  0
LINE
  5
936E
330
1E
100
AcDbEntity
  8
002
100
AcDbLine
 10
5140.105772055022
 20
-2350.382106989783
 30
0.0
 11
5082.659698338605
 21
-2340.252814257811
 31
0.0
  0
LINE
  5
936F
330
1E
100
AcDbEntity
  8
002
100
AcDbLine
 10
5087.15447864432
 20
-2316.675126612809
 30
0.0
 11
5082.986922380314
 21
-2340.310512685101
 31
0.0
  0
LINE
  5
9370
330
1E
100
AcDbEntity
  8
002
100
AcDbLine
 10
5155.650890314261
 20
-2288.135827596503
 30
0.0
 11
5152.938231319642
 21
-2289.123155027646
 31
0.0
  0
LINE
  5
9371
330
1E
100
AcDbEntity
  8
002
100
AcDbLine
 10
5143.036625998259
 20
-2293.432688809224
 30
0.0
 11
5141.111907748433
 21
-2295.726478816956
 31
0.0
  0
LINE
  5
9372
330
1E
100
AcDbEntity
  8
002
100
AcDbLine
 10
5143.040270540791
 20
-2293.42834569574
 30
0.0
 11
5144.51748217031
 21
-2293.688817962242
 31
0.0
  0
LINE
  5
9373
330
1E
100
AcDbEntity
  8
002
100
AcDbLine
 10
5139.868437947587
 20
-2283.163373757052
 30
0.0
 11
5137.54087209562
 21
-2284.055153323896
 31
0.0
  0
ARC
  5
9374
330
1E
100
AcDbEntity
  8
002
100
AcDbCircle
 10
5138.795106273749
 20
-2280.361952788586
 30
0.0
 40
3.0
100
AcDbArc
 50
290.9637570000329
 51
348.2865350000178
  0
LINE
  5
9375
330
1E
100
AcDbEntity
  8
002
100
AcDbLine
 10
5146.323757317139
 20
-2283.444922560799
 30
0.0
 11
5144.51748217031
 21
-2293.688817962242
 31
0.0
  0
ARC
  5
9376
330
1E
100
AcDbEntity
  8
002
100
AcDbCircle
 10
5138.614204754265
 20
-2286.856574466007
 30
0.0
 40
3.0
100
AcDbArc
 50
110.9637570000329
 51
169.9999999999961
  0
LINE
  5
9377
330
1E
100
AcDbEntity
  8
002
100
AcDbLine
 10
5144.671159802342
 20
-2362.356800757774
 30
0.0
 11
5147.617787508618
 21
-2367.107315279159
 31
0.0
  0
LINE
  5
9378
330
1E
100
AcDbEntity
  8
002
100
AcDbLine
 10
5145.707059381582
 20
-2362.539457802899
 30
0.0
 11
5148.653687087858
 21
-2367.289972324285
 31
0.0
  0
LINE
  5
9379
330
1E
100
AcDbEntity
  8
002
100
AcDbLine
 10
5153.334419953862
 20
-2358.807234203956
 30
0.0
 11
5152.466179065527
 21
-2363.731272969017
 31
0.0
  0
LINE
  5
937A
330
1E
100
AcDbEntity
  8
002
100
AcDbLine
 10
5153.334419953862
 20
-2358.807234203956
 30
0.0
 11
5155.805614790228
 21
-2359.242972528194
 31
0.0
  0
LINE
  5
937B
330
1E
100
AcDbEntity
  8
002
100
AcDbLine
 10
5156.574249777847
 20
-2328.915705258256
 30
0.0
 11
5158.201845244076
 21
-2328.323308405646
 31
0.0
  0
LINE
  5
937C
330
1E
100
AcDbEntity
  8
002
100
AcDbLine
 10
5160.047213331186
 20
-2309.219550198011
 30
0.0
 11
5156.574249777847
 21
-2328.915705258256
 31
0.0
  0
LINE
  5
937D
330
1E
100
AcDbEntity
  8
002
100
AcDbLine
 10
5149.715907378391
 20
-2307.397862212579
 30
0.0
 11
5148.77999036828
 21
-2305.201981568222
 31
0.0
  0
LINE
  5
937E
330
1E
100
AcDbEntity
  8
002
100
AcDbLine
 10
5150.700715131404
 20
-2307.571510390248
 30
0.0
 11
5149.889555556058
 21
-2306.413054459568
 31
0.0
  0
LINE
  5
937F
330
1E
100
AcDbEntity
  8
002
100
AcDbLine
 10
5141.663797176627
 20
-2306.993484544257
 30
0.0
 11
5138.90101029432
 21
-2308.265101353502
 31
0.0
  0
LINE
  5
9380
330
1E
100
AcDbEntity
  8
002
100
AcDbLine
 10
5142.01109353196
 20
-2305.023869038232
 30
0.0
 11
5141.663797176627
 21
-2306.993484544257
 31
0.0
  0
LINE
  5
9381
330
1E
100
AcDbEntity
  8
002
100
AcDbLine
 10
5142.01109353196
 20
-2305.023869038232
 30
0.0
 11
5143.16954946264
 21
-2304.212709462887
 31
0.0
  0
LINE
  5
9382
330
1E
100
AcDbEntity
  8
002
100
AcDbLine
 10
5143.16954946264
 20
-2304.212709462887
 30
0.0
 11
5148.77999036828
 21
-2305.201981568222
 31
0.0
  0
LINE
  5
9383
330
1E
100
AcDbEntity
  8
002
100
AcDbLine
 10
5129.356104502673
 20
-2322.085558657629
 30
0.0
 11
5130.978423653363
 21
-2324.402470518986
 31
0.0
  0
LINE
  5
9384
330
1E
100
AcDbEntity
  8
002
100
AcDbLine
 10
5137.539515266659
 20
-2324.674872519614
 30
0.0
 11
5135.902462418425
 21
-2325.270711407322
 31
0.0
  0
LINE
  5
9385
330
1E
100
AcDbEntity
  8
002
100
AcDbLine
 10
5137.370498594108
 20
-2325.52956579375
 30
0.0
 11
5136.043670801303
 21
-2324.41622440814
 31
0.0
  0
LINE
  5
9386
330
1E
100
AcDbEntity
  8
002
100
AcDbLine
 10
5137.52088243082
 20
-2324.67669667464
 30
0.0
 11
5135.89328696459
 21
-2325.269093527249
 31
0.0
  0
LINE
  5
9387
330
1E
100
AcDbEntity
  8
002
100
AcDbLine
 10
5144.273328319028
 20
-2326.74672091749
 30
0.0
 11
5140.105772055022
 21
-2350.382106989783
 31
0.0
  0
LINE
  5
9388
330
1E
100
AcDbEntity
  8
002
100
AcDbLine
 10
5149.889555556058
 20
-2306.413054459568
 30
0.0
 11
5152.938231319642
 21
-2289.123155027646
 31
0.0
  0
LINE
  5
9389
330
1E
100
AcDbEntity
  8
002
100
AcDbLine
 10
5143.040270540791
 20
-2293.42834569574
 30
0.0
 11
5137.379674047942
 21
-2325.531183673822
 31
0.0
  0
LINE
  5
938A
330
1E
100
AcDbEntity
  8
002
100
AcDbLine
 10
5129.356104502673
 20
-2322.085558657629
 30
0.0
 11
5135.659781495228
 21
-2286.335629933006
 31
0.0
  0
LINE
  5
938B
330
1E
100
AcDbEntity
  8
002
100
AcDbLine
 10
5141.111907748433
 20
-2295.726478816956
 30
0.0
 11
5135.902462418425
 21
-2325.270711407322
 31
0.0
  0
LINE
  5
938C
330
1E
100
AcDbEntity
  8
002
100
AcDbLine
 10
5209.970041205899
 20
-2368.793622299876
 30
0.0
 11
5218.652450089246
 21
-2319.553234649265
 31
0.0
  0
LINE
  5
938D
330
1E
100
AcDbEntity
  8
002
100
AcDbLine
 10
5200.000871809459
 20
-2372.112921819458
 30
0.0
 11
5216.922478177375
 21
-2325.621192087467
 31
0.0
  0
LINE
  5
938E
330
1E
100
AcDbEntity
  8
002
100
AcDbLine
 10
5200.486150342118
 20
-2463.586884587642
 30
0.0
 11
5203.432778048393
 21
-2468.337399109028
 31
0.0
  0
LINE
  5
938F
330
1E
100
AcDbEntity
  8
002
100
AcDbLine
 10
5199.015266102413
 20
-2463.327528010683
 30
0.0
 11
5201.961893808688
 21
-2468.078042532068
 31
0.0
  0
LINE
  5
9390
330
1E
100
AcDbEntity
  8
002
100
AcDbLine
 10
5202.853950847387
 20
-2471.6200912908
 30
0.0
 11
5198.460254878121
 21
-2475.076308701054
 31
0.0
  0
LINE
  5
9391
330
1E
100
AcDbEntity
  8
002
100
AcDbLine
 10
5201.38306660768
 20
-2471.360734713841
 30
0.0
 11
5196.989370638416
 21
-2474.816952124095
 31
0.0
  0
ARC
  5
9392
330
1E
100
AcDbEntity
  8
002
100
AcDbCircle
 10
5202.610644948331
 20
-2462.269112282134
 30
0.0
 40
2.5
100
AcDbArc
 50
128.1896849999879
 51
211.8103149999947
  0
LINE
  5
9393
330
1E
100
AcDbEntity
  8
002
100
AcDbLine
 10
5203.987789272685
 20
-2456.588618418657
 30
0.0
 11
5199.594093303419
 21
-2460.044835828911
 31
0.0
  0
ARC
  5
9394
330
1E
100
AcDbEntity
  8
002
100
AcDbCircle
 10
5203.744483373629
 20
-2447.237639409993
 30
0.0
 40
2.5
100
AcDbArc
 50
128.1896849999879
 51
211.8103149999947
  0
ARC
  5
9395
330
1E
100
AcDbEntity
  8
002
100
AcDbCircle
 10
5200.005922283327
 20
-2477.041228577317
 30
0.0
 40
2.5
100
AcDbArc
 50
128.1896849999879
 51
211.8103149999947
  0
ARC
  5
9396
330
1E
100
AcDbEntity
  8
002
100
AcDbCircle
 10
5198.535038043623
 20
-2476.781872000359
 30
0.0
 40
2.5
100
AcDbArc
 50
128.1896849999879
 51
211.8103149999947
  0
ARC
  5
9397
330
1E
100
AcDbEntity
  8
002
100
AcDbCircle
 10
5201.139760708626
 20
-2462.009755705176
 30
0.0
 40
2.5
100
AcDbArc
 50
128.1896849999879
 51
211.8103149999947
  0
ARC
  5
9398
330
1E
100
AcDbEntity
  8
002
100
AcDbCircle
 10
5216.936619605852
 20
-2381.022472658627
 30
0.0
 40
2.5
100
AcDbArc
 50
308.1896849999879
 51
31.81031499999473
  0
LINE
  5
9399
330
1E
100
AcDbEntity
  8
002
100
AcDbLine
 10
5214.643602092436
 20
-2374.694830239585
 30
0.0
 11
5217.590229798712
 21
-2379.44534476097
 31
0.0
  0
LINE
  5
939A
330
1E
100
AcDbEntity
  8
002
100
AcDbLine
 10
5218.48228683741
 20
-2382.987393519701
 30
0.0
 11
5214.088590868144
 21
-2386.443610929955
 31
0.0
  0
ARC
  5
939B
330
1E
100
AcDbEntity
  8
002
100
AcDbCircle
 10
5215.465735366147
 20
-2380.763116081668
 30
0.0
 40
2.5
100
AcDbArc
 50
308.1896849999879
 51
31.81031499999473
  0
LINE
  5
939C
330
1E
100
AcDbEntity
  8
002
100
AcDbLine
 10
5216.114486332141
 20
-2374.954186816543
 30
0.0
 11
5219.061114038417
 21
-2379.704701337929
 31
0.0
  0
ARC
  5
939D
330
1E
100
AcDbEntity
  8
002
100
AcDbCircle
 10
5214.331896940848
 20
-2395.79458895381
 30
0.0
 40
2.5
100
AcDbArc
 50
308.1896849999879
 51
31.81031499999473
  0
ARC
  5
939E
330
1E
100
AcDbEntity
  8
002
100
AcDbCircle
 10
5212.861012701143
 20
-2395.535232376851
 30
0.0
 40
2.5
100
AcDbArc
 50
308.1896849999879
 51
31.81031499999473
  0
ARC
  5
939F
330
1E
100
AcDbEntity
  8
002
100
AcDbCircle
 10
5211.727174275845
 20
-2410.566705248994
 30
0.0
 40
2.5
100
AcDbArc
 50
308.1896849999879
 51
31.81031499999473
  0
LINE
  5
93A0
330
1E
100
AcDbEntity
  8
002
100
AcDbLine
 10
5213.509763667137
 20
-2389.726303111727
 30
0.0
 11
5216.456391373413
 21
-2394.476817633111
 31
0.0
  0
ARC
  5
93A1
330
1E
100
AcDbEntity
  8
002
100
AcDbCircle
 10
5215.63425827335
 20
-2388.408530806219
 30
0.0
 40
2.5
100
AcDbArc
 50
128.1896849999879
 51
211.8103149999947
  0
LINE
  5
93A2
330
1E
100
AcDbEntity
  8
002
100
AcDbLine
 10
5212.422885134595
 20
-2369.226124863972
 30
0.0
 11
5211.554644246261
 21
-2374.150163629032
 31
0.0
  0
LINE
  5
93A3
330
1E
100
AcDbEntity
  8
002
100
AcDbLine
 10
5211.801957267697
 20
-2412.272269533109
 30
0.0
 11
5207.408261298431
 21
-2415.728486943363
 31
0.0
  0
ARC
  5
93A4
330
1E
100
AcDbEntity
  8
002
100
AcDbCircle
 10
5213.029535608346
 20
-2403.180647101402
 30
0.0
 40
2.5
100
AcDbArc
 50
128.1896849999879
 51
211.8103149999947
  0
ARC
  5
93A5
330
1E
100
AcDbEntity
  8
002
100
AcDbCircle
 10
5211.558651368641
 20
-2402.921290524443
 30
0.0
 40
2.5
100
AcDbArc
 50
128.1896849999879
 51
211.8103149999947
  0
LINE
  5
93A6
330
1E
100
AcDbEntity
  8
002
100
AcDbLine
 10
5209.434156762427
 20
-2404.239062829951
 30
0.0
 11
5212.380784468703
 21
-2408.989577351337
 31
0.0
  0
ARC
  5
93A7
330
1E
100
AcDbEntity
  8
002
100
AcDbCircle
 10
5214.163374033645
 20
-2388.14917422926
 30
0.0
 40
2.5
100
AcDbArc
 50
128.1896849999879
 51
211.8103149999947
  0
LINE
  5
93A8
330
1E
100
AcDbEntity
  8
002
100
AcDbLine
 10
5217.011402597705
 20
-2382.728036942743
 30
0.0
 11
5212.617706628439
 21
-2386.184254352996
 31
0.0
  0
LINE
  5
93A9
330
1E
100
AcDbEntity
  8
002
100
AcDbLine
 10
5215.877564172407
 20
-2397.759509814883
 30
0.0
 11
5211.48386820314
 21
-2401.215727225139
 31
0.0
  0
ARC
  5
93AA
330
1E
100
AcDbEntity
  8
002
100
AcDbCircle
 10
5210.25629003614
 20
-2410.307348672035
 30
0.0
 40
2.5
100
AcDbArc
 50
308.1896849999879
 51
31.81031499999473
  0
LINE
  5
93AB
330
1E
100
AcDbEntity
  8
002
100
AcDbLine
 10
5210.905041002132
 20
-2404.498419406909
 30
0.0
 11
5213.851668708409
 21
-2409.248933928295
 31
0.0
  0
LINE
  5
93AC
330
1E
100
AcDbEntity
  8
002
100
AcDbLine
 10
5214.4066799327
 20
-2397.500153237925
 30
0.0
 11
5210.012983963435
 21
-2400.956370648179
 31
0.0
  0
LINE
  5
93AD
330
1E
100
AcDbEntity
  8
002
100
AcDbLine
 10
5212.038879427432
 20
-2389.466946534767
 30
0.0
 11
5214.985507133707
 21
-2394.217461056153
 31
0.0
  0
LINE
  5
93AE
330
1E
100
AcDbEntity
  8
002
100
AcDbLine
 10
5213.272841507403
 20
-2412.531626110067
 30
0.0
 11
5208.879145538137
 21
-2415.987843520321
 31
0.0
  0
LINE
  5
93AF
330
1E
100
AcDbEntity
  8
002
100
AcDbLine
 10
5212.422885134595
 20
-2369.226124863972
 30
0.0
 11
5209.970041205899
 21
-2368.793622299876
 31
0.0
  0
ARC
  5
93B0
330
1E
100
AcDbEntity
  8
002
100
AcDbCircle
 10
5201.308283615828
 20
-2469.655170429726
 30
0.0
 40
2.5
100
AcDbArc
 50
308.1896849999879
 51
31.81031499999473
  0
ARC
  5
93B1
330
1E
100
AcDbEntity
  8
002
100
AcDbCircle
 10
5199.837399376123
 20
-2469.395813852767
 30
0.0
 40
2.5
100
AcDbArc
 50
308.1896849999879
 51
31.81031499999473
  0
ARC
  5
93B2
330
1E
100
AcDbEntity
  8
002
100
AcDbCircle
 10
5209.12245161084
 20
-2425.338821544177
 30
0.0
 40
2.5
100
AcDbArc
 50
308.1896849999879
 51
31.81031499999473
  0
ARC
  5
93B3
330
1E
100
AcDbEntity
  8
002
100
AcDbCircle
 10
5207.651567371136
 20
-2425.079464967218
 30
0.0
 40
2.5
100
AcDbArc
 50
308.1896849999879
 51
31.81031499999473
  0
ARC
  5
93B4
330
1E
100
AcDbEntity
  8
002
100
AcDbCircle
 10
5206.517728945836
 20
-2440.11093783936
 30
0.0
 40
2.5
100
AcDbArc
 50
308.1896849999879
 51
31.81031499999473
  0
LINE
  5
93B5
330
1E
100
AcDbEntity
  8
002
100
AcDbLine
 10
5208.30031833713
 20
-2419.270535702093
 30
0.0
 11
5211.246946043405
 21
-2424.021050223479
 31
0.0
  0
ARC
  5
93B6
330
1E
100
AcDbEntity
  8
002
100
AcDbCircle
 10
5207.820090278339
 20
-2432.724879691768
 30
0.0
 40
2.5
100
AcDbArc
 50
128.1896849999879
 51
211.8103149999947
  0
ARC
  5
93B7
330
1E
100
AcDbEntity
  8
002
100
AcDbCircle
 10
5206.349206038634
 20
-2432.465523114809
 30
0.0
 40
2.5
100
AcDbArc
 50
128.1896849999879
 51
211.8103149999947
  0
LINE
  5
93B8
330
1E
100
AcDbEntity
  8
002
100
AcDbLine
 10
5205.695595672126
 20
-2434.042651997276
 30
0.0
 11
5208.642223378401
 21
-2438.793166518662
 31
0.0
  0
ARC
  5
93B9
330
1E
100
AcDbEntity
  8
002
100
AcDbCircle
 10
5205.046844706131
 20
-2439.851581262401
 30
0.0
 40
2.5
100
AcDbArc
 50
308.1896849999879
 51
31.81031499999473
  0
LINE
  5
93BA
330
1E
100
AcDbEntity
  8
002
100
AcDbLine
 10
5204.22471143242
 20
-2433.783295420317
 30
0.0
 11
5207.171339138696
 21
-2438.533809941702
 31
0.0
  0
LINE
  5
93BB
330
1E
100
AcDbEntity
  8
002
100
AcDbLine
 10
5210.668118842399
 20
-2427.30374240525
 30
0.0
 11
5206.274422873132
 21
-2430.759959815504
 31
0.0
  0
LINE
  5
93BC
330
1E
100
AcDbEntity
  8
002
100
AcDbLine
 10
5209.197234602692
 20
-2427.044385828291
 30
0.0
 11
5204.803538633427
 21
-2430.500603238545
 31
0.0
  0
LINE
  5
93BD
330
1E
100
AcDbEntity
  8
002
100
AcDbLine
 10
5206.829434097423
 20
-2419.011179125135
 30
0.0
 11
5209.7760618037
 21
-2423.76169364652
 31
0.0
  0
LINE
  5
93BE
330
1E
100
AcDbEntity
  8
002
100
AcDbLine
 10
5203.090873007122
 20
-2448.814768292459
 30
0.0
 11
5206.037500713398
 21
-2453.565282813845
 31
0.0
  0
ARC
  5
93BF
330
1E
100
AcDbEntity
  8
002
100
AcDbCircle
 10
5202.442122041127
 20
-2454.623697557584
 30
0.0
 40
2.5
100
AcDbArc
 50
308.1896849999879
 51
31.81031499999473
  0
ARC
  5
93C0
330
1E
100
AcDbEntity
  8
002
100
AcDbCircle
 10
5203.913006280832
 20
-2454.883054134542
 30
0.0
 40
2.5
100
AcDbArc
 50
308.1896849999879
 51
31.81031499999473
  0
LINE
  5
93C1
330
1E
100
AcDbEntity
  8
002
100
AcDbLine
 10
5205.45867351239
 20
-2456.847974995616
 30
0.0
 11
5201.064977543125
 21
-2460.30419240587
 31
0.0
  0
LINE
  5
93C2
330
1E
100
AcDbEntity
  8
002
100
AcDbLine
 10
5201.619988767417
 20
-2448.555411715501
 30
0.0
 11
5204.566616473691
 21
-2453.305926236886
 31
0.0
  0
ARC
  5
93C3
330
1E
100
AcDbEntity
  8
002
100
AcDbCircle
 10
5205.215367613334
 20
-2447.496995986952
 30
0.0
 40
2.5
100
AcDbArc
 50
128.1896849999879
 51
211.8103149999947
  0
LINE
  5
93C4
330
1E
100
AcDbEntity
  8
002
100
AcDbLine
 10
5206.592511937689
 20
-2441.816502123475
 30
0.0
 11
5202.198815968423
 21
-2445.272719533729
 31
0.0
  0
LINE
  5
93C5
330
1E
100
AcDbEntity
  8
002
100
AcDbLine
 10
5208.063396177394
 20
-2442.075858700433
 30
0.0
 11
5203.669700208128
 21
-2445.532076110687
 31
0.0
  0
ARC
  5
93C6
330
1E
100
AcDbEntity
  8
002
100
AcDbCircle
 10
5210.424812943343
 20
-2417.952763396585
 30
0.0
 40
2.5
100
AcDbArc
 50
128.1896849999879
 51
211.8103149999947
  0
ARC
  5
93C7
330
1E
100
AcDbEntity
  8
002
100
AcDbCircle
 10
5208.953928703638
 20
-2417.693406819626
 30
0.0
 40
2.5
100
AcDbArc
 50
128.1896849999879
 51
211.8103149999947
  0
LINE
  5
93C8
330
1E
100
AcDbEntity
  8
002
100
AcDbLine
 10
5208.882781812511
 20
-2256.904981826361
 30
0.0
 11
5195.09547327034
 21
-2254.473907339023
 31
0.0
  0
LINE
  5
93C9
330
1E
100
AcDbEntity
  8
002
100
AcDbLine
 10
5178.767736092251
 20
-2312.520483453754
 30
0.0
 11
5204.37273767057
 21
-2317.035336073095
 31
0.0
  0
LINE
  5
93CA
330
1E
100
AcDbEntity
  8
002
100
AcDbLine
 10
5194.456883231328
 20
-2254.865235496494
 30
0.0
 11
5195.09547327034
 21
-2254.473907339023
 31
0.0
  0
ARC
  5
93CB
330
1E
100
AcDbEntity
  8
002
100
AcDbCircle
 10
5183.109252260852
 20
-2289.065415641423
 30
0.0
 40
0.8526290000000001
100
AcDbArc
 50
199.9999999999981
 51
342.9999999999943
  0
LINE
  5
93CC
330
1E
100
AcDbEntity
  8
002
100
AcDbLine
 10
5182.308042551621
 20
-2289.3570313331
 30
0.0
 11
5181.887884561449
 21
-2288.202656110272
 31
0.0
  0
LINE
  5
93CD
330
1E
100
AcDbEntity
  8
002
100
AcDbLine
 10
5168.591186171293
 20
-2286.938379462745
 30
0.0
 11
5169.380826098193
 21
-2285.997324253902
 31
0.0
  0
ARC
  5
93CE
330
1E
100
AcDbEntity
  8
002
100
AcDbCircle
 10
5167.938034745298
 20
-2286.390320663234
 30
0.0
 40
0.8526290000000001
100
AcDbArc
 50
176.9999999999938
 51
320.0000000000241
  0
LINE
  5
93CF
330
1E
100
AcDbEntity
  8
002
100
AcDbLine
 10
5179.635976980587
 20
-2307.596444688694
 30
0.0
 11
5179.372331237596
 21
-2312.627089890284
 31
0.0
  0
LINE
  5
93D0
330
1E
100
AcDbEntity
  8
002
100
AcDbLine
 10
5164.863860685403
 20
-2304.991722023689
 30
0.0
 11
5163.391023666917
 21
-2309.809154178573
 31
0.0
  0
LINE
  5
93D1
330
1E
100
AcDbEntity
  8
002
100
AcDbLine
 10
5181.408246778431
 20
-2297.545403204714
 30
0.0
 11
5179.635976980587
 21
-2307.596444688694
 31
0.0
  0
LINE
  5
93D2
330
1E
100
AcDbEntity
  8
002
100
AcDbLine
 10
5166.636130483249
 20
-2294.94068053971
 30
0.0
 11
5164.863860685403
 21
-2304.991722023689
 31
0.0
  0
LINE
  5
93D3
330
1E
100
AcDbEntity
  8
002
100
AcDbLine
 10
5161.154125600462
 20
-2332.653261222128
 30
0.0
 11
5186.168242508019
 21
-2263.92753990643
 31
0.0
  0
LINE
  5
93D4
330
1E
100
AcDbEntity
  8
002
100
AcDbLine
 10
5240.396629908901
 20
-2262.461723511702
 30
0.0
 11
5241.207789484247
 21
-2263.620179442381
 31
0.0
  0
ARC
  5
93D5
330
1E
100
AcDbEntity
  8
002
100
AcDbCircle
 10
5235.220503454556
 20
-2259.010466232528
 30
0.0
 40
0.5
100
AcDbArc
 50
342.9999999999943
 51
79.9999999999961
  0
LINE
  5
93D6
330
1E
100
AcDbEntity
  8
002
100
AcDbLine
 10
5234.834001104829
 20
-2261.984810780838
 30
0.0
 11
5235.472591143841
 21
-2261.593482623368
 31
0.0
  0
LINE
  5
93D7
330
1E
100
AcDbEntity
  8
002
100
AcDbLine
 10
5229.444564119311
 20
-2257.484298982845
 30
0.0
 11
5228.902032355117
 21
-2257.681764272113
 31
0.0
  0
LINE
  5
93D8
330
1E
100
AcDbEntity
  8
002
100
AcDbLine
 10
5235.307327543389
 20
-2258.518062356021
 30
0.0
 11
5229.444564119311
 21
-2257.484298982845
 31
0.0
  0
LINE
  5
93D9
330
1E
100
AcDbEntity
  8
002
100
AcDbLine
 10
5240.396629908901
 20
-2262.461723511702
 30
0.0
 11
5235.472591143841
 21
-2261.593482623368
 31
0.0
  0
LINE
  5
93DA
330
1E
100
AcDbEntity
  8
002
100
AcDbLine
 10
5215.952697903042
 20
-2255.105318948809
 30
0.0
 11
5216.394973891861
 21
-2255.476432415743
 31
0.0
  0
ARC
  5
93DB
330
1E
100
AcDbEntity
  8
002
100
AcDbCircle
 10
5223.486370134352
 20
-2296.184990925767
 30
0.0
 40
0.8526290000000001
100
AcDbArc
 50
199.9999999999981
 51
342.9999999999943
  0
LINE
  5
93DC
330
1E
100
AcDbEntity
  8
002
100
AcDbLine
 10
5222.685160425122
 20
-2296.476606617444
 30
0.0
 11
5222.26500243495
 21
-2295.322231394617
 31
0.0
  0
LINE
  5
93DD
330
1E
100
AcDbEntity
  8
002
100
AcDbLine
 10
5241.207789484247
 20
-2263.620179442381
 30
0.0
 11
5234.435510555238
 21
-2302.027681809857
 31
0.0
  0
LINE
  5
93DE
330
1E
100
AcDbEntity
  8
002
100
AcDbLine
 10
5222.607022648392
 20
-2296.261923617753
 30
0.0
 11
5229.444564119311
 21
-2257.484298982845
 31
0.0
  0
LINE
  5
93DF
330
1E
100
AcDbEntity
  8
002
100
AcDbLine
 10
5209.522665240231
 20
-2256.50631273825
 30
0.0
 11
5209.056429990178
 21
-2255.920174073349
 31
0.0
  0
ARC
  5
93E0
330
1E
100
AcDbEntity
  8
002
100
AcDbCircle
 10
5210.17675758299
 20
-2253.579151525478
 30
0.0
 40
0.5
100
AcDbArc
 50
79.9999999999961
 51
176.9999999999938
  0
LINE
  5
93E1
330
1E
100
AcDbEntity
  8
002
100
AcDbLine
 10
5208.968304044794
 20
-2294.057954747088
 30
0.0
 11
5209.757943971694
 21
-2293.116899538247
 31
0.0
  0
ARC
  5
93E2
330
1E
100
AcDbEntity
  8
002
100
AcDbCircle
 10
5208.315152618798
 20
-2293.509895947579
 30
0.0
 40
0.8526290000000001
100
AcDbArc
 50
176.9999999999938
 51
320.0000000000241
  0
LINE
  5
93E3
330
1E
100
AcDbEntity
  8
002
100
AcDbLine
 10
5209.503794655606
 20
-2254.537791636845
 30
0.0
 11
5207.01324835675
 21
-2302.060255824055
 31
0.0
  0
LINE
  5
93E4
330
1E
100
AcDbEntity
  8
002
100
AcDbLine
 10
5210.089933494157
 20
-2254.071555401985
 30
0.0
 11
5215.952697903042
 21
-2255.105318948809
 31
0.0
  0
LINE
  5
93E5
330
1E
100
AcDbEntity
  8
002
100
AcDbLine
 10
5209.115156432123
 20
-2293.882943583716
 30
0.0
 11
5215.952697903042
 21
-2255.105318948809
 31
0.0
  0
LINE
  5
93E6
330
1E
100
AcDbEntity
  8
002
100
AcDbLine
 10
5231.921218337115
 20
-2342.201408729847
 30
0.0
 11
5227.753662073109
 21
-2365.836794802139
 31
0.0
  0
LINE
  5
93E7
330
1E
100
AcDbEntity
  8
002
100
AcDbLine
 10
5241.476676586194
 20
-2322.562334982593
 30
0.0
 11
5241.12938023086
 21
-2324.531950488617
 31
0.0
  0
LINE
  5
93E8
330
1E
100
AcDbEntity
  8
002
100
AcDbLine
 10
5241.476676586194
 20
-2322.562334982593
 30
0.0
 11
5240.665517010849
 21
-2321.403879051914
 31
0.0
  0
LINE
  5
93E9
330
1E
100
AcDbEntity
  8
002
100
AcDbLine
 10
5233.424566384429
 20
-2322.15795731427
 30
0.0
 11
5235.055076105208
 21
-2320.414606946579
 31
0.0
  0
LINE
  5
93EA
330
1E
100
AcDbEntity
  8
002
100
AcDbLine
 10
5233.598214562096
 20
-2321.173149561257
 30
0.0
 11
5232.439758631417
 21
-2321.984309136602
 31
0.0
  0
LINE
  5
93EB
330
1E
100
AcDbEntity
  8
002
100
AcDbLine
 10
5233.598214562096
 20
-2321.173149561257
 30
0.0
 11
5236.64689032568
 21
-2303.883250129336
 31
0.0
  0
LINE
  5
93EC
330
1E
100
AcDbEntity
  8
002
100
AcDbLine
 10
5220.013094854087
 20
-2314.716019973037
 30
0.0
 11
5219.749449111096
 21
-2319.746665174629
 31
0.0
  0
LINE
  5
93ED
330
1E
100
AcDbEntity
  8
002
100
AcDbLine
 10
5221.597697894448
 20
-2320.072561302195
 30
0.0
 11
5222.924525860902
 21
-2321.185901702996
 31
0.0
  0
LINE
  5
93EE
330
1E
100
AcDbEntity
  8
002
100
AcDbLine
 10
5223.074909523966
 20
-2320.333033568695
 30
0.0
 11
5221.447314231385
 21
-2320.925429436496
 31
0.0
  0
LINE
  5
93EF
330
1E
100
AcDbEntity
  8
002
100
AcDbLine
 10
5221.785364651932
 20
-2304.66497848906
 30
0.0
 11
5220.013094854087
 21
-2314.716019973037
 31
0.0
  0
LINE
  5
93F0
330
1E
100
AcDbEntity
  8
002
100
AcDbLine
 10
5218.652450089246
 20
-2319.553234649265
 30
0.0
 11
5233.424566384429
 21
-2322.15795731427
 31
0.0
  0
LINE
  5
93F1
330
1E
100
AcDbEntity
  8
002
100
AcDbLine
 10
5235.055076105208
 20
-2320.414606946579
 30
0.0
 11
5240.665517010849
 21
-2321.403879051914
 31
0.0
  0
LINE
  5
93F2
330
1E
100
AcDbEntity
  8
002
100
AcDbLine
 10
5238.957546658167
 20
-2342.557607784276
 30
0.0
 11
5240.292084237719
 21
-2343.677418240015
 31
0.0
  0
LINE
  5
93F3
330
1E
100
AcDbEntity
  8
002
100
AcDbLine
 10
5238.8148726082
 20
-2343.416945973515
 30
0.0
 11
5240.44246807443
 21
-2342.824549120905
 31
0.0
  0
LINE
  5
93F4
330
1E
100
AcDbEntity
  8
002
100
AcDbLine
 10
5219.601945970627
 20
-2340.02918862894
 30
0.0
 11
5218.275118177821
 21
-2338.915847243328
 31
0.0
  0
LINE
  5
93F5
330
1E
100
AcDbEntity
  8
002
100
AcDbLine
 10
5221.597697894448
 20
-2320.072561302195
 30
0.0
 11
5218.12473434111
 21
-2339.768716362438
 31
0.0
  0
LINE
  5
93F6
330
1E
100
AcDbEntity
  8
002
100
AcDbLine
 10
5223.074909523966
 20
-2320.333033568695
 30
0.0
 11
5219.601945970627
 21
-2340.02918862894
 31
0.0
  0
LINE
  5
93F7
330
1E
100
AcDbEntity
  8
002
100
AcDbLine
 10
5205.240978558903
 20
-2312.111297308033
 30
0.0
 11
5203.768141540416
 21
-2316.928729462918
 31
0.0
  0
LINE
  5
93F8
330
1E
100
AcDbEntity
  8
002
100
AcDbLine
 10
5234.435510555238
 20
-2302.027681809857
 30
0.0
 11
5236.64689032568
 21
-2303.883250129336
 31
0.0
  0
LINE
  5
93F9
330
1E
100
AcDbEntity
  8
002
100
AcDbLine
 10
5235.69865570086
 20
-2259.156652395033
 30
0.0
 11
5221.785364651932
 21
-2304.66497848906
 31
0.0
  0
LINE
  5
93FA
330
1E
100
AcDbEntity
  8
002
100
AcDbLine
 10
5207.01324835675
 20
-2302.060255824055
 30
0.0
 11
5205.240978558903
 21
-2312.111297308033
 31
0.0
  0
LINE
  5
93FB
330
1E
100
AcDbEntity
  8
002
100
AcDbLine
 10
5201.908361299088
 20
-2337.634095040983
 30
0.0
 11
5226.922478206645
 21
-2268.908373725286
 31
0.0
  0
LINE
  5
93FC
330
1E
100
AcDbEntity
  8
002
100
AcDbLine
 10
5289.040068011822
 20
-2352.273003034528
 30
0.0
 11
5284.872511747816
 21
-2375.908389106822
 31
0.0
  0
LINE
  5
93FD
330
1E
100
AcDbEntity
  8
003
100
AcDbLine
 10
5251.469139935398
 20
-2370.018473409656
 30
0.0
 11
5247.648880026726
 21
-2391.684243975925
 31
0.0
  0
LINE
  5
93FE
330
1E
100
AcDbEntity
  8
002
100
AcDbLine
 10
5254.549407381294
 20
-2268.577894915292
 30
0.0
 11
5249.64206689854
 21
-2267.57948509468
 31
0.0
  0
LINE
  5
93FF
330
1E
100
AcDbEntity
  8
002
100
AcDbLine
 10
5254.621614205351
 20
-2268.082117526159
 30
0.0
 11
5249.714274707406
 21
-2267.083707879196
 31
0.0
  0
LINE
  5
9400
330
1E
100
AcDbEntity
  8
002
100
AcDbLine
 10
5255.57685040421
 20
-2261.523419186233
 30
0.0
 11
5250.631737015984
 21
-2260.784367400749
 31
0.0
  0
LINE
  5
9401
330
1E
100
AcDbEntity
  8
002
100
AcDbLine
 10
5255.504757069747
 20
-2262.018420492181
 30
0.0
 11
5250.559642696712
 21
-2261.279368533049
 31
0.0
  0
ARC
  5
9402
330
1E
100
AcDbEntity
  8
002
100
AcDbCircle
 10
5252.933588211665
 20
-2300.487646691347
 30
0.0
 40
3.0
100
AcDbArc
 50
171.7134649999899
 51
229.0362430000019
  0
LINE
  5
9403
330
1E
100
AcDbEntity
  8
002
  6
CENTER
100
AcDbLine
 10
5246.331303995106
 20
-2263.508166674812
 30
0.0
 11
5259.727111078336
 21
-2265.870208891951
 31
0.0
  0
LINE
  5
9404
330
1E
100
AcDbEntity
  8
002
100
AcDbLine
 10
5253.836711856694
 20
-2307.173411253037
 30
0.0
 11
5253.640075959619
 21
-2308.288588841202
 31
0.0
  0
LINE
  5
9405
330
1E
100
AcDbEntity
  8
002
100
AcDbLine
 10
5252.849032852367
 20
-2304.387093161178
 30
0.0
 11
5251.993943957472
 21
-2303.644725296887
 31
0.0
  0
ARC
  5
9406
330
1E
100
AcDbEntity
  8
002
100
AcDbCircle
 10
5250.882288597657
 20
-2306.652466720037
 30
0.0
 40
3.0
100
AcDbArc
 50
349.999999999996
 51
49.03624300000194
  0
LINE
  5
9407
330
1E
100
AcDbEntity
  8
002
100
AcDbLine
 10
5244.477408418475
 20
-2311.319435694084
 30
0.0
 11
5245.501529567727
 21
-2314.133185649649
 31
0.0
  0
LINE
  5
9408
330
1E
100
AcDbEntity
  8
002
100
AcDbLine
 10
5244.475469101049
 20
-2311.314107995435
 30
0.0
 11
5242.99825747153
 21
-2311.053635728935
 31
0.0
  0
LINE
  5
9409
330
1E
100
AcDbEntity
  8
002
100
AcDbLine
 10
5247.533034864137
 20
-2342.923339977661
 30
0.0
 11
5245.21612300278
 21
-2344.545659128351
 31
0.0
  0
LINE
  5
940A
330
1E
100
AcDbEntity
  8
002
100
AcDbLine
 10
5247.533034864137
 20
-2342.923339977661
 30
0.0
 11
5253.640075959619
 21
-2308.288588841202
 31
0.0
  0
LINE
  5
940B
330
1E
100
AcDbEntity
  8
002
100
AcDbLine
 10
5250.966842972147
 20
-2302.753020076558
 30
0.0
 11
5251.993943957472
 21
-2303.644725296887
 31
0.0
  0
LINE
  5
940C
330
1E
100
AcDbEntity
  8
002
100
AcDbLine
 10
5244.80453261836
 20
-2300.809740327492
 30
0.0
 11
5242.99825747153
 21
-2311.053635728935
 31
0.0
  0
LINE
  5
940D
330
1E
100
AcDbEntity
  8
001
100
AcDbLine
 10
4934.262289591623
 20
-1999.924445398537
 30
0.0
 11
5158.482209830203
 21
-1999.924445398537
 31
0.0
  0
TEXT
  5
940E
330
1E
100
AcDbEntity
  8
001
100
AcDbText
 10
4934.262289591623
 20
-1996.282896738931
 30
0.0
 40
18.0
  1
10°振りアンカー頭部構造図
 41
0.787037
100
AcDbText
  0
LINE
  5
940F
330
1E
100
AcDbEntity
  8
003
100
AcDbLine
 10
5150.873844280653
 20
-2205.97479849198
 30
0.0
 11
5024.667852612661
 21
-2205.97479849198
 31
0.0
  0
LWPOLYLINE
  5
9410
330
1E
100
AcDbEntity
  8
003
100
AcDbPolyline
 90
        3
 70
     0
 43
0.0
 10
5143.195380168352
 20
-2239.229960952547
 10
5025.765621065229
 20
-2218.523926084571
 10
5024.66785261266
 20
-2205.97479849198
  0
LINE
  5
9411
330
1E
100
AcDbEntity
  8
003
100
AcDbLine
 10
5104.168408355534
 20
-2205.97479849198
 30
0.0
 11
4866.653392114543
 21
-2205.97479849198
 31
0.0
  0
LINE
  5
9412
330
1E
100
AcDbEntity
  8
003
 48
0.25
100
AcDbLine
 10
4793.269443959771
 20
-2221.238659708173
 30
0.0
 11
4866.653392114543
 21
-2205.97479849198
 31
0.0
  0
LINE
  5
9413
330
1E
100
AcDbEntity
  8
002
100
AcDbLine
 10
5256.172457886648
 20
-2189.086431735763
 30
0.0
 11
5173.853023846244
 21
-2174.57129447779
 31
0.0
  0
LINE
  5
9414
330
1E
100
AcDbEntity
  8
002
100
AcDbLine
 10
5169.942323604615
 20
-2168.804599452298
 30
0.0
 11
5261.819639904945
 21
-2185.005049231133
 31
0.0
  0
ARC
  5
9415
330
1E
100
AcDbEntity
  8
002
100
AcDbCircle
 10
5172.984782957909
 20
-2179.49533324285
 30
0.0
 40
5.0
100
AcDbArc
 50
79.9999999999961
 51
168.2865350000177
  0
ARC
  5
9416
330
1E
100
AcDbEntity
  8
002
100
AcDbCircle
 10
5169.074082716281
 20
-2173.72863821736
 30
0.0
 40
5.0
100
AcDbArc
 50
79.9999999999961
 51
168.2865350000177
  0
LINE
  5
9417
330
1E
100
AcDbEntity
  8
002
100
AcDbLine
 10
5194.930209669888
 20
-2251.398487071678
 30
0.0
 11
5189.06744624581
 21
-2250.364723698502
 31
0.0
  0
LINE
  5
9418
330
1E
100
AcDbEntity
  8
002
100
AcDbLine
 10
5189.06744624581
 20
-2250.364723698502
 30
0.0
 11
5188.524914481616
 21
-2250.562188987769
 31
0.0
  0
ARC
  5
9419
330
1E
100
AcDbEntity
  8
002
100
AcDbCircle
 10
5194.843385581055
 20
-2251.890890948183
 30
0.0
 40
0.5
100
AcDbArc
 50
342.9999999999943
 51
79.9999999999961
  0
LINE
  5
941A
330
1E
100
AcDbEntity
  8
002
100
AcDbLine
 10
5169.712815620656
 20
-2246.951980117641
 30
0.0
 11
5175.575580029541
 21
-2247.985743664465
 31
0.0
  0
ARC
  5
941B
330
1E
100
AcDbEntity
  8
002
100
AcDbCircle
 10
5169.625991531823
 20
-2247.444383994146
 30
0.0
 40
0.5
100
AcDbArc
 50
79.9999999999961
 51
176.9999999999938
  0
LINE
  5
941C
330
1E
100
AcDbEntity
  8
002
100
AcDbLine
 10
5168.971899189063
 20
-2250.371545206917
 30
0.0
 11
5168.505663939011
 21
-2249.785406542016
 31
0.0
  0
LINE
  5
941D
330
1E
100
AcDbEntity
  8
002
100
AcDbLine
 10
5175.575580029541
 20
-2247.985743664465
 30
0.0
 11
5176.01785601836
 21
-2248.356857131399
 31
0.0
  0
LINE
  5
941E
330
1E
100
AcDbEntity
  8
002
100
AcDbLine
 10
5163.58162517395
 20
-2248.917165653682
 30
0.0
 11
5162.423169243271
 21
-2249.728325229027
 31
0.0
  0
LINE
  5
941F
330
1E
100
AcDbEntity
  8
002
100
AcDbLine
 10
5168.505663939011
 20
-2249.785406542016
 30
0.0
 11
5163.58162517395
 21
-2248.917165653682
 31
0.0
  0
LINE
  5
9420
330
1E
100
AcDbEntity
  8
002
100
AcDbLine
 10
5184.229448256395
 20
-2201.786603361725
 30
0.0
 11
5196.736506719649
 21
-2203.991935218095
 31
0.0
  0
LINE
  5
9421
330
1E
100
AcDbEntity
  8
002
100
AcDbLine
 10
5181.154125485356
 20
-2219.227625482576
 30
0.0
 11
5187.304770454421
 21
-2202.328865639609
 31
0.0
  0
LINE
  5
9422
330
1E
100
AcDbEntity
  8
002
100
AcDbLine
 10
5223.478451538408
 20
-2178.13521202263
 30
0.0
 11
5222.481269770972
 21
-2183.036515031789
 31
0.0
  0
LINE
  5
9423
330
1E
100
AcDbEntity
  8
002
100
AcDbLine
 10
5222.986047661902
 20
-2178.048387933798
 30
0.0
 11
5221.988865894466
 21
-2182.949690942955
 31
0.0
  0
LINE
  5
9424
330
1E
100
AcDbEntity
  8
002
100
AcDbLine
 10
5215.380265117306
 20
-2176.707283261784
 30
0.0
 11
5214.640964123265
 21
-2181.654057609098
 31
0.0
  0
LINE
  5
9425
330
1E
100
AcDbEntity
  8
002
100
AcDbLine
 10
5215.872668993811
 20
-2176.794107350616
 30
0.0
 11
5215.13336799977
 21
-2181.740881697932
 31
0.0
  0
LINE
  5
9426
330
1E
100
AcDbEntity
  8
002
100
AcDbLine
 10
5215.380265117306
 20
-2176.707283261783
 30
0.0
 11
5223.435536243333
 21
-2178.346147352336
 31
0.0
  0
LINE
  5
9427
330
1E
100
AcDbEntity
  8
002
100
AcDbLine
 10
5224.606566129896
 20
-2208.906178646068
 30
0.0
 11
5237.11362459315
 21
-2211.111510502438
 31
0.0
  0
LINE
  5
9428
330
1E
100
AcDbEntity
  8
002
100
AcDbLine
 10
5221.90836135763
 20
-2224.208458316624
 30
0.0
 11
5227.304770971023
 21
-2209.381944959037
 31
0.0
  0
ARC
  5
9429
330
1E
100
AcDbEntity
  8
002
100
AcDbCircle
 10
5260.951399016612
 20
-2189.929087996194
 30
0.0
 40
5.0
100
AcDbArc
 50
351.7134649999899
 51
79.9999999999961
  0
ARC
  5
942A
330
1E
100
AcDbEntity
  8
002
100
AcDbCircle
 10
5255.304216998314
 20
-2194.010470500824
 30
0.0
 40
5.0
100
AcDbArc
 50
351.7134649999899
 51
79.9999999999961
  0
LINE
  5
942B
330
1E
100
AcDbEntity
  8
003
 62
     3
100
AcDbLine
 10
6040.985733721488
 20
-2353.956816810419
 30
0.0
 11
6056.552157721489
 21
-2344.918760810419
 31
0.0
  0
LINE
  5
942C
330
1E
100
AcDbEntity
  8
003
 62
     3
100
AcDbLine
 10
6045.504761721488
 20
-2361.740028810419
 30
0.0
 11
6061.071185721488
 21
-2352.701972810419
 31
0.0
  0
LINE
  5
942D
330
1E
100
AcDbEntity
  8
004
  6
CENTER
100
AcDbLine
 10
6038.654979721489
 20
-2360.513588810418
 30
0.0
 11
6063.267839721489
 21
-2346.223060810419
 31
0.0
  0
LINE
  5
942E
330
1E
100
AcDbEntity
  8
003
100
AcDbLine
 10
5989.898106354573
 20
-2230.97479849198
 30
0.0
 11
6108.634726514779
 21
-2230.97479849198
 31
0.0
  0
LINE
  5
942F
330
1E
100
AcDbEntity
  8
003
100
AcDbLine
 10
6108.63472651478
 20
-2230.974798491981
 30
0.0
 11
5970.439015445482
 21
-2230.97479849198
 31
0.0
  0
LINE
  5
9430
330
1E
100
AcDbEntity
  8
003
100
AcDbLine
 10
6110.868089374349
 20
-2205.97479849198
 30
0.0
 11
5980.898106354572
 21
-2205.97479849198
 31
0.0
  0
LINE
  5
9431
330
1E
100
AcDbEntity
  8
001
100
AcDbLine
 10
6103.478651508797
 20
-2121.243219995579
 30
0.0
 11
5970.438536535692
 21
-2121.243219995579
 31
0.0
  0
TEXT
  5
9432
330
1E
100
AcDbEntity
  8
001
100
AcDbText
 10
5973.581324406314
 20
-2117.743183995579
 30
0.0
 40
11.19999999999999
  1
ヘッドキャップ　Ｓタイプ
 41
0.716146
100
AcDbText
  0
LINE
  5
9433
330
1E
100
AcDbEntity
  8
003
100
AcDbLine
 10
6063.398106354572
 20
-2355.97479849198
 30
0.0
 11
5991.239015445483
 21
-2230.97479849198
 31
0.0
  0
LINE
  5
9434
330
1E
100
AcDbEntity
  8
003
100
AcDbLine
 10
5970.439015445482
 20
-2230.97479849198
 30
0.0
 11
6055.298106354573
 21
-2377.97479849198
 31
0.0
  0
LINE
  5
9435
330
1E
100
AcDbEntity
  8
001
100
AcDbLine
 10
6127.898106354573
 20
-2270.32480249198
 30
0.0
 11
6044.252280354573
 21
-2195.558379491979
 31
0.0
  0
LINE
  5
9436
330
1E
100
AcDbEntity
  8
003
100
AcDbLine
 10
6107.765766505842
 20
-2205.974798491979
 30
0.0
 11
5868.398106354572
 21
-2205.97479849198
 31
0.0
  0
LINE
  5
9437
330
1E
100
AcDbEntity
  8
001
100
AcDbLine
 10
6068.597167354573
 20
-2524.79763149198
 30
0.0
 11
5962.722167354573
 21
-2524.79763149198
 31
0.0
  0
TEXT
  5
9438
330
1E
100
AcDbEntity
  8
001
100
AcDbText
 10
5973.222167354573
 20
-2521.29757949198
 30
0.0
 40
11.19999999999999
  1
ジョイントコネクタ
 41
0.716146
100
AcDbText
  0
TEXT
  5
9439
330
1E
100
AcDbEntity
  8
001
100
AcDbText
 10
6016.397541139645
 20
-2828.681197964928
 30
0.0
 40
16.0
  1
メッキ付　円形プレート
 41
0.703125
100
AcDbText
  0
LINE
  5
943A
330
1E
100
AcDbEntity
  8
001
100
AcDbLine
 10
6016.397541139645
 20
-2828.681197964928
 30
0.0
 11
6165.397541139645
 21
-2828.681197964928
 31
0.0
  0
LINE
  5
943B
330
1E
100
AcDbEntity
  8
004
  6
CENTER
 62
     6
100
AcDbLine
 10
6277.413172139645
 20
-2961.359804964928
 30
0.0
 11
6037.046427139645
 21
-2961.359804964928
 31
0.0
  0
LWPOLYLINE
  5
943C
330
1E
100
AcDbEntity
  8
003
 62
     3
100
AcDbPolyline
 90
       64
 70
     0
 43
0.0
 10
5796.741326660604
 20
-2556.08835849198
 10
6103.276677708052
 20
-2556.08835849198
 10
6101.393764354572
 20
-2558.283551032911
 10
6100.343954354573
 20
-2560.646143032911
 10
6100.789927354572
 20
-2562.809290032911
 10
6102.197221354572
 20
-2565.005819032911
 10
6103.983766354573
 20
-2567.227345032911
 10
6105.567489354573
 20
-2569.465483032911
 10
6106.366322354573
 20
-2571.711846032911
 10
6106.024766354572
 20
-2573.85339503291
 10
6104.898972354573
 20
-2576.004598032911
 10
6103.443810354573
 20
-2578.175252032911
 10
6102.114152354573
 20
-2580.375156032911
 10
6101.364872354572
 20
-2582.614109032911
 10
6101.696743354573
 20
-2585.520027032911
 10
6103.021421354572
 20
-2588.462028032911
 10
6104.660558354573
 20
-2591.397345032911
 10
6105.935808354573
 20
-2594.283209032911
 10
6106.168823354573
 20
-2597.076853032911
 10
6105.271513354573
 20
-2599.245003032911
 10
6103.724776354573
 20
-2601.356826032911
 10
6102.000847354572
 20
-2603.443991032911
 10
6100.571964354572
 20
-2605.538171032911
 10
6099.910361354572
 20
-2607.671039032911
 10
6100.484316354573
 20
-2610.207445032911
 10
6102.036033354572
 20
-2612.801773032911
 10
6103.892994354572
 20
-2615.418272032911
 10
6105.382684354572
 20
-2618.021188032911
 10
6105.832585354573
 20
-2620.574771032911
 10
6105.039143354573
 20
-2622.702324032911
 10
6103.506683354573
 20
-2624.789747032911
 10
6101.751412354572
 20
-2626.859283032911
 10
6100.289542354572
 20
-2628.933175032911
 10
6099.637281354572
 20
-2631.033667032911
 10
6100.254661354573
 20
-2633.400683032911
 10
6101.842778354573
 20
-2635.797360032911
 10
6103.755870354572
 20
-2638.193806032911
 10
6105.348180354573
 20
-2640.560130032911
 10
6105.973947354573
 20
-2642.866441032911
 10
6105.361889354572
 20
-2644.829639032911
 10
6103.952725354573
 20
-2646.758153032911
 10
6102.195104354573
 20
-2648.686764032911
 10
6100.537676354573
 20
-2650.650252032911
 10
6099.429089354572
 20
-2652.683400032911
 10
6099.571271354573
 20
-2656.497735032911
 10
6101.596156354572
 20
-2660.499315032911
 10
6104.272268354573
 20
-2664.549322032911
 10
6106.368128354573
 20
-2668.508938032911
 10
6106.652256354572
 20
-2672.239345032911
 10
6105.484348354573
 20
-2674.420488032911
 10
6103.612872354573
 20
-2676.507988032911
 10
6101.538337354573
 20
-2678.553814032911
 10
6099.761254354572
 20
-2680.609935032911
 10
6098.782130354573
 20
-2682.728322032911
 10
6099.181474354573
 20
-2685.586067032911
 10
6100.898783354573
 20
-2688.582850032911
 10
6103.126624354572
 20
-2691.670725032911
 10
6105.057567354573
 20
-2694.801745032911
 10
6105.884179354572
 20
-2697.927965032911
 10
6105.293919354572
 20
-2700.525762032911
 10
6103.843016354573
 20
-2703.093074032911
 10
6102.024676354573
 20
-2705.636772032911
 10
6100.332107354573
 20
-2708.163723032911
 10
6099.258514354573
 20
-2710.680799032911
  0
LWPOLYLINE
  5
943D
330
1E
100
AcDbEntity
  8
003
  6
Continuous
100
AcDbPolyline
 90
       12
 70
     1
 43
0.0
 10
6018.415557092648
 20
-2095.97479849198
 10
6318.380655616497
 20
-2095.97479849198
 10
6418.380655616497
 20
-2205.97479849198
 10
6468.398106354573
 20
-2205.97479849198
 10
6468.398106354573
 20
-2203.67479849198
 10
6419.398106354572
 20
-2203.67479849198
 10
6319.398106354572
 20
-2093.674798491981
 10
6017.398106354573
 20
-2093.674798491981
 10
5917.398106354572
 20
-2203.67479849198
 10
5868.398106354573
 20
-2203.67479849198
 10
5868.398106354573
 20
-2205.97479849198
 10
5918.415557092648
 20
-2205.97479849198
  0
LINE
  5
943E
330
1E
100
AcDbEntity
  8
003
 62
     3
100
AcDbLine
 10
5795.014158199799
 20
-2415.573616065664
 30
0.0
 11
5795.014158199799
 21
-2186.982485120756
 31
0.0
  0
LINE
  5
943F
330
1E
100
AcDbEntity
  8
003
 62
     3
100
AcDbLine
 10
5540.180068322722
 20
-2414.032706220403
 30
0.0
 11
5540.180068322722
 21
-2187.012172555865
 31
0.0
  0
LINE
  5
9440
330
1E
100
AcDbEntity
  8
004
  6
CENTER
 62
     6
100
AcDbLine
 10
5717.901811957553
 20
-2961.359804964928
 30
0.0
 11
5763.947146957554
 21
-2961.359804964928
 31
0.0
  0
DIMENSION
  5
9441
330
1E
100
AcDbEntity
  8
001
  6
Continuous
100
AcDbDimension
  2
*D5
 10
5730.070700957552
 20
-2881.51250726459
 30
0.0
 11
5790.570700957553
 21
-2881.51250726459
 31
0.0
 70
   160
 71
     5
 42
20.0
  3
ISO-25
100
AcDbAlignedDimension
 13
5750.070700957553
 23
-2909.859804964928
 33
0.0
 14
5730.070700957552
 24
-2909.859804964928
 34
0.0
100
AcDbRotatedDimension
  0
DIMENSION
  5
9442
330
1E
100
AcDbEntity
  8
001
  6
Continuous
100
AcDbDimension
  2
*D6
 10
5693.109977234676
 20
-3014.359804964928
 30
0.0
 11
5679.984977234678
 21
-2961.359804964927
 31
0.0
 70
    32
  1
M106
 71
     5
 42
106.0
  3
ISO-25
100
AcDbAlignedDimension
 13
5732.802750957553
 23
-2908.359804964928
 33
0.0
 14
5732.802750957553
 24
-3014.359804964928
 34
0.0
 50
90.0
100
AcDbRotatedDimension
  0
LINE
  5
9443
330
1E
100
AcDbEntity
  8
001
100
AcDbLine
 10
5444.142128957553
 20
-2866.216947964928
 30
0.0
 11
5606.642128957552
 21
-2866.216947964928
 31
0.0
  0
TEXT
  5
9444
330
1E
100
AcDbEntity
  8
001
100
AcDbText
 10
5444.142128957553
 20
-2866.216947964928
 30
0.0
 40
16.0
  1
両ネジジョイントプレート
 41
0.703125
100
AcDbText
  0
CIRCLE
  5
9445
330
1E
100
AcDbEntity
  8
002
100
AcDbCircle
 10
5567.455617957553
 20
-2961.359804964928
 30
0.0
 40
30.490683
  0
CIRCLE
  5
9446
330
1E
100
AcDbEntity
  8
002
100
AcDbCircle
 10
5567.455617957553
 20
-2961.359804964928
 30
0.0
 40
31.990683
  0
CIRCLE
  5
9447
330
1E
100
AcDbEntity
  8
002
100
AcDbCircle
 10
5567.455617957553
 20
-2961.359804964928
 30
0.0
 40
43.803009
  0
CIRCLE
  5
9448
330
1E
100
AcDbEntity
  8
002
100
AcDbCircle
 10
5567.455617957553
 20
-2961.359804964928
 30
0.0
 40
49.5
  0
CIRCLE
  5
9449
330
1E
100
AcDbEntity
  8
002
100
AcDbCircle
 10
5567.455617957553
 20
-2961.359804964928
 30
0.0
 40
53.0
  0
CIRCLE
  5
944A
330
1E
100
AcDbEntity
  8
002
100
AcDbCircle
 10
5567.455617957553
 20
-2961.359804964928
 30
0.0
 40
51.5
  0
CIRCLE
  5
944B
330
1E
100
AcDbEntity
  8
002
100
AcDbCircle
 10
5567.455617957553
 20
-2961.359804964928
 30
0.0
 40
50.5
  0
CIRCLE
  5
944C
330
1E
100
AcDbEntity
  8
002
100
AcDbCircle
 10
5567.455617957553
 20
-2961.359804964928
 30
0.0
 40
42.5
  0
LINE
  5
944D
330
1E
100
AcDbEntity
  8
004
  6
CENTER
 62
     6
100
AcDbLine
 10
5627.716050957552
 20
-2961.359804964928
 30
0.0
 11
5506.403295957554
 21
-2961.359804964928
 31
0.0
  0
LINE
  5
944E
330
1E
100
AcDbEntity
  8
004
  6
CENTER
 62
     6
100
AcDbLine
 10
5567.455617957553
 20
-2903.524536964928
 30
0.0
 11
5567.455617957553
 21
-3021.375997964928
 31
0.0
  0
LINE
  5
944F
330
1E
100
AcDbEntity
  8
003
 62
     3
100
AcDbLine
 10
5540.180068322722
 20
-2460.634743220403
 30
0.0
 11
5540.180068322722
 21
-2599.671518591489
 31
0.0
  0
LINE
  5
9450
330
1E
100
AcDbEntity
  8
003
 62
     3
100
AcDbLine
 10
5521.779670322722
 20
-2460.634743220403
 30
0.0
 11
5540.180068322722
 21
-2460.634743220403
 31
0.0
  0
LINE
  5
9451
330
1E
100
AcDbEntity
  8
003
 62
     3
100
AcDbLine
 10
5559.903951322722
 20
-2414.032706220403
 30
0.0
 11
5521.779670322722
 21
-2460.634743220403
 31
0.0
  0
LINE
  5
9452
330
1E
100
AcDbEntity
  8
003
 62
     3
100
AcDbLine
 10
5540.180068322722
 20
-2414.032706220403
 30
0.0
 11
5559.903951322722
 21
-2414.032706220403
 31
0.0
  0
LINE
  5
9453
330
1E
100
AcDbEntity
  8
002
100
AcDbLine
 10
5730.070700957554
 20
-2961.359804964928
 30
0.0
 11
5730.070700957554
 21
-2918.859804964928
 31
0.0
  0
LINE
  5
9454
330
1E
100
AcDbEntity
  8
002
100
AcDbLine
 10
5749.204674957553
 20
-2930.869121964928
 30
0.0
 11
5749.204674957553
 21
-2943.111835964928
 31
0.0
  0
LINE
  5
9455
330
1E
100
AcDbEntity
  8
002
100
AcDbLine
 10
5730.936725957553
 20
-2930.869121964928
 30
0.0
 11
5730.936725957553
 21
-2943.111835964928
 31
0.0
  0
INSERT
  5
9456
330
1E
100
AcDbEntity
  8
001
  6
ByBlock
100
AcDbBlockReference
  2
PART0
 10
4495.834512919216
 20
-3516.382971638243
 30
0.0
  0
LINE
  5
9457
330
1E
100
AcDbEntity
  8
002
100
AcDbLine
 10
5750.070700957554
 20
-3012.869121964928
 30
0.0
 11
5750.070700957554
 21
-2909.859804964928
 31
0.0
  0
LINE
  5
9458
330
1E
100
AcDbEntity
  8
002
100
AcDbLine
 10
5728.070700957553
 20
-3010.859804964928
 30
0.0
 11
5728.070700957553
 21
-2911.859804964928
 31
0.0
  0
LINE
  5
9459
330
1E
100
AcDbEntity
  8
002
100
AcDbLine
 10
5750.070700957554
 20
-3012.869121964928
 30
0.0
 11
5749.204674957553
 21
-3014.369121964928
 31
0.0
  0
LINE
  5
945A
330
1E
100
AcDbEntity
  8
002
100
AcDbLine
 10
5731.070700957554
 20
-3011.859804964928
 30
0.0
 11
5732.802750957553
 21
-3014.359804964928
 31
0.0
  0
LINE
  5
945B
330
1E
100
AcDbEntity
  8
002
100
AcDbLine
 10
5729.070700957553
 20
-3011.859804964928
 30
0.0
 11
5731.070700957554
 21
-3011.859804964928
 31
0.0
  0
LINE
  5
945C
330
1E
100
AcDbEntity
  8
002
100
AcDbLine
 10
5729.070700957553
 20
-3011.859804964928
 30
0.0
 11
5728.070700957553
 21
-3010.859804964928
 31
0.0
  0
LINE
  5
945D
330
1E
100
AcDbEntity
  8
002
100
AcDbLine
 10
5731.763520957554
 20
-3012.859804964928
 30
0.0
 11
5750.070700957554
 21
-3012.859804964928
 31
0.0
  0
LINE
  5
945E
330
1E
100
AcDbEntity
  8
002
100
AcDbLine
 10
5732.802750957553
 20
-3014.359804964928
 30
0.0
 11
5749.210053957554
 21
-3014.359804964928
 31
0.0
  0
LINE
  5
945F
330
1E
100
AcDbEntity
  8
002
100
AcDbLine
 10
5749.210053957554
 20
-3014.359804964928
 30
0.0
 11
5749.210053957554
 21
-2987.375406964928
 31
0.0
  0
LINE
  5
9460
330
1E
100
AcDbEntity
  8
002
100
AcDbLine
 10
5732.802750957553
 20
-3014.359804964928
 30
0.0
 11
5732.802750957553
 21
-2987.375406964928
 31
0.0
  0
LINE
  5
9461
330
1E
100
AcDbEntity
  8
002
100
AcDbLine
 10
5731.070700957554
 20
-3011.859804964928
 30
0.0
 11
5731.070700957554
 21
-2961.359804964928
 31
0.0
  0
LINE
  5
9462
330
1E
100
AcDbEntity
  8
002
100
AcDbLine
 10
5729.070700957553
 20
-3011.859804964928
 30
0.0
 11
5729.070700957553
 21
-2961.359804964928
 31
0.0
  0
LINE
  5
9463
330
1E
100
AcDbEntity
  8
002
100
AcDbLine
 10
5737.756115957553
 20
-2929.369121964928
 30
0.0
 11
5750.070700957554
 21
-2917.054536964928
 31
0.0
  0
LINE
  5
9464
330
1E
100
AcDbEntity
  8
002
100
AcDbLine
 10
5730.070700957554
 20
-2927.155041964928
 30
0.0
 11
5747.365937957553
 21
-2909.859804964928
 31
0.0
  0
LINE
  5
9465
330
1E
100
AcDbEntity
  8
002
100
AcDbLine
 10
5747.655610957553
 20
-2929.369121964928
 30
0.0
 11
5750.070700957554
 21
-2926.954031964928
 31
0.0
  0
LINE
  5
9466
330
1E
100
AcDbEntity
  8
002
100
AcDbLine
 10
5750.070700957554
 20
-2929.369121964928
 30
0.0
 11
5749.204674957553
 21
-2930.869121964928
 31
0.0
  0
LINE
  5
9467
330
1E
100
AcDbEntity
  8
002
100
AcDbLine
 10
5730.070700957554
 20
-2929.369121964928
 30
0.0
 11
5730.936725957553
 21
-2930.869121964928
 31
0.0
  0
LINE
  5
9468
330
1E
100
AcDbEntity
  8
002
100
AcDbLine
 10
5730.070700957554
 20
-2929.369121964928
 30
0.0
 11
5750.070700957554
 21
-2929.369121964928
 31
0.0
  0
LINE
  5
9469
330
1E
100
AcDbEntity
  8
002
100
AcDbLine
 10
5730.936725957553
 20
-2930.869121964928
 30
0.0
 11
5749.204674957553
 21
-2930.869121964928
 31
0.0
  0
LINE
  5
946A
330
1E
100
AcDbEntity
  8
002
100
AcDbLine
 10
5750.070700957554
 20
-2909.859804964928
 30
0.0
 11
5749.204674957553
 21
-2908.359804964928
 31
0.0
  0
LINE
  5
946B
330
1E
100
AcDbEntity
  8
002
100
AcDbLine
 10
5730.070700957554
 20
-2918.859804964928
 30
0.0
 11
5728.070700957553
 21
-2917.556795964928
 31
0.0
  0
LINE
  5
946C
330
1E
100
AcDbEntity
  8
002
100
AcDbLine
 10
5729.070700957553
 20
-2910.859804964928
 30
0.0
 11
5728.070700957553
 21
-2911.859804964928
 31
0.0
  0
LINE
  5
946D
330
1E
100
AcDbEntity
  8
002
100
AcDbLine
 10
5729.070700957553
 20
-2910.859804964928
 30
0.0
 11
5731.070700957554
 21
-2910.859804964928
 31
0.0
  0
LINE
  5
946E
330
1E
100
AcDbEntity
  8
002
100
AcDbLine
 10
5731.070700957554
 20
-2910.859804964928
 30
0.0
 11
5732.802750957553
 21
-2908.359804964928
 31
0.0
  0
LINE
  5
946F
330
1E
100
AcDbEntity
  8
002
100
AcDbLine
 10
5729.099308957553
 20
-2918.226938964928
 30
0.0
 11
5737.466442957553
 21
-2909.859804964928
 31
0.0
  0
LINE
  5
9470
330
1E
100
AcDbEntity
  8
002
100
AcDbLine
 10
5731.763520957554
 20
-2909.859804964928
 30
0.0
 11
5750.070700957554
 21
-2909.859804964928
 31
0.0
  0
LINE
  5
9471
330
1E
100
AcDbEntity
  8
002
100
AcDbLine
 10
5732.802750957553
 20
-2908.359804964928
 30
0.0
 11
5749.204674957553
 21
-2908.359804964928
 31
0.0
  0
TEXT
  5
9472
330
1E
100
AcDbEntity
  8
001
100
AcDbText
 10
5830.988820354573
 20
-2283.97989649198
 30
0.0
 40
12.8
  1
テーパーコーン
 41
0.716146
100
AcDbText
  0
LINE
  5
9473
330
1E
100
AcDbEntity
  8
001
100
AcDbLine
 10
5918.988820354573
 20
-2287.97989649198
 30
0.0
 11
5819.988820354573
 21
-2287.97989649198
 31
0.0
  0
LINE
  5
9474
330
1E
100
AcDbEntity
  8
003
 62
     3
100
AcDbLine
 10
5795.014158199799
 20
-2462.175653065663
 30
0.0
 11
5795.014158199799
 21
-2599.671518591488
 31
0.0
  0
LINE
  5
9475
330
1E
100
AcDbEntity
  8
003
 62
     3
100
AcDbLine
 10
5795.014158199799
 20
-2415.573616065664
 30
0.0
 11
5814.738041199799
 21
-2415.573616065664
 31
0.0
  0
LINE
  5
9476
330
1E
100
AcDbEntity
  8
003
 62
     3
100
AcDbLine
 10
5814.738041199799
 20
-2415.573616065664
 30
0.0
 11
5776.613760199799
 21
-2462.175653065663
 31
0.0
  0
LINE
  5
9477
330
1E
100
AcDbEntity
  8
003
 62
     3
100
AcDbLine
 10
5776.613760199799
 20
-2462.175653065663
 30
0.0
 11
5795.014158199799
 21
-2462.175653065663
 31
0.0
  0
LINE
  5
9478
330
1E
100
AcDbEntity
  8
001
100
AcDbLine
 10
5991.159648354573
 20
-2266.64669749198
 30
0.0
 11
5918.988820354573
 21
-2287.97989649198
 31
0.0
  0
LWPOLYLINE
  5
9479
330
1E
100
AcDbEntity
  8
001
100
AcDbPolyline
 90
        3
 70
     0
 43
0.0
 10
5984.095436354572
 20
-2270.97011049198
 10
5991.159648354573
 20
-2266.64669749198
 10
5982.880154354572
 20
-2266.85877749198
  0
LINE
  5
947A
330
1E
100
AcDbEntity
  8
003
 48
0.25
100
AcDbLine
 10
5540.180068322722
 20
-2221.268347143282
 30
0.0
 11
5466.653392114545
 21
-2205.97479849198
 31
0.0
  0
LINE
  5
947B
330
1E
100
AcDbEntity
  8
001
100
AcDbLine
 10
5819.894378086464
 20
-1999.843853959785
 30
0.0
 11
6040.945305809483
 21
-1999.843853959785
 31
0.0
  0
TEXT
  5
947C
330
1E
100
AcDbEntity
  8
001
100
AcDbText
 10
5819.894378086464
 20
-1996.282896738931
 30
0.0
 40
18.0
  1
角度なしアンカー頭部構造図
 41
0.787037
100
AcDbText
  0
LINE
  5
947D
330
1E
100
AcDbEntity
  8
003
 48
0.25
100
AcDbLine
 10
5795.014158199799
 20
-2221.238659708173
 30
0.0
 11
5868.398106354572
 21
-2205.97479849198
 31
0.0
  0
TEXT
  5
947E
330
1E
100
AcDbEntity
  8
001
100
AcDbText
 10
5967.252280354572
 20
-2192.05834049198
 30
0.0
 40
11.19999999999999
  1
アンカーヘッド
 41
0.716146
100
AcDbText
  0
LINE
  5
947F
330
1E
100
AcDbEntity
  8
001
100
AcDbLine
 10
6044.252280354573
 20
-2195.558379491979
 30
0.0
 11
5957.627280354572
 21
-2195.558379491979
 31
0.0
  0
LINE
  5
9480
330
1E
100
AcDbEntity
  8
003
100
AcDbLine
 10
5980.829443438112
 20
-2230.97479849198
 30
0.0
 11
5971.829443438112
 21
-2205.97479849198
 31
0.0
  0
LINE
  5
9481
330
1E
100
AcDbEntity
  8
002
100
AcDbLine
 10
6215.190542354572
 20
-2181.82529249198
 30
0.0
 11
6218.400341354572
 21
-2289.12430449198
 31
0.0
  0
LINE
  5
9482
330
1E
100
AcDbEntity
  8
002
100
AcDbLine
 10
6223.349073354572
 20
-2287.33570649198
 30
0.0
 11
6220.043206354572
 21
-2176.82529249198
 31
0.0
  0
LINE
  5
9483
330
1E
100
AcDbEntity
  8
002
100
AcDbLine
 10
6182.548106354572
 20
-2275.10084549198
 30
0.0
 11
6195.248106354572
 21
-2203.07556649198
 31
0.0
  0
LINE
  5
9484
330
1E
100
AcDbEntity
  8
002
100
AcDbLine
 10
6207.398106354572
 20
-2251.97479849198
 30
0.0
 11
6208.398106354573
 21
-2252.97479849198
 31
0.0
  0
LINE
  5
9485
330
1E
100
AcDbEntity
  8
002
100
AcDbLine
 10
6195.748106354572
 20
-2288.35063049198
 30
0.0
 11
6195.748106354572
 21
-2248.97479849198
 31
0.0
  0
LINE
  5
9486
330
1E
100
AcDbEntity
  8
002
100
AcDbLine
 10
6182.048106354572
 20
-2288.35063049198
 30
0.0
 11
6182.048106354572
 21
-2248.97479849198
 31
0.0
  0
LINE
  5
9487
330
1E
100
AcDbEntity
  8
002
100
AcDbLine
 10
6202.197585354572
 20
-2249.53573349198
 30
0.0
 11
6196.398106354572
 21
-2296.76870349198
 31
0.0
  0
LINE
  5
9488
330
1E
100
AcDbEntity
  8
002
100
AcDbLine
 10
6175.598626354572
 20
-2249.53573349198
 30
0.0
 11
6181.398106354572
 21
-2296.76870349198
 31
0.0
  0
LINE
  5
9489
330
1E
100
AcDbEntity
  8
002
100
AcDbLine
 10
6141.548106354572
 20
-2277.27258049198
 30
0.0
 11
6154.248106354572
 21
-2205.24730149198
 31
0.0
  0
LINE
  5
948A
330
1E
100
AcDbEntity
  8
002
100
AcDbLine
 10
6161.197585354573
 20
-2249.53573349198
 30
0.0
 11
6155.398106354573
 21
-2296.76870349198
 31
0.0
  0
LINE
  5
948B
330
1E
100
AcDbEntity
  8
002
100
AcDbLine
 10
6154.748106354572
 20
-2288.35063049198
 30
0.0
 11
6154.748106354572
 21
-2248.97479849198
 31
0.0
  0
LINE
  5
948C
330
1E
100
AcDbEntity
  8
002
100
AcDbLine
 10
6134.598626354572
 20
-2249.53573349198
 30
0.0
 11
6140.398106354573
 21
-2296.76870349198
 31
0.0
  0
LINE
  5
948D
330
1E
100
AcDbEntity
  8
002
100
AcDbLine
 10
6141.048106354572
 20
-2288.35063049198
 30
0.0
 11
6141.048106354572
 21
-2248.97479849198
 31
0.0
  0
LINE
  5
948E
330
1E
100
AcDbEntity
  8
002
100
AcDbLine
 10
6129.398106354573
 20
-2251.97479849198
 30
0.0
 11
6128.398106354572
 21
-2252.97479849198
 31
0.0
  0
LINE
  5
948F
330
1E
100
AcDbEntity
  8
002
100
AcDbLine
 10
6113.447138354572
 20
-2287.33570649198
 30
0.0
 11
6116.753005354572
 21
-2176.82529249198
 31
0.0
  0
LINE
  5
9490
330
1E
100
AcDbEntity
  8
002
100
AcDbLine
 10
6121.605669354572
 20
-2181.82529249198
 30
0.0
 11
6118.395870354572
 21
-2289.12430449198
 31
0.0
  0
LINE
  5
9491
330
1E
100
AcDbEntity
  8
003
 62
     3
100
AcDbLine
 10
6541.924782562749
 20
-2414.032706220403
 30
0.0
 11
6541.924782562749
 21
-2187.012172555865
 31
0.0
  0
LINE
  5
9492
330
1E
100
AcDbEntity
  8
002
  6
CENTER
100
AcDbLine
 10
6188.898106354573
 20
-2368.262230927617
 30
0.0
 11
6188.898106354573
 21
-2199.471479927617
 31
0.0
  0
LINE
  5
9493
330
1E
100
AcDbEntity
  8
002
100
AcDbLine
 10
6195.248106354572
 20
-2366.97479849198
 30
0.0
 11
6195.248106354572
 21
-2203.07556649198
 31
0.0
  0
LINE
  5
9494
330
1E
100
AcDbEntity
  8
002
100
AcDbLine
 10
6182.548106354573
 20
-2366.97479849198
 30
0.0
 11
6182.548106354572
 21
-2203.07556649198
 31
0.0
  0
LINE
  5
9495
330
1E
100
AcDbEntity
  8
002
100
AcDbLine
 10
6154.248106354572
 20
-2366.97479849198
 30
0.0
 11
6154.248106354572
 21
-2203.07556649198
 31
0.0
  0
LINE
  5
9496
330
1E
100
AcDbEntity
  8
002
  6
CENTER
100
AcDbLine
 10
6147.898106354572
 20
-2368.262230927617
 30
0.0
 11
6147.898106354572
 21
-2199.471479927617
 31
0.0
  0
LINE
  5
9497
330
1E
100
AcDbEntity
  8
002
100
AcDbLine
 10
6141.548106354573
 20
-2366.97479849198
 30
0.0
 11
6141.548106354572
 21
-2203.07556649198
 31
0.0
  0
LINE
  5
9498
330
1E
100
AcDbEntity
  8
004
  6
CENTER
 62
     6
100
AcDbLine
 10
6168.398106354572
 20
-2599.870462773664
 30
0.0
 11
6168.398106354573
 21
-2133.820126028815
 31
0.0
  0
DIMENSION
  5
9499
330
1E
100
AcDbEntity
  8
001
100
AcDbDimension
  2
*D7
 10
6424.374659783175
 20
-2355.97479849198
 30
0.0
 11
6411.249659783177
 21
-2293.474798491979
 31
0.0
 70
    32
 71
     5
 42
125.0
  3
ISO-25
100
AcDbAlignedDimension
 13
6345.557197263663
 23
-2230.97479849198
 33
0.0
 14
6271.230377354572
 24
-2355.97479849198
 34
0.0
 50
90.0
100
AcDbRotatedDimension
  0
LINE
  5
949A
330
1E
100
AcDbEntity
  8
003
100
AcDbLine
 10
6281.498106354572
 20
-2377.97479849198
 30
0.0
 11
6366.357197263663
 21
-2230.97479849198
 31
0.0
  0
LINE
  5
949B
330
1E
100
AcDbEntity
  8
003
100
AcDbLine
 10
6345.557197263663
 20
-2230.97479849198
 30
0.0
 11
6273.398106354573
 21
-2355.97479849198
 31
0.0
  0
LINE
  5
949C
330
1E
100
AcDbEntity
  8
001
100
AcDbLine
 10
6221.398106354572
 20
-2317.864193579259
 30
0.0
 11
6269.493453967984
 21
-2251.381499787922
 31
0.0
  0
LINE
  5
949D
330
1E
100
AcDbEntity
  8
001
100
AcDbLine
 10
6371.363675724152
 20
-2388.799355243651
 30
0.0
 11
6496.488675724151
 21
-2388.799355243651
 31
0.0
  0
TEXT
  5
949E
330
1E
100
AcDbEntity
  8
001
100
AcDbText
 10
6341.988254457529
 20
-3158.224953600888
 30
0.0
 40
22.0
  1
ＰＵＣ受圧板　アンカー頭部図面
 41
0.681818
100
AcDbText
  0
DIMENSION
  5
949F
330
1E
100
AcDbEntity
  8
001
  6
Continuous
100
AcDbDimension
  2
*D8
 10
6347.335710163958
 20
-3063.859804964928
 30
0.0
 11
6334.210710163958
 21
-2961.359804964927
 31
0.0
 70
    32
  1
φ205
 71
     5
 42
205.0
  3
ISO-25
100
AcDbAlignedDimension
 13
6402.111931139645
 23
-2858.859804964928
 33
0.0
 14
6402.111931139645
 24
-3063.859804964928
 34
0.0
 50
90.0
100
AcDbRotatedDimension
  0
LWPOLYLINE
  5
94A0
330
1E
100
AcDbEntity
  8
003
 62
     3
100
AcDbPolyline
 90
       64
 70
     0
 43
0.0
 10
6540.054886048541
 20
-2556.08835849198
 10
6233.519535001093
 20
-2556.08835849198
 10
6235.402448354573
 20
-2558.283551032911
 10
6236.452258354572
 20
-2560.646143032911
 10
6236.006285354573
 20
-2562.809290032911
 10
6234.598991354573
 20
-2565.005819032911
 10
6232.812446354572
 20
-2567.227345032911
 10
6231.228723354572
 20
-2569.465483032911
 10
6230.429890354572
 20
-2571.711846032911
 10
6230.771446354573
 20
-2573.85339503291
 10
6231.897240354572
 20
-2576.004598032911
 10
6233.352402354572
 20
-2578.175252032911
 10
6234.682060354572
 20
-2580.375156032911
 10
6235.431340354573
 20
-2582.614109032911
 10
6235.099469354572
 20
-2585.520027032911
 10
6233.774791354573
 20
-2588.462028032911
 10
6232.135654354572
 20
-2591.397345032911
 10
6230.860404354572
 20
-2594.283209032911
 10
6230.627389354572
 20
-2597.076853032911
 10
6231.524699354572
 20
-2599.245003032911
 10
6233.071436354572
 20
-2601.356826032911
 10
6234.795365354573
 20
-2603.443991032911
 10
6236.224248354573
 20
-2605.538171032911
 10
6236.885851354573
 20
-2607.671039032911
 10
6236.311896354572
 20
-2610.207445032911
 10
6234.760179354573
 20
-2612.801773032911
 10
6232.903218354572
 20
-2615.418272032911
 10
6231.413528354573
 20
-2618.021188032911
 10
6230.963627354572
 20
-2620.574771032911
 10
6231.757069354572
 20
-2622.702324032911
 10
6233.289529354572
 20
-2624.789747032911
 10
6235.044800354573
 20
-2626.859283032911
 10
6236.506670354573
 20
-2628.933175032911
 10
6237.158931354572
 20
-2631.033667032911
 10
6236.541551354572
 20
-2633.400683032911
 10
6234.953434354572
 20
-2635.797360032911
 10
6233.040342354573
 20
-2638.193806032911
 10
6231.448032354572
 20
-2640.560130032911
 10
6230.822265354572
 20
-2642.866441032911
 10
6231.434323354573
 20
-2644.829639032911
 10
6232.843487354572
 20
-2646.758153032911
 10
6234.601108354572
 20
-2648.686764032911
 10
6236.258536354572
 20
-2650.650252032911
 10
6237.367123354573
 20
-2652.683400032911
 10
6237.224941354572
 20
-2656.497735032911
 10
6235.200056354573
 20
-2660.499315032911
 10
6232.523944354572
 20
-2664.549322032911
 10
6230.428084354572
 20
-2668.508938032911
 10
6230.143956354573
 20
-2672.239345032911
 10
6231.311864354572
 20
-2674.420488032911
 10
6233.183340354572
 20
-2676.507988032911
 10
6235.257875354572
 20
-2678.553814032911
 10
6237.034958354572
 20
-2680.609935032911
 10
6238.014082354573
 20
-2682.728322032911
 10
6237.614738354572
 20
-2685.586067032911
 10
6235.897429354572
 20
-2688.582850032911
 10
6233.669588354572
 20
-2691.670725032911
 10
6231.738645354572
 20
-2694.801745032911
 10
6230.912033354573
 20
-2697.927965032911
 10
6231.502293354573
 20
-2700.525762032911
 10
6232.953196354572
 20
-2703.093074032911
 10
6234.771536354572
 20
-2705.636772032911
 10
6236.464105354571
 20
-2708.163723032911
 10
6237.537698354572
 20
-2710.680799032911
  0
TEXT
  5
94A1
330
1E
100
AcDbEntity
  8
001
100
AcDbText
 10
6313.47621045753
 20
-3125.901411600888
 30
0.0
 40
16.0
  1
ＶＳＬ工法　Ｅ５－４用
 41
0.729167
100
AcDbText
  0
LINE
  5
94A2
330
1E
100
AcDbEntity
  8
001
 62
     3
100
AcDbLine
 10
6656.90889645753
 20
-3102.706044600888
 30
0.0
 11
6271.908896457531
 21
-3102.706044600888
 31
0.0
  0
CIRCLE
  5
94A3
330
1E
100
AcDbEntity
  8
002
100
AcDbCircle
 10
6158.897646139645
 20
-2961.359804964928
 30
0.0
 40
102.4999999999999
  0
LINE
  5
94A4
330
1E
100
AcDbEntity
  8
004
  6
CENTER
 62
     6
100
AcDbLine
 10
6158.897646139645
 20
-2846.874678964928
 30
0.0
 11
6158.897646139645
 21
-3079.216946964928
 31
0.0
  0
CIRCLE
  5
94A5
330
1E
100
AcDbEntity
  8
002
100
AcDbCircle
 10
6158.897646139645
 20
-2961.359804964928
 30
0.0
 40
44.5
  0
LINE
  5
94A6
330
1E
100
AcDbEntity
  8
002
100
AcDbLine
 10
6212.898106354573
 20
-2355.97479849198
 30
0.0
 11
6271.230377354573
 21
-2355.97479849198
 31
0.0
  0
LINE
  5
94A7
330
1E
100
AcDbEntity
  8
001
100
AcDbLine
 10
6202.045799615576
 20
-2532.070181315819
 30
0.0
 11
6267.724876615576
 21
-2584.142156315819
 31
0.0
  0
LINE
  5
94A8
330
1E
100
AcDbEntity
  8
002
100
AcDbLine
 10
6212.201115354573
 20
-2309.97479849198
 30
0.0
 11
6217.898106354573
 21
-2309.97479849198
 31
0.0
  0
LINE
  5
94A9
330
1E
100
AcDbEntity
  8
002
100
AcDbLine
 10
6198.888789354572
 20
-2331.97479849198
 30
0.0
 11
6270.898106354573
 21
-2331.97479849198
 31
0.0
  0
LINE
  5
94AA
330
1E
100
AcDbEntity
  8
002
100
AcDbLine
 10
6205.252179354572
 20
-2479.47479849198
 30
0.0
 11
6201.525399354572
 21
-2483.64146549198
 31
0.0
  0
LINE
  5
94AB
330
1E
100
AcDbEntity
  8
002
100
AcDbLine
 10
6206.745754354573
 20
-2479.47479849198
 30
0.0
 11
6203.018974354573
 21
-2483.64146549198
 31
0.0
  0
LINE
  5
94AC
330
1E
100
AcDbEntity
  8
002
100
AcDbLine
 10
6211.904317354573
 20
-2487.97479849198
 30
0.0
 11
6212.388789354573
 21
-2331.97479849198
 31
0.0
  0
LINE
  5
94AD
330
1E
100
AcDbEntity
  8
001
100
AcDbLine
 10
6124.809115354572
 20
-2467.31997449198
 30
0.0
 11
6068.597167354573
 21
-2524.79763149198
 31
0.0
  0
LINE
  5
94AE
330
1E
100
AcDbEntity
  8
002
100
AcDbLine
 10
6124.873261354572
 20
-2487.97479849198
 30
0.0
 11
6124.388789354572
 21
-2331.97479849198
 31
0.0
  0
LINE
  5
94AF
330
1E
100
AcDbEntity
  8
002
100
AcDbLine
 10
6135.252179354572
 20
-2479.47479849198
 30
0.0
 11
6131.525399354572
 21
-2483.64146549198
 31
0.0
  0
LINE
  5
94B0
330
1E
100
AcDbEntity
  8
002
100
AcDbLine
 10
6134.200299354572
 20
-2479.47479849198
 30
0.0
 11
6130.473519354572
 21
-2483.64146549198
 31
0.0
  0
LINE
  5
94B1
330
1E
100
AcDbEntity
  8
002
100
AcDbLine
 10
6130.888789354572
 20
-2485.30813149198
 30
0.0
 11
6205.888789354572
 21
-2477.80813149198
 31
0.0
  0
LINE
  5
94B2
330
1E
100
AcDbEntity
  8
003
 62
     3
100
AcDbLine
 10
6085.898106354573
 20
-2377.97479849198
 30
0.0
 11
6085.898106354573
 21
-2556.08835849198
 31
0.0
  0
LINE
  5
94B3
330
1E
100
AcDbEntity
  8
003
 62
     3
100
AcDbLine
 10
6095.398106354572
 20
-2377.97479849198
 30
0.0
 11
6095.398106354572
 21
-2556.08835849198
 31
0.0
  0
LINE
  5
94B4
330
1E
100
AcDbEntity
  8
002
100
AcDbLine
 10
6131.525399354572
 20
-2486.97479849198
 30
0.0
 11
6135.252179354572
 21
-2491.14146549198
 31
0.0
  0
LINE
  5
94B5
330
1E
100
AcDbEntity
  8
002
100
AcDbLine
 10
6135.252179354572
 20
-2494.47479849198
 30
0.0
 11
6131.525399354572
 21
-2498.64146549198
 31
0.0
  0
LINE
  5
94B6
330
1E
100
AcDbEntity
  8
002
100
AcDbLine
 10
6135.252179354572
 20
-2509.47479849198
 30
0.0
 11
6131.525399354572
 21
-2513.64146549198
 31
0.0
  0
LINE
  5
94B7
330
1E
100
AcDbEntity
  8
002
100
AcDbLine
 10
6131.525399354572
 20
-2516.97479849198
 30
0.0
 11
6135.252179354572
 21
-2521.14146549198
 31
0.0
  0
LINE
  5
94B8
330
1E
100
AcDbEntity
  8
002
100
AcDbLine
 10
6135.252179354572
 20
-2524.47479849198
 30
0.0
 11
6131.525399354572
 21
-2528.64146549198
 31
0.0
  0
LINE
  5
94B9
330
1E
100
AcDbEntity
  8
002
100
AcDbLine
 10
6131.525399354572
 20
-2501.97479849198
 30
0.0
 11
6135.252179354572
 21
-2506.14146549198
 31
0.0
  0
LINE
  5
94BA
330
1E
100
AcDbEntity
  8
002
100
AcDbLine
 10
6130.888789354572
 20
-2530.30813149198
 30
0.0
 11
6205.888789354572
 21
-2522.80813149198
 31
0.0
  0
LINE
  5
94BB
330
1E
100
AcDbEntity
  8
002
100
AcDbLine
 10
6130.888789354572
 20
-2515.30813149198
 30
0.0
 11
6205.888789354572
 21
-2507.80813149198
 31
0.0
  0
LINE
  5
94BC
330
1E
100
AcDbEntity
  8
002
100
AcDbLine
 10
6130.888789354572
 20
-2500.30813149198
 30
0.0
 11
6205.888789354572
 21
-2492.80813149198
 31
0.0
  0
LWPOLYLINE
  5
94BD
330
1E
100
AcDbEntity
  8
002
100
AcDbPolyline
 90
       24
 70
     0
 43
0.0
 10
6208.317242162649
 20
-2558.366081875242
 10
6205.899976162649
 20
-2561.207221875242
 10
6203.353823162649
 20
-2563.909884875242
 10
6200.676152162649
 20
-2566.464515875242
 10
6197.864330162649
 20
-2568.861564875242
 10
6194.915725162649
 20
-2571.091477875242
 10
6192.151955162649
 20
-2572.946209875242
 10
6189.292175162649
 20
-2574.665992875242
 10
6186.352817162649
 20
-2576.258385875242
 10
6183.350315162649
 20
-2577.730946875242
 10
6180.301101162648
 20
-2579.091232875242
 10
6175.453327162649
 20
-2581.020968875242
 10
6170.537928162649
 20
-2582.745115875242
 10
6165.561796162648
 20
-2584.315809875242
 10
6160.53182616265
 20
-2585.785183875242
 10
6155.454910162649
 20
-2587.205368875242
 10
6150.234279162649
 20
-2588.669396875242
 10
6145.048701162649
 20
-2590.243335875242
 10
6139.97509816265
 20
-2592.034014875242
 10
6135.090394162649
 20
-2594.148264875242
 10
6130.471511162649
 20
-2596.692917875242
 10
6128.585416162649
 20
-2597.942267875242
 10
6126.756658162649
 20
-2599.281488875242
 10
6124.979276162648
 20
-2600.701240875242
  0
LINE
  5
94BE
330
1E
100
AcDbEntity
  8
002
100
AcDbLine
 10
6131.525399354572
 20
-2591.97479849198
 30
0.0
 11
6134.004495473166
 21
-2594.746512407793
 31
0.0
  0
LINE
  5
94BF
330
1E
100
AcDbEntity
  8
002
100
AcDbLine
 10
6135.252179354572
 20
-2584.47479849198
 30
0.0
 11
6131.525399354572
 21
-2588.64146549198
 31
0.0
  0
LINE
  5
94C0
330
1E
100
AcDbEntity
  8
002
100
AcDbLine
 10
6130.888789354572
 20
-2590.30813149198
 30
0.0
 11
6151.873764497301
 21
-2588.209633977708
 31
0.0
  0
LINE
  5
94C1
330
1E
100
AcDbEntity
  8
002
100
AcDbLine
 10
6135.252179354572
 20
-2539.47479849198
 30
0.0
 11
6131.525399354572
 21
-2543.64146549198
 31
0.0
  0
LINE
  5
94C2
330
1E
100
AcDbEntity
  8
002
100
AcDbLine
 10
6131.525399354572
 20
-2546.97479849198
 30
0.0
 11
6135.252179354572
 21
-2551.14146549198
 31
0.0
  0
LINE
  5
94C3
330
1E
100
AcDbEntity
  8
002
100
AcDbLine
 10
6135.252179354572
 20
-2554.47479849198
 30
0.0
 11
6131.525399354572
 21
-2558.64146549198
 31
0.0
  0
LINE
  5
94C4
330
1E
100
AcDbEntity
  8
002
100
AcDbLine
 10
6131.525399354572
 20
-2531.97479849198
 30
0.0
 11
6135.252179354572
 21
-2536.14146549198
 31
0.0
  0
LINE
  5
94C5
330
1E
100
AcDbEntity
  8
002
100
AcDbLine
 10
6131.525399354572
 20
-2576.97479849198
 30
0.0
 11
6135.252179354572
 21
-2581.14146549198
 31
0.0
  0
LINE
  5
94C6
330
1E
100
AcDbEntity
  8
002
100
AcDbLine
 10
6135.252179354572
 20
-2569.47479849198
 30
0.0
 11
6131.525399354572
 21
-2573.64146549198
 31
0.0
  0
LINE
  5
94C7
330
1E
100
AcDbEntity
  8
002
100
AcDbLine
 10
6131.525399354572
 20
-2561.97479849198
 30
0.0
 11
6135.252179354572
 21
-2566.14146549198
 31
0.0
  0
LINE
  5
94C8
330
1E
100
AcDbEntity
  8
002
100
AcDbLine
 10
6130.888789354572
 20
-2545.30813149198
 30
0.0
 11
6205.888789354572
 21
-2537.80813149198
 31
0.0
  0
LINE
  5
94C9
330
1E
100
AcDbEntity
  8
002
100
AcDbLine
 10
6130.888789354572
 20
-2575.30813149198
 30
0.0
 11
6198.197872932541
 21
-2568.577223134184
 31
0.0
  0
LINE
  5
94CA
330
1E
100
AcDbEntity
  8
002
100
AcDbLine
 10
6130.888789354572
 20
-2560.30813149198
 30
0.0
 11
6205.888789354572
 21
-2552.80813149198
 31
0.0
  0
LINE
  5
94CB
330
1E
100
AcDbEntity
  8
002
100
AcDbLine
 10
6130.473519354572
 20
-2486.97479849198
 30
0.0
 11
6131.367946354572
 21
-2487.97479849198
 31
0.0
  0
ARC
  5
94CC
330
1E
100
AcDbEntity
  8
002
100
AcDbCircle
 10
6133.388789354572
 20
-2485.30813149198
 30
0.0
 40
2.5
100
AcDbArc
 50
138.1896850000011
 51
221.8103149999989
  0
ARC
  5
94CD
330
1E
100
AcDbEntity
  8
002
100
AcDbCircle
 10
6132.336909354573
 20
-2485.30813149198
 30
0.0
 40
2.5
100
AcDbArc
 50
138.1896850000011
 51
221.8103149999989
  0
LINE
  5
94CE
330
1E
100
AcDbEntity
  8
002
100
AcDbLine
 10
6131.367946354572
 20
-2487.97479849198
 30
0.0
 11
6124.873261354572
 21
-2487.97479849198
 31
0.0
  0
ARC
  5
94CF
330
1E
100
AcDbEntity
  8
002
100
AcDbCircle
 10
6133.388789354572
 20
-2515.30813149198
 30
0.0
 40
2.5
100
AcDbArc
 50
138.1896850000011
 51
221.8103149999989
  0
ARC
  5
94D0
330
1E
100
AcDbEntity
  8
002
100
AcDbCircle
 10
6133.388789354572
 20
-2500.30813149198
 30
0.0
 40
2.5
100
AcDbArc
 50
138.1896850000011
 51
221.8103149999989
  0
ARC
  5
94D1
330
1E
100
AcDbEntity
  8
002
100
AcDbCircle
 10
6133.388789354572
 20
-2590.30813149198
 30
0.0
 40
2.5
100
AcDbArc
 50
138.1896850000011
 51
221.8103149999989
  0
ARC
  5
94D2
330
1E
100
AcDbEntity
  8
002
100
AcDbCircle
 10
6133.388789354572
 20
-2545.30813149198
 30
0.0
 40
2.5
100
AcDbArc
 50
138.1896850000011
 51
221.8103149999989
  0
ARC
  5
94D3
330
1E
100
AcDbEntity
  8
002
100
AcDbCircle
 10
6133.388789354572
 20
-2575.30813149198
 30
0.0
 40
2.5
100
AcDbArc
 50
138.1896850000011
 51
221.8103149999989
  0
ARC
  5
94D4
330
1E
100
AcDbEntity
  8
002
100
AcDbCircle
 10
6133.388789354572
 20
-2560.30813149198
 30
0.0
 40
2.5
100
AcDbArc
 50
138.1896850000011
 51
221.8103149999989
  0
ARC
  5
94D5
330
1E
100
AcDbEntity
  8
002
100
AcDbCircle
 10
6133.388789354572
 20
-2530.30813149198
 30
0.0
 40
2.5
100
AcDbArc
 50
138.1896850000011
 51
221.8103149999989
  0
LINE
  5
94D6
330
1E
100
AcDbEntity
  8
002
100
AcDbLine
 10
6200.888789354572
 20
-2515.30813149198
 30
0.0
 11
6135.888789354573
 21
-2522.80813149198
 31
0.0
  0
LINE
  5
94D7
330
1E
100
AcDbEntity
  8
002
100
AcDbLine
 10
6200.888789354572
 20
-2500.30813149198
 30
0.0
 11
6135.888789354573
 21
-2507.80813149198
 31
0.0
  0
LINE
  5
94D8
330
1E
100
AcDbEntity
  8
002
100
AcDbLine
 10
6200.888789354572
 20
-2485.30813149198
 30
0.0
 11
6135.888789354573
 21
-2492.80813149198
 31
0.0
  0
LINE
  5
94D9
330
1E
100
AcDbEntity
  8
002
100
AcDbLine
 10
6184.41453225438
 20
-2577.209007311234
 30
0.0
 11
6135.888789354573
 21
-2582.80813149198
 31
0.0
  0
LINE
  5
94DA
330
1E
100
AcDbEntity
  8
002
100
AcDbLine
 10
6200.888789354572
 20
-2545.30813149198
 30
0.0
 11
6135.888789354573
 21
-2552.80813149198
 31
0.0
  0
LINE
  5
94DB
330
1E
100
AcDbEntity
  8
002
100
AcDbLine
 10
6200.888789354572
 20
-2560.30813149198
 30
0.0
 11
6135.888789354573
 21
-2567.80813149198
 31
0.0
  0
LINE
  5
94DC
330
1E
100
AcDbEntity
  8
002
100
AcDbLine
 10
6200.888789354572
 20
-2530.30813149198
 30
0.0
 11
6135.888789354573
 21
-2537.80813149198
 31
0.0
  0
ARC
  5
94DD
330
1E
100
AcDbEntity
  8
002
100
AcDbCircle
 10
6133.388789354572
 20
-2522.80813149198
 30
0.0
 40
2.5
100
AcDbArc
 50
318.1896850000011
 51
41.81031499999888
  0
ARC
  5
94DE
330
1E
100
AcDbEntity
  8
002
100
AcDbCircle
 10
6133.388789354572
 20
-2507.80813149198
 30
0.0
 40
2.5
100
AcDbArc
 50
318.1896850000011
 51
41.81031499999888
  0
ARC
  5
94DF
330
1E
100
AcDbEntity
  8
002
100
AcDbCircle
 10
6133.388789354572
 20
-2492.80813149198
 30
0.0
 40
2.5
100
AcDbArc
 50
318.1896850000011
 51
41.81031499999888
  0
ARC
  5
94E0
330
1E
100
AcDbEntity
  8
002
100
AcDbCircle
 10
6133.388789354572
 20
-2582.80813149198
 30
0.0
 40
2.5
100
AcDbArc
 50
318.1896850000011
 51
41.81031499999888
  0
ARC
  5
94E1
330
1E
100
AcDbEntity
  8
002
100
AcDbCircle
 10
6133.388789354572
 20
-2552.80813149198
 30
0.0
 40
2.5
100
AcDbArc
 50
318.1896850000011
 51
41.81031499999888
  0
ARC
  5
94E2
330
1E
100
AcDbEntity
  8
002
100
AcDbCircle
 10
6133.388789354572
 20
-2537.80813149198
 30
0.0
 40
2.5
100
AcDbArc
 50
318.1896850000011
 51
41.81031499999888
  0
ARC
  5
94E3
330
1E
100
AcDbEntity
  8
002
100
AcDbCircle
 10
6133.388789354572
 20
-2567.80813149198
 30
0.0
 40
2.5
100
AcDbArc
 50
318.1896850000011
 51
41.81031499999888
  0
LINE
  5
94E4
330
1E
100
AcDbEntity
  8
002
100
AcDbLine
 10
6201.525399354572
 20
-2486.97479849198
 30
0.0
 11
6205.252179354572
 21
-2491.14146549198
 31
0.0
  0
LINE
  5
94E5
330
1E
100
AcDbEntity
  8
002
100
AcDbLine
 10
6203.018974354573
 20
-2486.97479849198
 30
0.0
 11
6203.913401354572
 21
-2487.97479849198
 31
0.0
  0
ARC
  5
94E6
330
1E
100
AcDbEntity
  8
002
100
AcDbCircle
 10
6203.388789354573
 20
-2485.30813149198
 30
0.0
 40
2.5
100
AcDbArc
 50
138.1896850000011
 51
221.8103149999989
  0
ARC
  5
94E7
330
1E
100
AcDbEntity
  8
002
100
AcDbCircle
 10
6204.882364354572
 20
-2485.30813149198
 30
0.0
 40
2.5
100
AcDbArc
 50
138.1896850000011
 51
221.8103149999989
  0
LINE
  5
94E8
330
1E
100
AcDbEntity
  8
002
100
AcDbLine
 10
6211.904317354573
 20
-2487.97479849198
 30
0.0
 11
6203.913401354572
 21
-2487.97479849198
 31
0.0
  0
LINE
  5
94E9
330
1E
100
AcDbEntity
  8
002
100
AcDbLine
 10
6205.252179354572
 20
-2494.47479849198
 30
0.0
 11
6201.525399354572
 21
-2498.64146549198
 31
0.0
  0
LINE
  5
94EA
330
1E
100
AcDbEntity
  8
002
100
AcDbLine
 10
6205.252179354572
 20
-2509.47479849198
 30
0.0
 11
6201.525399354572
 21
-2513.64146549198
 31
0.0
  0
LINE
  5
94EB
330
1E
100
AcDbEntity
  8
002
100
AcDbLine
 10
6201.525399354572
 20
-2516.97479849198
 30
0.0
 11
6205.252179354572
 21
-2521.14146549198
 31
0.0
  0
ARC
  5
94EC
330
1E
100
AcDbEntity
  8
002
100
AcDbCircle
 10
6203.388789354573
 20
-2522.80813149198
 30
0.0
 40
2.5
100
AcDbArc
 50
318.1896850000011
 51
41.81031499999888
  0
ARC
  5
94ED
330
1E
100
AcDbEntity
  8
002
100
AcDbCircle
 10
6203.388789354573
 20
-2515.30813149198
 30
0.0
 40
2.5
100
AcDbArc
 50
138.1896850000011
 51
221.8103149999989
  0
LINE
  5
94EE
330
1E
100
AcDbEntity
  8
002
100
AcDbLine
 10
6205.252179354572
 20
-2524.47479849198
 30
0.0
 11
6201.525399354572
 21
-2528.64146549198
 31
0.0
  0
ARC
  5
94EF
330
1E
100
AcDbEntity
  8
002
100
AcDbCircle
 10
6203.388789354573
 20
-2507.80813149198
 30
0.0
 40
2.5
100
AcDbArc
 50
318.1896850000011
 51
41.81031499999888
  0
LINE
  5
94F0
330
1E
100
AcDbEntity
  8
002
100
AcDbLine
 10
6201.525399354572
 20
-2501.97479849198
 30
0.0
 11
6205.252179354572
 21
-2506.14146549198
 31
0.0
  0
ARC
  5
94F1
330
1E
100
AcDbEntity
  8
002
100
AcDbCircle
 10
6203.388789354573
 20
-2500.30813149198
 30
0.0
 40
2.5
100
AcDbArc
 50
138.1896850000011
 51
221.8103149999989
  0
ARC
  5
94F2
330
1E
100
AcDbEntity
  8
002
100
AcDbCircle
 10
6203.388789354573
 20
-2492.80813149198
 30
0.0
 40
2.5
100
AcDbArc
 50
318.1896850000011
 51
41.81031499999888
  0
LINE
  5
94F3
330
1E
100
AcDbEntity
  8
002
100
AcDbLine
 10
6205.252179354572
 20
-2539.47479849198
 30
0.0
 11
6201.525399354572
 21
-2543.64146549198
 31
0.0
  0
ARC
  5
94F4
330
1E
100
AcDbEntity
  8
002
100
AcDbCircle
 10
6203.388789354573
 20
-2545.30813149198
 30
0.0
 40
2.5
100
AcDbArc
 50
138.1896850000011
 51
221.8103149999989
  0
LINE
  5
94F5
330
1E
100
AcDbEntity
  8
002
100
AcDbLine
 10
6201.525399354572
 20
-2546.97479849198
 30
0.0
 11
6205.252179354572
 21
-2551.14146549198
 31
0.0
  0
ARC
  5
94F6
330
1E
100
AcDbEntity
  8
002
100
AcDbCircle
 10
6203.388789354573
 20
-2552.80813149198
 30
0.0
 40
2.5
100
AcDbArc
 50
318.1896850000011
 51
41.81031499999888
  0
LINE
  5
94F7
330
1E
100
AcDbEntity
  8
002
100
AcDbLine
 10
6205.252179354572
 20
-2554.47479849198
 30
0.0
 11
6201.525399354572
 21
-2558.64146549198
 31
0.0
  0
ARC
  5
94F8
330
1E
100
AcDbEntity
  8
002
100
AcDbCircle
 10
6203.388789354573
 20
-2537.80813149198
 30
0.0
 40
2.5
100
AcDbArc
 50
318.1896850000011
 51
41.81031499999888
  0
LINE
  5
94F9
330
1E
100
AcDbEntity
  8
002
100
AcDbLine
 10
6201.525399354572
 20
-2531.97479849198
 30
0.0
 11
6205.252179354572
 21
-2536.14146549198
 31
0.0
  0
LWPOLYLINE
  5
94FA
330
1E
100
AcDbEntity
  8
001
100
AcDbPolyline
 90
        3
 70
     0
 43
0.0
 10
6208.696292615577
 20
-2534.949242315819
 10
6202.045799615576
 20
-2532.070181315819
 10
6206.365764615577
 20
-2537.888767315819
  0
LINE
  5
94FB
330
1E
100
AcDbEntity
  8
002
100
AcDbLine
 10
6201.525399354572
 20
-2561.97479849198
 30
0.0
 11
6203.301144922062
 21
-2563.960142530655
 31
0.0
  0
ARC
  5
94FC
330
1E
100
AcDbEntity
  8
002
100
AcDbCircle
 10
6203.388789354573
 20
-2560.30813149198
 30
0.0
 40
2.5
100
AcDbArc
 50
138.1896850000011
 51
221.8103149999989
  0
ARC
  5
94FD
330
1E
100
AcDbEntity
  8
002
100
AcDbCircle
 10
6203.388789354573
 20
-2530.30813149198
 30
0.0
 40
2.5
100
AcDbArc
 50
138.1896850000011
 51
221.8103149999989
  0
LINE
  5
94FE
330
1E
100
AcDbEntity
  8
002
100
AcDbLine
 10
6130.473519354572
 20
-2366.97479849198
 30
0.0
 11
6203.018974354573
 21
-2366.97479849198
 31
0.0
  0
LINE
  5
94FF
330
1E
100
AcDbEntity
  8
002
100
AcDbLine
 10
6135.252179354572
 20
-2374.47479849198
 30
0.0
 11
6131.525399354572
 21
-2378.64146549198
 31
0.0
  0
LINE
  5
9500
330
1E
100
AcDbEntity
  8
002
100
AcDbLine
 10
6134.200299354572
 20
-2374.47479849198
 30
0.0
 11
6130.473519354572
 21
-2378.64146549198
 31
0.0
  0
LINE
  5
9501
330
1E
100
AcDbEntity
  8
002
100
AcDbLine
 10
6131.525399354572
 20
-2381.97479849198
 30
0.0
 11
6135.252179354572
 21
-2386.14146549198
 31
0.0
  0
LINE
  5
9502
330
1E
100
AcDbEntity
  8
002
100
AcDbLine
 10
6130.473519354572
 20
-2381.97479849198
 30
0.0
 11
6134.200299354572
 21
-2386.14146549198
 31
0.0
  0
LINE
  5
9503
330
1E
100
AcDbEntity
  8
002
100
AcDbLine
 10
6131.525399354572
 20
-2396.97479849198
 30
0.0
 11
6135.252179354572
 21
-2401.14146549198
 31
0.0
  0
LINE
  5
9504
330
1E
100
AcDbEntity
  8
002
100
AcDbLine
 10
6130.473519354572
 20
-2396.97479849198
 30
0.0
 11
6134.200299354572
 21
-2401.14146549198
 31
0.0
  0
LINE
  5
9505
330
1E
100
AcDbEntity
  8
002
100
AcDbLine
 10
6135.252179354572
 20
-2404.47479849198
 30
0.0
 11
6131.525399354572
 21
-2408.64146549198
 31
0.0
  0
LINE
  5
9506
330
1E
100
AcDbEntity
  8
002
100
AcDbLine
 10
6134.200299354572
 20
-2404.47479849198
 30
0.0
 11
6130.473519354572
 21
-2408.64146549198
 31
0.0
  0
LINE
  5
9507
330
1E
100
AcDbEntity
  8
002
100
AcDbLine
 10
6135.252179354572
 20
-2389.47479849198
 30
0.0
 11
6131.525399354572
 21
-2393.64146549198
 31
0.0
  0
LINE
  5
9508
330
1E
100
AcDbEntity
  8
002
100
AcDbLine
 10
6134.200299354572
 20
-2389.47479849198
 30
0.0
 11
6130.473519354572
 21
-2393.64146549198
 31
0.0
  0
LINE
  5
9509
330
1E
100
AcDbEntity
  8
002
100
AcDbLine
 10
6131.525399354572
 20
-2426.97479849198
 30
0.0
 11
6135.252179354572
 21
-2431.14146549198
 31
0.0
  0
LINE
  5
950A
330
1E
100
AcDbEntity
  8
002
100
AcDbLine
 10
6135.252179354572
 20
-2434.47479849198
 30
0.0
 11
6131.525399354572
 21
-2438.64146549198
 31
0.0
  0
LINE
  5
950B
330
1E
100
AcDbEntity
  8
002
100
AcDbLine
 10
6130.473519354572
 20
-2426.97479849198
 30
0.0
 11
6134.200299354572
 21
-2431.14146549198
 31
0.0
  0
LINE
  5
950C
330
1E
100
AcDbEntity
  8
002
100
AcDbLine
 10
6134.200299354572
 20
-2434.47479849198
 30
0.0
 11
6130.473519354572
 21
-2438.64146549198
 31
0.0
  0
LINE
  5
950D
330
1E
100
AcDbEntity
  8
002
100
AcDbLine
 10
6135.252179354572
 20
-2419.47479849198
 30
0.0
 11
6131.525399354572
 21
-2423.64146549198
 31
0.0
  0
LINE
  5
950E
330
1E
100
AcDbEntity
  8
002
100
AcDbLine
 10
6134.200299354572
 20
-2419.47479849198
 30
0.0
 11
6130.473519354572
 21
-2423.64146549198
 31
0.0
  0
LINE
  5
950F
330
1E
100
AcDbEntity
  8
002
100
AcDbLine
 10
6131.525399354572
 20
-2411.97479849198
 30
0.0
 11
6135.252179354572
 21
-2416.14146549198
 31
0.0
  0
LINE
  5
9510
330
1E
100
AcDbEntity
  8
002
100
AcDbLine
 10
6130.473519354572
 20
-2411.97479849198
 30
0.0
 11
6134.200299354572
 21
-2416.14146549198
 31
0.0
  0
LINE
  5
9511
330
1E
100
AcDbEntity
  8
002
100
AcDbLine
 10
6135.252179354572
 20
-2449.47479849198
 30
0.0
 11
6131.525399354572
 21
-2453.64146549198
 31
0.0
  0
LINE
  5
9512
330
1E
100
AcDbEntity
  8
002
100
AcDbLine
 10
6134.200299354572
 20
-2449.47479849198
 30
0.0
 11
6130.473519354572
 21
-2453.64146549198
 31
0.0
  0
LINE
  5
9513
330
1E
100
AcDbEntity
  8
002
100
AcDbLine
 10
6131.525399354572
 20
-2456.97479849198
 30
0.0
 11
6135.252179354572
 21
-2461.14146549198
 31
0.0
  0
LINE
  5
9514
330
1E
100
AcDbEntity
  8
002
100
AcDbLine
 10
6130.473519354572
 20
-2456.97479849198
 30
0.0
 11
6134.200299354572
 21
-2461.14146549198
 31
0.0
  0
LINE
  5
9515
330
1E
100
AcDbEntity
  8
002
100
AcDbLine
 10
6135.252179354572
 20
-2464.47479849198
 30
0.0
 11
6131.525399354572
 21
-2468.64146549198
 31
0.0
  0
LINE
  5
9516
330
1E
100
AcDbEntity
  8
002
100
AcDbLine
 10
6134.200299354572
 20
-2464.47479849198
 30
0.0
 11
6130.473519354572
 21
-2468.64146549198
 31
0.0
  0
LINE
  5
9517
330
1E
100
AcDbEntity
  8
002
100
AcDbLine
 10
6131.525399354572
 20
-2471.97479849198
 30
0.0
 11
6135.252179354572
 21
-2476.14146549198
 31
0.0
  0
LINE
  5
9518
330
1E
100
AcDbEntity
  8
002
100
AcDbLine
 10
6130.473519354572
 20
-2471.97479849198
 30
0.0
 11
6134.200299354572
 21
-2476.14146549198
 31
0.0
  0
LINE
  5
9519
330
1E
100
AcDbEntity
  8
002
100
AcDbLine
 10
6131.525399354572
 20
-2441.97479849198
 30
0.0
 11
6135.252179354572
 21
-2446.14146549198
 31
0.0
  0
LINE
  5
951A
330
1E
100
AcDbEntity
  8
002
100
AcDbLine
 10
6130.473519354572
 20
-2441.97479849198
 30
0.0
 11
6134.200299354572
 21
-2446.14146549198
 31
0.0
  0
LINE
  5
951B
330
1E
100
AcDbEntity
  8
002
100
AcDbLine
 10
6130.888789354572
 20
-2395.308131491979
 30
0.0
 11
6205.888789354572
 21
-2387.80813149198
 31
0.0
  0
LINE
  5
951C
330
1E
100
AcDbEntity
  8
002
100
AcDbLine
 10
6130.888789354572
 20
-2410.30813149198
 30
0.0
 11
6205.888789354572
 21
-2402.80813149198
 31
0.0
  0
LINE
  5
951D
330
1E
100
AcDbEntity
  8
002
100
AcDbLine
 10
6130.888789354572
 20
-2380.30813149198
 30
0.0
 11
6205.888789354572
 21
-2372.80813149198
 31
0.0
  0
LINE
  5
951E
330
1E
100
AcDbEntity
  8
002
100
AcDbLine
 10
6130.888789354572
 20
-2440.30813149198
 30
0.0
 11
6205.888789354572
 21
-2432.80813149198
 31
0.0
  0
LINE
  5
951F
330
1E
100
AcDbEntity
  8
002
100
AcDbLine
 10
6130.888789354572
 20
-2425.30813149198
 30
0.0
 11
6205.888789354572
 21
-2417.80813149198
 31
0.0
  0
LINE
  5
9520
330
1E
100
AcDbEntity
  8
002
100
AcDbLine
 10
6130.888789354572
 20
-2455.30813149198
 30
0.0
 11
6205.888789354572
 21
-2447.80813149198
 31
0.0
  0
LINE
  5
9521
330
1E
100
AcDbEntity
  8
002
100
AcDbLine
 10
6130.888789354572
 20
-2470.30813149198
 30
0.0
 11
6205.888789354572
 21
-2462.80813149198
 31
0.0
  0
LINE
  5
9522
330
1E
100
AcDbEntity
  8
002
100
AcDbLine
 10
6131.525399354572
 20
-2366.97479849198
 30
0.0
 11
6135.252179354572
 21
-2371.14146549198
 31
0.0
  0
LINE
  5
9523
330
1E
100
AcDbEntity
  8
002
100
AcDbLine
 10
6130.473519354572
 20
-2366.97479849198
 30
0.0
 11
6134.200299354572
 21
-2371.14146549198
 31
0.0
  0
LINE
  5
9524
330
1E
100
AcDbEntity
  8
002
100
AcDbLine
 10
6123.898106354573
 20
-2355.97479849198
 30
0.0
 11
6140.898106354572
 21
-2355.97479849198
 31
0.0
  0
LINE
  5
9525
330
1E
100
AcDbEntity
  8
002
100
AcDbLine
 10
6125.898106354572
 20
-2311.97479849198
 30
0.0
 11
6140.898106354573
 21
-2311.97479849198
 31
0.0
  0
LINE
  5
9526
330
1E
100
AcDbEntity
  8
002
100
AcDbLine
 10
6065.898106354572
 20
-2331.97479849198
 30
0.0
 11
6137.888789354573
 21
-2331.97479849198
 31
0.0
  0
LWPOLYLINE
  5
9527
330
1E
100
AcDbEntity
  8
003
100
AcDbPolyline
 90
        4
 70
     0
 43
0.0
 10
6119.008546631426
 20
-2377.97479849198
 10
6103.398106354572
 20
-2377.97479849198
 10
6103.398106354572
 20
-2355.97479849198
 10
6119.381633671333
 20
-2355.97479849198
  0
LINE
  5
9528
330
1E
100
AcDbEntity
  8
003
100
AcDbLine
 10
6055.298106354573
 20
-2377.97479849198
 30
0.0
 11
6119.008546631426
 21
-2377.974798491981
 31
0.0
  0
ARC
  5
9529
330
1E
100
AcDbEntity
  8
002
100
AcDbCircle
 10
6133.388789354572
 20
-2380.30813149198
 30
0.0
 40
2.5
100
AcDbArc
 50
138.1896850000011
 51
221.8103149999989
  0
ARC
  5
952A
330
1E
100
AcDbEntity
  8
002
100
AcDbCircle
 10
6132.336909354573
 20
-2380.30813149198
 30
0.0
 40
2.5
100
AcDbArc
 50
138.1896850000011
 51
221.8103149999989
  0
ARC
  5
952B
330
1E
100
AcDbEntity
  8
002
100
AcDbCircle
 10
6133.388789354572
 20
-2395.308131491979
 30
0.0
 40
2.5
100
AcDbArc
 50
138.1896850000011
 51
221.8103149999989
  0
ARC
  5
952C
330
1E
100
AcDbEntity
  8
002
100
AcDbCircle
 10
6132.336909354573
 20
-2395.308131491979
 30
0.0
 40
2.5
100
AcDbArc
 50
138.1896850000011
 51
221.8103149999989
  0
ARC
  5
952D
330
1E
100
AcDbEntity
  8
002
100
AcDbCircle
 10
6133.388789354572
 20
-2410.30813149198
 30
0.0
 40
2.5
100
AcDbArc
 50
138.1896850000011
 51
221.8103149999989
  0
ARC
  5
952E
330
1E
100
AcDbEntity
  8
002
100
AcDbCircle
 10
6132.336909354573
 20
-2410.30813149198
 30
0.0
 40
2.5
100
AcDbArc
 50
138.1896850000011
 51
221.8103149999989
  0
LWPOLYLINE
  5
952F
330
1E
100
AcDbEntity
  8
001
100
AcDbPolyline
 90
        3
 70
     0
 43
0.0
 10
6121.255740354572
 20
-2473.63595149198
 10
6124.809115354572
 20
-2467.31997449198
 10
6118.573814354572
 20
-2471.01308349198
  0
ARC
  5
9530
330
1E
100
AcDbEntity
  8
002
100
AcDbCircle
 10
6133.388789354572
 20
-2470.30813149198
 30
0.0
 40
2.5
100
AcDbArc
 50
138.1896850000011
 51
221.8103149999989
  0
ARC
  5
9531
330
1E
100
AcDbEntity
  8
002
100
AcDbCircle
 10
6132.336909354573
 20
-2470.30813149198
 30
0.0
 40
2.5
100
AcDbArc
 50
138.1896850000011
 51
221.8103149999989
  0
ARC
  5
9532
330
1E
100
AcDbEntity
  8
002
100
AcDbCircle
 10
6132.336909354573
 20
-2425.30813149198
 30
0.0
 40
2.5
100
AcDbArc
 50
138.1896850000011
 51
221.8103149999989
  0
ARC
  5
9533
330
1E
100
AcDbEntity
  8
002
100
AcDbCircle
 10
6133.388789354572
 20
-2425.30813149198
 30
0.0
 40
2.5
100
AcDbArc
 50
138.1896850000011
 51
221.8103149999989
  0
ARC
  5
9534
330
1E
100
AcDbEntity
  8
002
100
AcDbCircle
 10
6133.388789354572
 20
-2440.30813149198
 30
0.0
 40
2.5
100
AcDbArc
 50
138.1896850000011
 51
221.8103149999989
  0
ARC
  5
9535
330
1E
100
AcDbEntity
  8
002
100
AcDbCircle
 10
6132.336909354573
 20
-2440.30813149198
 30
0.0
 40
2.5
100
AcDbArc
 50
138.1896850000011
 51
221.8103149999989
  0
ARC
  5
9536
330
1E
100
AcDbEntity
  8
002
100
AcDbCircle
 10
6133.388789354572
 20
-2455.30813149198
 30
0.0
 40
2.5
100
AcDbArc
 50
138.1896850000011
 51
221.8103149999989
  0
ARC
  5
9537
330
1E
100
AcDbEntity
  8
002
100
AcDbCircle
 10
6132.336909354573
 20
-2455.30813149198
 30
0.0
 40
2.5
100
AcDbArc
 50
138.1896850000011
 51
221.8103149999989
  0
LINE
  5
9538
330
1E
100
AcDbEntity
  8
003
100
AcDbLine
 10
6119.381633671334
 20
-2355.97479849198
 30
0.0
 11
6063.398106354572
 21
-2355.97479849198
 31
0.0
  0
LINE
  5
9539
330
1E
100
AcDbEntity
  8
002
100
AcDbLine
 10
6123.898106354573
 20
-2355.97479849198
 30
0.0
 11
6065.565834354572
 21
-2355.97479849198
 31
0.0
  0
LINE
  5
953A
330
1E
100
AcDbEntity
  8
002
100
AcDbLine
 10
6065.898106354572
 20
-2331.97479849198
 30
0.0
 11
6065.898106354572
 21
-2355.974798491979
 31
0.0
  0
LINE
  5
953B
330
1E
100
AcDbEntity
  8
002
100
AcDbLine
 10
6128.398106354572
 20
-2291.97479849198
 30
0.0
 11
6128.398106354572
 21
-2252.97479849198
 31
0.0
  0
LINE
  5
953C
330
1E
100
AcDbEntity
  8
002
100
AcDbLine
 10
6118.398106354573
 20
-2288.97479849198
 30
0.0
 11
6118.398106354573
 21
-2299.37672249198
 31
0.0
  0
ARC
  5
953D
330
1E
100
AcDbEntity
  8
002
100
AcDbCircle
 10
6110.448480354572
 20
-2287.24600249198
 30
0.0
 40
3.0
100
AcDbArc
 50
300.9637570000102
 51
358.286535000005
  0
ARC
  5
953E
330
1E
100
AcDbEntity
  8
002
100
AcDbCircle
 10
6111.398106354573
 20
-2293.67336949198
 30
0.0
 40
3.0
100
AcDbArc
 50
120.9637570000102
 51
180.0
  0
LINE
  5
953F
330
1E
100
AcDbEntity
  8
002
100
AcDbLine
 10
6111.991967354573
 20
-2289.81848149198
 30
0.0
 11
6109.854618354572
 21
-2291.10089049198
 31
0.0
  0
LINE
  5
9540
330
1E
100
AcDbEntity
  8
002
100
AcDbLine
 10
6116.898106354573
 20
-2299.37672249198
 30
0.0
 11
6118.398106354573
 21
-2299.37672249198
 31
0.0
  0
LINE
  5
9541
330
1E
100
AcDbEntity
  8
002
100
AcDbLine
 10
6116.895271354572
 20
-2299.38163249198
 30
0.0
 11
6115.398106354573
 21
-2301.97479849198
 31
0.0
  0
LWPOLYLINE
  5
9542
330
1E
100
AcDbEntity
  8
001
100
AcDbPolyline
 90
        3
 70
     0
 43
0.0
 10
6121.429127354573
 20
-2267.058250491979
 10
6127.898106354573
 20
-2270.32480249198
 10
6123.929082354573
 20
-2264.261396491979
  0
LINE
  5
9543
330
1E
100
AcDbEntity
  8
002
100
AcDbLine
 10
6128.398106354572
 20
-2291.97479849198
 30
0.0
 11
6125.898106354572
 21
-2293.41817449198
 31
0.0
  0
LINE
  5
9544
330
1E
100
AcDbEntity
  8
002
100
AcDbLine
 10
6123.898106354573
 20
-2331.97479849198
 30
0.0
 11
6123.898106354573
 21
-2355.97479849198
 31
0.0
  0
LINE
  5
9545
330
1E
100
AcDbEntity
  8
002
100
AcDbLine
 10
6117.898106354573
 20
-2310.97479849198
 30
0.0
 11
6118.898106354572
 21
-2309.97479849198
 31
0.0
  0
LINE
  5
9546
330
1E
100
AcDbEntity
  8
002
100
AcDbLine
 10
6118.898106354572
 20
-2309.97479849198
 30
0.0
 11
6124.595097354572
 21
-2309.97479849198
 31
0.0
  0
LINE
  5
9547
330
1E
100
AcDbEntity
  8
002
100
AcDbLine
 10
6117.898106354573
 20
-2310.97479849198
 30
0.0
 11
6117.898106354573
 21
-2312.97479849198
 31
0.0
  0
LINE
  5
9548
330
1E
100
AcDbEntity
  8
002
100
AcDbLine
 10
6125.898106354572
 20
-2311.97479849198
 30
0.0
 11
6124.595097354572
 21
-2309.97479849198
 31
0.0
  0
LINE
  5
9549
330
1E
100
AcDbEntity
  8
002
100
AcDbLine
 10
6117.898106354573
 20
-2312.97479849198
 30
0.0
 11
6115.398106354573
 21
-2314.70684949198
 31
0.0
  0
LINE
  5
954A
330
1E
100
AcDbEntity
  8
002
100
AcDbLine
 10
6116.888789354573
 20
-2331.10877249198
 30
0.0
 11
6115.388789354573
 21
-2331.97479849198
 31
0.0
  0
LINE
  5
954B
330
1E
100
AcDbEntity
  8
002
100
AcDbLine
 10
6116.888789354573
 20
-2331.97479849198
 30
0.0
 11
6115.388789354573
 21
-2331.10877249198
 31
0.0
  0
LINE
  5
954C
330
1E
100
AcDbEntity
  8
002
100
AcDbLine
 10
6116.906822354572
 20
-2331.10374049198
 30
0.0
 11
6115.398106354573
 21
-2331.97479849198
 31
0.0
  0
LINE
  5
954D
330
1E
100
AcDbEntity
  8
002
100
AcDbLine
 10
6108.398106354573
 20
-2329.97479849198
 30
0.0
 11
6110.398106354573
 21
-2331.97479849198
 31
0.0
  0
LINE
  5
954E
330
1E
100
AcDbEntity
  8
002
100
AcDbLine
 10
6126.898106354572
 20
-2311.97479849198
 30
0.0
 11
6125.898106354572
 21
-2310.97479849198
 31
0.0
  0
LINE
  5
954F
330
1E
100
AcDbEntity
  8
002
100
AcDbLine
 10
6108.398106354573
 20
-2329.97479849198
 30
0.0
 11
6108.398106354573
 21
-2293.67336949198
 31
0.0
  0
LINE
  5
9550
330
1E
100
AcDbEntity
  8
002
100
AcDbLine
 10
6125.898106354572
 20
-2310.97479849198
 30
0.0
 11
6125.898106354572
 21
-2293.41817449198
 31
0.0
  0
LINE
  5
9551
330
1E
100
AcDbEntity
  8
002
100
AcDbLine
 10
6116.898106354573
 20
-2299.37672249198
 30
0.0
 11
6116.898106354573
 21
-2331.97479849198
 31
0.0
  0
LINE
  5
9552
330
1E
100
AcDbEntity
  8
002
100
AcDbLine
 10
6115.398106354573
 20
-2301.97479849198
 30
0.0
 11
6115.398106354573
 21
-2331.97479849198
 31
0.0
  0
LINE
  5
9553
330
1E
100
AcDbEntity
  8
002
100
AcDbLine
 10
6201.525399354572
 20
-2366.97479849198
 30
0.0
 11
6205.252179354572
 21
-2371.14146549198
 31
0.0
  0
LINE
  5
9554
330
1E
100
AcDbEntity
  8
002
100
AcDbLine
 10
6203.018974354573
 20
-2366.97479849198
 30
0.0
 11
6206.745754354573
 21
-2371.14146549198
 31
0.0
  0
LINE
  5
9555
330
1E
100
AcDbEntity
  8
002
100
AcDbLine
 10
6186.444344354573
 20
-2366.97479849198
 30
0.0
 11
6135.888789354573
 21
-2372.80813149198
 31
0.0
  0
LINE
  5
9556
330
1E
100
AcDbEntity
  8
002
100
AcDbLine
 10
6200.888789354572
 20
-2380.30813149198
 30
0.0
 11
6135.888789354573
 21
-2387.80813149198
 31
0.0
  0
LINE
  5
9557
330
1E
100
AcDbEntity
  8
002
100
AcDbLine
 10
6200.888789354572
 20
-2395.308131491979
 30
0.0
 11
6135.888789354573
 21
-2402.80813149198
 31
0.0
  0
LINE
  5
9558
330
1E
100
AcDbEntity
  8
002
100
AcDbLine
 10
6200.888789354572
 20
-2470.30813149198
 30
0.0
 11
6135.888789354573
 21
-2477.80813149198
 31
0.0
  0
LINE
  5
9559
330
1E
100
AcDbEntity
  8
002
100
AcDbLine
 10
6200.888789354572
 20
-2425.30813149198
 30
0.0
 11
6135.888789354573
 21
-2432.80813149198
 31
0.0
  0
LINE
  5
955A
330
1E
100
AcDbEntity
  8
002
100
AcDbLine
 10
6200.888789354572
 20
-2455.30813149198
 30
0.0
 11
6135.888789354573
 21
-2462.80813149198
 31
0.0
  0
LINE
  5
955B
330
1E
100
AcDbEntity
  8
002
100
AcDbLine
 10
6200.888789354572
 20
-2440.30813149198
 30
0.0
 11
6135.888789354573
 21
-2447.80813149198
 31
0.0
  0
LINE
  5
955C
330
1E
100
AcDbEntity
  8
002
100
AcDbLine
 10
6200.888789354572
 20
-2410.30813149198
 30
0.0
 11
6135.888789354573
 21
-2417.80813149198
 31
0.0
  0
ARC
  5
955D
330
1E
100
AcDbEntity
  8
002
100
AcDbCircle
 10
6133.388789354572
 20
-2372.80813149198
 30
0.0
 40
2.5
100
AcDbArc
 50
318.1896850000011
 51
41.81031499999888
  0
ARC
  5
955E
330
1E
100
AcDbEntity
  8
002
100
AcDbCircle
 10
6132.336909354573
 20
-2372.80813149198
 30
0.0
 40
2.5
100
AcDbArc
 50
318.1896850000011
 51
41.81031499999888
  0
ARC
  5
955F
330
1E
100
AcDbEntity
  8
002
100
AcDbCircle
 10
6133.388789354572
 20
-2402.80813149198
 30
0.0
 40
2.5
100
AcDbArc
 50
318.1896850000011
 51
41.81031499999888
  0
ARC
  5
9560
330
1E
100
AcDbEntity
  8
002
100
AcDbCircle
 10
6132.336909354573
 20
-2402.80813149198
 30
0.0
 40
2.5
100
AcDbArc
 50
318.1896850000011
 51
41.81031499999888
  0
ARC
  5
9561
330
1E
100
AcDbEntity
  8
002
100
AcDbCircle
 10
6133.388789354572
 20
-2387.80813149198
 30
0.0
 40
2.5
100
AcDbArc
 50
318.1896850000011
 51
41.81031499999888
  0
ARC
  5
9562
330
1E
100
AcDbEntity
  8
002
100
AcDbCircle
 10
6132.336909354573
 20
-2387.80813149198
 30
0.0
 40
2.5
100
AcDbArc
 50
318.1896850000011
 51
41.81031499999888
  0
ARC
  5
9563
330
1E
100
AcDbEntity
  8
002
100
AcDbCircle
 10
6133.388789354572
 20
-2477.80813149198
 30
0.0
 40
2.5
100
AcDbArc
 50
318.1896850000011
 51
41.81031499999888
  0
ARC
  5
9564
330
1E
100
AcDbEntity
  8
002
100
AcDbCircle
 10
6132.336909354573
 20
-2477.80813149198
 30
0.0
 40
2.5
100
AcDbArc
 50
318.1896850000011
 51
41.81031499999888
  0
ARC
  5
9565
330
1E
100
AcDbEntity
  8
002
100
AcDbCircle
 10
6133.388789354572
 20
-2432.80813149198
 30
0.0
 40
2.5
100
AcDbArc
 50
318.1896850000011
 51
41.81031499999888
  0
ARC
  5
9566
330
1E
100
AcDbEntity
  8
002
100
AcDbCircle
 10
6132.336909354573
 20
-2432.80813149198
 30
0.0
 40
2.5
100
AcDbArc
 50
318.1896850000011
 51
41.81031499999888
  0
ARC
  5
9567
330
1E
100
AcDbEntity
  8
002
100
AcDbCircle
 10
6133.388789354572
 20
-2462.80813149198
 30
0.0
 40
2.5
100
AcDbArc
 50
318.1896850000011
 51
41.81031499999888
  0
ARC
  5
9568
330
1E
100
AcDbEntity
  8
002
100
AcDbCircle
 10
6132.336909354573
 20
-2462.80813149198
 30
0.0
 40
2.5
100
AcDbArc
 50
318.1896850000011
 51
41.81031499999888
  0
ARC
  5
9569
330
1E
100
AcDbEntity
  8
002
100
AcDbCircle
 10
6133.388789354572
 20
-2447.80813149198
 30
0.0
 40
2.5
100
AcDbArc
 50
318.1896850000011
 51
41.81031499999888
  0
ARC
  5
956A
330
1E
100
AcDbEntity
  8
002
100
AcDbCircle
 10
6132.336909354573
 20
-2447.80813149198
 30
0.0
 40
2.5
100
AcDbArc
 50
318.1896850000011
 51
41.81031499999888
  0
ARC
  5
956B
330
1E
100
AcDbEntity
  8
002
100
AcDbCircle
 10
6133.388789354572
 20
-2417.80813149198
 30
0.0
 40
2.5
100
AcDbArc
 50
318.1896850000011
 51
41.81031499999888
  0
ARC
  5
956C
330
1E
100
AcDbEntity
  8
002
100
AcDbCircle
 10
6132.336909354573
 20
-2417.80813149198
 30
0.0
 40
2.5
100
AcDbArc
 50
318.1896850000011
 51
41.81031499999888
  0
LINE
  5
956D
330
1E
100
AcDbEntity
  8
002
100
AcDbLine
 10
6205.252179354572
 20
-2374.47479849198
 30
0.0
 11
6201.525399354572
 21
-2378.64146549198
 31
0.0
  0
ARC
  5
956E
330
1E
100
AcDbEntity
  8
002
100
AcDbCircle
 10
6203.388789354573
 20
-2372.80813149198
 30
0.0
 40
2.5
100
AcDbArc
 50
318.1896850000011
 51
41.81031499999888
  0
ARC
  5
956F
330
1E
100
AcDbEntity
  8
002
100
AcDbCircle
 10
6203.388789354573
 20
-2380.30813149198
 30
0.0
 40
2.5
100
AcDbArc
 50
138.1896850000011
 51
221.8103149999989
  0
ARC
  5
9570
330
1E
100
AcDbEntity
  8
002
100
AcDbCircle
 10
6204.882364354572
 20
-2372.80813149198
 30
0.0
 40
2.5
100
AcDbArc
 50
318.1896850000011
 51
41.81031499999888
  0
LINE
  5
9571
330
1E
100
AcDbEntity
  8
002
100
AcDbLine
 10
6206.745754354573
 20
-2374.47479849198
 30
0.0
 11
6203.018974354573
 21
-2378.64146549198
 31
0.0
  0
ARC
  5
9572
330
1E
100
AcDbEntity
  8
002
100
AcDbCircle
 10
6204.882364354572
 20
-2380.30813149198
 30
0.0
 40
2.5
100
AcDbArc
 50
138.1896850000011
 51
221.8103149999989
  0
LINE
  5
9573
330
1E
100
AcDbEntity
  8
002
100
AcDbLine
 10
6201.525399354572
 20
-2381.97479849198
 30
0.0
 11
6205.252179354572
 21
-2386.14146549198
 31
0.0
  0
LINE
  5
9574
330
1E
100
AcDbEntity
  8
002
100
AcDbLine
 10
6203.018974354573
 20
-2381.97479849198
 30
0.0
 11
6206.745754354573
 21
-2386.14146549198
 31
0.0
  0
ARC
  5
9575
330
1E
100
AcDbEntity
  8
002
100
AcDbCircle
 10
6203.388789354573
 20
-2395.308131491979
 30
0.0
 40
2.5
100
AcDbArc
 50
138.1896850000011
 51
221.8103149999989
  0
ARC
  5
9576
330
1E
100
AcDbEntity
  8
002
100
AcDbCircle
 10
6204.882364354572
 20
-2395.308131491979
 30
0.0
 40
2.5
100
AcDbArc
 50
138.1896850000011
 51
221.8103149999989
  0
LINE
  5
9577
330
1E
100
AcDbEntity
  8
002
100
AcDbLine
 10
6201.525399354572
 20
-2396.97479849198
 30
0.0
 11
6205.252179354572
 21
-2401.14146549198
 31
0.0
  0
LINE
  5
9578
330
1E
100
AcDbEntity
  8
002
100
AcDbLine
 10
6203.018974354573
 20
-2396.97479849198
 30
0.0
 11
6206.745754354573
 21
-2401.14146549198
 31
0.0
  0
LINE
  5
9579
330
1E
100
AcDbEntity
  8
002
100
AcDbLine
 10
6205.252179354572
 20
-2404.47479849198
 30
0.0
 11
6201.525399354572
 21
-2408.64146549198
 31
0.0
  0
ARC
  5
957A
330
1E
100
AcDbEntity
  8
002
100
AcDbCircle
 10
6203.388789354573
 20
-2410.30813149198
 30
0.0
 40
2.5
100
AcDbArc
 50
138.1896850000011
 51
221.8103149999989
  0
LINE
  5
957B
330
1E
100
AcDbEntity
  8
002
100
AcDbLine
 10
6206.745754354573
 20
-2404.47479849198
 30
0.0
 11
6203.018974354573
 21
-2408.64146549198
 31
0.0
  0
ARC
  5
957C
330
1E
100
AcDbEntity
  8
002
100
AcDbCircle
 10
6204.882364354572
 20
-2410.30813149198
 30
0.0
 40
2.5
100
AcDbArc
 50
138.1896850000011
 51
221.8103149999989
  0
ARC
  5
957D
330
1E
100
AcDbEntity
  8
002
100
AcDbCircle
 10
6203.388789354573
 20
-2402.80813149198
 30
0.0
 40
2.5
100
AcDbArc
 50
318.1896850000011
 51
41.81031499999888
  0
ARC
  5
957E
330
1E
100
AcDbEntity
  8
002
100
AcDbCircle
 10
6204.882364354572
 20
-2402.80813149198
 30
0.0
 40
2.5
100
AcDbArc
 50
318.1896850000011
 51
41.81031499999888
  0
LINE
  5
957F
330
1E
100
AcDbEntity
  8
002
100
AcDbLine
 10
6205.252179354572
 20
-2389.47479849198
 30
0.0
 11
6201.525399354572
 21
-2393.64146549198
 31
0.0
  0
LINE
  5
9580
330
1E
100
AcDbEntity
  8
002
100
AcDbLine
 10
6206.745754354573
 20
-2389.47479849198
 30
0.0
 11
6203.018974354573
 21
-2393.64146549198
 31
0.0
  0
LINE
  5
9581
330
1E
100
AcDbEntity
  8
002
100
AcDbLine
 10
6201.525399354572
 20
-2411.97479849198
 30
0.0
 11
6205.252179354572
 21
-2416.14146549198
 31
0.0
  0
LINE
  5
9582
330
1E
100
AcDbEntity
  8
002
100
AcDbLine
 10
6203.018974354573
 20
-2411.97479849198
 30
0.0
 11
6206.745754354573
 21
-2416.14146549198
 31
0.0
  0
ARC
  5
9583
330
1E
100
AcDbEntity
  8
002
100
AcDbCircle
 10
6203.388789354573
 20
-2387.80813149198
 30
0.0
 40
2.5
100
AcDbArc
 50
318.1896850000011
 51
41.81031499999888
  0
ARC
  5
9584
330
1E
100
AcDbEntity
  8
002
100
AcDbCircle
 10
6204.882364354572
 20
-2387.80813149198
 30
0.0
 40
2.5
100
AcDbArc
 50
318.1896850000011
 51
41.81031499999888
  0
LINE
  5
9585
330
1E
100
AcDbEntity
  8
002
100
AcDbLine
 10
6205.252179354572
 20
-2464.47479849198
 30
0.0
 11
6201.525399354572
 21
-2468.64146549198
 31
0.0
  0
LINE
  5
9586
330
1E
100
AcDbEntity
  8
002
100
AcDbLine
 10
6206.745754354573
 20
-2464.47479849198
 30
0.0
 11
6203.018974354573
 21
-2468.64146549198
 31
0.0
  0
ARC
  5
9587
330
1E
100
AcDbEntity
  8
002
100
AcDbCircle
 10
6203.388789354573
 20
-2470.30813149198
 30
0.0
 40
2.5
100
AcDbArc
 50
138.1896850000011
 51
221.8103149999989
  0
ARC
  5
9588
330
1E
100
AcDbEntity
  8
002
100
AcDbCircle
 10
6204.882364354572
 20
-2470.30813149198
 30
0.0
 40
2.5
100
AcDbArc
 50
138.1896850000011
 51
221.8103149999989
  0
ARC
  5
9589
330
1E
100
AcDbEntity
  8
002
100
AcDbCircle
 10
6203.388789354573
 20
-2477.80813149198
 30
0.0
 40
2.5
100
AcDbArc
 50
318.1896850000011
 51
41.81031499999888
  0
ARC
  5
958A
330
1E
100
AcDbEntity
  8
002
100
AcDbCircle
 10
6204.882364354572
 20
-2477.80813149198
 30
0.0
 40
2.5
100
AcDbArc
 50
318.1896850000011
 51
41.81031499999888
  0
LINE
  5
958B
330
1E
100
AcDbEntity
  8
002
100
AcDbLine
 10
6201.525399354572
 20
-2471.97479849198
 30
0.0
 11
6205.252179354572
 21
-2476.14146549198
 31
0.0
  0
LINE
  5
958C
330
1E
100
AcDbEntity
  8
002
100
AcDbLine
 10
6203.018974354573
 20
-2471.97479849198
 30
0.0
 11
6206.745754354573
 21
-2476.14146549198
 31
0.0
  0
ARC
  5
958D
330
1E
100
AcDbEntity
  8
002
100
AcDbCircle
 10
6203.388789354573
 20
-2425.30813149198
 30
0.0
 40
2.5
100
AcDbArc
 50
138.1896850000011
 51
221.8103149999989
  0
ARC
  5
958E
330
1E
100
AcDbEntity
  8
002
100
AcDbCircle
 10
6204.882364354572
 20
-2425.30813149198
 30
0.0
 40
2.5
100
AcDbArc
 50
138.1896850000011
 51
221.8103149999989
  0
LINE
  5
958F
330
1E
100
AcDbEntity
  8
002
100
AcDbLine
 10
6205.252179354572
 20
-2434.47479849198
 30
0.0
 11
6201.525399354572
 21
-2438.64146549198
 31
0.0
  0
ARC
  5
9590
330
1E
100
AcDbEntity
  8
002
100
AcDbCircle
 10
6203.388789354573
 20
-2440.30813149198
 30
0.0
 40
2.5
100
AcDbArc
 50
138.1896850000011
 51
221.8103149999989
  0
LINE
  5
9591
330
1E
100
AcDbEntity
  8
002
100
AcDbLine
 10
6201.525399354572
 20
-2426.97479849198
 30
0.0
 11
6205.252179354572
 21
-2431.14146549198
 31
0.0
  0
ARC
  5
9592
330
1E
100
AcDbEntity
  8
002
100
AcDbCircle
 10
6203.388789354573
 20
-2432.80813149198
 30
0.0
 40
2.5
100
AcDbArc
 50
318.1896850000011
 51
41.81031499999888
  0
LINE
  5
9593
330
1E
100
AcDbEntity
  8
002
100
AcDbLine
 10
6206.745754354573
 20
-2434.47479849198
 30
0.0
 11
6203.018974354573
 21
-2438.64146549198
 31
0.0
  0
ARC
  5
9594
330
1E
100
AcDbEntity
  8
002
100
AcDbCircle
 10
6204.882364354572
 20
-2440.30813149198
 30
0.0
 40
2.5
100
AcDbArc
 50
138.1896850000011
 51
221.8103149999989
  0
LINE
  5
9595
330
1E
100
AcDbEntity
  8
002
100
AcDbLine
 10
6203.018974354573
 20
-2426.97479849198
 30
0.0
 11
6206.745754354573
 21
-2431.14146549198
 31
0.0
  0
ARC
  5
9596
330
1E
100
AcDbEntity
  8
002
100
AcDbCircle
 10
6204.882364354572
 20
-2432.80813149198
 30
0.0
 40
2.5
100
AcDbArc
 50
318.1896850000011
 51
41.81031499999888
  0
LINE
  5
9597
330
1E
100
AcDbEntity
  8
002
100
AcDbLine
 10
6205.252179354572
 20
-2419.47479849198
 30
0.0
 11
6201.525399354572
 21
-2423.64146549198
 31
0.0
  0
LINE
  5
9598
330
1E
100
AcDbEntity
  8
002
100
AcDbLine
 10
6206.745754354573
 20
-2419.47479849198
 30
0.0
 11
6203.018974354573
 21
-2423.64146549198
 31
0.0
  0
LINE
  5
9599
330
1E
100
AcDbEntity
  8
002
100
AcDbLine
 10
6205.252179354572
 20
-2449.47479849198
 30
0.0
 11
6201.525399354572
 21
-2453.64146549198
 31
0.0
  0
LINE
  5
959A
330
1E
100
AcDbEntity
  8
002
100
AcDbLine
 10
6206.745754354573
 20
-2449.47479849198
 30
0.0
 11
6203.018974354573
 21
-2453.64146549198
 31
0.0
  0
LINE
  5
959B
330
1E
100
AcDbEntity
  8
002
100
AcDbLine
 10
6201.525399354572
 20
-2456.97479849198
 30
0.0
 11
6205.252179354572
 21
-2461.14146549198
 31
0.0
  0
ARC
  5
959C
330
1E
100
AcDbEntity
  8
002
100
AcDbCircle
 10
6203.388789354573
 20
-2455.30813149198
 30
0.0
 40
2.5
100
AcDbArc
 50
138.1896850000011
 51
221.8103149999989
  0
LINE
  5
959D
330
1E
100
AcDbEntity
  8
002
100
AcDbLine
 10
6203.018974354573
 20
-2456.97479849198
 30
0.0
 11
6206.745754354573
 21
-2461.14146549198
 31
0.0
  0
ARC
  5
959E
330
1E
100
AcDbEntity
  8
002
100
AcDbCircle
 10
6204.882364354572
 20
-2455.30813149198
 30
0.0
 40
2.5
100
AcDbArc
 50
138.1896850000011
 51
221.8103149999989
  0
ARC
  5
959F
330
1E
100
AcDbEntity
  8
002
100
AcDbCircle
 10
6203.388789354573
 20
-2462.80813149198
 30
0.0
 40
2.5
100
AcDbArc
 50
318.1896850000011
 51
41.81031499999888
  0
ARC
  5
95A0
330
1E
100
AcDbEntity
  8
002
100
AcDbCircle
 10
6204.882364354572
 20
-2462.80813149198
 30
0.0
 40
2.5
100
AcDbArc
 50
318.1896850000011
 51
41.81031499999888
  0
ARC
  5
95A1
330
1E
100
AcDbEntity
  8
002
100
AcDbCircle
 10
6203.388789354573
 20
-2447.80813149198
 30
0.0
 40
2.5
100
AcDbArc
 50
318.1896850000011
 51
41.81031499999888
  0
ARC
  5
95A2
330
1E
100
AcDbEntity
  8
002
100
AcDbCircle
 10
6204.882364354572
 20
-2447.80813149198
 30
0.0
 40
2.5
100
AcDbArc
 50
318.1896850000011
 51
41.81031499999888
  0
LINE
  5
95A3
330
1E
100
AcDbEntity
  8
002
100
AcDbLine
 10
6201.525399354572
 20
-2441.97479849198
 30
0.0
 11
6205.252179354572
 21
-2446.14146549198
 31
0.0
  0
LINE
  5
95A4
330
1E
100
AcDbEntity
  8
002
100
AcDbLine
 10
6203.018974354573
 20
-2441.97479849198
 30
0.0
 11
6206.745754354573
 21
-2446.14146549198
 31
0.0
  0
ARC
  5
95A5
330
1E
100
AcDbEntity
  8
002
100
AcDbCircle
 10
6203.388789354573
 20
-2417.80813149198
 30
0.0
 40
2.5
100
AcDbArc
 50
318.1896850000011
 51
41.81031499999888
  0
ARC
  5
95A6
330
1E
100
AcDbEntity
  8
002
100
AcDbCircle
 10
6204.882364354572
 20
-2417.80813149198
 30
0.0
 40
2.5
100
AcDbArc
 50
318.1896850000011
 51
41.81031499999888
  0
LINE
  5
95A7
330
1E
100
AcDbEntity
  8
002
100
AcDbLine
 10
6155.398106354573
 20
-2311.97479849198
 30
0.0
 11
6181.398106354572
 21
-2311.97479849198
 31
0.0
  0
LINE
  5
95A8
330
1E
100
AcDbEntity
  8
002
100
AcDbLine
 10
6154.862336354572
 20
-2288.54848349198
 30
0.0
 11
6154.248106354572
 21
-2287.48460549198
 31
0.0
  0
ARC
  5
95A9
330
1E
100
AcDbEntity
  8
002
100
AcDbCircle
 10
6155.600735354573
 20
-2288.12216949198
 30
0.0
 40
0.8526290000000001
100
AcDbArc
 50
210.0000000000103
 51
352.9999999999943
  0
ARC
  5
95AA
330
1E
100
AcDbEntity
  8
002
100
AcDbCircle
 10
6140.195477354573
 20
-2288.12216949198
 30
0.0
 40
0.8526290000000001
100
AcDbArc
 50
187.0000000000056
 51
329.9999999999897
  0
LINE
  5
95AB
330
1E
100
AcDbEntity
  8
002
100
AcDbLine
 10
6140.933875354573
 20
-2288.54848349198
 30
0.0
 11
6141.548106354572
 21
-2287.48460549198
 31
0.0
  0
LINE
  5
95AC
330
1E
100
AcDbEntity
  8
002
100
AcDbLine
 10
6140.898106354573
 20
-2361.97479849198
 30
0.0
 11
6140.898106354573
 21
-2311.97479849198
 31
0.0
  0
LINE
  5
95AD
330
1E
100
AcDbEntity
  8
002
100
AcDbLine
 10
6146.039717354573
 20
-2366.97479849198
 30
0.0
 11
6154.248106354572
 21
-2320.42271149198
 31
0.0
  0
LINE
  5
95AE
330
1E
100
AcDbEntity
  8
002
100
AcDbLine
 10
6138.388789354572
 20
-2361.97479849198
 30
0.0
 11
6138.388789354572
 21
-2366.97479849198
 31
0.0
  0
LINE
  5
95AF
330
1E
100
AcDbEntity
  8
002
100
AcDbLine
 10
6138.388789354572
 20
-2361.97479849198
 30
0.0
 11
6140.898106354573
 21
-2361.97479849198
 31
0.0
  0
LINE
  5
95B0
330
1E
100
AcDbEntity
  8
002
100
AcDbLine
 10
6155.398106354573
 20
-2306.97479849198
 30
0.0
 11
6156.012028354572
 21
-2311.97479849198
 31
0.0
  0
LINE
  5
95B1
330
1E
100
AcDbEntity
  8
002
100
AcDbLine
 10
6140.398106354573
 20
-2306.97479849198
 30
0.0
 11
6139.784183354572
 21
-2311.97479849198
 31
0.0
  0
LINE
  5
95B2
330
1E
100
AcDbEntity
  8
002
100
AcDbLine
 10
6136.398106354572
 20
-2311.97479849198
 30
0.0
 11
6137.898106354573
 21
-2312.84082349198
 31
0.0
  0
LINE
  5
95B3
330
1E
100
AcDbEntity
  8
002
100
AcDbLine
 10
6137.888789354573
 20
-2311.97479849198
 30
0.0
 11
6136.388789354572
 21
-2312.84082349198
 31
0.0
  0
LINE
  5
95B4
330
1E
100
AcDbEntity
  8
002
100
AcDbLine
 10
6136.388789354572
 20
-2331.97479849198
 30
0.0
 11
6137.888789354573
 21
-2331.10877249198
 31
0.0
  0
LINE
  5
95B5
330
1E
100
AcDbEntity
  8
002
100
AcDbLine
 10
6136.388789354572
 20
-2311.97479849198
 30
0.0
 11
6136.388789354572
 21
-2331.97479849198
 31
0.0
  0
LINE
  5
95B6
330
1E
100
AcDbEntity
  8
002
100
AcDbLine
 10
6137.888789354573
 20
-2311.97479849198
 30
0.0
 11
6137.888789354573
 21
-2331.97479849198
 31
0.0
  0
LINE
  5
95B7
330
1E
100
AcDbEntity
  8
002
100
AcDbLine
 10
6155.398106354573
 20
-2296.76870349198
 30
0.0
 11
6155.398106354573
 21
-2306.97479849198
 31
0.0
  0
LINE
  5
95B8
330
1E
100
AcDbEntity
  8
002
100
AcDbLine
 10
6140.398106354573
 20
-2296.76870349198
 30
0.0
 11
6140.398106354573
 21
-2306.97479849198
 31
0.0
  0
LINE
  5
95B9
330
1E
100
AcDbEntity
  8
002
100
AcDbLine
 10
6141.548106354572
 20
-2334.86028549198
 30
0.0
 11
6154.248106354572
 21
-2262.83500649198
 31
0.0
  0
ARC
  5
95BA
330
1E
100
AcDbEntity
  8
002
100
AcDbCircle
 10
6196.600735354572
 20
-2288.12216949198
 30
0.0
 40
0.8526290000000001
100
AcDbArc
 50
210.0000000000103
 51
352.9999999999943
  0
LINE
  5
95BB
330
1E
100
AcDbEntity
  8
002
100
AcDbLine
 10
6195.862336354572
 20
-2288.54848349198
 30
0.0
 11
6195.248106354572
 21
-2287.48460549198
 31
0.0
  0
LINE
  5
95BC
330
1E
100
AcDbEntity
  8
002
100
AcDbLine
 10
6208.398106354573
 20
-2291.97479849198
 30
0.0
 11
6210.898106354573
 21
-2293.41817449198
 31
0.0
  0
ARC
  5
95BD
330
1E
100
AcDbEntity
  8
002
100
AcDbCircle
 10
6181.195477354572
 20
-2288.12216949198
 30
0.0
 40
0.8526290000000001
100
AcDbArc
 50
187.0000000000056
 51
329.9999999999897
  0
LINE
  5
95BE
330
1E
100
AcDbEntity
  8
002
100
AcDbLine
 10
6181.933875354573
 20
-2288.54848349198
 30
0.0
 11
6182.548106354572
 21
-2287.48460549198
 31
0.0
  0
LINE
  5
95BF
330
1E
100
AcDbEntity
  8
002
100
AcDbLine
 10
6208.398106354573
 20
-2252.97479849198
 30
0.0
 11
6208.398106354573
 21
-2291.97479849198
 31
0.0
  0
LINE
  5
95C0
330
1E
100
AcDbEntity
  8
002
100
AcDbLine
 10
6212.898106354573
 20
-2331.97479849198
 30
0.0
 11
6212.898106354574
 21
-2355.97479849198
 31
0.0
  0
LINE
  5
95C1
330
1E
100
AcDbEntity
  8
002
100
AcDbLine
 10
6186.656781354573
 20
-2366.97479849198
 30
0.0
 11
6195.248106354572
 21
-2318.25097649198
 31
0.0
  0
LINE
  5
95C2
330
1E
100
AcDbEntity
  8
002
100
AcDbLine
 10
6195.898106354572
 20
-2361.97479849198
 30
0.0
 11
6195.898106354572
 21
-2311.97479849198
 31
0.0
  0
LINE
  5
95C3
330
1E
100
AcDbEntity
  8
002
100
AcDbLine
 10
6195.898106354571
 20
-2355.97479849198
 30
0.0
 11
6212.898106354573
 21
-2355.97479849198
 31
0.0
  0
LINE
  5
95C4
330
1E
100
AcDbEntity
  8
002
100
AcDbLine
 10
6198.388789354573
 20
-2361.97479849198
 30
0.0
 11
6195.898106354572
 21
-2361.97479849198
 31
0.0
  0
LINE
  5
95C5
330
1E
100
AcDbEntity
  8
002
100
AcDbLine
 10
6198.388789354573
 20
-2361.97479849198
 30
0.0
 11
6198.388789354573
 21
-2366.97479849198
 31
0.0
  0
LINE
  5
95C6
330
1E
100
AcDbEntity
  8
002
100
AcDbLine
 10
6210.898106354573
 20
-2310.97479849198
 30
0.0
 11
6209.898106354573
 21
-2311.97479849198
 31
0.0
  0
LINE
  5
95C7
330
1E
100
AcDbEntity
  8
002
100
AcDbLine
 10
6210.898106354573
 20
-2311.97479849198
 30
0.0
 11
6212.201115354573
 21
-2309.97479849198
 31
0.0
  0
LINE
  5
95C8
330
1E
100
AcDbEntity
  8
002
100
AcDbLine
 10
6200.388789354573
 20
-2311.97479849198
 30
0.0
 11
6198.888789354572
 21
-2312.84082349198
 31
0.0
  0
LINE
  5
95C9
330
1E
100
AcDbEntity
  8
002
100
AcDbLine
 10
6198.888789354572
 20
-2311.97479849198
 30
0.0
 11
6200.388789354573
 21
-2312.84082349198
 31
0.0
  0
LINE
  5
95CA
330
1E
100
AcDbEntity
  8
002
100
AcDbLine
 10
6196.398106354572
 20
-2306.97479849198
 30
0.0
 11
6197.012028354572
 21
-2311.97479849198
 31
0.0
  0
LINE
  5
95CB
330
1E
100
AcDbEntity
  8
002
100
AcDbLine
 10
6195.898106354572
 20
-2311.97479849198
 30
0.0
 11
6210.898106354573
 21
-2311.97479849198
 31
0.0
  0
LINE
  5
95CC
330
1E
100
AcDbEntity
  8
002
100
AcDbLine
 10
6181.398106354572
 20
-2306.97479849198
 30
0.0
 11
6180.784183354573
 21
-2311.97479849198
 31
0.0
  0
LINE
  5
95CD
330
1E
100
AcDbEntity
  8
002
100
AcDbLine
 10
6200.388789354573
 20
-2331.97479849198
 30
0.0
 11
6198.888789354572
 21
-2331.10877249198
 31
0.0
  0
LINE
  5
95CE
330
1E
100
AcDbEntity
  8
002
100
AcDbLine
 10
6200.388789354573
 20
-2311.97479849198
 30
0.0
 11
6200.388789354573
 21
-2331.97479849198
 31
0.0
  0
LINE
  5
95CF
330
1E
100
AcDbEntity
  8
002
100
AcDbLine
 10
6198.888789354572
 20
-2311.97479849198
 30
0.0
 11
6198.888789354572
 21
-2331.97479849198
 31
0.0
  0
LINE
  5
95D0
330
1E
100
AcDbEntity
  8
002
100
AcDbLine
 10
6210.898106354573
 20
-2310.97479849198
 30
0.0
 11
6210.898106354573
 21
-2293.41817449198
 31
0.0
  0
LINE
  5
95D1
330
1E
100
AcDbEntity
  8
002
100
AcDbLine
 10
6196.398106354572
 20
-2296.76870349198
 30
0.0
 11
6196.398106354572
 21
-2306.97479849198
 31
0.0
  0
LINE
  5
95D2
330
1E
100
AcDbEntity
  8
002
100
AcDbLine
 10
6181.398106354572
 20
-2296.76870349198
 30
0.0
 11
6181.398106354572
 21
-2306.97479849198
 31
0.0
  0
LINE
  5
95D3
330
1E
100
AcDbEntity
  8
002
100
AcDbLine
 10
6182.548106354572
 20
-2332.68855049198
 30
0.0
 11
6195.248106354572
 21
-2260.66327149198
 31
0.0
  0
LINE
  5
95D4
330
1E
100
AcDbEntity
  8
003
 62
     3
100
AcDbLine
 10
6250.898106354572
 20
-2377.97479849198
 30
0.0
 11
6250.898106354572
 21
-2556.08835849198
 31
0.0
  0
LINE
  5
95D5
330
1E
100
AcDbEntity
  8
003
 62
     3
100
AcDbLine
 10
6241.398106354573
 20
-2377.97479849198
 30
0.0
 11
6241.398106354573
 21
-2556.08835849198
 31
0.0
  0
LINE
  5
95D6
330
1E
100
AcDbEntity
  8
001
100
AcDbLine
 10
6267.724876615576
 20
-2584.142156315819
 30
0.0
 11
6363.974876615576
 21
-2584.142156315819
 31
0.0
  0
TEXT
  5
95D7
330
1E
100
AcDbEntity
  8
001
100
AcDbText
 10
6277.349876615576
 20
-2580.642120315819
 30
0.0
 40
11.19999999999999
  1
コルゲートシース
 41
0.716146
100
AcDbText
  0
LINE
  5
95D8
330
1E
100
AcDbEntity
  8
001
100
AcDbLine
 10
6270.898106354572
 20
-2345.510228261279
 30
0.0
 11
6371.363675724152
 21
-2388.799355243651
 31
0.0
  0
LWPOLYLINE
  5
95D9
330
1E
100
AcDbEntity
  8
003
100
AcDbPolyline
 90
        4
 70
     0
 43
0.0
 10
6217.994677561019
 20
-2355.97479849198
 10
6233.398106354573
 20
-2355.97479849198
 10
6233.398106354573
 20
-2377.97479849198
 10
6217.994677561019
 20
-2377.97479849198
  0
LINE
  5
95DA
330
1E
100
AcDbEntity
  8
003
100
AcDbLine
 10
6217.994677561018
 20
-2377.97479849198
 30
0.0
 11
6281.498106354572
 21
-2377.97479849198
 31
0.0
  0
LINE
  5
95DB
330
1E
100
AcDbEntity
  8
003
100
AcDbLine
 10
6273.398106354573
 20
-2355.97479849198
 30
0.0
 11
6217.994677561019
 21
-2355.974798491979
 31
0.0
  0
LINE
  5
95DC
330
1E
100
AcDbEntity
  8
002
100
AcDbLine
 10
6228.398106354572
 20
-2293.67336949198
 30
0.0
 11
6228.398106354572
 21
-2294.80575049198
 31
0.0
  0
LINE
  5
95DD
330
1E
100
AcDbEntity
  8
002
100
AcDbLine
 10
6226.941593354572
 20
-2291.10089049198
 30
0.0
 11
6225.970584354572
 21
-2290.51828549198
 31
0.0
  0
ARC
  5
95DE
330
1E
100
AcDbEntity
  8
002
100
AcDbCircle
 10
6225.398106354573
 20
-2293.67336949198
 30
0.0
 40
3.0
100
AcDbArc
 50
0.0
 51
59.03624299998975
  0
ARC
  5
95DF
330
1E
100
AcDbEntity
  8
002
100
AcDbCircle
 10
6226.347732354572
 20
-2287.24600249198
 30
0.0
 40
3.0
100
AcDbArc
 50
181.7134649999949
 51
239.0362429999897
  0
LINE
  5
95E0
330
1E
100
AcDbEntity
  8
002
100
AcDbLine
 10
6224.804244354572
 20
-2289.81848149198
 30
0.0
 11
6225.970584354572
 21
-2290.51828549198
 31
0.0
  0
LINE
  5
95E1
330
1E
100
AcDbEntity
  8
002
100
AcDbLine
 10
6218.398106354573
 20
-2288.97479849198
 30
0.0
 11
6218.398106354573
 21
-2299.37672249198
 31
0.0
  0
LINE
  5
95E2
330
1E
100
AcDbEntity
  8
002
100
AcDbLine
 10
6219.898106354572
 20
-2299.37672249198
 30
0.0
 11
6218.398106354573
 21
-2299.37672249198
 31
0.0
  0
LINE
  5
95E3
330
1E
100
AcDbEntity
  8
002
100
AcDbLine
 10
6219.900941354573
 20
-2299.38163249198
 30
0.0
 11
6221.398106354572
 21
-2301.97479849198
 31
0.0
  0
LINE
  5
95E4
330
1E
100
AcDbEntity
  8
002
100
AcDbLine
 10
6222.382952354573
 20
-2255.03966349198
 30
0.0
 11
6217.376794354573
 21
-2254.90857249198
 31
0.0
  0
LINE
  5
95E5
330
1E
100
AcDbEntity
  8
002
100
AcDbLine
 10
6222.397933354572
 20
-2255.54044749198
 30
0.0
 11
6217.391774354573
 21
-2255.40935649198
 31
0.0
  0
LINE
  5
95E6
330
1E
100
AcDbEntity
  8
002
100
AcDbLine
 10
6228.398106354572
 20
-2329.97479849198
 30
0.0
 11
6226.398106354572
 21
-2331.97479849198
 31
0.0
  0
LINE
  5
95E7
330
1E
100
AcDbEntity
  8
002
100
AcDbLine
 10
6218.898106354572
 20
-2310.97479849198
 30
0.0
 11
6217.898106354573
 21
-2309.97479849198
 31
0.0
  0
LINE
  5
95E8
330
1E
100
AcDbEntity
  8
002
100
AcDbLine
 10
6218.898106354572
 20
-2310.97479849198
 30
0.0
 11
6218.898106354572
 21
-2312.97479849198
 31
0.0
  0
LINE
  5
95E9
330
1E
100
AcDbEntity
  8
002
100
AcDbLine
 10
6218.898106354572
 20
-2312.97479849198
 30
0.0
 11
6221.398106354572
 21
-2314.70684949198
 31
0.0
  0
LINE
  5
95EA
330
1E
100
AcDbEntity
  8
002
100
AcDbLine
 10
6219.898106354572
 20
-2331.97479849198
 30
0.0
 11
6221.398106354572
 21
-2331.10877249198
 31
0.0
  0
LINE
  5
95EB
330
1E
100
AcDbEntity
  8
002
100
AcDbLine
 10
6219.889390354572
 20
-2331.10374049198
 30
0.0
 11
6221.398106354572
 21
-2331.97479849198
 31
0.0
  0
LWPOLYLINE
  5
95EC
330
1E
100
AcDbEntity
  8
001
100
AcDbPolyline
 90
        3
 70
     0
 43
0.0
 10
6223.653603977111
 20
-2312.121959920071
 10
6220.31714397711
 20
-2318.555160920071
 10
6226.423203977111
 20
-2314.652075920071
  0
LINE
  5
95ED
330
1E
100
AcDbEntity
  8
002
100
AcDbLine
 10
6228.398106354572
 20
-2329.97479849198
 30
0.0
 11
6228.398106354572
 21
-2294.80575049198
 31
0.0
  0
LINE
  5
95EE
330
1E
100
AcDbEntity
  8
002
100
AcDbLine
 10
6219.898106354572
 20
-2299.37672249198
 30
0.0
 11
6219.898106354572
 21
-2331.97479849198
 31
0.0
  0
LINE
  5
95EF
330
1E
100
AcDbEntity
  8
002
100
AcDbLine
 10
6221.398106354572
 20
-2301.97479849198
 30
0.0
 11
6221.398106354572
 21
-2331.97479849198
 31
0.0
  0
LINE
  5
95F0
330
1E
100
AcDbEntity
  8
002
100
AcDbLine
 10
6270.898106354573
 20
-2331.97479849198
 30
0.0
 11
6270.898106354573
 21
-2355.974798491981
 31
0.0
  0
LWPOLYLINE
  5
95F1
330
1E
100
AcDbEntity
  8
001
100
AcDbPolyline
 90
        3
 70
     0
 43
0.0
 10
6278.067312138255
 20
-2346.568780406841
 10
6270.898106354573
 20
-2345.510228261279
 10
6276.577544303395
 20
-2350.011564497419
  0
INSERT
  5
95F2
330
1E
100
AcDbEntity
  8
001
  6
ByBlock
 62
     0
100
AcDbBlockReference
  2
PART1
 10
5114.266674336715
 20
-3267.895483964927
 30
0.0
  0
LINE
  5
95F3
330
1E
100
AcDbEntity
  8
002
100
AcDbLine
 10
6402.111931139645
 20
-3063.859804964928
 30
0.0
 11
6402.111931139645
 21
-2858.859804964928
 31
0.0
  0
LINE
  5
95F4
330
1E
100
AcDbEntity
  8
002
100
AcDbLine
 10
6426.111931139645
 20
-2858.859804964928
 30
0.0
 11
6426.111931139645
 21
-3063.859804964928
 31
0.0
  0
LINE
  5
95F5
330
1E
100
AcDbEntity
  8
002
100
AcDbLine
 10
6402.111931139645
 20
-3063.859804964928
 30
0.0
 11
6426.111931139645
 21
-3063.859804964928
 31
0.0
  0
LINE
  5
95F6
330
1E
100
AcDbEntity
  8
004
  6
CENTER
 62
     6
100
AcDbLine
 10
6393.504787139645
 20
-2961.359804964928
 30
0.0
 11
6454.216102139645
 21
-2961.359804964928
 31
0.0
  0
DIMENSION
  5
95F7
330
1E
100
AcDbEntity
  8
001
  6
Continuous
100
AcDbDimension
  2
*D4
 10
6401.111931139645
 20
-2808.224160567629
 30
0.0
 11
6467.611931139645
 21
-2808.224160567629
 31
0.0
 70
   160
 71
     5
 42
25.0
  3
ISO-25
100
AcDbAlignedDimension
 13
6426.111931139645
 23
-2858.859804964928
 33
0.0
 14
6401.111931139645
 24
-2858.859804964928
 34
0.0
100
AcDbRotatedDimension
  0
LINE
  5
95F8
330
1E
100
AcDbEntity
  8
002
100
AcDbLine
 10
6402.111931139645
 20
-2858.859804964928
 30
0.0
 11
6426.111931139645
 21
-2858.859804964928
 31
0.0
  0
LINE
  5
95F9
330
1E
100
AcDbEntity
  8
002
100
AcDbLine
 10
6402.111931139645
 20
-2916.859804964928
 30
0.0
 11
6426.111931139645
 21
-2916.859804964928
 31
0.0
  0
LINE
  5
95FA
330
1E
100
AcDbEntity
  8
002
100
AcDbLine
 10
6402.111931139645
 20
-2902.834122964928
 30
0.0
 11
6426.111931139645
 21
-2877.834122964928
 31
0.0
  0
LINE
  5
95FB
330
1E
100
AcDbEntity
  8
002
100
AcDbLine
 10
6402.111931139645
 20
-2912.733617964928
 30
0.0
 11
6426.111931139645
 21
-2887.733617964928
 31
0.0
  0
LINE
  5
95FC
330
1E
100
AcDbEntity
  8
002
100
AcDbLine
 10
6407.885239139645
 20
-2916.859804964928
 30
0.0
 11
6426.111931139645
 21
-2897.633112964928
 31
0.0
  0
LINE
  5
95FD
330
1E
100
AcDbEntity
  8
002
100
AcDbLine
 10
6402.111931139645
 20
-2892.934627964928
 30
0.0
 11
6426.111931139645
 21
-2867.934627964928
 31
0.0
  0
LINE
  5
95FE
330
1E
100
AcDbEntity
  8
002
100
AcDbLine
 10
6402.111931139645
 20
-2883.035132964928
 30
0.0
 11
6425.287260139644
 21
-2858.859804964928
 31
0.0
  0
LINE
  5
95FF
330
1E
100
AcDbEntity
  8
002
100
AcDbLine
 10
6402.111931139645
 20
-2863.236142964928
 30
0.0
 11
6406.488270139646
 21
-2858.859804964928
 31
0.0
  0
LINE
  5
9600
330
1E
100
AcDbEntity
  8
002
100
AcDbLine
 10
6402.111931139645
 20
-2873.135637964928
 30
0.0
 11
6415.387765139645
 21
-2858.859804964928
 31
0.0
  0
LINE
  5
9601
330
1E
100
AcDbEntity
  8
002
100
AcDbLine
 10
6416.784734139645
 20
-2916.859804964928
 30
0.0
 11
6426.111931139645
 21
-2907.532607964927
 31
0.0
  0
LINE
  5
9602
330
1E
100
AcDbEntity
  8
003
 62
     3
100
AcDbLine
 10
6523.524384562751
 20
-2460.634743220402
 30
0.0
 11
6541.924782562749
 21
-2460.634743220402
 31
0.0
  0
LINE
  5
9603
330
1E
100
AcDbEntity
  8
003
 62
     3
100
AcDbLine
 10
6561.648665562749
 20
-2414.032706220403
 30
0.0
 11
6523.524384562751
 21
-2460.634743220402
 31
0.0
  0
TEXT
  5
9604
330
1E
100
AcDbEntity
  8
001
100
AcDbText
 10
6380.988675724152
 20
-2385.299355243652
 30
0.0
 40
11.19999999999999
  1
メッキ付　円形プレート
 41
0.716146
100
AcDbText
  0
LINE
  5
9605
330
1E
100
AcDbEntity
  8
003
 62
     3
100
AcDbLine
 10
6541.924782562749
 20
-2460.634743220402
 30
0.0
 11
6541.924782562749
 21
-2599.671518591489
 31
0.0
  0
LINE
  5
9606
330
1E
100
AcDbEntity
  8
003
 62
     3
100
AcDbLine
 10
6541.924782562749
 20
-2414.032706220403
 30
0.0
 11
6561.648665562749
 21
-2414.032706220403
 31
0.0
  0
LINE
  5
9607
330
1E
100
AcDbEntity
  8
003
  6
Continuous
100
AcDbLine
 10
6418.380655616497
 20
-2205.97479849198
 30
0.0
 11
6240.401025839458
 21
-2205.97479849198
 31
0.0
  0
LINE
  5
9608
330
1E
100
AcDbEntity
  8
001
100
AcDbLine
 10
6269.493453967984
 20
-2251.381499787922
 30
0.0
 11
6404.018116785923
 21
-2251.381499787922
 31
0.0
  0
TEXT
  5
9609
330
1E
100
AcDbEntity
  8
001
100
AcDbText
 10
6272.702417372271
 20
-2247.881499787922
 30
0.0
 40
11.19999999999999
  1
両ネジ　ジョイントプレート
 41
0.716146
100
AcDbText
  0
ARC
  5
960A
330
1E
100
AcDbEntity
  8
002
100
AcDbCircle
 10
6210.192778354572
 20
-2181.97479849198
 30
0.0
 40
5.0
100
AcDbArc
 50
1.713464999994949
 51
90.0
  0
LINE
  5
960B
330
1E
100
AcDbEntity
  8
001
100
AcDbLine
 10
6195.248106354572
 20
-2218.41226049198
 30
0.0
 11
6265.062681354573
 21
-2143.50778449198
 31
0.0
  0
LINE
  5
960C
330
1E
100
AcDbEntity
  8
002
100
AcDbLine
 10
6121.750770354573
 20
-2171.97479849198
 30
0.0
 11
6215.045442354572
 21
-2171.97479849198
 31
0.0
  0
LINE
  5
960D
330
1E
100
AcDbEntity
  8
001
100
AcDbLine
 10
6140.510882406315
 20
-2172.952668408742
 30
0.0
 11
6103.478651508797
 21
-2121.243219995579
 31
0.0
  0
LINE
  5
960E
330
1E
100
AcDbEntity
  8
002
100
AcDbLine
 10
6210.192778354572
 20
-2176.97479849198
 30
0.0
 11
6126.603434354572
 21
-2176.97479849198
 31
0.0
  0
LINE
  5
960F
330
1E
100
AcDbEntity
  8
002
100
AcDbLine
 10
6134.398106354573
 20
-2251.97479849198
 30
0.0
 11
6129.398106354573
 21
-2251.97479849198
 31
0.0
  0
ARC
  5
9610
330
1E
100
AcDbEntity
  8
002
100
AcDbCircle
 10
6121.750770354573
 20
-2176.97479849198
 30
0.0
 40
5.0
100
AcDbArc
 50
90.0
 51
178.286535000005
  0
ARC
  5
9611
330
1E
100
AcDbEntity
  8
002
100
AcDbCircle
 10
6126.603434354572
 20
-2181.97479849198
 30
0.0
 40
5.0
100
AcDbArc
 50
90.0
 51
178.286535000005
  0
LINE
  5
9612
330
1E
100
AcDbEntity
  8
002
100
AcDbLine
 10
6175.398106354573
 20
-2251.97479849198
 30
0.0
 11
6161.398106354573
 21
-2251.97479849198
 31
0.0
  0
LINE
  5
9613
330
1E
100
AcDbEntity
  8
002
100
AcDbLine
 10
6172.009663354572
 20
-2171.97479849198
 30
0.0
 11
6171.878733354573
 21
-2176.97479849198
 31
0.0
  0
LINE
  5
9614
330
1E
100
AcDbEntity
  8
002
100
AcDbLine
 10
6172.509663354571
 20
-2171.97479849198
 30
0.0
 11
6172.378733354572
 21
-2176.97479849198
 31
0.0
  0
LINE
  5
9615
330
1E
100
AcDbEntity
  8
002
100
AcDbLine
 10
6164.286549354573
 20
-2171.97479849198
 30
0.0
 11
6164.417478354572
 21
-2176.97479849198
 31
0.0
  0
LINE
  5
9616
330
1E
100
AcDbEntity
  8
002
100
AcDbLine
 10
6164.786549354572
 20
-2171.97479849198
 30
0.0
 11
6164.917478354572
 21
-2176.97479849198
 31
0.0
  0
LWPOLYLINE
  5
9617
330
1E
100
AcDbEntity
  8
001
100
AcDbPolyline
 90
        3
 70
     0
 43
0.0
 10
6134.910233406316
 20
-2168.353671408743
 10
6140.510882406315
 20
-2172.952668408742
 10
6137.960077406315
 20
-2166.169495408742
  0
LINE
  5
9618
330
1E
100
AcDbEntity
  8
002
100
AcDbLine
 10
6160.837171354572
 20
-2252.47107149198
 30
0.0
 11
6161.398106354573
 21
-2251.97479849198
 31
0.0
  0
ARC
  5
9619
330
1E
100
AcDbEntity
  8
002
100
AcDbCircle
 10
6160.701312354571
 20
-2249.47479849198
 30
0.0
 40
0.5
100
AcDbArc
 50
352.9999999999943
 51
90.0
  0
LINE
  5
961A
330
1E
100
AcDbEntity
  8
002
100
AcDbLine
 10
6154.748106354572
 20
-2248.97479849198
 30
0.0
 11
6154.248106354572
 21
-2249.26347349198
 31
0.0
  0
LINE
  5
961B
330
1E
100
AcDbEntity
  8
002
100
AcDbLine
 10
6160.701312354571
 20
-2248.97479849198
 30
0.0
 11
6154.748106354572
 21
-2248.97479849198
 31
0.0
  0
LINE
  5
961C
330
1E
100
AcDbEntity
  8
002
100
AcDbLine
 10
6141.048106354572
 20
-2248.97479849198
 30
0.0
 11
6141.548106354572
 21
-2249.26347349198
 31
0.0
  0
LINE
  5
961D
330
1E
100
AcDbEntity
  8
002
100
AcDbLine
 10
6134.959040354573
 20
-2252.47107149198
 30
0.0
 11
6134.398106354573
 21
-2251.97479849198
 31
0.0
  0
ARC
  5
961E
330
1E
100
AcDbEntity
  8
002
100
AcDbCircle
 10
6135.094899354573
 20
-2249.47479849198
 30
0.0
 40
0.5
100
AcDbArc
 50
90.0
 51
187.0000000000056
  0
LINE
  5
961F
330
1E
100
AcDbEntity
  8
002
100
AcDbLine
 10
6135.094899354573
 20
-2248.97479849198
 30
0.0
 11
6141.048106354572
 21
-2248.97479849198
 31
0.0
  0
LINE
  5
9620
330
1E
100
AcDbEntity
  8
002
100
AcDbLine
 10
6141.548106354572
 20
-2203.07556649198
 30
0.0
 11
6154.248106354572
 21
-2203.07556649198
 31
0.0
  0
LINE
  5
9621
330
1E
100
AcDbEntity
  8
002
100
AcDbLine
 10
6141.548106354572
 20
-2220.78564449198
 30
0.0
 11
6144.670870354573
 21
-2203.07556649198
 31
0.0
  0
LINE
  5
9622
330
1E
100
AcDbEntity
  8
002
100
AcDbLine
 10
6201.837171354572
 20
-2252.47107149198
 30
0.0
 11
6202.398106354572
 21
-2251.97479849198
 31
0.0
  0
LINE
  5
9623
330
1E
100
AcDbEntity
  8
002
100
AcDbLine
 10
6207.398106354572
 20
-2251.97479849198
 30
0.0
 11
6202.398106354572
 21
-2251.97479849198
 31
0.0
  0
ARC
  5
9624
330
1E
100
AcDbEntity
  8
002
100
AcDbCircle
 10
6201.701312354572
 20
-2249.47479849198
 30
0.0
 40
0.5
100
AcDbArc
 50
352.9999999999943
 51
90.0
  0
LINE
  5
9625
330
1E
100
AcDbEntity
  8
002
100
AcDbLine
 10
6195.748106354572
 20
-2248.97479849198
 30
0.0
 11
6195.248106354572
 21
-2249.26347349198
 31
0.0
  0
LINE
  5
9626
330
1E
100
AcDbEntity
  8
002
100
AcDbLine
 10
6201.701312354572
 20
-2248.97479849198
 30
0.0
 11
6195.748106354572
 21
-2248.97479849198
 31
0.0
  0
LINE
  5
9627
330
1E
100
AcDbEntity
  8
002
100
AcDbLine
 10
6182.048106354572
 20
-2248.97479849198
 30
0.0
 11
6182.548106354572
 21
-2249.26347349198
 31
0.0
  0
LINE
  5
9628
330
1E
100
AcDbEntity
  8
002
100
AcDbLine
 10
6175.959040354573
 20
-2252.47107149198
 30
0.0
 11
6175.398106354573
 21
-2251.97479849198
 31
0.0
  0
ARC
  5
9629
330
1E
100
AcDbEntity
  8
002
100
AcDbCircle
 10
6176.094899354573
 20
-2249.47479849198
 30
0.0
 40
0.5
100
AcDbArc
 50
90.0
 51
187.0000000000056
  0
LINE
  5
962A
330
1E
100
AcDbEntity
  8
002
100
AcDbLine
 10
6176.094899354573
 20
-2248.97479849198
 30
0.0
 11
6182.048106354572
 21
-2248.97479849198
 31
0.0
  0
LINE
  5
962B
330
1E
100
AcDbEntity
  8
002
100
AcDbLine
 10
6182.548106354572
 20
-2203.07556649198
 30
0.0
 11
6195.248106354572
 21
-2203.07556649198
 31
0.0
  0
LWPOLYLINE
  5
962C
330
1E
100
AcDbEntity
  8
001
100
AcDbPolyline
 90
        3
 70
     0
 43
0.0
 10
6198.648736354572
 20
-2212.01274849198
 10
6195.248106354573
 20
-2218.41226049198
 10
6201.392894354572
 20
-2214.57043549198
  0
LINE
  5
962D
330
1E
100
AcDbEntity
  8
002
100
AcDbLine
 10
6182.548106354572
 20
-2218.61390849198
 30
0.0
 11
6185.287935354573
 21
-2203.07556649198
 31
0.0
  0
TEXT
  5
962E
330
1E
100
AcDbEntity
  8
001
100
AcDbText
 10
6274.687681354572
 20
-2140.00776649198
 30
0.0
 40
11.19999999999999
  1
ＰＣ鋼より線
 41
0.716146
100
AcDbText
  0
LINE
  5
962F
330
1E
100
AcDbEntity
  8
003
100
AcDbLine
 10
6366.357197263663
 20
-2230.97479849198
 30
0.0
 11
6227.34818047796
 21
-2230.97479849198
 31
0.0
  0
LINE
  5
9630
330
1E
100
AcDbEntity
  8
003
100
AcDbLine
 10
6227.348180477959
 20
-2230.974798491979
 30
0.0
 11
6346.898106354572
 21
-2230.97479849198
 31
0.0
  0
LINE
  5
9631
330
1E
100
AcDbEntity
  8
003
100
AcDbLine
 10
6355.898106354572
 20
-2205.97479849198
 30
0.0
 11
6226.386115616569
 21
-2205.97479849198
 31
0.0
  0
LINE
  5
9632
330
1E
100
AcDbEntity
  8
001
100
AcDbLine
 10
6265.062681354573
 20
-2143.50778449198
 30
0.0
 11
6342.062681354573
 21
-2143.50778449198
 31
0.0
  0
ARC
  5
9633
330
1E
100
AcDbEntity
  8
002
100
AcDbCircle
 10
6215.045442354572
 20
-2176.97479849198
 30
0.0
 40
5.0
100
AcDbArc
 50
1.713464999994949
 51
90.0
  0
LINE
  5
9634
330
1E
100
AcDbEntity
  8
002
100
AcDbLine
 10
6222.199728354572
 20
-2248.91473149198
 30
0.0
 11
6217.201406354572
 21
-2249.045617491979
 31
0.0
  0
LINE
  5
9635
330
1E
100
AcDbEntity
  8
002
100
AcDbLine
 10
6222.184770354573
 20
-2248.41473149198
 30
0.0
 11
6217.186449354572
 21
-2248.54561749198
 31
0.0
  0
LINE
  5
9636
330
1E
100
AcDbEntity
  8
002
  6
CENTER
100
AcDbLine
 10
6213.424332354573
 20
-2251.97479849198
 30
0.0
 11
6227.026791354572
 21
-2251.97479849198
 31
0.0
  0
LINE
  5
9637
330
1E
100
AcDbEntity
  8
003
100
AcDbLine
 10
6355.966769271033
 20
-2230.97479849198
 30
0.0
 11
6364.966769271033
 21
-2205.97479849198
 31
0.0
  0
LINE
  5
9638
330
1E
100
AcDbEntity
  8
003
 48
0.25
100
AcDbLine
 10
6541.924782562749
 20
-2221.268347143281
 30
0.0
 11
6468.398106354573
 21
-2205.97479849198
 31
0.0
  0
TEXT
  5
9639
330
1E
100
AcDbEntity
  8
001
100
AcDbText
 10
6449.141262799717
 20
-2131.922344409602
 30
0.0
 40
11.19999999999999
  1
(高さ110mm)
 41
0.716146
100
AcDbText
  0
LINE
  5
963A
330
1E
100
AcDbEntity
  8
001
100
AcDbLine
 10
6448.445482221967
 20
-2117.656918552446
 30
0.0
 11
6510.905682665747
 21
-2117.656918552446
 31
0.0
  0
LINE
  5
963B
330
1E
100
AcDbEntity
  8
001
100
AcDbLine
 10
6381.264199221968
 20
-2161.346438552446
 30
0.0
 11
6448.445482221967
 21
-2117.656918552446
 31
0.0
  0
LWPOLYLINE
  5
963C
330
1E
100
AcDbEntity
  8
001
100
AcDbPolyline
 90
        3
 70
     0
 43
0.0
 10
6386.109878221968
 20
-2155.957798552446
 10
6381.264199221968
 20
-2161.346438552446
 10
6388.155000221967
 20
-2159.102578552446
  0
TEXT
  5
963D
330
1E
100
AcDbEntity
  8
001
100
AcDbText
 10
6458.070482221967
 20
-2114.156900552446
 30
0.0
 40
11.19999999999999
  1
蓋
 41
0.716146
100
AcDbText
  0
ENDSEC
  0
SECTION
  2
OBJECTS
  0
DICTIONARY
  5
C
330
0
100
AcDbDictionary
281
     1
  3
ACAD_GROUP
350
D
  3
ACAD_LAYOUT
350
19
  3
ACAD_MLINESTYLE
350
16
  3
ACAD_PLOTSETTINGS
350
18
  3
ACAD_PLOTSTYLENAME
350
E
  3
AcDbVariableDictionary
350
4BD
  3
DWGPROPS
350
970D
  0
DICTIONARY
  5
D
102
{ACAD_REACTORS
330
C
102
}
330
C
100
AcDbDictionary
281
     1
  0
DICTIONARY
  5
19
102
{ACAD_REACTORS
330
C
102
}
330
C
100
AcDbDictionary
281
     1
  3
Model
350
21
  3
ﾚｲｱｳﾄ1
350
1D
  0
DICTIONARY
  5
16
102
{ACAD_REACTORS
330
C
102
}
330
C
100
AcDbDictionary
281
     1
  3
Standard
350
17
  0
DICTIONARY
  5
18
102
{ACAD_REACTORS
330
C
102
}
330
C
100
AcDbDictionary
281
     1
  0
ACDBDICTIONARYWDFLT
  5
E
102
{ACAD_REACTORS
330
C
102
}
330
C
100
AcDbDictionary
281
     1
  3
Normal
350
F
100
AcDbDictionaryWithDefault
340
F
  0
DICTIONARY
  5
4BD
102
{ACAD_REACTORS
330
C
102
}
330
C
100
AcDbDictionary
281
     1
  3
DIMASSOC
350
4BE
  0
XRECORD
  5
970D
102
{ACAD_REACTORS
330
C
102
}
330
C
100
AcDbXrecord
280
     1
  1
DWGPROPS COOKIE
  2

  3

  4

  6

  7

  8

  9

300
=
301
=
302
=
303
=
304
=
305
=
306
=
307
=
308
=
309
=
 40
0.9842397569444443
 41
2453874.389934525
 42
2454273.745474317
  1

 90
        0
  0
LAYOUT
  5
21
102
{ACAD_REACTORS
330
19
102
}
330
19
100
AcDbPlotSettings
  1

  2
EPSON LP-9000C
  4
A3
  6

 40
5.873749732971191
 41
5.873747825622558
 42
5.873748779296875
 43
5.873748779296875
 44
297.0106506347656
 45
419.9466552734374
 46
0.0
 47
0.0
 48
2063.513751511069
 49
-3318.566655178319
140
4136.213751511069
141
-1852.871654216447
142
1.0
143
5.138045310291159
 70
 11952
 72
     1
 73
     1
 74
     4
  7
ZenithProtter.ctb
 75
     0
147
0.1946265436774306
148
-2063.513751511069
149
3318.566655178319
100
AcDbLayout
  1
Model
 70
     1
 71
     0
 10
0.0
 20
0.0
 11
12.0
 21
9.0
 12
0.0
 22
0.0
 32
0.0
 14
0.0
 24
0.0
 34
0.0
 15
0.0
 25
0.0
 35
0.0
146
0.0
 13
0.0
 23
0.0
 33
0.0
 16
1.0
 26
0.0
 36
0.0
 17
0.0
 27
1.0
 37
0.0
 76
     0
330
1E
  0
LAYOUT
  5
1D
102
{ACAD_REACTORS
330
19
102
}
330
19
100
AcDbPlotSettings
  1

  2
EPSON LP-9000C
  4

  6

 40
0.0
 41
0.0
 42
0.0
 43
0.0
 44
0.0
 45
0.0
 46
0.0
 47
0.0
 48
0.0
 49
0.0
140
0.0
141
0.0
142
1.0
143
1.0
 70
   688
 72
     0
 73
     0
 74
     5
  7
ZenithProtter.ctb
 75
    16
147
1.0
148
0.0
149
0.0
100
AcDbLayout
  1
ﾚｲｱｳﾄ1
 70
     1
 71
     1
 10
0.0
 20
0.0
 11
12.0
 21
9.0
 12
0.0
 22
0.0
 32
0.0
 14
1.000000000000000E+20
 24
1.000000000000000E+20
 34
1.000000000000000E+20
 15
-1.000000000000000E+20
 25
-1.000000000000000E+20
 35
-1.000000000000000E+20
146
0.0
 13
0.0
 23
0.0
 33
0.0
 16
1.0
 26
0.0
 36
0.0
 17
0.0
 27
1.0
 37
0.0
 76
     0
330
1A
  0
MLINESTYLE
  5
17
102
{ACAD_REACTORS
330
16
102
}
330
16
100
AcDbMlineStyle
  2
STANDARD
 70
     0
  3

 62
   256
 51
90.0
 52
90.0
 71
     2
 49
0.5
 62
   256
  6
BYLAYER
 49
-0.5
 62
   256
  6
BYLAYER
  0
ACDBPLACEHOLDER
  5
F
102
{ACAD_REACTORS
330
E
102
}
330
E
  0
DICTIONARYVAR
  5
4BE
102
{ACAD_REACTORS
330
4BD
102
}
330
4BD
100
DictionaryVariables
280
     0
  1
1
  0
ENDSEC
  0
EOF
