  0
SECTION
  2
HEADER
  9
$ACADVER
  1
AC1015
  9
$ACADMAINTVER
 70
    13
  9
$DWGCODEPAGE
  3
ANSI_932
  9
$INSBASE
 10
0.0
 20
0.0
 30
0.0
  9
$EXTMIN
 10
-3424.80901335875
 20
3059.264188730267
 30
0.0
  9
$EXTMAX
 10
-1352.10901335875
 20
4524.959188730268
 30
0.0
  9
$LIMMIN
 10
-3447.626928021467
 20
3050.195353264517
  9
$LIMMAX
 10
-1325.031943422736
 20
4538.076151704045
  9
$ORTHOMODE
 70
     1
  9
$REGENMODE
 70
     1
  9
$FILLMODE
 70
     1
  9
$QTEXTMODE
 70
     0
  9
$MIRRTEXT
 70
     1
  9
$LTSCALE
 40
24.5
  9
$ATTMODE
 70
     1
  9
$TEXTSIZE
 40
0.2
  9
$TRACEWID
 40
0.05
  9
$TEXTSTYLE
  7
STANDARD
  9
$CLAYER
  8
004
  9
$CELTYPE
  6
CENTER2
  9
$CECOLOR
 62
   256
  9
$CELTSCALE
 40
1.0
  9
$DISPSILH
 70
     0
  9
$DIMSCALE
 40
15.0
  9
$DIMASZ
 40
0.8
  9
$DIMEXO
 40
0.625
  9
$DIMDLI
 40
3.75
  9
$DIMRND
 40
0.0
  9
$DIMDLE
 40
0.0
  9
$DIMEXE
 40
0.1
  9
$DIMTP
 40
0.0
  9
$DIMTM
 40
0.0
  9
$DIMTXT
 40
0.8
  9
$DIMCEN
 40
2.5
  9
$DIMTSZ
 40
0.0
  9
$DIMTOL
 70
     0
  9
$DIMLIM
 70
     0
  9
$DIMTIH
 70
     0
  9
$DIMTOH
 70
     0
  9
$DIMSE1
 70
     0
  9
$DIMSE2
 70
     0
  9
$DIMTAD
 70
     1
  9
$DIMZIN
 70
     8
  9
$DIMBLK
  1
Open30
  9
$DIMASO
 70
     1
  9
$DIMSHO
 70
     1
  9
$DIMPOST
  1

  9
$DIMAPOST
  1

  9
$DIMALT
 70
     0
  9
$DIMALTD
 70
     2
  9
$DIMALTF
 40
0.0394
  9
$DIMLFAC
 40
1.0
  9
$DIMTOFL
 70
     1
  9
$DIMTVP
 40
1.0
  9
$DIMTIX
 70
     0
  9
$DIMSOXD
 70
     0
  9
$DIMSAH
 70
     0
  9
$DIMBLK1
  1

  9
$DIMBLK2
  1

  9
$DIMSTYLE
  2
ISO-25
  9
$DIMCLRD
 70
     0
  9
$DIMCLRE
 70
     0
  9
$DIMCLRT
 70
     0
  9
$DIMTFAC
 40
1.0
  9
$DIMGAP
 40
0.5
  9
$DIMJUST
 70
     0
  9
$DIMSD1
 70
     0
  9
$DIMSD2
 70
     0
  9
$DIMTOLJ
 70
     1
  9
$DIMTZIN
 70
     0
  9
$DIMALTZ
 70
     0
  9
$DIMALTTZ
 70
     0
  9
$DIMUPT
 70
     0
  9
$DIMDEC
 70
     0
  9
$DIMTDEC
 70
     0
  9
$DIMALTU
 70
     2
  9
$DIMALTTD
 70
     2
  9
$DIMTXSTY
  7
STANDARD
  9
$DIMAUNIT
 70
     0
  9
$DIMADEC
 70
     0
  9
$DIMALTRND
 40
0.0
  9
$DIMAZIN
 70
     0
  9
$DIMDSEP
 70
    46
  9
$DIMATFIT
 70
     3
  9
$DIMFRAC
 70
     0
  9
$DIMLDRBLK
  1

  9
$DIMLUNIT
 70
     2
  9
$DIMLWD
 70
    -2
  9
$DIMLWE
 70
    -2
  9
$DIMTMOVE
 70
     0
  9
$LUNITS
 70
     2
  9
$LUPREC
 70
     4
  9
$SKETCHINC
 40
0.1
  9
$FILLETRAD
 40
0.0
  9
$AUNITS
 70
     0
  9
$AUPREC
 70
     0
  9
$MENU
  1
.
  9
$ELEVATION
 40
0.0
  9
$PELEVATION
 40
0.0
  9
$THICKNESS
 40
0.0
  9
$LIMCHECK
 70
     0
  9
$CHAMFERA
 40
0.0
  9
$CHAMFERB
 40
0.0
  9
$CHAMFERC
 40
0.0
  9
$CHAMFERD
 40
0.0
  9
$SKPOLY
 70
     0
  9
$TDCREATE
 40
2453874.388608576
  9
$TDUCREATE
 40
2453874.013608576
  9
$TDUPDATE
 40
2454278.538868090
  9
$TDUUPDATE
 40
2454278.163868090
  9
$TDINDWG
 40
0.3449745139
  9
$TDUSRTIMER
 40
0.3449745139
  9
$USRTIMER
 70
     1
  9
$ANGBASE
 50
0.0
  9
$ANGDIR
 70
     0
  9
$PDMODE
 70
     0
  9
$PDSIZE
 40
0.0
  9
$PLINEWID
 40
0.0
  9
$SPLFRAME
 70
     0
  9
$SPLINETYPE
 70
     6
  9
$SPLINESEGS
 70
     8
  9
$HANDSEED
  5
8A49
  9
$SURFTAB1
 70
     6
  9
$SURFTAB2
 70
     6
  9
$SURFTYPE
 70
     6
  9
$SURFU
 70
     6
  9
$SURFV
 70
     6
  9
$UCSBASE
  2

  9
$UCSNAME
  2

  9
$UCSORG
 10
0.0
 20
0.0
 30
0.0
  9
$UCSXDIR
 10
1.0
 20
0.0
 30
0.0
  9
$UCSYDIR
 10
0.0
 20
1.0
 30
0.0
  9
$UCSORTHOREF
  2

  9
$UCSORTHOVIEW
 70
     0
  9
$UCSORGTOP
 10
0.0
 20
0.0
 30
0.0
  9
$UCSORGBOTTOM
 10
0.0
 20
0.0
 30
0.0
  9
$UCSORGLEFT
 10
0.0
 20
0.0
 30
0.0
  9
$UCSORGRIGHT
 10
0.0
 20
0.0
 30
0.0
  9
$UCSORGFRONT
 10
0.0
 20
0.0
 30
0.0
  9
$UCSORGBACK
 10
0.0
 20
0.0
 30
0.0
  9
$PUCSBASE
  2

  9
$PUCSNAME
  2

  9
$PUCSORG
 10
0.0
 20
0.0
 30
0.0
  9
$PUCSXDIR
 10
1.0
 20
0.0
 30
0.0
  9
$PUCSYDIR
 10
0.0
 20
1.0
 30
0.0
  9
$PUCSORTHOREF
  2

  9
$PUCSORTHOVIEW
 70
     0
  9
$PUCSORGTOP
 10
0.0
 20
0.0
 30
0.0
  9
$PUCSORGBOTTOM
 10
0.0
 20
0.0
 30
0.0
  9
$PUCSORGLEFT
 10
0.0
 20
0.0
 30
0.0
  9
$PUCSORGRIGHT
 10
0.0
 20
0.0
 30
0.0
  9
$PUCSORGFRONT
 10
0.0
 20
0.0
 30
0.0
  9
$PUCSORGBACK
 10
0.0
 20
0.0
 30
0.0
  9
$USERI1
 70
     0
  9
$USERI2
 70
     0
  9
$USERI3
 70
     0
  9
$USERI4
 70
     0
  9
$USERI5
 70
     0
  9
$USERR1
 40
0.0
  9
$USERR2
 40
0.0
  9
$USERR3
 40
0.0
  9
$USERR4
 40
0.0
  9
$USERR5
 40
0.0
  9
$WORLDVIEW
 70
     1
  9
$SHADEDGE
 70
     3
  9
$SHADEDIF
 70
    70
  9
$TILEMODE
 70
     1
  9
$MAXACTVP
 70
    48
  9
$PINSBASE
 10
0.0
 20
0.0
 30
0.0
  9
$PLIMCHECK
 70
     0
  9
$PEXTMIN
 10
1.000000000000000E+20
 20
1.000000000000000E+20
 30
1.000000000000000E+20
  9
$PEXTMAX
 10
-1.000000000000000E+20
 20
-1.000000000000000E+20
 30
-1.000000000000000E+20
  9
$PLIMMIN
 10
0.0
 20
0.0
  9
$PLIMMAX
 10
12.0
 20
9.0
  9
$UNITMODE
 70
     0
  9
$VISRETAIN
 70
     1
  9
$PLINEGEN
 70
     0
  9
$PSLTSCALE
 70
     1
  9
$TREEDEPTH
 70
  3020
  9
$CMLSTYLE
  2
Standard
  9
$CMLJUST
 70
     0
  9
$CMLSCALE
 40
1.0
  9
$PROXYGRAPHICS
 70
     1
  9
$MEASUREMENT
 70
     0
  9
$CELWEIGHT
370
    -1
  9
$ENDCAPS
280
     0
  9
$JOINSTYLE
280
     0
  9
$LWDISPLAY
290
     0
  9
$INSUNITS
 70
     0
  9
$HYPERLINKBASE
  1

  9
$STYLESHEET
  1
ZenithPrinter.ctb
  9
$XEDIT
290
     1
  9
$CEPSNTYPE
380
     0
  9
$PSTYLEMODE
290
     1
  9
$FINGERPRINTGUID
  2
{19860F2F-F836-48D1-80DB-D702C77B517C}
  9
$VERSIONGUID
  2
{89C9B740-4D30-46CF-A9E8-400E63AA7E3D}
  9
$EXTNAMES
290
     1
  9
$PSVPSCALE
 40
0.0
  9
$OLESTARTUP
290
     0
  0
ENDSEC
  0
SECTION
  2
CLASSES
  0
CLASS
  1
ACDBDICTIONARYWDFLT
  2
AcDbDictionaryWithDefault
  3
AutoCAD 2000
 90
        0
280
     0
281
     0
  0
CLASS
  1
ACDBPLACEHOLDER
  2
AcDbPlaceHolder
  3
AutoCAD 2000
 90
        0
280
     0
281
     0
  0
CLASS
  1
LAYOUT
  2
AcDbLayout
  3
AutoCAD 2000
 90
        0
280
     0
281
     0
  0
CLASS
  1
DICTIONARYVAR
  2
AcDbDictionaryVar
  3
AutoCAD 2000
 90
        0
280
     0
281
     0
  0
CLASS
  1
LONG_TRANSACTION
  2
AcDbLongTransaction
  3
AutoCAD 2000
 90
    32768
280
     0
281
     0
  0
CLASS
  1
LWPOLYLINE
  2
AcDbPolyline
  3
AutoCAD 2000
 90
    32768
280
     0
281
     1
  0
CLASS
  1
HATCH
  2
AcDbHatch
  3
AutoCAD 2000
 90
    32768
280
     0
281
     1
  0
CLASS
  1
XRECORD
  2
AcDbXrecord
  3
AutoCAD 2000
 90
    32768
280
     0
281
     0
  0
CLASS
  1
LONG_TRANSACTION
  2
AcDbLongTransaction
  3
AutoCAD 2000
 90
    32768
280
     0
281
     0
  0
CLASS
  1
LWPOLYLINE
  2
AcDbPolyline
  3
AutoCAD 2000
 90
    32768
280
     0
281
     1
  0
CLASS
  1
HATCH
  2
AcDbHatch
  3
AutoCAD 2000
 90
    32768
280
     0
281
     1
  0
CLASS
  1
XRECORD
  2
AcDbXrecord
  3
AutoCAD 2000
 90
    32768
280
     0
281
     0
  0
CLASS
  1
LONG_TRANSACTION
  2
AcDbLongTransaction
  3
AutoCAD 2000
 90
    32768
280
     0
281
     0
  0
CLASS
  1
LWPOLYLINE
  2
AcDbPolyline
  3
AutoCAD 2000
 90
    32768
280
     0
281
     1
  0
CLASS
  1
HATCH
  2
AcDbHatch
  3
AutoCAD 2000
 90
    32768
280
     0
281
     1
  0
CLASS
  1
XRECORD
  2
AcDbXrecord
  3
AutoCAD 2000
 90
    32768
280
     0
281
     0
  0
ENDSEC
  0
SECTION
  2
TABLES
  0
TABLE
  2
VPORT
  5
8
330
0
100
AcDbSymbolTable
 70
     2
  0
VPORT
  5
8A48
330
8
100
AcDbSymbolTableRecord
100
AcDbViewportTableRecord
  2
*Active
 70
     0
 10
0.0
 20
0.0
 11
1.0
 21
1.0
 12
-2386.329435722101
 22
3794.135752484281
 13
0.0
 23
0.0
 14
1.0
 24
1.0
 15
0.0
 25
0.0
 16
0.0
 26
0.0
 36
1.0
 17
0.0
 27
0.0
 37
0.0
 40
1500.093226333697
 41
1.723287671232876
 42
50.0
 43
0.0
 44
0.0
 50
0.0
 51
0.0
 71
     0
 72
   100
 73
     1
 74
     1
 75
     0
 76
     0
 77
     0
 78
     0
281
     0
 65
     1
110
0.0
120
0.0
130
0.0
111
1.0
121
0.0
131
0.0
112
0.0
122
1.0
132
0.0
 79
     0
146
0.0
  0
ENDTAB
  0
TABLE
  2
LTYPE
  5
5
330
0
100
AcDbSymbolTable
 70
     4
  0
LTYPE
  5
13
330
5
100
AcDbSymbolTableRecord
100
AcDbLinetypeTableRecord
  2
ByBlock
 70
     0
  3

 72
    65
 73
     0
 40
0.0
  0
LTYPE
  5
14
330
5
100
AcDbSymbolTableRecord
100
AcDbLinetypeTableRecord
  2
ByLayer
 70
     0
  3

 72
    65
 73
     0
 40
0.0
  0
LTYPE
  5
15
330
5
100
AcDbSymbolTableRecord
100
AcDbLinetypeTableRecord
  2
CONTINUOUS
 70
     0
  3
Solid-Line
 72
    65
 73
     0
 40
0.0
  0
LTYPE
  5
22
330
5
100
AcDbSymbolTableRecord
100
AcDbLinetypeTableRecord
  2
DASHED
 70
     0
  3
DASHED
 72
    65
 73
     2
 40
0.75
 49
0.5
 74
     0
 49
-0.25
 74
     0
  0
LTYPE
  5
24
330
5
100
AcDbSymbolTableRecord
100
AcDbLinetypeTableRecord
  2
CENTER
 70
     0
  3
CENTER
 72
    65
 73
     4
 40
2.0
 49
1.25
 74
     0
 49
-0.25
 74
     0
 49
0.25
 74
     0
 49
-0.25
 74
     0
  0
LTYPE
  5
7AE4
330
5
100
AcDbSymbolTableRecord
100
AcDbLinetypeTableRecord
  2
CENTER2
 70
     0
  3
Center (.5x) ___ _ ___ _ ___ _ ___ _ ___ _ ___
 72
    65
 73
     4
 40
1.125
 49
0.75
 74
     0
 49
-0.125
 74
     0
 49
0.125
 74
     0
 49
-0.125
 74
     0
  0
ENDTAB
  0
TABLE
  2
LAYER
  5
2
330
0
100
AcDbSymbolTable
 70
     6
  0
LAYER
  5
10
330
2
100
AcDbSymbolTableRecord
100
AcDbLayerTableRecord
  2
0
 70
     0
 62
     7
  6
CONTINUOUS
370
    -3
390
F
  0
LAYER
  5
26
330
2
100
AcDbSymbolTableRecord
100
AcDbLayerTableRecord
  2
001
 70
     0
 62
     4
  6
CONTINUOUS
370
    -3
390
F
  0
LAYER
  5
A97
330
2
100
AcDbSymbolTableRecord
100
AcDbLayerTableRecord
  2
Defpoints
 70
     0
 62
     7
  6
CONTINUOUS
290
     0
370
    -3
390
F
  0
LAYER
  5
501A
330
2
100
AcDbSymbolTableRecord
100
AcDbLayerTableRecord
  2
003
 70
     0
 62
     3
  6
CONTINUOUS
370
    -3
390
F
  0
LAYER
  5
501B
330
2
100
AcDbSymbolTableRecord
100
AcDbLayerTableRecord
  2
002
 70
     0
 62
     1
  6
CONTINUOUS
370
    -3
390
F
  0
LAYER
  5
501C
330
2
100
AcDbSymbolTableRecord
100
AcDbLayerTableRecord
  2
004
 70
     0
 62
     6
  6
CENTER2
370
    -3
390
F
  0
ENDTAB
  0
TABLE
  2
STYLE
  5
3
330
0
100
AcDbSymbolTable
 70
     1
  0
STYLE
  5
11
330
3
100
AcDbSymbolTableRecord
100
AcDbTextStyleTableRecord
  2
STANDARD
 70
     0
 40
0.0
 41
1.0
 50
0.0
 71
     0
 42
0.2
  3
TXT
  4
BIGFONT
  0
ENDTAB
  0
TABLE
  2
VIEW
  5
6
330
0
100
AcDbSymbolTable
 70
     0
  0
ENDTAB
  0
TABLE
  2
UCS
  5
7
330
0
100
AcDbSymbolTable
 70
     0
  0
ENDTAB
  0
TABLE
  2
APPID
  5
9
330
0
100
AcDbSymbolTable
 70
     1
  0
APPID
  5
12
330
9
100
AcDbSymbolTableRecord
100
AcDbRegAppTableRecord
  2
ACAD
 70
     0
  0
ENDTAB
  0
TABLE
  2
DIMSTYLE
  5
A
330
0
100
AcDbSymbolTable
 70
     2
100
AcDbDimStyleTable
 71
     0
  0
DIMSTYLE
105
451
330
A
100
AcDbSymbolTableRecord
100
AcDbDimStyleTableRecord
  2
Standard
 70
     0
340
11
  0
DIMSTYLE
105
B4F
102
{ACAD_REACTORS
330
82FC
330
831C
330
832F
330
833C
330
86C7
330
86E0
330
870A
330
872B
330
872C
102
}
330
A
100
AcDbSymbolTableRecord
100
AcDbDimStyleTableRecord
  2
ISO-25
 70
     0
 40
15.0
 41
0.8
 42
0.625
 43
3.75
 44
0.1
 73
     0
 74
     0
 77
     1
 78
     8
140
0.8
141
2.5
143
0.0394
145
1.0
147
0.5
172
     1
271
     0
272
     0
340
11
341
1EDF
342
1EDF
  0
ENDTAB
  0
TABLE
  2
BLOCK_RECORD
  5
1
330
0
100
AcDbSymbolTable
 70
    11
  0
BLOCK_RECORD
  5
1E
102
{ACAD_XDICTIONARY
360
7AF7
102
}
330
1
100
AcDbSymbolTableRecord
100
AcDbBlockTableRecord
  2
*Model_Space
340
21
  0
BLOCK_RECORD
  5
1A
102
{ACAD_XDICTIONARY
360
7AF9
102
}
330
1
100
AcDbSymbolTableRecord
100
AcDbBlockTableRecord
  2
*Paper_Space
340
1D
  0
BLOCK_RECORD
  5
FD8
330
1
100
AcDbSymbolTableRecord
100
AcDbBlockTableRecord
  2
_Open
340
0
102
{BLKREFS
331
834E
102
}
  0
BLOCK_RECORD
  5
1EDF
330
1
100
AcDbSymbolTableRecord
100
AcDbBlockTableRecord
  2
_Open30
340
0
102
{BLKREFS
331
8707
331
8928
331
89E6
331
89E7
331
89F1
331
89F2
331
89FC
331
89FD
331
8A05
331
8A06
331
8A0E
331
8A0F
331
8A17
331
8A18
331
8A22
331
8A23
331
8A2D
331
8A2E
331
8A36
331
8A37
102
}
  0
BLOCK_RECORD
  5
896F
330
1
100
AcDbSymbolTableRecord
100
AcDbBlockTableRecord
  2
*D2
340
0
  0
BLOCK_RECORD
  5
897B
330
1
100
AcDbSymbolTableRecord
100
AcDbBlockTableRecord
  2
*D3
340
0
  0
BLOCK_RECORD
  5
898B
330
1
100
AcDbSymbolTableRecord
100
AcDbBlockTableRecord
  2
*D4
340
0
  0
BLOCK_RECORD
  5
8997
330
1
100
AcDbSymbolTableRecord
100
AcDbBlockTableRecord
  2
*D5
340
0
  0
BLOCK_RECORD
  5
89A3
330
1
100
AcDbSymbolTableRecord
100
AcDbBlockTableRecord
  2
*D6
340
0
  0
BLOCK_RECORD
  5
89AF
330
1
100
AcDbSymbolTableRecord
100
AcDbBlockTableRecord
  2
*D7
340
0
  0
BLOCK_RECORD
  5
89BB
330
1
100
AcDbSymbolTableRecord
100
AcDbBlockTableRecord
  2
*D8
340
0
  0
BLOCK_RECORD
  5
89C9
330
1
100
AcDbSymbolTableRecord
100
AcDbBlockTableRecord
  2
*D9
340
0
  0
BLOCK_RECORD
  5
89D7
330
1
100
AcDbSymbolTableRecord
100
AcDbBlockTableRecord
  2
*D10
340
0
  0
ENDTAB
  0
ENDSEC
  0
SECTION
  2
BLOCKS
  0
BLOCK
  5
1F
330
1E
100
AcDbEntity
  8
0
100
AcDbBlockBegin
  2
*Model_Space
 70
     0
 10
0.0
 20
0.0
 30
0.0
  3
*Model_Space
  1

  0
ENDBLK
  5
20
330
1E
100
AcDbEntity
  8
0
100
AcDbBlockEnd
  0
BLOCK
  5
1B
330
1A
100
AcDbEntity
 67
     1
  8
0
100
AcDbBlockBegin
  2
*Paper_Space
 70
     0
 10
0.0
 20
0.0
 30
0.0
  3
*Paper_Space
  1

  0
ENDBLK
  5
1C
330
1A
100
AcDbEntity
 67
     1
  8
0
100
AcDbBlockEnd
  0
BLOCK
  5
FDC
330
FD8
100
AcDbEntity
  8
0
100
AcDbBlockBegin
  2
_Open
 70
     0
 10
0.0
 20
0.0
 30
0.0
  3
_Open
  1

  0
LINE
  5
FD9
330
FD8
100
AcDbEntity
  8
0
  6
ByBlock
 62
     0
370
    -2
100
AcDbLine
 10
-1.0
 20
0.1666666666666666
 30
0.0
 11
0.0
 21
0.0
 31
0.0
  0
LINE
  5
FDA
330
FD8
100
AcDbEntity
  8
0
  6
ByBlock
 62
     0
370
    -2
100
AcDbLine
 10
-1.0
 20
-0.1666666666666666
 30
0.0
 11
0.0
 21
0.0
 31
0.0
  0
LINE
  5
FDB
330
FD8
100
AcDbEntity
  8
0
  6
ByBlock
 62
     0
370
    -2
100
AcDbLine
 10
0.0
 20
0.0
 30
0.0
 11
-1.0
 21
0.0
 31
0.0
  0
ENDBLK
  5
FDD
330
FD8
100
AcDbEntity
  8
0
100
AcDbBlockEnd
  0
BLOCK
  5
1EE3
330
1EDF
100
AcDbEntity
  8
0
100
AcDbBlockBegin
  2
_Open30
 70
     0
 10
0.0
 20
0.0
 30
0.0
  3
_Open30
  1

  0
LINE
  5
1EE0
330
1EDF
100
AcDbEntity
  8
0
  6
ByBlock
 62
     0
370
    -2
100
AcDbLine
 10
-1.0
 20
0.26794919
 30
0.0
 11
0.0
 21
0.0
 31
0.0
  0
LINE
  5
1EE1
330
1EDF
100
AcDbEntity
  8
0
  6
ByBlock
 62
     0
370
    -2
100
AcDbLine
 10
0.0
 20
0.0
 30
0.0
 11
-1.0
 21
-0.26794919
 31
0.0
  0
LINE
  5
1EE2
330
1EDF
100
AcDbEntity
  8
0
  6
ByBlock
 62
     0
370
    -2
100
AcDbLine
 10
0.0
 20
0.0
 30
0.0
 11
-1.0
 21
0.0
 31
0.0
  0
ENDBLK
  5
1EE4
330
1EDF
100
AcDbEntity
  8
0
100
AcDbBlockEnd
  0
BLOCK
  5
8979
330
896F
100
AcDbEntity
  8
0
100
AcDbBlockBegin
  2
*D2
 70
     1
 10
0.0
 20
0.0
 30
0.0
  3
*D2
  1

  0
LINE
  5
89E3
330
896F
100
AcDbEntity
  8
001
  6
Continuous
 62
     0
370
    -2
100
AcDbLine
 10
-2736.911042960868
 20
4173.684359371435
 30
0.0
 11
-2634.744638376352
 21
4155.66966572121
 31
0.0
  0
LINE
  5
89E4
330
896F
100
AcDbEntity
  8
001
  6
Continuous
 62
     0
370
    -2
100
AcDbLine
 10
-2756.01234250423
 20
4065.355506540091
 30
0.0
 11
-2653.845937919715
 21
4047.340812889864
 31
0.0
  0
LINE
  5
89E5
330
896F
100
AcDbEntity
  8
001
  6
Continuous
 62
     0
370
    -2
100
AcDbLine
 10
-2638.305628137874
 20
4144.112444951562
 30
0.0
 11
-2653.23937141723
 21
4059.418978192512
 31
0.0
  0
INSERT
  5
89E6
330
896F
100
AcDbEntity
  8
001
  6
Continuous
 62
     0
370
    -2
100
AcDbBlockReference
  2
_Open30
 10
-2636.221850005871
 20
4155.930137987709
 30
0.0
 41
12.0
 42
12.0
 43
12.0
 50
80.00000000000035
  0
INSERT
  5
89E7
330
896F
100
AcDbEntity
  8
001
  6
Continuous
 62
     0
370
    -2
100
AcDbBlockReference
  2
_Open30
 10
-2655.323149549233
 20
4047.601285156366
 30
0.0
 41
12.0
 42
12.0
 43
12.0
 50
260.0000000000003
  0
MTEXT
  5
89E8
330
896F
100
AcDbEntity
  8
001
  6
Continuous
 62
     0
100
AcDbMText
 10
-2659.067404443217
 20
4104.109961970541
 30
0.0
 40
12.0
 41
0.0
 71
     5
 72
     1
  1
\A1;110
 11
0.173648177666925
 21
0.984807753012209
 31
0.0
 73
     1
 44
1.0
  0
POINT
  5
89E9
330
896F
100
AcDbEntity
  8
Defpoints
  6
Continuous
 62
     0
100
AcDbPoint
 10
-2746.143615645358
 20
4175.312311037063
 30
0.0
  0
POINT
  5
89EA
330
896F
100
AcDbEntity
  8
Defpoints
  6
Continuous
 62
     0
100
AcDbPoint
 10
-2765.24491518872
 20
4066.983458205719
 30
0.0
  0
POINT
  5
89EB
330
896F
100
AcDbEntity
  8
Defpoints
  6
Continuous
 62
     0
100
AcDbPoint
 10
-2655.323149549233
 20
4047.601285156366
 30
0.0
  0
ENDBLK
  5
897A
330
896F
100
AcDbEntity
  8
0
100
AcDbBlockEnd
  0
BLOCK
  5
8989
330
897B
100
AcDbEntity
  8
0
100
AcDbBlockBegin
  2
*D3
 70
     1
 10
0.0
 20
0.0
 30
0.0
  3
*D3
  1

  0
LINE
  5
89EC
330
897B
100
AcDbEntity
  8
001
  6
Continuous
 62
     0
370
    -2
100
AcDbLine
 10
-2830.456264329554
 20
4241.919834930636
 30
0.0
 11
-2827.117926997626
 21
4260.852486748951
 31
0.0
  0
LINE
  5
89ED
330
897B
100
AcDbEntity
  8
001
  6
Continuous
 62
     0
370
    -2
100
AcDbLine
 10
-2884.472730005963
 20
4242.062262246147
 30
0.0
 11
-2884.472730005964
 21
4265.870381810944
 31
0.0
  0
ARC
  5
89EE
330
897B
100
AcDbEntity
  8
001
  6
Continuous
 62
     0
370
    -2
100
AcDbCircle
 10
-2884.472730005964
 20
3935.577235180005
 30
0.0
 40
328.7931466309379
100
AcDbArc
 50
75.81750698253952
 51
77.90875349126981
  0
ARC
  5
89EF
330
897B
100
AcDbEntity
  8
001
  6
Continuous
 62
     0
370
    -2
100
AcDbCircle
 10
-2884.472730005964
 20
3935.577235180005
 30
0.0
 40
328.7931466309379
100
AcDbArc
 50
92.09124650873027
 51
94.18249301746055
  0
ARC
  5
89F0
330
897B
100
AcDbEntity
  8
001
  6
Continuous
 62
     0
370
    -2
100
AcDbCircle
 10
-2884.472730005964
 20
3935.577235180005
 30
0.0
 40
328.7931466309379
100
AcDbArc
 50
80.0000000000001
 51
89.99999999999998
  0
INSERT
  5
89F1
330
897B
100
AcDbEntity
  8
001
  6
Continuous
 62
     0
370
    -2
100
AcDbBlockReference
  2
_Open30
 10
-2827.378399264127
 20
4259.375275119434
 30
0.0
 41
12.0
 42
12.0
 43
12.0
 50
168.9543767456349
  0
INSERT
  5
89F2
330
897B
100
AcDbEntity
  8
001
  6
Continuous
 62
     0
370
    -2
100
AcDbBlockReference
  2
_Open30
 10
-2884.472730005964
 20
4264.370381810944
 30
0.0
 41
12.0
 42
12.0
 43
12.0
 50
1.045623254365134
  0
MTEXT
  5
89F3
330
897B
100
AcDbEntity
  8
001
  6
Continuous
 62
     0
100
AcDbMText
 10
-2854.639916573912
 20
4276.567853046886
 30
0.0
 40
12.0
 41
0.0
 71
     5
 72
     1
  1
\A1;10°
 11
0.9961946980917455
 21
-0.0871557427476585
 31
0.0
 73
     1
 44
1.0
  0
POINT
  5
89F4
330
897B
100
AcDbEntity
  8
Defpoints
  6
Continuous
 62
     0
100
AcDbPoint
 10
-2846.302175469174
 20
4262.147200176523
 30
0.0
  0
POINT
  5
89F5
330
897B
100
AcDbEntity
  8
Defpoints
  6
Continuous
 62
     0
100
AcDbPoint
 10
-2884.472730005963
 20
4232.687262246147
 30
0.0
  0
POINT
  5
89F6
330
897B
100
AcDbEntity
  8
Defpoints
  6
Continuous
 62
     0
100
AcDbPoint
 10
-2832.084215995181
 20
4232.687262246147
 30
0.0
  0
POINT
  5
89F7
330
897B
100
AcDbEntity
  8
Defpoints
  6
Continuous
 62
     0
100
AcDbPoint
 10
-2937.292153244083
 20
3636.023400446966
 30
0.0
  0
POINT
  5
89F8
330
897B
100
AcDbEntity
  8
Defpoints
  6
Continuous
 62
     0
100
AcDbPoint
 10
-2884.472730005964
 20
3636.023400446966
 30
0.0
  0
ENDBLK
  5
898A
330
897B
100
AcDbEntity
  8
0
100
AcDbBlockEnd
  0
BLOCK
  5
8995
330
898B
100
AcDbEntity
  8
0
100
AcDbBlockBegin
  2
*D4
 70
     1
 10
0.0
 20
0.0
 30
0.0
  3
*D4
  1

  0
LINE
  5
89F9
330
898B
100
AcDbEntity
  8
001
  6
Continuous
 62
     0
370
    -2
100
AcDbLine
 10
-3013.606959569846
 20
3500.050144455355
 30
0.0
 11
-2941.854751688639
 21
3500.050144455355
 31
0.0
  0
LINE
  5
89FA
330
898B
100
AcDbEntity
  8
001
  6
Continuous
 62
     0
370
    -2
100
AcDbLine
 10
-3013.606959569846
 20
3320.050144455355
 30
0.0
 11
-2941.854751688639
 21
3320.050144455355
 31
0.0
  0
LINE
  5
89FB
330
898B
100
AcDbEntity
  8
001
  6
Continuous
 62
     0
370
    -2
100
AcDbLine
 10
-2943.354751688639
 20
3488.050144455355
 30
0.0
 11
-2943.354751688639
 21
3332.050144455354
 31
0.0
  0
INSERT
  5
89FC
330
898B
100
AcDbEntity
  8
001
  6
Continuous
 62
     0
370
    -2
100
AcDbBlockReference
  2
_Open30
 10
-2943.354751688639
 20
3500.050144455355
 30
0.0
 41
12.0
 42
12.0
 43
12.0
 50
90.0
  0
INSERT
  5
89FD
330
898B
100
AcDbEntity
  8
001
  6
Continuous
 62
     0
370
    -2
100
AcDbBlockReference
  2
_Open30
 10
-2943.354751688639
 20
3320.050144455355
 30
0.0
 41
12.0
 42
12.0
 43
12.0
 50
270.0
  0
MTEXT
  5
89FE
330
898B
100
AcDbEntity
  8
001
  6
Continuous
 62
     0
100
AcDbMText
 10
-2956.85475168864
 20
3410.050144455355
 30
0.0
 40
12.0
 41
0.0
 71
     5
 72
     1
  1
\A1;φ180
 11
0.0000000000000001
 21
1.0
 31
0.0
 73
     1
 44
1.0
  0
POINT
  5
89FF
330
898B
100
AcDbEntity
  8
Defpoints
  6
Continuous
 62
     0
100
AcDbPoint
 10
-3022.981959569847
 20
3500.050144455355
 30
0.0
  0
POINT
  5
8A00
330
898B
100
AcDbEntity
  8
Defpoints
  6
Continuous
 62
     0
100
AcDbPoint
 10
-3022.981959569847
 20
3320.050144455355
 30
0.0
  0
POINT
  5
8A01
330
898B
100
AcDbEntity
  8
Defpoints
  6
Continuous
 62
     0
100
AcDbPoint
 10
-2943.354751688639
 20
3320.050144455355
 30
0.0
  0
ENDBLK
  5
8996
330
898B
100
AcDbEntity
  8
0
100
AcDbBlockEnd
  0
BLOCK
  5
89A1
330
8997
100
AcDbEntity
  8
0
100
AcDbBlockBegin
  2
*D5
 70
     1
 10
0.0
 20
0.0
 30
0.0
  3
*D5
  1

  0
LINE
  5
8A02
330
8997
100
AcDbEntity
  8
001
  6
Continuous
 62
     0
370
    -2
100
AcDbLine
 10
-3200.981959569847
 20
3497.016879455355
 30
0.0
 11
-3200.981959569847
 21
3531.866926434881
 31
0.0
  0
LINE
  5
8A03
330
8997
100
AcDbEntity
  8
001
  6
Continuous
 62
     0
370
    -2
100
AcDbLine
 10
-3020.981959569847
 20
3507.425144455355
 30
0.0
 11
-3020.981959569847
 21
3531.866926434881
 31
0.0
  0
LINE
  5
8A04
330
8997
100
AcDbEntity
  8
001
  6
Continuous
 62
     0
370
    -2
100
AcDbLine
 10
-3188.981959569847
 20
3530.366926434881
 30
0.0
 11
-3032.981959569847
 21
3530.366926434881
 31
0.0
  0
INSERT
  5
8A05
330
8997
100
AcDbEntity
  8
001
  6
Continuous
 62
     0
370
    -2
100
AcDbBlockReference
  2
_Open30
 10
-3200.981959569847
 20
3530.366926434881
 30
0.0
 41
12.0
 42
12.0
 43
12.0
 50
180.0
  0
INSERT
  5
8A06
330
8997
100
AcDbEntity
  8
001
  6
Continuous
 62
     0
370
    -2
100
AcDbBlockReference
  2
_Open30
 10
-3020.981959569847
 20
3530.366926434881
 30
0.0
 41
12.0
 42
12.0
 43
12.0
  0
MTEXT
  5
8A07
330
8997
100
AcDbEntity
  8
001
  6
Continuous
 62
     0
100
AcDbMText
 10
-3110.981959569847
 20
3543.866926434882
 30
0.0
 40
12.0
 41
0.0
 71
     5
 72
     1
  1
\A1;180
 73
     1
 44
1.0
  0
POINT
  5
8A08
330
8997
100
AcDbEntity
  8
Defpoints
  6
Continuous
 62
     0
100
AcDbPoint
 10
-3200.981959569847
 20
3487.641879455355
 30
0.0
  0
POINT
  5
8A09
330
8997
100
AcDbEntity
  8
Defpoints
  6
Continuous
 62
     0
100
AcDbPoint
 10
-3020.981959569847
 20
3498.050144455355
 30
0.0
  0
POINT
  5
8A0A
330
8997
100
AcDbEntity
  8
Defpoints
  6
Continuous
 62
     0
100
AcDbPoint
 10
-3020.981959569847
 20
3530.366926434881
 30
0.0
  0
ENDBLK
  5
89A2
330
8997
100
AcDbEntity
  8
0
100
AcDbBlockEnd
  0
BLOCK
  5
89AD
330
89A3
100
AcDbEntity
  8
0
100
AcDbBlockBegin
  2
*D6
 70
     1
 10
0.0
 20
0.0
 30
0.0
  3
*D6
  1

  0
LINE
  5
8A0B
330
89A3
100
AcDbEntity
  8
001
  6
Continuous
 62
     0
370
    -2
100
AcDbLine
 10
-1994.811923461706
 20
4212.844885304249
 30
0.0
 11
-2097.810827534923
 21
4212.844885304251
 31
0.0
  0
LINE
  5
8A0C
330
89A3
100
AcDbEntity
  8
001
  6
Continuous
 62
     0
370
    -2
100
AcDbLine
 10
-1994.494803461707
 20
4087.844885304249
 30
0.0
 11
-2097.810827534923
 21
4087.844885304249
 31
0.0
  0
LINE
  5
8A0D
330
89A3
100
AcDbEntity
  8
001
  6
Continuous
 62
     0
370
    -2
100
AcDbLine
 10
-2096.310827534923
 20
4200.844885304251
 30
0.0
 11
-2096.310827534923
 21
4099.84488530425
 31
0.0
  0
INSERT
  5
8A0E
330
89A3
100
AcDbEntity
  8
001
  6
Continuous
 62
     0
370
    -2
100
AcDbBlockReference
  2
_Open30
 10
-2096.310827534923
 20
4212.844885304251
 30
0.0
 41
12.0
 42
12.0
 43
12.0
 50
90.0
  0
INSERT
  5
8A0F
330
89A3
100
AcDbEntity
  8
001
  6
Continuous
 62
     0
370
    -2
100
AcDbBlockReference
  2
_Open30
 10
-2096.310827534923
 20
4087.844885304249
 30
0.0
 41
12.0
 42
12.0
 43
12.0
 50
270.0
  0
MTEXT
  5
8A10
330
89A3
100
AcDbEntity
  8
001
  6
Continuous
 62
     0
100
AcDbMText
 10
-2109.810827534923
 20
4130.138760711703
 30
0.0
 40
12.0
 41
0.0
 71
     5
 72
     1
  1
\A1;125
 11
0.0000000000000001
 21
1.0
 31
0.0
 73
     1
 44
1.0
  0
POINT
  5
8A11
330
89A3
100
AcDbEntity
  8
Defpoints
  6
Continuous
 62
     0
100
AcDbPoint
 10
-1985.436923461706
 20
4212.844885304249
 30
0.0
  0
POINT
  5
8A12
330
89A3
100
AcDbEntity
  8
Defpoints
  6
Continuous
 62
     0
100
AcDbPoint
 10
-1985.119803461707
 20
4087.844885304249
 30
0.0
  0
POINT
  5
8A13
330
89A3
100
AcDbEntity
  8
Defpoints
  6
Continuous
 62
     0
100
AcDbPoint
 10
-2096.310827534923
 20
4087.844885304249
 30
0.0
  0
ENDBLK
  5
89AE
330
89A3
100
AcDbEntity
  8
0
100
AcDbBlockEnd
  0
BLOCK
  5
89B9
330
89AF
100
AcDbEntity
  8
0
100
AcDbBlockBegin
  2
*D7
 70
     1
 10
0.0
 20
0.0
 30
0.0
  3
*D7
  1

  0
LINE
  5
8A14
330
89AF
100
AcDbEntity
  8
001
  6
Continuous
 62
     0
370
    -2
100
AcDbLine
 10
-2276.163068858726
 20
3492.550144455355
 30
0.0
 11
-2307.974759019916
 21
3492.550144455355
 31
0.0
  0
LINE
  5
8A15
330
89AF
100
AcDbEntity
  8
001
  6
Continuous
 62
     0
370
    -2
100
AcDbLine
 10
-2276.163068858726
 20
3327.550144455355
 30
0.0
 11
-2307.974759019916
 21
3327.550144455355
 31
0.0
  0
LINE
  5
8A16
330
89AF
100
AcDbEntity
  8
001
  6
Continuous
 62
     0
370
    -2
100
AcDbLine
 10
-2306.474759019916
 20
3480.550144455355
 30
0.0
 11
-2306.474759019916
 21
3339.550144455355
 31
0.0
  0
INSERT
  5
8A17
330
89AF
100
AcDbEntity
  8
001
  6
Continuous
 62
     0
370
    -2
100
AcDbBlockReference
  2
_Open30
 10
-2306.474759019916
 20
3492.550144455355
 30
0.0
 41
12.0
 42
12.0
 43
12.0
 50
90.0
  0
INSERT
  5
8A18
330
89AF
100
AcDbEntity
  8
001
  6
Continuous
 62
     0
370
    -2
100
AcDbBlockReference
  2
_Open30
 10
-2306.474759019916
 20
3327.550144455355
 30
0.0
 41
12.0
 42
12.0
 43
12.0
 50
270.0
  0
MTEXT
  5
8A19
330
89AF
100
AcDbEntity
  8
001
  6
Continuous
 62
     0
100
AcDbMText
 10
-2319.974759019917
 20
3410.050144455355
 30
0.0
 40
12.0
 41
0.0
 71
     5
 72
     1
  1
\A1;M165
 11
0.0000000000000001
 21
1.0
 31
0.0
 73
     1
 44
1.0
  0
POINT
  5
8A1A
330
89AF
100
AcDbEntity
  8
Defpoints
  6
Continuous
 62
     0
100
AcDbPoint
 10
-2266.788068858726
 20
3492.550144455355
 30
0.0
  0
POINT
  5
8A1B
330
89AF
100
AcDbEntity
  8
Defpoints
  6
Continuous
 62
     0
100
AcDbPoint
 10
-2266.788068858726
 20
3327.550144455355
 30
0.0
  0
POINT
  5
8A1C
330
89AF
100
AcDbEntity
  8
Defpoints
  6
Continuous
 62
     0
100
AcDbPoint
 10
-2306.474759019916
 20
3327.550144455355
 30
0.0
  0
ENDBLK
  5
89BA
330
89AF
100
AcDbEntity
  8
0
100
AcDbBlockEnd
  0
BLOCK
  5
89C7
330
89BB
100
AcDbEntity
  8
0
100
AcDbBlockBegin
  2
*D8
 70
     1
 10
0.0
 20
0.0
 30
0.0
  3
*D8
  1

  0
LINE
  5
8A1D
330
89BB
100
AcDbEntity
  8
001
  6
Continuous
 62
     0
370
    -2
100
AcDbLine
 10
-2246.154093858726
 20
3500.425144455355
 30
0.0
 11
-2246.154093858726
 21
3522.323224938356
 31
0.0
  0
LINE
  5
8A1E
330
89BB
100
AcDbEntity
  8
001
  6
Continuous
 62
     0
370
    -2
100
AcDbLine
 10
-2268.154093858726
 20
3500.425144455355
 30
0.0
 11
-2268.154093858726
 21
3522.323224938356
 31
0.0
  0
LINE
  5
8A1F
330
89BB
100
AcDbEntity
  8
001
  6
Continuous
 62
     0
370
    -2
100
AcDbLine
 10
-2280.154093858726
 20
3520.823224938356
 30
0.0
 11
-2292.154093858726
 21
3520.823224938356
 31
0.0
  0
LINE
  5
8A20
330
89BB
100
AcDbEntity
  8
001
  6
Continuous
 62
     0
370
    -2
100
AcDbLine
 10
-2234.154093858726
 20
3520.823224938356
 30
0.0
 11
-2187.154093858726
 21
3520.823224938356
 31
0.0
  0
LINE
  5
8A21
330
89BB
100
AcDbEntity
  8
001
  6
Continuous
 62
     0
370
    -2
100
AcDbLine
 10
-2268.154093858726
 20
3520.823224938356
 30
0.0
 11
-2246.154093858726
 21
3520.823224938356
 31
0.0
  0
INSERT
  5
8A22
330
89BB
100
AcDbEntity
  8
001
  6
Continuous
 62
     0
370
    -2
100
AcDbBlockReference
  2
_Open30
 10
-2268.154093858726
 20
3520.823224938356
 30
0.0
 41
12.0
 42
12.0
 43
12.0
  0
INSERT
  5
8A23
330
89BB
100
AcDbEntity
  8
001
  6
Continuous
 62
     0
370
    -2
100
AcDbBlockReference
  2
_Open30
 10
-2246.154093858726
 20
3520.823224938356
 30
0.0
 41
12.0
 42
12.0
 43
12.0
 50
180.0
  0
MTEXT
  5
8A24
330
89BB
100
AcDbEntity
  8
001
  6
Continuous
 62
     0
100
AcDbMText
 10
-2204.654093858726
 20
3534.323224938356
 30
0.0
 40
12.0
 41
0.0
 71
     5
 72
     1
  1
\A1;22
 73
     1
 44
1.0
  0
POINT
  5
8A25
330
89BB
100
AcDbEntity
  8
Defpoints
  6
Continuous
 62
     0
100
AcDbPoint
 10
-2246.154093858726
 20
3491.050144455355
 30
0.0
  0
POINT
  5
8A26
330
89BB
100
AcDbEntity
  8
Defpoints
  6
Continuous
 62
     0
100
AcDbPoint
 10
-2268.154093858726
 20
3491.050144455355
 30
0.0
  0
POINT
  5
8A27
330
89BB
100
AcDbEntity
  8
Defpoints
  6
Continuous
 62
     0
100
AcDbPoint
 10
-2268.154093858726
 20
3520.823224938356
 30
0.0
  0
ENDBLK
  5
89C8
330
89BB
100
AcDbEntity
  8
0
100
AcDbBlockEnd
  0
BLOCK
  5
89D5
330
89C9
100
AcDbEntity
  8
0
100
AcDbBlockBegin
  2
*D9
 70
     1
 10
0.0
 20
0.0
 30
0.0
  3
*D9
  1

  0
LINE
  5
8A28
330
89C9
100
AcDbEntity
  8
001
  6
Continuous
 62
     0
370
    -2
100
AcDbLine
 10
-1638.905978676635
 20
3521.925144455355
 30
0.0
 11
-1638.905978676635
 21
3548.987161681423
 31
0.0
  0
LINE
  5
8A29
330
89C9
100
AcDbEntity
  8
001
  6
Continuous
 62
     0
370
    -2
100
AcDbLine
 10
-1613.905978676635
 20
3521.925144455355
 30
0.0
 11
-1613.905978676635
 21
3548.987161681423
 31
0.0
  0
LINE
  5
8A2A
330
89C9
100
AcDbEntity
  8
001
  6
Continuous
 62
     0
370
    -2
100
AcDbLine
 10
-1650.905978676635
 20
3547.487161681423
 30
0.0
 11
-1662.905978676635
 21
3547.487161681423
 31
0.0
  0
LINE
  5
8A2B
330
89C9
100
AcDbEntity
  8
001
  6
Continuous
 62
     0
370
    -2
100
AcDbLine
 10
-1601.905978676635
 20
3547.487161681423
 30
0.0
 11
-1554.905978676635
 21
3547.487161681423
 31
0.0
  0
LINE
  5
8A2C
330
89C9
100
AcDbEntity
  8
001
  6
Continuous
 62
     0
370
    -2
100
AcDbLine
 10
-1638.905978676635
 20
3547.487161681423
 30
0.0
 11
-1613.905978676635
 21
3547.487161681423
 31
0.0
  0
INSERT
  5
8A2D
330
89C9
100
AcDbEntity
  8
001
  6
Continuous
 62
     0
370
    -2
100
AcDbBlockReference
  2
_Open30
 10
-1638.905978676635
 20
3547.487161681423
 30
0.0
 41
12.0
 42
12.0
 43
12.0
  0
INSERT
  5
8A2E
330
89C9
100
AcDbEntity
  8
001
  6
Continuous
 62
     0
370
    -2
100
AcDbBlockReference
  2
_Open30
 10
-1613.905978676635
 20
3547.487161681423
 30
0.0
 41
12.0
 42
12.0
 43
12.0
 50
180.0
  0
MTEXT
  5
8A2F
330
89C9
100
AcDbEntity
  8
001
  6
Continuous
 62
     0
100
AcDbMText
 10
-1572.405978676635
 20
3560.987161681423
 30
0.0
 40
12.0
 41
0.0
 71
     5
 72
     1
  1
\A1;25
 73
     1
 44
1.0
  0
POINT
  5
8A30
330
89C9
100
AcDbEntity
  8
Defpoints
  6
Continuous
 62
     0
100
AcDbPoint
 10
-1638.905978676635
 20
3512.550144455355
 30
0.0
  0
POINT
  5
8A31
330
89C9
100
AcDbEntity
  8
Defpoints
  6
Continuous
 62
     0
100
AcDbPoint
 10
-1613.905978676635
 20
3512.550144455355
 30
0.0
  0
POINT
  5
8A32
330
89C9
100
AcDbEntity
  8
Defpoints
  6
Continuous
 62
     0
100
AcDbPoint
 10
-1613.905978676635
 20
3547.487161681423
 30
0.0
  0
ENDBLK
  5
89D6
330
89C9
100
AcDbEntity
  8
0
100
AcDbBlockEnd
  0
BLOCK
  5
89E1
330
89D7
100
AcDbEntity
  8
0
100
AcDbBlockBegin
  2
*D10
 70
     1
 10
0.0
 20
0.0
 30
0.0
  3
*D10
  1

  0
LINE
  5
8A33
330
89D7
100
AcDbEntity
  8
001
  6
Continuous
 62
     0
370
    -2
100
AcDbLine
 10
-1648.280978676635
 20
3512.550144455355
 30
0.0
 11
-1680.213438957548
 21
3512.550144455355
 31
0.0
  0
LINE
  5
8A34
330
89D7
100
AcDbEntity
  8
001
  6
Continuous
 62
     0
370
    -2
100
AcDbLine
 10
-1648.280978676635
 20
3307.550144455355
 30
0.0
 11
-1680.213438957548
 21
3307.550144455355
 31
0.0
  0
LINE
  5
8A35
330
89D7
100
AcDbEntity
  8
001
  6
Continuous
 62
     0
370
    -2
100
AcDbLine
 10
-1678.713438957549
 20
3500.550144455355
 30
0.0
 11
-1678.713438957549
 21
3319.550144455355
 31
0.0
  0
INSERT
  5
8A36
330
89D7
100
AcDbEntity
  8
001
  6
Continuous
 62
     0
370
    -2
100
AcDbBlockReference
  2
_Open30
 10
-1678.713438957549
 20
3512.550144455355
 30
0.0
 41
12.0
 42
12.0
 43
12.0
 50
90.0
  0
INSERT
  5
8A37
330
89D7
100
AcDbEntity
  8
001
  6
Continuous
 62
     0
370
    -2
100
AcDbBlockReference
  2
_Open30
 10
-1678.713438957549
 20
3307.550144455355
 30
0.0
 41
12.0
 42
12.0
 43
12.0
 50
270.0
  0
MTEXT
  5
8A38
330
89D7
100
AcDbEntity
  8
001
  6
Continuous
 62
     0
100
AcDbMText
 10
-1692.213438957549
 20
3410.050144455355
 30
0.0
 40
12.0
 41
0.0
 71
     5
 72
     1
  1
\A1;φ205
 11
0.0000000000000001
 21
1.0
 31
0.0
 73
     1
 44
1.0
  0
POINT
  5
8A39
330
89D7
100
AcDbEntity
  8
Defpoints
  6
Continuous
 62
     0
100
AcDbPoint
 10
-1638.905978676635
 20
3512.550144455355
 30
0.0
  0
POINT
  5
8A3A
330
89D7
100
AcDbEntity
  8
Defpoints
  6
Continuous
 62
     0
100
AcDbPoint
 10
-1638.905978676635
 20
3307.550144455355
 30
0.0
  0
POINT
  5
8A3B
330
89D7
100
AcDbEntity
  8
Defpoints
  6
Continuous
 62
     0
100
AcDbPoint
 10
-1678.713438957549
 20
3307.550144455355
 30
0.0
  0
ENDBLK
  5
89E2
330
89D7
100
AcDbEntity
  8
0
100
AcDbBlockEnd
  0
ENDSEC
  0
SECTION
  2
ENTITIES
  0
LWPOLYLINE
  5
82FB
330
1E
100
AcDbEntity
  8
001
  6
DASHED
100
AcDbPolyline
 90
        4
 70
     1
 43
0.0
 10
-3424.80901335875
 20
3059.264188730267
 10
-1352.10901335875
 20
3059.264188730267
 10
-1352.10901335875
 20
4524.959188730268
 10
-3424.80901335875
 20
4524.959188730268
  0
DIMENSION
  5
82FC
330
1E
100
AcDbEntity
  8
001
  6
Continuous
100
AcDbDimension
  2
*D2
 10
-2655.323149549233
 20
4047.601285156366
 30
0.0
 11
-2659.067404443217
 21
4104.109961970541
 31
0.0
 70
    33
 71
     5
 42
110.0000000000013
  3
ISO-25
100
AcDbAlignedDimension
 13
-2746.143615645358
 23
4175.312311037063
 33
0.0
 14
-2765.24491518872
 24
4066.983458205719
 34
0.0
  0
LINE
  5
82FD
330
1E
100
AcDbEntity
  8
003
100
AcDbLine
 10
-2584.540844682443
 20
4234.544885304249
 30
0.0
 11
-2747.057131497037
 21
4234.544885304249
 31
0.0
  0
LWPOLYLINE
  5
82FE
330
1E
100
AcDbEntity
  8
003
  6
Continuous
100
AcDbPolyline
 90
       12
 70
     1
 43
0.0
 10
-3034.523393944368
 20
4344.544885304249
 10
-2734.558295420518
 20
4344.544885304249
 10
-2634.558295420518
 20
4234.544885304249
 10
-2584.540844682443
 20
4234.544885304249
 10
-2584.540844682443
 20
4236.844885304249
 10
-2633.540844682443
 20
4236.844885304249
 10
-2733.540844682443
 20
4346.844885304248
 10
-3035.540844682443
 20
4346.844885304248
 10
-3135.540844682443
 20
4236.844885304249
 10
-3184.540844682443
 20
4236.844885304249
 10
-3184.540844682443
 20
4234.544885304249
 10
-3134.523393944368
 20
4234.544885304249
  0
LINE
  5
82FF
330
1E
100
AcDbEntity
  8
001
100
AcDbLine
 10
-2664.129824858726
 20
3531.402599455354
 30
0.0
 11
-2483.129824858726
 21
3531.402599455354
 31
0.0
  0
TEXT
  5
8300
330
1E
100
AcDbEntity
  8
001
100
AcDbText
 10
-2664.129824858726
 20
3531.402599455354
 30
0.0
 40
18.5
  1
両ネジジョイントプレート
 41
0.6756760000000001
100
AcDbText
  0
LINE
  5
8301
330
1E
100
AcDbEntity
  8
003
  6
Continuous
100
AcDbLine
 10
-2840.58307708528
 20
3784.43132530425
 30
0.0
 11
-2511.014168474265
 21
3784.43132530425
 31
0.0
  0
LINE
  5
8302
330
1E
100
AcDbEntity
  8
001
 62
     3
100
AcDbLine
 10
-3348.36901335875
 20
4445.334188730266
 30
0.0
 11
-1394.109013358749
 21
4445.334188730266
 31
0.0
  0
LINE
  5
8303
330
1E
100
AcDbEntity
  8
001
 62
     3
100
AcDbLine
 10
-1394.109013358749
 20
3103.014188730266
 30
0.0
 11
-3348.36901335875
 21
3103.014188730266
 31
0.0
  0
LINE
  5
8304
330
1E
100
AcDbEntity
  8
003
  6
Continuous
100
AcDbLine
 10
-2665.073072508974
 20
4161.01738694143
 30
0.0
 11
-2640.767147615632
 21
4235.544885304249
 31
0.0
  0
LINE
  5
8305
330
1E
100
AcDbEntity
  8
002
100
AcDbLine
 10
-2859.420430432203
 20
4195.286069772699
 30
0.0
 11
-2865.283193856281
 21
4196.319833145875
 31
0.0
  0
LINE
  5
8306
330
1E
100
AcDbEntity
  8
002
100
AcDbLine
 10
-2872.1207353272
 20
4157.542208510969
 30
0.0
 11
-2865.283193856281
 21
4196.319833145875
 31
0.0
  0
LINE
  5
8307
330
1E
100
AcDbEntity
  8
002
100
AcDbLine
 10
-2837.668090166977
 20
4139.688632527129
 30
0.0
 11
-2812.653973259417
 21
4208.414353842825
 31
0.0
  0
LINE
  5
8308
330
1E
100
AcDbEntity
  8
002
100
AcDbLine
 10
-2820.65481740558
 20
4236.175697031032
 30
0.0
 11
-2849.654063075957
 21
4071.712802277994
 31
0.0
  0
LINE
  5
8309
330
1E
100
AcDbEntity
  8
002
100
AcDbLine
 10
-2808.147758942324
 20
4233.970365174662
 30
0.0
 11
-2837.147004612701
 21
4069.507470421624
 31
0.0
  0
LINE
  5
830A
330
1E
100
AcDbEntity
  8
002
  6
CENTER
100
AcDbLine
 10
-2812.343473917474
 20
4246.743475683762
 30
0.0
 11
-2843.400533844329
 21
4070.610136349809
 31
0.0
  0
LINE
  5
830B
330
1E
100
AcDbEntity
  8
002
100
AcDbLine
 10
-2885.612601543467
 20
4159.921188545006
 30
0.0
 11
-2878.775060072548
 21
4198.698813179912
 31
0.0
  0
LINE
  5
830C
330
1E
100
AcDbEntity
  8
002
100
AcDbLine
 10
-2885.223963146338
 20
4199.266341476683
 30
0.0
 11
-2887.714509618843
 21
4151.743876304666
 31
0.0
  0
LINE
  5
830D
330
1E
100
AcDbEntity
  8
002
100
AcDbLine
 10
-2911.484463218392
 20
4199.896943723908
 30
0.0
 11
-2918.169918058569
 21
4161.981845232938
 31
0.0
  0
LINE
  5
830E
330
1E
100
AcDbEntity
  8
003
100
AcDbLine
 10
-2973.115397220519
 20
4081.297247219313
 30
0.0
 11
-3025.670307476539
 21
4224.60040863508
 31
0.0
  0
LINE
  5
830F
330
1E
100
AcDbEntity
  8
003
100
AcDbLine
 10
-2961.376731481488
 20
4101.56678919349
 30
0.0
 11
-3005.172490307788
 21
4220.9860904226
 31
0.0
  0
LINE
  5
8310
330
1E
100
AcDbEntity
  8
002
100
AcDbLine
 10
-2857.614133382441
 20
4242.692621626281
 30
0.0
 11
-2886.61337905282
 21
4078.229726873243
 31
0.0
  0
LINE
  5
8311
330
1E
100
AcDbEntity
  8
002
100
AcDbLine
 10
-2886.600839415918
 20
4151.43722782395
 30
0.0
 11
-2861.58672250836
 21
4220.162949139647
 31
0.0
  0
LINE
  5
8312
330
1E
100
AcDbEntity
  8
002
100
AcDbLine
 10
-2870.121191845697
 20
4244.897953482651
 30
0.0
 11
-2899.120437516074
 21
4080.435058729613
 31
0.0
  0
LINE
  5
8313
330
1E
100
AcDbEntity
  8
002
100
AcDbLine
 10
-2748.025872855018
 20
4262.049470927496
 30
0.0
 11
-2767.481022864656
 21
4138.363603018738
 31
0.0
  0
LINE
  5
8314
330
1E
100
AcDbEntity
  8
002
100
AcDbLine
 10
-2762.228335644829
 20
4139.579222445738
 30
0.0
 11
-2742.323935525652
 21
4266.121198593448
 31
0.0
  0
LINE
  5
8315
330
1E
100
AcDbEntity
  8
002
  6
CENTER
100
AcDbLine
 10
-2861.964578781837
 20
4254.588212293407
 30
0.0
 11
-2892.866908284446
 21
4079.332392801428
 31
0.0
  0
LINE
  5
8316
330
1E
100
AcDbEntity
  8
002
100
AcDbLine
 10
-2901.03075295312
 20
4289.028359468853
 30
0.0
 11
-2925.051951307099
 21
4166.147609078421
 31
0.0
  0
LINE
  5
8317
330
1E
100
AcDbEntity
  8
002
100
AcDbLine
 10
-2929.572096396215
 20
4169.08644251943
 30
0.0
 11
-2904.996209490622
 21
4294.804709506672
 31
0.0
  0
LINE
  5
8318
330
1E
100
AcDbEntity
  8
003
100
AcDbLine
 10
-3257.748465856509
 20
4025.946067730567
 30
0.0
 11
-3257.748465856509
 21
4254.537198675472
 31
0.0
  0
LINE
  5
8319
330
1E
100
AcDbEntity
  8
001
 62
     3
100
AcDbLine
 10
-3348.36901335875
 20
3103.014188730266
 30
0.0
 11
-3348.36901335875
 21
4445.334188730266
 31
0.0
  0
LINE
  5
831A
330
1E
100
AcDbEntity
  8
004
  6
CENTER2
100
AcDbLine
 10
-2884.472730005964
 20
4232.687262246147
 30
0.0
 11
-2884.472730005964
 21
3636.023400446965
 31
0.0
  0
LINE
  5
831B
330
1E
100
AcDbEntity
  8
004
  6
CENTER2
100
AcDbLine
 10
-2832.08421599518
 20
4232.687262246147
 30
0.0
 11
-2937.292153244083
 21
3636.023400446965
 31
0.0
  0
DIMENSION
  5
831C
330
1E
100
AcDbEntity
  8
001
  6
Continuous
100
AcDbDimension
  2
*D3
 10
-2884.472730005964
 20
3636.023400446965
 30
0.0
 11
-2854.639916573912
 21
4276.567853046887
 31
0.0
 70
    34
 71
     5
 42
0.174532925199431
  3
ISO-25
100
AcDb2LineAngularDimension
 13
-2832.08421599518
 23
4232.687262246147
 33
0.0
 14
-2937.292153244083
 24
3636.023400446965
 34
0.0
 15
-2884.472730005963
 25
4232.687262246147
 35
0.0
 16
-2846.302175469174
 26
4262.147200176523
 36
0.0
1001
ACAD
1000
DSTYLE
1002
{
1070
    79
1070
     2
1002
}
  0
LINE
  5
831D
330
1E
100
AcDbEntity
  8
001
100
AcDbLine
 10
-3293.850420569846
 20
3629.064570455355
 30
0.0
 11
-3123.850420569847
 21
3629.064570455355
 31
0.0
  0
TEXT
  5
831E
330
1E
100
AcDbEntity
  8
001
100
AcDbText
 10
-3293.850420569846
 20
3629.064570455355
 30
0.0
 40
20.5
  1
アンカー頭部部品図
 41
0.7723580000000001
100
AcDbText
  0
LINE
  5
831F
330
1E
100
AcDbEntity
  8
003
100
AcDbLine
 10
-2980.173850731271
 20
4100.543759578009
 30
0.0
 11
-2963.274474720151
 21
4106.741426212225
 31
0.0
  0
LINE
  5
8320
330
1E
100
AcDbEntity
  8
004
  6
CENTER2
100
AcDbLine
 10
-2986.706600080295
 20
4102.941019360328
 30
0.0
 11
-2959.986140583392
 21
4112.740463843196
 31
0.0
  0
LINE
  5
8321
330
1E
100
AcDbEntity
  8
003
100
AcDbLine
 10
-2923.776528340804
 20
4072.597473438182
 30
0.0
 11
-2973.115397220519
 21
4081.297247219313
 31
0.0
  0
LINE
  5
8322
330
1E
100
AcDbEntity
  8
002
100
AcDbLine
 10
-2967.238216324302
 20
3742.123879898853
 30
0.0
 11
-2964.291588444377
 21
3737.373366362275
 31
0.0
  0
LINE
  5
8323
330
1E
100
AcDbEntity
  8
002
100
AcDbLine
 10
-2962.265693154027
 20
3748.862789490879
 30
0.0
 11
-2966.659388949645
 21
3745.406573065432
 31
0.0
  0
LINE
  5
8324
330
1E
100
AcDbEntity
  8
002
100
AcDbLine
 10
-2964.870415819032
 20
3734.090673195696
 30
0.0
 11
-2969.264111614649
 21
3730.634456770248
 31
0.0
  0
LINE
  5
8325
330
1E
100
AcDbEntity
  8
002
100
AcDbLine
 10
-2879.04098217558
 20
3713.033306741237
 30
0.0
 11
-2966.558786333063
 21
3720.849357317418
 31
0.0
  0
LINE
  5
8326
330
1E
100
AcDbEntity
  8
002
100
AcDbLine
 10
-2878.024027408024
 20
3690.006891410128
 30
0.0
 11
-2975.38990909563
 21
3699.559423762978
 31
0.0
  0
LINE
  5
8327
330
1E
100
AcDbEntity
  8
002
100
AcDbLine
 10
-2881.645704840584
 20
3698.261190446054
 30
0.0
 11
-2969.163508998068
 21
3706.077241022235
 31
0.0
  0
LINE
  5
8328
330
1E
100
AcDbEntity
  8
002
100
AcDbLine
 10
-2884.250427505587
 20
3683.489074150871
 30
0.0
 11
-2971.768231663072
 21
3691.305124727051
 31
0.0
  0
LINE
  5
8329
330
1E
100
AcDbEntity
  8
002
100
AcDbLine
 10
-2875.419304743021
 20
3704.77900770531
 30
0.0
 11
-2972.785186430627
 21
3714.331540058161
 31
0.0
  0
LINE
  5
832A
330
1E
100
AcDbEntity
  8
002
100
AcDbLine
 10
-2961.633696284214
 20
3675.395288972696
 30
0.0
 11
-2974.372954328075
 21
3676.533008431869
 31
0.0
  0
LINE
  5
832B
330
1E
100
AcDbEntity
  8
002
100
AcDbLine
 10
-2897.187796909014
 20
3676.859377786966
 30
0.0
 11
-2977.994631760633
 21
3684.787307467795
 31
0.0
  0
LWPOLYLINE
  5
832C
330
1E
100
AcDbEntity
  8
002
100
AcDbPolyline
 90
       46
 70
     0
 43
0.0
 10
-2871.152066238401
 20
3685.377379182835
 10
-2876.676442595675
 20
3682.909655806998
 10
-2882.247996973832
 20
3680.715576070267
 10
-2887.880820147697
 20
3678.876864387504
 10
-2893.589002080922
 20
3677.47524401512
 10
-2899.386631578717
 20
3676.592439020682
 10
-2901.814068995134
 20
3676.395470713268
 10
-2904.257265853763
 20
3676.290901758056
 10
-2906.714259888938
 20
3676.268351708886
 10
-2909.183089472503
 20
3676.317442262863
 10
-2911.661792512442
 20
3676.427791989021
 10
-2914.148408365408
 20
3676.589022758112
 10
-2916.640976097839
 20
3676.790752328011
 10
-2919.137533096771
 20
3677.022602222173
 10
-2921.636117907701
 20
3677.274193152897
 10
-2924.134770408226
 20
3677.535144036511
 10
-2926.631528159031
 20
3677.795075411665
 10
-2929.124429705609
 20
3678.043607990657
 10
-2931.611513940753
 20
3678.270360516166
 10
-2934.090819236308
 20
3678.464954685299
 10
-2936.560383326605
 20
3678.617010051896
 10
-2939.018245915597
 20
3678.716146517095
 10
-2941.462445548776
 20
3678.751984793194
 10
-2943.891019960478
 20
3678.714144434032
 10
-2946.302007869843
 20
3678.592245167099
 10
-2948.693447648718
 20
3678.3759086895
 10
-2950.858270503908
 20
3678.089027868994
 10
-2953.005858318966
 20
3677.718162298107
 10
-2955.136903171148
 20
3677.266683373888
 10
-2957.252098933675
 20
3676.737963825493
 10
-2959.352135714187
 20
3676.135374702677
 10
-2961.43770622745
 20
3675.462289545753
 10
-2963.509503361876
 20
3674.722080910228
 10
-2965.568217398756
 20
3673.918118861049
 10
-2967.614541052851
 20
3673.053776938531
 10
-2969.649166227773
 20
3672.132427524532
 10
-2971.67278517442
 20
3671.157441031295
 10
-2973.686090433911
 20
3670.132191983941
 10
-2975.689772113886
 20
3669.060051432226
 10
-2977.684524261215
 20
3667.944391120498
 10
-2979.671037621049
 20
3666.788584241771
 10
-2981.650005255448
 20
3665.596002366748
 10
-2983.622118083211
 20
3664.370017703638
 10
-2985.588068181595
 20
3663.11400164949
 10
-2987.548547280556
 20
3661.831327570974
 10
-2989.504249426964
 20
3660.525367212434
  0
LINE
  5
832D
330
1E
100
AcDbEntity
  8
002
100
AcDbLine
 10
-2870.209859413013
 20
3734.323240295678
 30
0.0
 11
-2967.575741100618
 21
3743.875772648527
 31
0.0
  0
LINE
  5
832E
330
1E
100
AcDbEntity
  8
002
100
AcDbLine
 10
-2872.814582078017
 20
3719.551124000494
 30
0.0
 11
-2970.180463765622
 21
3729.103656353343
 31
0.0
  0
DIMENSION
  5
832F
330
1E
100
AcDbEntity
  8
001
  6
Continuous
100
AcDbDimension
  2
*D4
 10
-2943.354751688639
 20
3320.050144455355
 30
0.0
 11
-2956.85475168864
 21
3410.050144455355
 31
0.0
 70
    32
  1
φ180
 71
     5
 42
180.0
  3
ISO-25
100
AcDbAlignedDimension
 13
-3022.981959569847
 23
3500.050144455355
 33
0.0
 14
-3022.981959569847
 24
3320.050144455355
 34
0.0
 50
90.0
100
AcDbRotatedDimension
  0
LINE
  5
8330
330
1E
100
AcDbEntity
  8
003
100
AcDbLine
 10
-2934.117009747431
 20
4074.420779303685
 30
0.0
 11
-2985.073647627739
 21
3785.431325304249
 31
0.0
  0
LINE
  5
8331
330
1E
100
AcDbEntity
  8
003
100
AcDbLine
 10
-2943.472683401047
 20
4076.070436991521
 30
0.0
 11
-2994.720200440655
 21
3785.431325304249
 31
0.0
  0
ARC
  5
8332
330
1E
100
AcDbEntity
  8
002
100
AcDbCircle
 10
-2969.020805715594
 20
3721.283477761586
 30
0.0
 40
2.5
100
AcDbArc
 50
308.1896849999879
 51
31.81031500001687
  0
LINE
  5
8333
330
1E
100
AcDbEntity
  8
003
 62
     3
100
AcDbLine
 10
-2991.05329387669
 20
3723.551280661065
 30
0.0
 11
-2989.905482535907
 21
3720.915240947027
 31
0.0
  0
LINE
  5
8334
330
1E
100
AcDbEntity
  8
003
 62
     3
100
AcDbLine
 10
-2991.053293876692
 20
3723.551280661065
 30
0.0
 11
-2989.905482535907
 21
3720.915240947027
 31
0.0
  0
LINE
  5
8335
330
1E
100
AcDbEntity
  8
001
100
AcDbLine
 10
-3260.829703569846
 20
3577.562700455354
 30
0.0
 11
-3094.829703569846
 21
3577.562700455354
 31
0.0
  0
TEXT
  5
8336
330
1E
100
AcDbEntity
  8
001
100
AcDbText
 10
-3260.829703569846
 20
3577.562700455354
 30
0.0
 40
18.5
  1
ヘッドキャップ（Ｓ型）
 41
0.6756760000000001
100
AcDbText
  0
LINE
  5
8337
330
1E
100
AcDbEntity
  8
002
100
AcDbLine
 10
-3130.252020569846
 20
3488.859100455353
 30
0.0
 11
-3125.156807569846
 21
3493.954313455354
 31
0.0
  0
LINE
  5
8338
330
1E
100
AcDbEntity
  8
002
100
AcDbLine
 10
-3191.074536569846
 20
3487.732757455354
 30
0.0
 11
-3065.889383569846
 21
3490.051001455354
 31
0.0
  0
LINE
  5
8339
330
1E
100
AcDbEntity
  8
002
100
AcDbLine
 10
-3067.998654569846
 20
3495.012797455354
 30
0.0
 11
-3196.074536569847
 21
3492.641022455354
 31
0.0
  0
LINE
  5
833A
330
1E
100
AcDbEntity
  8
002
100
AcDbLine
 10
-3067.998654569846
 20
3325.087490455354
 30
0.0
 11
-3196.074536569847
 21
3327.459265455353
 31
0.0
  0
LINE
  5
833B
330
1E
100
AcDbEntity
  8
004
  6
CENTER
100
AcDbLine
 10
-3007.628505569846
 20
3410.050144455355
 30
0.0
 11
-3208.639797569846
 21
3410.050144455355
 31
0.0
  0
DIMENSION
  5
833C
330
1E
100
AcDbEntity
  8
001
  6
Continuous
100
AcDbDimension
  2
*D5
 10
-3020.981959569847
 20
3530.366926434881
 30
0.0
 11
-3110.981959569847
 21
3543.866926434882
 31
0.0
 70
    32
 71
     5
 42
180.0000000000004
  3
ISO-25
100
AcDbAlignedDimension
 13
-3200.981959569847
 23
3487.641879455355
 33
0.0
 14
-3020.981959569847
 24
3498.050144455355
 34
0.0
100
AcDbRotatedDimension
  0
ARC
  5
833D
330
1E
100
AcDbEntity
  8
002
100
AcDbCircle
 10
-3190.981959569847
 20
3482.733614455355
 30
0.0
 40
5.0
100
AcDbArc
 50
91.06091200001403
 51
180.0
  0
LINE
  5
833E
330
1E
100
AcDbEntity
  8
002
100
AcDbLine
 10
-3200.981959569847
 20
3332.458408455355
 30
0.0
 11
-3200.981959569847
 21
3487.641879455355
 31
0.0
  0
ARC
  5
833F
330
1E
100
AcDbEntity
  8
002
100
AcDbCircle
 10
-3195.981959569847
 20
3332.458408455355
 30
0.0
 40
5.0
100
AcDbArc
 50
180.0
 51
268.939087999986
  0
LINE
  5
8340
330
1E
100
AcDbEntity
  8
002
100
AcDbLine
 10
-3195.981959569847
 20
3482.733614455355
 30
0.0
 11
-3195.981959569847
 21
3410.050144455355
 31
0.0
  0
LINE
  5
8341
330
1E
100
AcDbEntity
  8
002
100
AcDbLine
 10
-3200.981959569847
 20
3418.129161455355
 30
0.0
 11
-3195.981959569847
 21
3423.129161455355
 31
0.0
  0
LINE
  5
8342
330
1E
100
AcDbEntity
  8
002
100
AcDbLine
 10
-3200.981959569847
 20
3432.271296455354
 30
0.0
 11
-3195.981959569847
 21
3437.271296455354
 31
0.0
  0
LINE
  5
8343
330
1E
100
AcDbEntity
  8
002
100
AcDbLine
 10
-3200.981959569847
 20
3446.413432455354
 30
0.0
 11
-3195.981959569847
 21
3451.413432455354
 31
0.0
  0
LINE
  5
8344
330
1E
100
AcDbEntity
  8
002
100
AcDbLine
 10
-3200.981959569847
 20
3460.555568455354
 30
0.0
 11
-3195.981959569847
 21
3465.555568455354
 31
0.0
  0
LINE
  5
8345
330
1E
100
AcDbEntity
  8
002
100
AcDbLine
 10
-3200.981959569847
 20
3474.697703455354
 30
0.0
 11
-3195.981959569847
 21
3479.697703455354
 31
0.0
  0
LINE
  5
8346
330
1E
100
AcDbEntity
  8
002
100
AcDbLine
 10
-3200.981959569847
 20
3415.001994455355
 30
0.0
 11
-3195.981959569847
 21
3414.871065455354
 31
0.0
  0
LINE
  5
8347
330
1E
100
AcDbEntity
  8
002
100
AcDbLine
 10
-3200.968871569846
 20
3416.001823455355
 30
0.0
 11
-3195.968871569846
 21
3415.870893455354
 31
0.0
  0
LINE
  5
8348
330
1E
100
AcDbEntity
  8
002
100
AcDbLine
 10
-3173.478925569846
 20
3488.058602455354
 30
0.0
 11
-3168.383712569845
 21
3493.153815455354
 31
0.0
  0
LINE
  5
8349
330
1E
100
AcDbEntity
  8
002
100
AcDbLine
 10
-3187.887894569846
 20
3487.791769455354
 30
0.0
 11
-3182.792680569847
 21
3492.886982455354
 31
0.0
  0
ARC
  5
834A
330
1E
100
AcDbEntity
  8
002
100
AcDbCircle
 10
-3195.981959569847
 20
3487.641879455355
 30
0.0
 40
5.0
100
AcDbArc
 50
91.06091200001403
 51
180.0
  0
LINE
  5
834B
330
1E
100
AcDbEntity
  8
002
100
AcDbLine
 10
-3200.782798569846
 20
3489.039000455355
 30
0.0
 11
-3197.379081569845
 21
3492.442718455355
 31
0.0
  0
LINE
  5
834C
330
1E
100
AcDbEntity
  8
002
100
AcDbLine
 10
-3144.660988569846
 20
3488.592267455354
 30
0.0
 11
-3139.565775569845
 21
3493.687480455355
 31
0.0
  0
LINE
  5
834D
330
1E
100
AcDbEntity
  8
002
100
AcDbLine
 10
-3159.069957569846
 20
3488.325435455355
 30
0.0
 11
-3153.974744569846
 21
3493.420648455355
 31
0.0
  0
INSERT
  5
834E
330
1E
100
AcDbEntity
  8
001
  6
Continuous
100
AcDbBlockReference
  2
_Open
 10
-2980.854661420708
 20
3491.050144455355
 30
0.0
 41
11.25
 42
11.25
 43
11.25
 50
90.0
  0
LINE
  5
834F
330
1E
100
AcDbEntity
  8
002
100
AcDbLine
 10
-3021.847985569846
 20
3491.050144455355
 30
0.0
 11
-3021.847985569846
 21
3451.588047455354
 31
0.0
  0
LINE
  5
8350
330
1E
100
AcDbEntity
  8
002
100
AcDbLine
 10
-3020.981959569846
 20
3322.050144455355
 30
0.0
 11
-3020.981959569846
 21
3498.050144455355
 31
0.0
  0
LINE
  5
8351
330
1E
100
AcDbEntity
  8
002
100
AcDbLine
 10
-3050.981959569846
 20
3492.550144455355
 30
0.0
 11
-3050.981959569846
 21
3451.588047455354
 31
0.0
  0
LINE
  5
8352
330
1E
100
AcDbEntity
  8
002
  6
CENTER
100
AcDbLine
 10
-3110.981959569847
 20
3482.047809455354
 30
0.0
 11
-3110.981959569847
 21
3499.748073455355
 31
0.0
  0
LINE
  5
8353
330
1E
100
AcDbEntity
  8
002
100
AcDbLine
 10
-3053.580036569847
 20
3491.050144455355
 30
0.0
 11
-3053.580036569847
 21
3410.050144455355
 31
0.0
  0
LINE
  5
8354
330
1E
100
AcDbEntity
  8
002
100
AcDbLine
 10
-3056.981959569846
 20
3386.532887455354
 30
0.0
 11
-3022.981959569846
 21
3386.532887455354
 31
0.0
  0
LINE
  5
8355
330
1E
100
AcDbEntity
  8
002
100
AcDbLine
 10
-3056.981959569846
 20
3387.532887455353
 30
0.0
 11
-3022.981959569846
 21
3387.532887455353
 31
0.0
  0
LINE
  5
8356
330
1E
100
AcDbEntity
  8
002
100
AcDbLine
 10
-3056.981959569846
 20
3346.410533455354
 30
0.0
 11
-3022.981959569846
 21
3346.410533455354
 31
0.0
  0
LINE
  5
8357
330
1E
100
AcDbEntity
  8
002
100
AcDbLine
 10
-3022.981959569846
 20
3320.050144455355
 30
0.0
 11
-3058.910892569846
 21
3320.050144455355
 31
0.0
  0
LINE
  5
8358
330
1E
100
AcDbEntity
  8
002
100
AcDbLine
 10
-3059.981959569847
 20
3322.401818455355
 30
0.0
 11
-3022.981959569846
 21
3322.401818455355
 31
0.0
  0
LINE
  5
8359
330
1E
100
AcDbEntity
  8
002
100
AcDbLine
 10
-3058.981959569847
 20
3323.401818455355
 30
0.0
 11
-3022.981959569846
 21
3323.401818455355
 31
0.0
  0
LINE
  5
835A
330
1E
100
AcDbEntity
  8
002
100
AcDbLine
 10
-3060.981959569847
 20
3410.050144455355
 30
0.0
 11
-3060.981959569847
 21
3320.499245455355
 31
0.0
  0
ARC
  5
835B
330
1E
100
AcDbEntity
  8
002
100
AcDbCircle
 10
-3056.981959569846
 20
3350.410533455355
 30
0.0
 40
4.0
100
AcDbArc
 50
180.0
 51
270.0
  0
LINE
  5
835C
330
1E
100
AcDbEntity
  8
002
100
AcDbLine
 10
-3064.555697569846
 20
3323.623881455354
 30
0.0
 11
-3062.446425569846
 21
3321.514610455354
 31
0.0
  0
ARC
  5
835D
330
1E
100
AcDbEntity
  8
002
100
AcDbCircle
 10
-3058.910892569846
 20
3325.050144455355
 30
0.0
 40
5.0
100
AcDbArc
 50
225.0
 51
270.0
  0
ARC
  5
835E
330
1E
100
AcDbEntity
  8
002
100
AcDbCircle
 10
-3058.981959569847
 20
3321.401818455354
 30
0.0
 40
2.0
100
AcDbArc
 50
90.0
 51
180.0
  0
ARC
  5
835F
330
1E
100
AcDbEntity
  8
002
100
AcDbCircle
 10
-3059.981959569847
 20
3321.401818455354
 30
0.0
 40
1.0
100
AcDbArc
 50
90.0
 51
180.0
  0
ARC
  5
8360
330
1E
100
AcDbEntity
  8
002
100
AcDbCircle
 10
-3068.091230569846
 20
3320.088347455355
 30
0.0
 40
5.0
100
AcDbArc
 50
45.0
 51
88.93908799998596
  0
ARC
  5
8361
330
1E
100
AcDbEntity
  8
002
100
AcDbCircle
 10
-3056.981959569846
 20
3382.532887455354
 30
0.0
 40
4.0
100
AcDbArc
 50
90.0
 51
180.0
  0
ARC
  5
8362
330
1E
100
AcDbEntity
  8
002
100
AcDbCircle
 10
-3056.981959569846
 20
3383.532887455354
 30
0.0
 40
4.0
100
AcDbArc
 50
90.0
 51
180.0
  0
LINE
  5
8363
330
1E
100
AcDbEntity
  8
002
100
AcDbLine
 10
-3022.981959569846
 20
3320.050144455355
 30
0.0
 11
-3022.981959569846
 21
3410.050144455355
 31
0.0
  0
LINE
  5
8364
330
1E
100
AcDbEntity
  8
002
100
AcDbLine
 10
-3020.981959569846
 20
3322.050144455355
 30
0.0
 11
-3022.981959569846
 21
3320.050144455355
 31
0.0
  0
MTEXT
  5
8365
330
1E
100
AcDbEntity
  8
001
  6
Continuous
100
AcDbMText
 10
-2993.979661420707
 20
3407.225981455354
 30
0.0
 40
11.25
 41
0.0
 71
     5
 72
     1
  1
\A1;M165
 11
0.0000000000000001
 21
1.0
 31
0.0
 73
     1
 44
1.0
  0
LINE
  5
8366
330
1E
100
AcDbEntity
  8
001
  6
Continuous
100
AcDbLine
 10
-2980.854661420708
 20
3479.800144455355
 30
0.0
 11
-2980.854661420708
 21
3376.41538902889
 31
0.0
  0
LINE
  5
8367
330
1E
100
AcDbEntity
  8
002
100
AcDbLine
 10
-3022.981959569846
 20
3500.050144455355
 30
0.0
 11
-3058.910892569846
 21
3500.050144455355
 31
0.0
  0
LINE
  5
8368
330
1E
100
AcDbEntity
  8
002
100
AcDbLine
 10
-3050.981959569846
 20
3492.550144455355
 30
0.0
 11
-3020.981959569846
 21
3492.550144455355
 31
0.0
  0
LINE
  5
8369
330
1E
100
AcDbEntity
  8
002
100
AcDbLine
 10
-3053.580036569847
 20
3491.050144455355
 30
0.0
 11
-3021.847985569846
 21
3491.050144455355
 31
0.0
  0
LINE
  5
836A
330
1E
100
AcDbEntity
  8
002
100
AcDbLine
 10
-3113.880094569847
 20
3494.163141455354
 30
0.0
 11
-3113.749205569846
 21
3489.164708455354
 31
0.0
  0
LINE
  5
836B
330
1E
100
AcDbEntity
  8
002
100
AcDbLine
 10
-3114.880094569846
 20
3494.144623455354
 30
0.0
 11
-3114.749205569847
 21
3489.146189455354
 31
0.0
  0
LINE
  5
836C
330
1E
100
AcDbEntity
  8
002
100
AcDbLine
 10
-3108.081013569846
 20
3494.270532455355
 30
0.0
 11
-3108.212028569846
 21
3489.267248455354
 31
0.0
  0
LINE
  5
836D
330
1E
100
AcDbEntity
  8
002
100
AcDbLine
 10
-3107.080043569846
 20
3494.289068455354
 30
0.0
 11
-3107.211058569847
 21
3489.285785455354
 31
0.0
  0
LINE
  5
836E
330
1E
100
AcDbEntity
  8
002
100
AcDbLine
 10
-3115.843052569847
 20
3489.125933455354
 30
0.0
 11
-3114.776601569846
 21
3490.192384455354
 31
0.0
  0
LINE
  5
836F
330
1E
100
AcDbEntity
  8
002
100
AcDbLine
 10
-3101.434083569847
 20
3489.392766455355
 30
0.0
 11
-3096.338870569846
 21
3494.487979455354
 31
0.0
  0
LINE
  5
8370
330
1E
100
AcDbEntity
  8
002
100
AcDbLine
 10
-3053.580036569847
 20
3491.050144455355
 30
0.0
 11
-3050.981959569846
 21
3492.550144455355
 31
0.0
  0
LINE
  5
8371
330
1E
100
AcDbEntity
  8
002
100
AcDbLine
 10
-3064.555697569846
 20
3496.476406455354
 30
0.0
 11
-3062.446425569846
 21
3498.585678455354
 31
0.0
  0
LINE
  5
8372
330
1E
100
AcDbEntity
  8
002
100
AcDbLine
 10
-3072.616147569847
 20
3489.926431455354
 30
0.0
 11
-3067.494956569847
 21
3495.047622455354
 31
0.0
  0
ARC
  5
8373
330
1E
100
AcDbEntity
  8
002
100
AcDbCircle
 10
-3068.091230569846
 20
3500.011940455355
 30
0.0
 40
5.0
100
AcDbArc
 50
271.060912000014
 51
315.0
  0
ARC
  5
8374
330
1E
100
AcDbEntity
  8
002
100
AcDbCircle
 10
-3058.910892569846
 20
3495.050144455355
 30
0.0
 40
5.0
100
AcDbArc
 50
90.0
 51
135.0
  0
LINE
  5
8375
330
1E
100
AcDbEntity
  8
002
100
AcDbLine
 10
-3053.580036569847
 20
3490.050144455355
 30
0.0
 11
-3065.981959569847
 21
3490.050144455355
 31
0.0
  0
LINE
  5
8376
330
1E
100
AcDbEntity
  8
002
100
AcDbLine
 10
-3058.350298569846
 20
3490.050144455355
 30
0.0
 11
-3048.350298569847
 21
3500.050144455355
 31
0.0
  0
LINE
  5
8377
330
1E
100
AcDbEntity
  8
002
100
AcDbLine
 10
-3087.025115569847
 20
3489.659598455355
 30
0.0
 11
-3081.929902569847
 21
3494.754811455355
 31
0.0
  0
LINE
  5
8378
330
1E
100
AcDbEntity
  8
001
  6
Continuous
100
AcDbLine
 10
-3012.472985569846
 20
3491.050144455355
 30
0.0
 11
-2980.854661420708
 21
3491.050144455355
 31
0.0
  0
LINE
  5
8379
330
1E
100
AcDbEntity
  8
002
100
AcDbLine
 10
-3021.847985569846
 20
3491.050144455355
 30
0.0
 11
-3020.981959569846
 21
3492.550144455355
 31
0.0
  0
LINE
  5
837A
330
1E
100
AcDbEntity
  8
002
100
AcDbLine
 10
-3027.566027569847
 20
3492.550144455355
 30
0.0
 11
-3021.523993569846
 21
3498.592178455355
 31
0.0
  0
LINE
  5
837B
330
1E
100
AcDbEntity
  8
002
100
AcDbLine
 10
-3022.981959569846
 20
3500.050144455355
 30
0.0
 11
-3020.981959569846
 21
3498.050144455355
 31
0.0
  0
LINE
  5
837C
330
1E
100
AcDbEntity
  8
002
100
AcDbLine
 10
-3041.708163569847
 20
3492.550144455355
 30
0.0
 11
-3034.208163569847
 21
3500.050144455355
 31
0.0
  0
ARC
  5
837D
330
1E
100
AcDbEntity
  8
002
100
AcDbCircle
 10
-2970.323167048096
 20
3713.897419613994
 30
0.0
 40
2.5
100
AcDbArc
 50
128.1896849999879
 51
211.8103150000168
  0
LINE
  5
837E
330
1E
100
AcDbEntity
  8
002
100
AcDbLine
 10
-2972.447661654308
 20
3712.579647308487
 30
0.0
 11
-2969.501033774384
 21
3707.829133771908
 31
0.0
  0
LINE
  5
837F
330
1E
100
AcDbEntity
  8
002
100
AcDbLine
 10
-2967.475138484036
 20
3719.318556900512
 30
0.0
 11
-2971.868834279653
 21
3715.862340475066
 31
0.0
  0
LINE
  5
8380
330
1E
100
AcDbEntity
  8
003
 62
     3
100
AcDbLine
 10
-2988.008273527924
 20
3711.4090953483
 30
0.0
 11
-2989.730912102095
 21
3709.754578569941
 31
0.0
  0
LINE
  5
8381
330
1E
100
AcDbEntity
  8
003
 62
     3
100
AcDbLine
 10
-2988.008273527926
 20
3711.4090953483
 30
0.0
 11
-2989.730912102097
 21
3709.754578569941
 31
0.0
  0
LINE
  5
8382
330
1E
100
AcDbEntity
  8
003
 62
     3
100
AcDbLine
 10
-2989.730912102095
 20
3709.754578569941
 30
0.0
 11
-2991.796730675332
 21
3708.160475188276
 31
0.0
  0
LINE
  5
8383
330
1E
100
AcDbEntity
  8
003
 62
     3
100
AcDbLine
 10
-2989.730912102097
 20
3709.754578569941
 30
0.0
 11
-2991.796730675332
 21
3708.160475188276
 31
0.0
  0
LINE
  5
8384
330
1E
100
AcDbEntity
  8
003
 62
     3
100
AcDbLine
 10
-2991.796730675332
 20
3708.160475188276
 30
0.0
 11
-2993.769934732862
 21
3706.514626334745
 31
0.0
  0
LINE
  5
8385
330
1E
100
AcDbEntity
  8
003
 62
     3
100
AcDbLine
 10
-2991.796730675332
 20
3708.160475188276
 30
0.0
 11
-2993.769934732863
 21
3706.514626334743
 31
0.0
  0
LINE
  5
8386
330
1E
100
AcDbEntity
  8
003
 62
     3
100
AcDbLine
 10
-2987.064608309134
 20
3713.236185203073
 30
0.0
 11
-2988.008273527924
 21
3711.4090953483
 31
0.0
  0
LINE
  5
8387
330
1E
100
AcDbEntity
  8
003
 62
     3
100
AcDbLine
 10
-2987.280381800028
 20
3715.616121455922
 30
0.0
 11
-2987.064608309134
 21
3713.236185203073
 31
0.0
  0
LINE
  5
8388
330
1E
100
AcDbEntity
  8
003
 62
     3
100
AcDbLine
 10
-2988.437593182858
 20
3718.222997407043
 30
0.0
 11
-2987.280381800028
 21
3715.616121455922
 31
0.0
  0
LINE
  5
8389
330
1E
100
AcDbEntity
  8
003
 62
     3
100
AcDbLine
 10
-2989.905482535907
 20
3720.915240947027
 30
0.0
 11
-2988.437593182858
 21
3718.222997407043
 31
0.0
  0
LINE
  5
838A
330
1E
100
AcDbEntity
  8
003
 62
     3
100
AcDbLine
 10
-2987.064608309134
 20
3713.236185203073
 30
0.0
 11
-2988.008273527926
 21
3711.4090953483
 31
0.0
  0
LINE
  5
838B
330
1E
100
AcDbEntity
  8
003
 62
     3
100
AcDbLine
 10
-2987.28038180003
 20
3715.616121455922
 30
0.0
 11
-2987.064608309134
 21
3713.236185203073
 31
0.0
  0
LINE
  5
838C
330
1E
100
AcDbEntity
  8
003
 62
     3
100
AcDbLine
 10
-2988.437593182858
 20
3718.222997407043
 30
0.0
 11
-2987.28038180003
 21
3715.616121455922
 31
0.0
  0
LINE
  5
838D
330
1E
100
AcDbEntity
  8
003
 62
     3
100
AcDbLine
 10
-2989.905482535907
 20
3720.915240947027
 30
0.0
 11
-2988.437593182858
 21
3718.222997407043
 31
0.0
  0
LINE
  5
838E
330
1E
100
AcDbEntity
  8
002
100
AcDbLine
 10
-2970.079861149039
 20
3704.54644060533
 30
0.0
 11
-2974.473556944658
 21
3701.090224179882
 31
0.0
  0
LINE
  5
838F
330
1E
100
AcDbEntity
  8
002
100
AcDbLine
 10
-2975.052384319313
 20
3697.807531013304
 30
0.0
 11
-2972.105756439388
 21
3693.057017476726
 31
0.0
  0
ARC
  5
8390
330
1E
100
AcDbEntity
  8
002
100
AcDbCircle
 10
-2974.230251045602
 20
3691.739245171219
 30
0.0
 40
2.5
100
AcDbArc
 50
308.1896849999879
 51
31.81031500001687
  0
ARC
  5
8391
330
1E
100
AcDbEntity
  8
002
100
AcDbCircle
 10
-2975.532612378105
 20
3684.353187023628
 30
0.0
 40
2.5
100
AcDbArc
 50
128.1896849999879
 51
211.8103150000168
  0
LINE
  5
8392
330
1E
100
AcDbEntity
  8
003
 62
     3
100
AcDbLine
 10
-2995.737062636301
 20
3700.923794207875
 30
0.0
 11
-2994.43780726413
 21
3696.631389609341
 31
0.0
  0
LINE
  5
8393
330
1E
100
AcDbEntity
  8
003
 62
     3
100
AcDbLine
 10
-2995.737062636301
 20
3700.923794207875
 30
0.0
 11
-2994.437807264132
 21
3696.631389609341
 31
0.0
  0
LINE
  5
8394
330
1E
100
AcDbEntity
  8
003
 62
     3
100
AcDbLine
 10
-2991.129188679122
 20
3687.914806538559
 30
0.0
 11
-2991.497155599381
 21
3684.191734493644
 31
0.0
  0
LINE
  5
8395
330
1E
100
AcDbEntity
  8
003
 62
     3
100
AcDbLine
 10
-2991.129188679122
 20
3687.914806538559
 30
0.0
 11
-2991.497155599381
 21
3684.191734493644
 31
0.0
  0
LINE
  5
8396
330
1E
100
AcDbEntity
  8
003
 62
     3
100
AcDbLine
 10
-2993.026071959766
 20
3682.246533052699
 30
0.0
 11
-2995.231606605022
 21
3680.515725265232
 31
0.0
  0
LINE
  5
8397
330
1E
100
AcDbEntity
  8
003
 62
     3
100
AcDbLine
 10
-2994.43780726413
 20
3696.631389609341
 30
0.0
 11
-2992.505627753689
 21
3692.178209343955
 31
0.0
  0
LINE
  5
8398
330
1E
100
AcDbEntity
  8
003
 62
     3
100
AcDbLine
 10
-2993.026071959766
 20
3682.246533052699
 30
0.0
 11
-2995.231606605022
 21
3680.515725265232
 31
0.0
  0
LINE
  5
8399
330
1E
100
AcDbEntity
  8
003
 62
     3
100
AcDbLine
 10
-2994.437807264132
 20
3696.631389609341
 30
0.0
 11
-2992.505627753689
 21
3692.178209343955
 31
0.0
  0
LINE
  5
839A
330
1E
100
AcDbEntity
  8
003
 62
     3
100
AcDbLine
 10
-2991.497155599381
 20
3684.191734493644
 30
0.0
 11
-2993.026071959766
 21
3682.246533052699
 31
0.0
  0
LINE
  5
839B
330
1E
100
AcDbEntity
  8
003
 62
     3
100
AcDbLine
 10
-2992.505627753689
 20
3692.178209343955
 30
0.0
 11
-2991.129188679122
 21
3687.914806538559
 31
0.0
  0
LINE
  5
839C
330
1E
100
AcDbEntity
  8
003
 62
     3
100
AcDbLine
 10
-2991.497155599381
 20
3684.191734493644
 30
0.0
 11
-2993.026071959766
 21
3682.246533052699
 31
0.0
  0
LINE
  5
839D
330
1E
100
AcDbEntity
  8
003
 62
     3
100
AcDbLine
 10
-2992.505627753689
 20
3692.178209343955
 30
0.0
 11
-2991.129188679122
 21
3687.914806538559
 31
0.0
  0
LINE
  5
839E
330
1E
100
AcDbEntity
  8
003
 62
     3
100
AcDbLine
 10
-2995.214732250479
 20
3704.704870533658
 30
0.0
 11
-2995.737062636301
 21
3700.923794207875
 31
0.0
  0
LINE
  5
839F
330
1E
100
AcDbEntity
  8
003
 62
     3
100
AcDbLine
 10
-2995.214732250479
 20
3704.704870533658
 30
0.0
 11
-2995.737062636301
 21
3700.923794207875
 31
0.0
  0
LINE
  5
83A0
330
1E
100
AcDbEntity
  8
002
100
AcDbLine
 10
-2977.657106984317
 20
3683.03541471812
 30
0.0
 11
-2974.710479104393
 21
3678.284901181543
 31
0.0
  0
ARC
  5
83A1
330
1E
100
AcDbEntity
  8
002
100
AcDbCircle
 10
-2972.9278897131
 20
3699.12530331881
 30
0.0
 40
2.5
100
AcDbArc
 50
128.1896849999879
 51
211.8103150000168
  0
LINE
  5
83A2
330
1E
100
AcDbEntity
  8
002
100
AcDbLine
 10
-2972.684583814043
 20
3689.774324310146
 30
0.0
 11
-2977.078279609661
 21
3686.3181078847
 31
0.0
  0
ARC
  5
83A3
330
1E
100
AcDbEntity
  8
002
100
AcDbCircle
 10
-2971.625528380598
 20
3706.511361466402
 30
0.0
 40
2.5
100
AcDbArc
 50
308.1896849999879
 51
31.81031500001687
  0
LINE
  5
83A4
330
1E
100
AcDbEntity
  8
003
 62
     3
100
AcDbLine
 10
-2993.769934732862
 20
3706.514626334745
 30
0.0
 11
-2995.214732250479
 21
3704.704870533658
 31
0.0
  0
LINE
  5
83A5
330
1E
100
AcDbEntity
  8
003
 62
     3
100
AcDbLine
 10
-2993.769934732863
 20
3706.514626334743
 30
0.0
 11
-2995.214732250479
 21
3704.704870533658
 31
0.0
  0
LINE
  5
83A6
330
1E
100
AcDbEntity
  8
003
 62
     3
100
AcDbLine
 10
-2995.231606605022
 20
3680.515725265232
 30
0.0
 11
-2997.629878713642
 21
3678.861219181374
 31
0.0
  0
LINE
  5
83A7
330
1E
100
AcDbEntity
  8
003
 62
     3
100
AcDbLine
 10
-2995.231606605022
 20
3680.515725265232
 30
0.0
 11
-2997.629878713642
 21
3678.861219181374
 31
0.0
  0
ARC
  5
83A8
330
1E
100
AcDbEntity
  8
002
100
AcDbCircle
 10
-2978.137335043108
 20
3669.581070728445
 30
0.0
 40
2.5
100
AcDbArc
 50
128.1896849999879
 51
211.8103150000168
  0
LINE
  5
83A9
330
1E
100
AcDbEntity
  8
002
100
AcDbLine
 10
-2980.26182964932
 20
3668.263298422937
 30
0.0
 11
-2979.434025758582
 21
3666.928724610869
 31
0.0
  0
LINE
  5
83AA
330
1E
100
AcDbEntity
  8
002
100
AcDbLine
 10
-2974.951232235058
 20
3669.461056496107
 30
0.0
 11
-2980.599354425638
 21
3670.015191172611
 31
0.0
  0
LINE
  5
83AB
330
1E
100
AcDbEntity
  8
002
100
AcDbLine
 10
-2975.289306479048
 20
3675.002208014963
 30
0.0
 11
-2979.683002274665
 21
3671.545991589516
 31
0.0
  0
LINE
  5
83AC
330
1E
100
AcDbEntity
  8
003
 62
     3
100
AcDbLine
 10
-3001.172073587171
 20
3672.345066870791
 30
0.0
 11
-3000.001240276468
 21
3669.095604159956
 31
0.0
  0
LINE
  5
83AD
330
1E
100
AcDbEntity
  8
003
 62
     3
100
AcDbLine
 10
-3001.172073587171
 20
3672.345066870791
 30
0.0
 11
-3000.001240276468
 21
3669.095604159956
 31
0.0
  0
LINE
  5
83AE
330
1E
100
AcDbEntity
  8
003
 62
     3
100
AcDbLine
 10
-2996.714345833668
 20
3659.026757524817
 30
0.0
 11
-2997.746741172961
 21
3656.570924471815
 31
0.0
  0
LINE
  5
83AF
330
1E
100
AcDbEntity
  8
003
 62
     3
100
AcDbLine
 10
-2998.343449053802
 20
3665.667780389842
 30
0.0
 11
-2996.985537334015
 21
3662.249022885876
 31
0.0
  0
LINE
  5
83B0
330
1E
100
AcDbEntity
  8
003
 62
     3
100
AcDbLine
 10
-2996.71434583367
 20
3659.026757524817
 30
0.0
 11
-2997.746741172961
 21
3656.570924471814
 31
0.0
  0
LINE
  5
83B1
330
1E
100
AcDbEntity
  8
003
 62
     3
100
AcDbLine
 10
-2998.343449053804
 20
3665.667780389842
 30
0.0
 11
-2996.985537334015
 21
3662.249022885876
 31
0.0
  0
LINE
  5
83B2
330
1E
100
AcDbEntity
  8
003
 62
     3
100
AcDbLine
 10
-2997.746741172961
 20
3656.570924471815
 30
0.0
 11
-2999.621410746531
 21
3654.294562371734
 31
0.0
  0
LINE
  5
83B3
330
1E
100
AcDbEntity
  8
003
 62
     3
100
AcDbLine
 10
-3000.001240276468
 20
3669.095604159956
 30
0.0
 11
-2998.343449053802
 21
3665.667780389842
 31
0.0
  0
LINE
  5
83B4
330
1E
100
AcDbEntity
  8
003
 62
     3
100
AcDbLine
 10
-2997.746741172961
 20
3656.570924471814
 30
0.0
 11
-2999.621410746533
 21
3654.294562371734
 31
0.0
  0
LINE
  5
83B5
330
1E
100
AcDbEntity
  8
003
 62
     3
100
AcDbLine
 10
-3000.001240276468
 20
3669.095604159956
 30
0.0
 11
-2998.343449053804
 21
3665.667780389842
 31
0.0
  0
LINE
  5
83B6
330
1E
100
AcDbEntity
  8
003
 62
     3
100
AcDbLine
 10
-3001.85383459838
 20
3652.105260287393
 30
0.0
 11
-3003.959490108291
 21
3649.910610873535
 31
0.0
  0
LINE
  5
83B7
330
1E
100
AcDbEntity
  8
003
 62
     3
100
AcDbLine
 10
-3001.85383459838
 20
3652.105260287393
 30
0.0
 11
-3003.959490108291
 21
3649.910610873535
 31
0.0
  0
LINE
  5
83B8
330
1E
100
AcDbEntity
  8
003
 62
     3
100
AcDbLine
 10
-2999.621410746531
 20
3654.294562371734
 30
0.0
 11
-3001.85383459838
 21
3652.105260287393
 31
0.0
  0
LINE
  5
83B9
330
1E
100
AcDbEntity
  8
003
 62
     3
100
AcDbLine
 10
-2999.621410746533
 20
3654.294562371734
 30
0.0
 11
-3001.85383459838
 21
3652.105260287393
 31
0.0
  0
LINE
  5
83BA
330
1E
100
AcDbEntity
  8
003
 62
     3
100
AcDbLine
 10
-2996.985537334015
 20
3662.249022885876
 30
0.0
 11
-2996.714345833668
 21
3659.026757524817
 31
0.0
  0
LINE
  5
83BB
330
1E
100
AcDbEntity
  8
003
 62
     3
100
AcDbLine
 10
-2996.985537334015
 20
3662.249022885876
 30
0.0
 11
-2996.71434583367
 21
3659.026757524817
 31
0.0
  0
LINE
  5
83BC
330
1E
100
AcDbEntity
  8
003
 62
     3
100
AcDbLine
 10
-2999.7370054945
 20
3677.144922503955
 30
0.0
 11
-3001.069108443003
 21
3675.228741660786
 31
0.0
  0
LINE
  5
83BD
330
1E
100
AcDbEntity
  8
003
 62
     3
100
AcDbLine
 10
-2999.7370054945
 20
3677.144922503955
 30
0.0
 11
-3001.069108443005
 21
3675.228741660786
 31
0.0
  0
LINE
  5
83BE
330
1E
100
AcDbEntity
  8
003
 62
     3
100
AcDbLine
 10
-3001.069108443003
 20
3675.228741660786
 30
0.0
 11
-3001.172073587171
 21
3672.345066870791
 31
0.0
  0
LINE
  5
83BF
330
1E
100
AcDbEntity
  8
003
 62
     3
100
AcDbLine
 10
-3001.069108443005
 20
3675.228741660786
 30
0.0
 11
-3001.172073587171
 21
3672.345066870791
 31
0.0
  0
LINE
  5
83C0
330
1E
100
AcDbEntity
  8
003
 62
     3
100
AcDbLine
 10
-3003.959490108291
 20
3649.910610873535
 30
0.0
 11
-3005.45385847872
 21
3647.618202381821
 31
0.0
  0
LINE
  5
83C1
330
1E
100
AcDbEntity
  8
003
 62
     3
100
AcDbLine
 10
-3003.959490108291
 20
3649.910610873535
 30
0.0
 11
-3005.45385847872
 21
3647.618202381821
 31
0.0
  0
ARC
  5
83C2
330
1E
100
AcDbEntity
  8
002
100
AcDbCircle
 10
-2976.834973710607
 20
3676.967128876036
 30
0.0
 40
2.5
100
AcDbArc
 50
308.1896849999879
 51
31.81031500001687
  0
LINE
  5
83C3
330
1E
100
AcDbEntity
  8
003
 62
     3
100
AcDbLine
 10
-2997.629878713642
 20
3678.861219181374
 30
0.0
 11
-2999.7370054945
 21
3677.144922503955
 31
0.0
  0
LINE
  5
83C4
330
1E
100
AcDbEntity
  8
003
 62
     3
100
AcDbLine
 10
-2997.629878713642
 20
3678.861219181374
 30
0.0
 11
-2999.7370054945
 21
3677.144922503955
 31
0.0
  0
LINE
  5
83C5
330
1E
100
AcDbEntity
  8
003
  6
Continuous
100
AcDbLine
 10
-3257.924792837217
 20
3784.43132530425
 30
0.0
 11
-2971.55582123094
 21
3784.431325304247
 31
0.0
  0
LINE
  5
83C6
330
1E
100
AcDbEntity
  8
003
100
AcDbLine
 10
-3257.748465856509
 20
3979.344030730565
 30
0.0
 11
-3257.748465856509
 21
3760.249071847137
 31
0.0
  0
LINE
  5
83C7
330
1E
100
AcDbEntity
  8
003
100
AcDbLine
 10
-3257.748465856509
 20
4025.946067730567
 30
0.0
 11
-3238.024582856509
 21
4025.946067730567
 31
0.0
  0
LINE
  5
83C8
330
1E
100
AcDbEntity
  8
003
100
AcDbLine
 10
-3238.024582856509
 20
4025.946067730567
 30
0.0
 11
-3276.148863856509
 21
3979.344030730565
 31
0.0
  0
LINE
  5
83C9
330
1E
100
AcDbEntity
  8
003
100
AcDbLine
 10
-3276.148863856509
 20
3979.344030730565
 30
0.0
 11
-3257.748465856509
 21
3979.344030730565
 31
0.0
  0
LINE
  5
83CA
330
1E
100
AcDbEntity
  8
003
 62
     3
100
AcDbLine
 10
-2974.322328612666
 20
3783.241646817804
 30
0.0
 11
-2975.030571690789
 21
3781.19194333612
 31
0.0
  0
LINE
  5
83CB
330
1E
100
AcDbEntity
  8
003
 62
     3
100
AcDbLine
 10
-2974.523034739601
 20
3784.431325304248
 30
0.0
 11
-2974.322328612666
 21
3783.241646817804
 31
0.0
  0
LINE
  5
83CC
330
1E
100
AcDbEntity
  8
003
 62
     3
100
AcDbLine
 10
-2974.88544417761
 20
3781.61195219782
 30
0.0
 11
-2975.030571690789
 21
3781.19194333612
 31
0.0
  0
LINE
  5
83CD
330
1E
100
AcDbEntity
  8
003
 62
     3
100
AcDbLine
 10
-2974.523034739601
 20
3784.431325304248
 30
0.0
 11
-2974.322328612666
 21
3783.241646817803
 31
0.0
  0
LINE
  5
83CE
330
1E
100
AcDbEntity
  8
003
 62
     3
100
AcDbLine
 10
-2976.512814831025
 20
3779.268914019945
 30
0.0
 11
-2978.32279976196
 21
3777.383923361148
 31
0.0
  0
LINE
  5
83CF
330
1E
100
AcDbEntity
  8
003
100
AcDbLine
 10
-2978.32279976196
 20
3777.383923361148
 30
0.0
 11
-2980.014266589854
 21
3775.448333534686
 31
0.0
  0
LINE
  5
83D0
330
1E
100
AcDbEntity
  8
003
 62
     3
100
AcDbLine
 10
-2978.32279976196
 20
3777.383923361148
 30
0.0
 11
-2980.014266589856
 21
3775.448333534686
 31
0.0
  0
LINE
  5
83D1
330
1E
100
AcDbEntity
  8
003
 62
     3
100
AcDbLine
 10
-2980.525051630415
 20
3767.326773682965
 30
0.0
 11
-2979.420529252489
 21
3764.151417590819
 31
0.0
  0
LINE
  5
83D2
330
1E
100
AcDbEntity
  8
003
 62
     3
100
AcDbLine
 10
-2980.014266589854
 20
3775.448333534686
 30
0.0
 11
-2981.140953451364
 21
3773.373506368217
 31
0.0
  0
LINE
  5
83D3
330
1E
100
AcDbEntity
  8
003
 62
     3
100
AcDbLine
 10
-2980.525051630415
 20
3767.326773682965
 30
0.0
 11
-2979.420529252489
 21
3764.151417590819
 31
0.0
  0
LINE
  5
83D4
330
1E
100
AcDbEntity
  8
003
 62
     3
100
AcDbLine
 10
-2980.014266589856
 20
3775.448333534686
 30
0.0
 11
-2981.140953451364
 21
3773.373506368217
 31
0.0
  0
LINE
  5
83D5
330
1E
100
AcDbEntity
  8
003
 62
     3
100
AcDbLine
 10
-2981.318731682715
 20
3770.454106997829
 30
0.0
 11
-2980.525051630415
 21
3767.326773682965
 31
0.0
  0
LINE
  5
83D6
330
1E
100
AcDbEntity
  8
003
 62
     3
100
AcDbLine
 10
-2981.140953451364
 20
3773.373506368217
 30
0.0
 11
-2981.318731682715
 21
3770.454106997829
 31
0.0
  0
LINE
  5
83D7
330
1E
100
AcDbEntity
  8
003
 62
     3
100
AcDbLine
 10
-2981.318731682715
 20
3770.454106997829
 30
0.0
 11
-2980.525051630415
 21
3767.326773682965
 31
0.0
  0
LINE
  5
83D8
330
1E
100
AcDbEntity
  8
003
 62
     3
100
AcDbLine
 10
-2981.140953451364
 20
3773.373506368217
 30
0.0
 11
-2981.318731682715
 21
3770.454106997829
 31
0.0
  0
LINE
  5
83D9
330
1E
100
AcDbEntity
  8
003
 62
     3
100
AcDbLine
 10
-2971.55582123094
 20
3784.431325304247
 30
0.0
 11
-2978.32279976196
 21
3777.383923361148
 31
0.0
  0
LINE
  5
83DA
330
1E
100
AcDbEntity
  8
003
 62
     3
100
AcDbLine
 10
-2975.030571690789
 20
3781.19194333612
 30
0.0
 11
-2976.512814831025
 21
3779.268914019945
 31
0.0
  0
LINE
  5
83DB
330
1E
100
AcDbEntity
  8
003
 62
     3
100
AcDbLine
 10
-2975.030571690789
 20
3781.19194333612
 30
0.0
 11
-2976.512814831025
 21
3779.268914019945
 31
0.0
  0
ARC
  5
83DC
330
1E
100
AcDbEntity
  8
002
100
AcDbCircle
 10
-2965.113721718089
 20
3743.44165220436
 30
0.0
 40
2.5
100
AcDbArc
 50
128.1896849999879
 51
211.8103150000168
  0
LINE
  5
83DD
330
1E
100
AcDbEntity
  8
003
 62
     3
100
AcDbLine
 10
-2978.921414401137
 20
3758.296286610436
 30
0.0
 11
-2980.181587542402
 21
3756.316891927044
 31
0.0
  0
LINE
  5
83DE
330
1E
100
AcDbEntity
  8
003
 62
     3
100
AcDbLine
 10
-2978.921414401138
 20
3758.296286610435
 30
0.0
 11
-2980.181587542402
 21
3756.316891927044
 31
0.0
  0
LINE
  5
83DF
330
1E
100
AcDbEntity
  8
003
 62
     3
100
AcDbLine
 10
-2986.799664339278
 20
3746.352282088681
 30
0.0
 11
-2985.722021736666
 21
3743.52791493112
 31
0.0
  0
LINE
  5
83E0
330
1E
100
AcDbEntity
  8
003
 62
     3
100
AcDbLine
 10
-2986.799664339278
 20
3746.352282088681
 30
0.0
 11
-2985.722021736668
 21
3743.527914931118
 31
0.0
  0
LINE
  5
83E1
330
1E
100
AcDbEntity
  8
003
 62
     3
100
AcDbLine
 10
-2984.347622430043
 20
3740.628708536521
 30
0.0
 11
-2983.332555788478
 21
3737.806654725494
 31
0.0
  0
LINE
  5
83E2
330
1E
100
AcDbEntity
  8
003
 62
     3
100
AcDbLine
 10
-2984.347622430043
 20
3740.628708536521
 30
0.0
 11
-2983.33255578848
 21
3737.806654725494
 31
0.0
  0
LINE
  5
83E3
330
1E
100
AcDbEntity
  8
003
 62
     3
100
AcDbLine
 10
-2985.722021736666
 20
3743.52791493112
 30
0.0
 11
-2984.347622430043
 21
3740.628708536521
 31
0.0
  0
LINE
  5
83E4
330
1E
100
AcDbEntity
  8
003
 62
     3
100
AcDbLine
 10
-2985.722021736668
 20
3743.527914931118
 30
0.0
 11
-2984.347622430043
 21
3740.628708536521
 31
0.0
  0
LINE
  5
83E5
330
1E
100
AcDbEntity
  8
003
 62
     3
100
AcDbLine
 10
-2983.332555788478
 20
3737.806654725494
 30
0.0
 11
-2983.332914830061
 21
3735.213741900353
 31
0.0
  0
LINE
  5
83E6
330
1E
100
AcDbEntity
  8
003
 62
     3
100
AcDbLine
 10
-2983.33255578848
 20
3737.806654725494
 30
0.0
 11
-2983.332914830061
 21
3735.213741900353
 31
0.0
  0
LINE
  5
83E7
330
1E
100
AcDbEntity
  8
003
 62
     3
100
AcDbLine
 10
-2984.131711390961
 20
3752.749641180496
 30
0.0
 11
-2985.902536988215
 21
3750.935399409343
 31
0.0
  0
LINE
  5
83E8
330
1E
100
AcDbEntity
  8
003
 62
     3
100
AcDbLine
 10
-2984.131711390961
 20
3752.749641180496
 30
0.0
 11
-2985.902536988215
 21
3750.935399409343
 31
0.0
  0
LINE
  5
83E9
330
1E
100
AcDbEntity
  8
003
 62
     3
100
AcDbLine
 10
-2986.924457393435
 20
3748.949820622081
 30
0.0
 11
-2986.799664339278
 21
3746.352282088681
 31
0.0
  0
LINE
  5
83EA
330
1E
100
AcDbEntity
  8
003
 62
     3
100
AcDbLine
 10
-2985.902536988215
 20
3750.935399409343
 30
0.0
 11
-2986.924457393435
 21
3748.949820622081
 31
0.0
  0
LINE
  5
83EB
330
1E
100
AcDbEntity
  8
003
 62
     3
100
AcDbLine
 10
-2986.924457393435
 20
3748.949820622081
 30
0.0
 11
-2986.799664339278
 21
3746.352282088681
 31
0.0
  0
LINE
  5
83EC
330
1E
100
AcDbEntity
  8
003
 62
     3
100
AcDbLine
 10
-2985.902536988215
 20
3750.935399409343
 30
0.0
 11
-2986.924457393435
 21
3748.949820622081
 31
0.0
  0
LINE
  5
83ED
330
1E
100
AcDbEntity
  8
003
 62
     3
100
AcDbLine
 10
-2982.071540347376
 20
3754.505740325035
 30
0.0
 11
-2984.131711390961
 21
3752.749641180496
 31
0.0
  0
LINE
  5
83EE
330
1E
100
AcDbEntity
  8
003
 62
     3
100
AcDbLine
 10
-2982.071540347376
 20
3754.505740325035
 30
0.0
 11
-2984.131711390961
 21
3752.749641180496
 31
0.0
  0
LINE
  5
83EF
330
1E
100
AcDbEntity
  8
003
 62
     3
100
AcDbLine
 10
-2980.181587542402
 20
3756.316891927044
 30
0.0
 11
-2982.071540347376
 21
3754.505740325035
 31
0.0
  0
LINE
  5
83F0
330
1E
100
AcDbEntity
  8
003
 62
     3
100
AcDbLine
 10
-2980.181587542402
 20
3756.316891927044
 30
0.0
 11
-2982.071540347376
 21
3754.505740325035
 31
0.0
  0
LINE
  5
83F1
330
1E
100
AcDbEntity
  8
003
100
AcDbLine
 10
-2978.665778190055
 20
3761.087951510911
 30
0.0
 11
-2978.921414401137
 21
3758.296286610436
 31
0.0
  0
LINE
  5
83F2
330
1E
100
AcDbEntity
  8
003
 62
     3
100
AcDbLine
 10
-2978.665778190055
 20
3761.087951510911
 30
0.0
 11
-2978.921414401138
 21
3758.296286610435
 31
0.0
  0
LINE
  5
83F3
330
1E
100
AcDbEntity
  8
003
 62
     3
100
AcDbLine
 10
-2979.420529252489
 20
3764.151417590819
 30
0.0
 11
-2978.665778190055
 21
3761.087951510911
 31
0.0
  0
LINE
  5
83F4
330
1E
100
AcDbEntity
  8
003
 62
     3
100
AcDbLine
 10
-2979.420529252489
 20
3764.151417590819
 30
0.0
 11
-2978.665778190055
 21
3761.087951510911
 31
0.0
  0
LINE
  5
83F5
330
1E
100
AcDbEntity
  8
002
100
AcDbLine
 10
-2969.842938989304
 20
3727.35176360367
 30
0.0
 11
-2966.89631110938
 21
3722.601250067091
 31
0.0
  0
ARC
  5
83F6
330
1E
100
AcDbEntity
  8
002
100
AcDbCircle
 10
-2967.718444383092
 20
3728.669535909176
 30
0.0
 40
2.5
100
AcDbArc
 50
128.1896849999879
 51
211.8103150000168
  0
LINE
  5
83F7
330
1E
100
AcDbEntity
  8
003
 62
     3
100
AcDbLine
 10
-2988.443379698172
 20
3729.733394013047
 30
0.0
 11
-2990.243168174545
 21
3727.944860154023
 31
0.0
  0
LINE
  5
83F8
330
1E
100
AcDbEntity
  8
003
 62
     3
100
AcDbLine
 10
-2988.443379698172
 20
3729.733394013047
 30
0.0
 11
-2990.243168174545
 21
3727.944860154023
 31
0.0
  0
LINE
  5
83F9
330
1E
100
AcDbEntity
  8
003
 62
     3
100
AcDbLine
 10
-2991.250266472338
 20
3725.989543281297
 30
0.0
 11
-2991.05329387669
 21
3723.551280661065
 31
0.0
  0
LINE
  5
83FA
330
1E
100
AcDbEntity
  8
003
 62
     3
100
AcDbLine
 10
-2990.243168174545
 20
3727.944860154023
 30
0.0
 11
-2991.250266472338
 21
3725.989543281297
 31
0.0
  0
LINE
  5
83FB
330
1E
100
AcDbEntity
  8
003
 62
     3
100
AcDbLine
 10
-2991.250266472338
 20
3725.989543281297
 30
0.0
 11
-2991.053293876692
 21
3723.551280661065
 31
0.0
  0
LINE
  5
83FC
330
1E
100
AcDbEntity
  8
003
 62
     3
100
AcDbLine
 10
-2990.243168174545
 20
3727.944860154023
 30
0.0
 11
-2991.250266472338
 21
3725.989543281297
 31
0.0
  0
LINE
  5
83FD
330
1E
100
AcDbEntity
  8
003
 62
     3
100
AcDbLine
 10
-2984.483748364568
 20
3733.256290968392
 30
0.0
 11
-2986.355404053718
 21
3731.466689500524
 31
0.0
  0
LINE
  5
83FE
330
1E
100
AcDbEntity
  8
003
 62
     3
100
AcDbLine
 10
-2984.483748364568
 20
3733.256290968392
 30
0.0
 11
-2986.355404053718
 21
3731.466689500524
 31
0.0
  0
LINE
  5
83FF
330
1E
100
AcDbEntity
  8
003
 62
     3
100
AcDbLine
 10
-2986.355404053718
 20
3731.466689500524
 30
0.0
 11
-2988.443379698172
 21
3729.733394013047
 31
0.0
  0
LINE
  5
8400
330
1E
100
AcDbEntity
  8
003
 62
     3
100
AcDbLine
 10
-2986.355404053718
 20
3731.466689500524
 30
0.0
 11
-2988.443379698172
 21
3729.733394013047
 31
0.0
  0
LINE
  5
8401
330
1E
100
AcDbEntity
  8
003
 62
     3
100
AcDbLine
 10
-2983.332914830061
 20
3735.213741900353
 30
0.0
 11
-2984.483748364568
 21
3733.256290968392
 31
0.0
  0
LINE
  5
8402
330
1E
100
AcDbEntity
  8
003
 62
     3
100
AcDbLine
 10
-2983.332914830061
 20
3735.213741900353
 30
0.0
 11
-2984.483748364568
 21
3733.256290968392
 31
0.0
  0
LINE
  5
8403
330
1E
100
AcDbEntity
  8
003
100
AcDbLine
 10
-2983.272683961553
 20
4108.993448075973
 30
0.0
 11
-2966.373307950434
 21
4115.191114710189
 31
0.0
  0
LINE
  5
8404
330
1E
100
AcDbEntity
  8
003
 62
     3
100
AcDbLine
 10
-2858.774656447691
 20
3723.778018991978
 30
0.0
 11
-2857.697013845079
 21
3720.953651834419
 31
0.0
  0
LINE
  5
8405
330
1E
100
AcDbEntity
  8
003
 62
     3
100
AcDbLine
 10
-2858.774656447691
 20
3723.778018991978
 30
0.0
 11
-2857.697013845081
 21
3720.953651834419
 31
0.0
  0
LINE
  5
8406
330
1E
100
AcDbEntity
  8
002
100
AcDbLine
 10
-2876.098734734259
 20
3726.053530286746
 30
0.0
 11
-2873.152106854335
 21
3721.303016750169
 31
0.0
  0
ARC
  5
8407
330
1E
100
AcDbEntity
  8
002
100
AcDbCircle
 10
-2765.739284569846
 20
3410.050144455355
 30
0.0
 40
87.0
100
AcDbArc
 50
105.6511020000046
 51
134.3488979999731
  0
LINE
  5
8408
330
1E
100
AcDbEntity
  8
004
  6
CENTER
100
AcDbLine
 10
-2866.258359569847
 20
3410.050144455355
 30
0.0
 11
-2665.225169569847
 21
3410.050144455355
 31
0.0
  0
CIRCLE
  5
8409
330
1E
100
AcDbEntity
  8
002
100
AcDbCircle
 10
-2765.739284569846
 20
3410.050144455355
 30
0.0
 40
77.5
  0
CIRCLE
  5
840A
330
1E
100
AcDbEntity
  8
002
100
AcDbCircle
 10
-2765.739284569846
 20
3410.050144455355
 30
0.0
 40
80.0
  0
CIRCLE
  5
840B
330
1E
100
AcDbEntity
  8
002
100
AcDbCircle
 10
-2765.739284569846
 20
3410.050144455355
 30
0.0
 40
81.0
  0
CIRCLE
  5
840C
330
1E
100
AcDbEntity
  8
002
100
AcDbCircle
 10
-2765.739284569846
 20
3410.050144455355
 30
0.0
 40
82.5
  0
ARC
  5
840D
330
1E
100
AcDbEntity
  8
002
100
AcDbCircle
 10
-2765.739284569846
 20
3410.050144455355
 30
0.0
 40
87.0
100
AcDbArc
 50
225.6511020000268
 51
254.3488979999954
  0
ARC
  5
840E
330
1E
100
AcDbEntity
  8
002
100
AcDbCircle
 10
-2765.739284569846
 20
3410.050144455355
 30
0.0
 40
90.0
100
AcDbArc
 50
195.6437860000237
 51
224.3562140000203
  0
ARC
  5
840F
330
1E
100
AcDbEntity
  8
002
100
AcDbCircle
 10
-2829.374921569846
 20
3347.828720455353
 30
0.0
 40
1.0
100
AcDbArc
 50
224.3562140000203
 51
315.0
  0
LINE
  5
8410
330
1E
100
AcDbEntity
  8
002
100
AcDbLine
 10
-2827.960663569845
 20
3347.828765455354
 30
0.0
 11
-2828.667814569845
 21
3347.121613455355
 31
0.0
  0
ARC
  5
8411
330
1E
100
AcDbEntity
  8
002
100
AcDbCircle
 10
-2827.253556569845
 20
3347.121658455354
 30
0.0
 40
1.0
100
AcDbArc
 50
45.65110200002686
 51
135.0
  0
ARC
  5
8412
330
1E
100
AcDbEntity
  8
002
100
AcDbCircle
 10
-2765.739284569846
 20
3410.050144455355
 30
0.0
 40
90.0
100
AcDbArc
 50
135.6437859999796
 51
164.3562139999762
  0
LINE
  5
8413
330
1E
100
AcDbEntity
  8
002
100
AcDbLine
 10
-2850.735268569846
 20
3432.824749455353
 30
0.0
 11
-2851.701255569846
 21
3433.083585455355
 31
0.0
  0
ARC
  5
8414
330
1E
100
AcDbEntity
  8
002
100
AcDbCircle
 10
-2851.442436569847
 20
3434.049510455355
 30
0.0
 40
1.0
100
AcDbArc
 50
164.3562139999762
 51
255.0000000000055
  0
ARC
  5
8415
330
1E
100
AcDbEntity
  8
002
100
AcDbCircle
 10
-2850.994087569846
 20
3431.858823455355
 30
0.0
 40
1.0
100
AcDbArc
 50
345.651102000018
 51
75.00000000000555
  0
LINE
  5
8416
330
1E
100
AcDbEntity
  8
002
100
AcDbLine
 10
-2850.735268569846
 20
3387.275538455354
 30
0.0
 11
-2851.701255569846
 21
3387.016703455353
 31
0.0
  0
ARC
  5
8417
330
1E
100
AcDbEntity
  8
002
100
AcDbCircle
 10
-2851.442436569847
 20
3386.050777455354
 30
0.0
 40
1.0
100
AcDbArc
 50
104.9999999999944
 51
195.6437860000237
  0
ARC
  5
8418
330
1E
100
AcDbEntity
  8
002
100
AcDbCircle
 10
-2850.994087569846
 20
3388.241464455354
 30
0.0
 40
1.0
100
AcDbArc
 50
284.9999999999944
 51
14.34889799998198
  0
ARC
  5
8419
330
1E
100
AcDbEntity
  8
002
100
AcDbCircle
 10
-2765.739284569846
 20
3410.050144455355
 30
0.0
 40
87.0
100
AcDbArc
 50
165.651102000018
 51
194.3488979999819
  0
LINE
  5
841A
330
1E
100
AcDbEntity
  8
002
100
AcDbLine
 10
-2827.960663569845
 20
3472.271523455354
 30
0.0
 11
-2828.667814569845
 21
3472.978675455355
 31
0.0
  0
ARC
  5
841B
330
1E
100
AcDbEntity
  8
002
100
AcDbCircle
 10
-2829.374921569846
 20
3472.271568455354
 30
0.0
 40
1.0
100
AcDbArc
 50
45.0
 51
135.6437859999796
  0
ARC
  5
841C
330
1E
100
AcDbEntity
  8
002
100
AcDbCircle
 10
-2827.253556569845
 20
3472.978629455354
 30
0.0
 40
1.0
100
AcDbArc
 50
225.0
 51
314.3488979999731
  0
ARC
  5
841D
330
1E
100
AcDbEntity
  8
002
100
AcDbCircle
 10
-2881.788408123057
 20
3683.054953706704
 30
0.0
 40
2.5
100
AcDbArc
 50
128.1896849999879
 51
211.8103150000168
  0
ARC
  5
841E
330
1E
100
AcDbEntity
  8
002
100
AcDbCircle
 10
-2875.276601460548
 20
3719.985244444662
 30
0.0
 40
2.5
100
AcDbArc
 50
308.1896849999879
 51
31.81031500001687
  0
LINE
  5
841F
330
1E
100
AcDbEntity
  8
003
 62
     3
100
AcDbLine
 10
-2855.307906938475
 20
3712.639478803652
 30
0.0
 11
-2856.458740472981
 21
3710.682027871693
 31
0.0
  0
LINE
  5
8420
330
1E
100
AcDbEntity
  8
003
 62
     3
100
AcDbLine
 10
-2855.307906938475
 20
3712.639478803652
 30
0.0
 11
-2856.458740472981
 21
3710.682027871693
 31
0.0
  0
LINE
  5
8421
330
1E
100
AcDbEntity
  8
003
 62
     3
100
AcDbLine
 10
-2856.458740472981
 20
3710.682027871693
 30
0.0
 11
-2858.330396162131
 21
3708.892426403824
 31
0.0
  0
LINE
  5
8422
330
1E
100
AcDbEntity
  8
003
 62
     3
100
AcDbLine
 10
-2856.458740472981
 20
3710.682027871693
 30
0.0
 11
-2858.330396162131
 21
3708.892426403822
 31
0.0
  0
LINE
  5
8423
330
1E
100
AcDbEntity
  8
003
 62
     3
100
AcDbLine
 10
-2855.307547896891
 20
3715.232391628792
 30
0.0
 11
-2855.307906938475
 21
3712.639478803652
 31
0.0
  0
LINE
  5
8424
330
1E
100
AcDbEntity
  8
003
 62
     3
100
AcDbLine
 10
-2856.322614538456
 20
3718.054445439821
 30
0.0
 11
-2855.307547896891
 21
3715.232391628792
 31
0.0
  0
LINE
  5
8425
330
1E
100
AcDbEntity
  8
003
 62
     3
100
AcDbLine
 10
-2855.307547896893
 20
3715.232391628792
 30
0.0
 11
-2855.307906938475
 21
3712.639478803652
 31
0.0
  0
LINE
  5
8426
330
1E
100
AcDbEntity
  8
003
 62
     3
100
AcDbLine
 10
-2856.322614538456
 20
3718.05444543982
 30
0.0
 11
-2855.307547896893
 21
3715.232391628792
 31
0.0
  0
LINE
  5
8427
330
1E
100
AcDbEntity
  8
003
 62
     3
100
AcDbLine
 10
-2857.697013845079
 20
3720.953651834419
 30
0.0
 11
-2856.322614538456
 21
3718.054445439821
 31
0.0
  0
LINE
  5
8428
330
1E
100
AcDbEntity
  8
003
 62
     3
100
AcDbLine
 10
-2857.697013845081
 20
3720.953651834419
 30
0.0
 11
-2856.322614538456
 21
3718.05444543982
 31
0.0
  0
LINE
  5
8429
330
1E
100
AcDbEntity
  8
003
 62
     3
100
AcDbLine
 10
-2858.330396162131
 20
3708.892426403824
 30
0.0
 11
-2860.418371806585
 21
3707.159130916348
 31
0.0
  0
LINE
  5
842A
330
1E
100
AcDbEntity
  8
003
 62
     3
100
AcDbLine
 10
-2858.330396162131
 20
3708.892426403822
 30
0.0
 11
-2860.418371806585
 21
3707.159130916348
 31
0.0
  0
LINE
  5
842B
330
1E
100
AcDbEntity
  8
003
 62
     3
100
AcDbLine
 10
-2863.028285985103
 20
3700.977017564364
 30
0.0
 11
-2861.88047464432
 21
3698.340977850326
 31
0.0
  0
LINE
  5
842C
330
1E
100
AcDbEntity
  8
003
 62
     3
100
AcDbLine
 10
-2863.028285985105
 20
3700.977017564364
 30
0.0
 11
-2861.88047464432
 21
3698.340977850326
 31
0.0
  0
LINE
  5
842D
330
1E
100
AcDbEntity
  8
003
 62
     3
100
AcDbLine
 10
-2859.255373908441
 20
3693.041858359223
 30
0.0
 11
-2859.039600417547
 21
3690.661922106371
 31
0.0
  0
LINE
  5
842E
330
1E
100
AcDbEntity
  8
003
 62
     3
100
AcDbLine
 10
-2859.255373908443
 20
3693.041858359223
 30
0.0
 11
-2859.039600417547
 21
3690.661922106371
 31
0.0
  0
LINE
  5
842F
330
1E
100
AcDbEntity
  8
003
 62
     3
100
AcDbLine
 10
-2867.18972435889
 20
3682.130607436956
 30
0.0
 11
-2867.712054744714
 21
3678.349531111174
 31
0.0
  0
LINE
  5
8430
330
1E
100
AcDbEntity
  8
003
 62
     3
100
AcDbLine
 10
-2865.744926841275
 20
3683.940363238043
 30
0.0
 11
-2867.18972435889
 21
3682.130607436956
 31
0.0
  0
LINE
  5
8431
330
1E
100
AcDbEntity
  8
003
 62
     3
100
AcDbLine
 10
-2863.771722783745
 20
3685.586212091575
 30
0.0
 11
-2865.744926841275
 21
3683.940363238043
 31
0.0
  0
LINE
  5
8432
330
1E
100
AcDbEntity
  8
003
 62
     3
100
AcDbLine
 10
-2861.705904210508
 20
3687.18031547324
 30
0.0
 11
-2863.771722783745
 21
3685.586212091575
 31
0.0
  0
LINE
  5
8433
330
1E
100
AcDbEntity
  8
003
 62
     3
100
AcDbLine
 10
-2859.983265636337
 20
3688.834832251599
 30
0.0
 11
-2861.705904210508
 21
3687.18031547324
 31
0.0
  0
LINE
  5
8434
330
1E
100
AcDbEntity
  8
003
 62
     3
100
AcDbLine
 10
-2861.88047464432
 20
3698.340977850326
 30
0.0
 11
-2860.412585291271
 21
3695.648734310343
 31
0.0
  0
LINE
  5
8435
330
1E
100
AcDbEntity
  8
003
 62
     3
100
AcDbLine
 10
-2867.18972435889
 20
3682.130607436956
 30
0.0
 11
-2867.712054744714
 21
3678.349531111174
 31
0.0
  0
LINE
  5
8436
330
1E
100
AcDbEntity
  8
003
 62
     3
100
AcDbLine
 10
-2865.744926841275
 20
3683.940363238043
 30
0.0
 11
-2867.18972435889
 21
3682.130607436956
 31
0.0
  0
LINE
  5
8437
330
1E
100
AcDbEntity
  8
003
 62
     3
100
AcDbLine
 10
-2863.771722783745
 20
3685.586212091575
 30
0.0
 11
-2865.744926841275
 21
3683.940363238043
 31
0.0
  0
LINE
  5
8438
330
1E
100
AcDbEntity
  8
003
 62
     3
100
AcDbLine
 10
-2861.70590421051
 20
3687.18031547324
 30
0.0
 11
-2863.771722783745
 21
3685.586212091575
 31
0.0
  0
LINE
  5
8439
330
1E
100
AcDbEntity
  8
003
 62
     3
100
AcDbLine
 10
-2859.983265636339
 20
3688.834832251599
 30
0.0
 11
-2861.70590421051
 21
3687.18031547324
 31
0.0
  0
LINE
  5
843A
330
1E
100
AcDbEntity
  8
003
 62
     3
100
AcDbLine
 10
-2861.88047464432
 20
3698.340977850326
 30
0.0
 11
-2860.412585291271
 21
3695.648734310341
 31
0.0
  0
LINE
  5
843B
330
1E
100
AcDbEntity
  8
003
 62
     3
100
AcDbLine
 10
-2859.039600417547
 20
3690.661922106371
 30
0.0
 11
-2859.983265636337
 21
3688.834832251599
 31
0.0
  0
LINE
  5
843C
330
1E
100
AcDbEntity
  8
003
 62
     3
100
AcDbLine
 10
-2860.412585291271
 20
3695.648734310343
 30
0.0
 11
-2859.255373908441
 21
3693.041858359223
 31
0.0
  0
LINE
  5
843D
330
1E
100
AcDbEntity
  8
003
 62
     3
100
AcDbLine
 10
-2859.039600417547
 20
3690.661922106371
 30
0.0
 11
-2859.983265636339
 21
3688.834832251599
 31
0.0
  0
LINE
  5
843E
330
1E
100
AcDbEntity
  8
003
 62
     3
100
AcDbLine
 10
-2860.412585291271
 20
3695.648734310341
 30
0.0
 11
-2859.255373908443
 21
3693.041858359223
 31
0.0
  0
LINE
  5
843F
330
1E
100
AcDbEntity
  8
003
 62
     3
100
AcDbLine
 10
-2862.218160282958
 20
3705.370597057324
 30
0.0
 11
-2863.225258580751
 21
3703.415280184596
 31
0.0
  0
LINE
  5
8440
330
1E
100
AcDbEntity
  8
003
 62
     3
100
AcDbLine
 10
-2862.218160282958
 20
3705.370597057324
 30
0.0
 11
-2863.225258580751
 21
3703.415280184596
 31
0.0
  0
LINE
  5
8441
330
1E
100
AcDbEntity
  8
003
 62
     3
100
AcDbLine
 10
-2863.225258580751
 20
3703.415280184596
 30
0.0
 11
-2863.028285985103
 21
3700.977017564364
 31
0.0
  0
LINE
  5
8442
330
1E
100
AcDbEntity
  8
003
 62
     3
100
AcDbLine
 10
-2863.225258580751
 20
3703.415280184596
 30
0.0
 11
-2863.028285985105
 21
3700.977017564364
 31
0.0
  0
LINE
  5
8443
330
1E
100
AcDbEntity
  8
003
 62
     3
100
AcDbLine
 10
-2860.418371806585
 20
3707.159130916348
 30
0.0
 11
-2862.218160282958
 21
3705.370597057324
 31
0.0
  0
LINE
  5
8444
330
1E
100
AcDbEntity
  8
003
 62
     3
100
AcDbLine
 10
-2860.418371806585
 20
3707.159130916348
 30
0.0
 11
-2862.218160282958
 21
3705.370597057324
 31
0.0
  0
LINE
  5
8445
330
1E
100
AcDbEntity
  8
003
 62
     3
100
AcDbLine
 10
-2866.412799372543
 20
3674.057126512641
 30
0.0
 11
-2864.480619862102
 21
3669.603946247254
 31
0.0
  0
LINE
  5
8446
330
1E
100
AcDbEntity
  8
003
 62
     3
100
AcDbLine
 10
-2866.412799372545
 20
3674.057126512639
 30
0.0
 11
-2864.480619862102
 21
3669.603946247254
 31
0.0
  0
LINE
  5
8447
330
1E
100
AcDbEntity
  8
003
 62
     3
100
AcDbLine
 10
-2873.044100551416
 20
3652.654478564085
 30
0.0
 11
-2873.147065695584
 21
3649.770803774092
 31
0.0
  0
LINE
  5
8448
330
1E
100
AcDbEntity
  8
003
 62
     3
100
AcDbLine
 10
-2871.711997602913
 20
3654.570659407255
 30
0.0
 11
-2873.044100551416
 21
3652.654478564085
 31
0.0
  0
LINE
  5
8449
330
1E
100
AcDbEntity
  8
003
 62
     3
100
AcDbLine
 10
-2869.604870822055
 20
3656.286956084673
 30
0.0
 11
-2871.711997602913
 21
3654.570659407255
 31
0.0
  0
LINE
  5
844A
330
1E
100
AcDbEntity
  8
003
 62
     3
100
AcDbLine
 10
-2867.206598713435
 20
3657.941462168531
 30
0.0
 11
-2869.604870822055
 21
3656.286956084673
 31
0.0
  0
LINE
  5
844B
330
1E
100
AcDbEntity
  8
003
 62
     3
100
AcDbLine
 10
-2865.001064068179
 20
3659.672269955997
 30
0.0
 11
-2867.206598713435
 21
3657.941462168531
 31
0.0
  0
LINE
  5
844C
330
1E
100
AcDbEntity
  8
003
 62
     3
100
AcDbLine
 10
-2863.472147707794
 20
3661.617471396942
 30
0.0
 11
-2865.001064068179
 21
3659.672269955997
 31
0.0
  0
LINE
  5
844D
330
1E
100
AcDbEntity
  8
003
 62
     3
100
AcDbLine
 10
-2863.104180787535
 20
3665.340543441858
 30
0.0
 11
-2863.472147707794
 21
3661.617471396942
 31
0.0
  0
LINE
  5
844E
330
1E
100
AcDbEntity
  8
003
 62
     3
100
AcDbLine
 10
-2864.480619862102
 20
3669.603946247254
 30
0.0
 11
-2863.104180787535
 21
3665.340543441858
 31
0.0
  0
LINE
  5
844F
330
1E
100
AcDbEntity
  8
003
 62
     3
100
AcDbLine
 10
-2873.044100551416
 20
3652.654478564085
 30
0.0
 11
-2873.147065695584
 21
3649.770803774092
 31
0.0
  0
LINE
  5
8450
330
1E
100
AcDbEntity
  8
003
 62
     3
100
AcDbLine
 10
-2871.711997602913
 20
3654.570659407255
 30
0.0
 11
-2873.044100551416
 21
3652.654478564085
 31
0.0
  0
LINE
  5
8451
330
1E
100
AcDbEntity
  8
003
 62
     3
100
AcDbLine
 10
-2869.604870822055
 20
3656.286956084673
 30
0.0
 11
-2871.711997602913
 21
3654.570659407255
 31
0.0
  0
LINE
  5
8452
330
1E
100
AcDbEntity
  8
003
 62
     3
100
AcDbLine
 10
-2867.206598713435
 20
3657.941462168531
 30
0.0
 11
-2869.604870822055
 21
3656.286956084673
 31
0.0
  0
LINE
  5
8453
330
1E
100
AcDbEntity
  8
003
 62
     3
100
AcDbLine
 10
-2865.001064068179
 20
3659.672269955997
 30
0.0
 11
-2867.206598713435
 21
3657.941462168531
 31
0.0
  0
LINE
  5
8454
330
1E
100
AcDbEntity
  8
003
 62
     3
100
AcDbLine
 10
-2863.472147707794
 20
3661.617471396942
 30
0.0
 11
-2865.001064068179
 21
3659.672269955997
 31
0.0
  0
LINE
  5
8455
330
1E
100
AcDbEntity
  8
003
 62
     3
100
AcDbLine
 10
-2863.104180787535
 20
3665.340543441858
 30
0.0
 11
-2863.472147707794
 21
3661.617471396942
 31
0.0
  0
LINE
  5
8456
330
1E
100
AcDbEntity
  8
003
 62
     3
100
AcDbLine
 10
-2864.480619862102
 20
3669.603946247254
 30
0.0
 11
-2863.104180787535
 21
3665.340543441858
 31
0.0
  0
LINE
  5
8457
330
1E
100
AcDbEntity
  8
003
 62
     3
100
AcDbLine
 10
-2870.318441162215
 20
3643.09351729314
 30
0.0
 11
-2868.960529442429
 21
3639.674759789176
 31
0.0
  0
LINE
  5
8458
330
1E
100
AcDbEntity
  8
003
 62
     3
100
AcDbLine
 10
-2870.318441162217
 20
3643.09351729314
 30
0.0
 11
-2868.960529442429
 21
3639.674759789175
 31
0.0
  0
LINE
  5
8459
330
1E
100
AcDbEntity
  8
003
 62
     3
100
AcDbLine
 10
-2871.596402854944
 20
3631.720299275035
 30
0.0
 11
-2873.828826706793
 21
3629.530997190691
 31
0.0
  0
LINE
  5
845A
330
1E
100
AcDbEntity
  8
003
 62
     3
100
AcDbLine
 10
-2869.721733281374
 20
3633.996661375114
 30
0.0
 11
-2871.596402854944
 21
3631.720299275035
 31
0.0
  0
LINE
  5
845B
330
1E
100
AcDbEntity
  8
003
 62
     3
100
AcDbLine
 10
-2868.689337942081
 20
3636.452494428116
 30
0.0
 11
-2869.721733281374
 21
3633.996661375114
 31
0.0
  0
LINE
  5
845C
330
1E
100
AcDbEntity
  8
003
 62
     3
100
AcDbLine
 10
-2868.960529442429
 20
3639.674759789176
 30
0.0
 11
-2868.689337942081
 21
3636.452494428116
 31
0.0
  0
LINE
  5
845D
330
1E
100
AcDbEntity
  8
003
 62
     3
100
AcDbLine
 10
-2871.596402854946
 20
3631.720299275035
 30
0.0
 11
-2873.828826706793
 21
3629.530997190691
 31
0.0
  0
LINE
  5
845E
330
1E
100
AcDbEntity
  8
003
 62
     3
100
AcDbLine
 10
-2869.721733281374
 20
3633.996661375114
 30
0.0
 11
-2871.596402854946
 21
3631.720299275035
 31
0.0
  0
LINE
  5
845F
330
1E
100
AcDbEntity
  8
003
 62
     3
100
AcDbLine
 10
-2868.689337942083
 20
3636.452494428116
 30
0.0
 11
-2869.721733281374
 21
3633.996661375114
 31
0.0
  0
LINE
  5
8460
330
1E
100
AcDbEntity
  8
003
 62
     3
100
AcDbLine
 10
-2868.960529442429
 20
3639.674759789175
 30
0.0
 11
-2868.689337942083
 21
3636.452494428116
 31
0.0
  0
LINE
  5
8461
330
1E
100
AcDbEntity
  8
003
 62
     3
100
AcDbLine
 10
-2871.976232384881
 20
3646.521341063254
 30
0.0
 11
-2870.318441162215
 21
3643.09351729314
 31
0.0
  0
LINE
  5
8462
330
1E
100
AcDbEntity
  8
003
 62
     3
100
AcDbLine
 10
-2871.976232384881
 20
3646.521341063254
 30
0.0
 11
-2870.318441162217
 21
3643.09351729314
 31
0.0
  0
LINE
  5
8463
330
1E
100
AcDbEntity
  8
003
 62
     3
100
AcDbLine
 10
-2873.147065695584
 20
3649.770803774092
 30
0.0
 11
-2871.976232384881
 21
3646.521341063254
 31
0.0
  0
LINE
  5
8464
330
1E
100
AcDbEntity
  8
003
 62
     3
100
AcDbLine
 10
-2873.147065695584
 20
3649.770803774092
 30
0.0
 11
-2871.976232384881
 21
3646.521341063254
 31
0.0
  0
LINE
  5
8465
330
1E
100
AcDbEntity
  8
003
 62
     3
100
AcDbLine
 10
-2867.712054744714
 20
3678.349531111174
 30
0.0
 11
-2866.412799372543
 21
3674.057126512641
 31
0.0
  0
LINE
  5
8466
330
1E
100
AcDbEntity
  8
003
 62
     3
100
AcDbLine
 10
-2867.712054744714
 20
3678.349531111174
 30
0.0
 11
-2866.412799372545
 21
3674.057126512639
 31
0.0
  0
LINE
  5
8467
330
1E
100
AcDbEntity
  8
002
100
AcDbLine
 10
-2878.703457399262
 20
3711.281413991563
 30
0.0
 11
-2875.756829519339
 21
3706.530900454985
 31
0.0
  0
ARC
  5
8468
330
1E
100
AcDbEntity
  8
002
100
AcDbCircle
 10
-2876.57896279305
 20
3712.59918629707
 30
0.0
 40
2.5
100
AcDbArc
 50
128.1896849999879
 51
211.8103150000168
  0
LINE
  5
8469
330
1E
100
AcDbEntity
  8
002
100
AcDbLine
 10
-2876.335656893994
 20
3703.248207288406
 30
0.0
 11
-2880.729352689612
 21
3699.791990862959
 31
0.0
  0
LINE
  5
846A
330
1E
100
AcDbEntity
  8
002
100
AcDbLine
 10
-2881.308180064266
 20
3696.50929769638
 30
0.0
 11
-2878.361552184342
 21
3691.758784159802
 31
0.0
  0
ARC
  5
846B
330
1E
100
AcDbEntity
  8
002
100
AcDbCircle
 10
-2879.183685458054
 20
3697.827070001887
 30
0.0
 40
2.5
100
AcDbArc
 50
128.1896849999879
 51
211.8103150000168
  0
LINE
  5
846C
330
1E
100
AcDbEntity
  8
002
100
AcDbLine
 10
-2878.940379558999
 20
3688.476090993222
 30
0.0
 11
-2883.334075354616
 21
3685.019874567776
 31
0.0
  0
LINE
  5
846D
330
1E
100
AcDbEntity
  8
002
100
AcDbLine
 10
-2883.912902729271
 20
3681.737181401197
 30
0.0
 11
-2883.092107321013
 21
3680.413906251407
 31
0.0
  0
ARC
  5
846E
330
1E
100
AcDbEntity
  8
002
100
AcDbCircle
 10
-2880.486046790554
 20
3690.441011854295
 30
0.0
 40
2.5
100
AcDbArc
 50
308.1896849999879
 51
31.81031500001687
  0
ARC
  5
846F
330
1E
100
AcDbEntity
  8
002
100
AcDbCircle
 10
-2877.881324125551
 20
3705.213128149478
 30
0.0
 40
2.5
100
AcDbArc
 50
308.1896849999879
 51
31.81031500001687
  0
LINE
  5
8470
330
1E
100
AcDbEntity
  8
003
 62
     3
100
AcDbLine
 10
-2875.934482216704
 20
3627.336347776835
 30
0.0
 11
-2877.428850587131
 21
3625.04393928512
 31
0.0
  0
LINE
  5
8471
330
1E
100
AcDbEntity
  8
003
 62
     3
100
AcDbLine
 10
-2875.934482216706
 20
3627.336347776835
 30
0.0
 11
-2877.428850587133
 21
3625.04393928512
 31
0.0
  0
LINE
  5
8472
330
1E
100
AcDbEntity
  8
002
100
AcDbLine
 10
-2873.73093422899
 20
3718.020323583589
 30
0.0
 11
-2878.124630024607
 21
3714.564107158143
 31
0.0
  0
LINE
  5
8473
330
1E
100
AcDbEntity
  8
003
 62
     3
100
AcDbLine
 10
-2873.828826706793
 20
3629.530997190691
 30
0.0
 11
-2875.934482216704
 21
3627.336347776835
 31
0.0
  0
LINE
  5
8474
330
1E
100
AcDbEntity
  8
003
 62
     3
100
AcDbLine
 10
-2873.828826706793
 20
3629.530997190691
 30
0.0
 11
-2875.934482216706
 21
3627.336347776835
 31
0.0
  0
ARC
  5
8475
330
1E
100
AcDbEntity
  8
002
100
AcDbCircle
 10
-2765.739284569846
 20
3410.050144455355
 30
0.0
 40
87.0
100
AcDbArc
 50
45.65110200002686
 51
74.3488979999954
  0
LINE
  5
8476
330
1E
100
AcDbEntity
  8
004
  6
CENTER
100
AcDbLine
 10
-2765.739284569846
 20
3511.593023455354
 30
0.0
 11
-2765.739284569846
 21
3306.823114455355
 31
0.0
  0
ARC
  5
8477
330
1E
100
AcDbEntity
  8
002
100
AcDbCircle
 10
-2765.739284569846
 20
3410.050144455355
 30
0.0
 40
87.0
100
AcDbArc
 50
285.6511020000045
 51
314.3488979999731
  0
ARC
  5
8478
330
1E
100
AcDbEntity
  8
002
100
AcDbCircle
 10
-2765.739284569846
 20
3410.050144455355
 30
0.0
 40
90.0
100
AcDbArc
 50
255.6437859999947
 51
284.3562140000053
  0
ARC
  5
8479
330
1E
100
AcDbEntity
  8
002
100
AcDbCircle
 10
-2789.479815569846
 20
3325.312978455354
 30
0.0
 40
1.0
100
AcDbArc
 50
345.0000000000055
 51
74.3488979999954
  0
ARC
  5
847A
330
1E
100
AcDbEntity
  8
002
100
AcDbCircle
 10
-2787.806799569846
 20
3323.829353455355
 30
0.0
 40
1.0
100
AcDbArc
 50
165.0000000000055
 51
255.6437859999947
  0
LINE
  5
847B
330
1E
100
AcDbEntity
  8
002
100
AcDbLine
 10
-2788.513889569845
 20
3325.054159455354
 30
0.0
 11
-2788.772725569846
 21
3324.088172455354
 31
0.0
  0
ARC
  5
847C
330
1E
100
AcDbEntity
  8
002
100
AcDbCircle
 10
-2741.998752569847
 20
3325.312978455354
 30
0.0
 40
1.0
100
AcDbArc
 50
105.6511020000046
 51
194.9999999999944
  0
ARC
  5
847D
330
1E
100
AcDbEntity
  8
002
100
AcDbCircle
 10
-2743.671768569845
 20
3323.829353455355
 30
0.0
 40
1.0
100
AcDbArc
 50
284.3562140000053
 51
14.99999999999445
  0
LINE
  5
847E
330
1E
100
AcDbEntity
  8
002
100
AcDbLine
 10
-2742.964678569846
 20
3325.054159455354
 30
0.0
 11
-2742.705843569845
 21
3324.088172455354
 31
0.0
  0
CIRCLE
  5
847F
330
1E
100
AcDbEntity
  8
002
100
AcDbCircle
 10
-2765.739284569846
 20
3410.050144455355
 30
0.0
 40
4.820921
  0
CIRCLE
  5
8480
330
1E
100
AcDbEntity
  8
002
100
AcDbCircle
 10
-2765.739284569846
 20
3410.050144455355
 30
0.0
 40
5.82075
  0
ARC
  5
8481
330
1E
100
AcDbEntity
  8
002
100
AcDbCircle
 10
-2765.739284569846
 20
3410.050144455355
 30
0.0
 40
90.0
100
AcDbArc
 50
315.6437859999797
 51
344.3562139999762
  0
ARC
  5
8482
330
1E
100
AcDbEntity
  8
002
100
AcDbCircle
 10
-2704.225011569846
 20
3347.121658455354
 30
0.0
 40
1.0
100
AcDbArc
 50
45.0
 51
134.3488979999731
  0
ARC
  5
8483
330
1E
100
AcDbEntity
  8
002
100
AcDbCircle
 10
-2702.103646569845
 20
3347.828720455353
 30
0.0
 40
1.0
100
AcDbArc
 50
225.0
 51
315.6437859999797
  0
LINE
  5
8484
330
1E
100
AcDbEntity
  8
002
100
AcDbLine
 10
-2703.517905569846
 20
3347.828765455354
 30
0.0
 11
-2702.810753569846
 21
3347.121613455355
 31
0.0
  0
ARC
  5
8485
330
1E
100
AcDbEntity
  8
002
100
AcDbCircle
 10
-2680.036131569846
 20
3434.049510455355
 30
0.0
 40
1.0
100
AcDbArc
 50
284.9999999999944
 51
15.64378600002375
  0
ARC
  5
8486
330
1E
100
AcDbEntity
  8
002
100
AcDbCircle
 10
-2680.036131569846
 20
3386.050777455354
 30
0.0
 40
1.0
100
AcDbArc
 50
344.3562139999762
 51
75.00000000000555
  0
ARC
  5
8487
330
1E
100
AcDbEntity
  8
002
100
AcDbCircle
 10
-2765.739284569846
 20
3410.050144455355
 30
0.0
 40
87.0
100
AcDbArc
 50
345.651102000018
 51
14.34889799998198
  0
ARC
  5
8488
330
1E
100
AcDbEntity
  8
002
100
AcDbCircle
 10
-2765.739284569846
 20
3410.050144455355
 30
0.0
 40
90.0
100
AcDbArc
 50
15.64378600002375
 51
44.35621400002029
  0
LINE
  5
8489
330
1E
100
AcDbEntity
  8
002
100
AcDbLine
 10
-2703.517905569846
 20
3472.271523455354
 30
0.0
 11
-2702.810753569846
 21
3472.978675455355
 31
0.0
  0
ARC
  5
848A
330
1E
100
AcDbEntity
  8
002
100
AcDbCircle
 10
-2702.103646569845
 20
3472.271568455354
 30
0.0
 40
1.0
100
AcDbArc
 50
44.35621400002029
 51
135.0
  0
ARC
  5
848B
330
1E
100
AcDbEntity
  8
002
100
AcDbCircle
 10
-2704.225011569846
 20
3472.978629455354
 30
0.0
 40
1.0
100
AcDbArc
 50
225.6511020000268
 51
315.0
  0
LINE
  5
848C
330
1E
100
AcDbEntity
  8
002
100
AcDbLine
 10
-2680.743299569845
 20
3432.824749455353
 30
0.0
 11
-2679.777312569846
 21
3433.083585455355
 31
0.0
  0
ARC
  5
848D
330
1E
100
AcDbEntity
  8
002
100
AcDbCircle
 10
-2680.484480569846
 20
3431.858823455355
 30
0.0
 40
1.0
100
AcDbArc
 50
104.9999999999944
 51
194.3488979999819
  0
LINE
  5
848E
330
1E
100
AcDbEntity
  8
002
100
AcDbLine
 10
-2680.743299569845
 20
3387.275538455354
 30
0.0
 11
-2679.777312569846
 21
3387.016703455353
 31
0.0
  0
ARC
  5
848F
330
1E
100
AcDbEntity
  8
002
100
AcDbCircle
 10
-2680.484480569846
 20
3388.241464455354
 30
0.0
 40
1.0
100
AcDbArc
 50
165.651102000018
 51
255.0000000000055
  0
ARC
  5
8490
330
1E
100
AcDbEntity
  8
002
100
AcDbCircle
 10
-2765.739284569846
 20
3410.050144455355
 30
0.0
 40
90.0
100
AcDbArc
 50
75.64378599999469
 51
104.3562140000053
  0
LINE
  5
8491
330
1E
100
AcDbEntity
  8
002
100
AcDbLine
 10
-2788.513889569845
 20
3495.046128455355
 30
0.0
 11
-2788.772725569846
 21
3496.012115455354
 31
0.0
  0
ARC
  5
8492
330
1E
100
AcDbEntity
  8
002
100
AcDbCircle
 10
-2787.806799569846
 20
3496.270935455355
 30
0.0
 40
1.0
100
AcDbArc
 50
104.3562140000053
 51
194.9999999999944
  0
ARC
  5
8493
330
1E
100
AcDbEntity
  8
002
100
AcDbCircle
 10
-2789.479815569846
 20
3494.787309455353
 30
0.0
 40
1.0
100
AcDbArc
 50
285.6511020000045
 51
14.99999999999445
  0
LINE
  5
8494
330
1E
100
AcDbEntity
  8
002
100
AcDbLine
 10
-2742.964678569846
 20
3495.046128455355
 30
0.0
 11
-2742.705843569845
 21
3496.012115455354
 31
0.0
  0
ARC
  5
8495
330
1E
100
AcDbEntity
  8
002
100
AcDbCircle
 10
-2743.671768569845
 20
3496.270935455355
 30
0.0
 40
1.0
100
AcDbArc
 50
345.0000000000055
 51
75.64378599999469
  0
ARC
  5
8496
330
1E
100
AcDbEntity
  8
002
100
AcDbCircle
 10
-2741.998752569847
 20
3494.787309455353
 30
0.0
 40
1.0
100
AcDbArc
 50
165.0000000000055
 51
254.3488979999954
  0
LINE
  5
8497
330
1E
100
AcDbEntity
  8
002
  6
Continuous
100
AcDbLine
 10
-2807.195780712233
 20
4074.380527661587
 30
0.0
 11
-2794.885683799581
 21
4072.209925440751
 31
0.0
  0
LINE
  5
8498
330
1E
100
AcDbEntity
  8
002
  6
Continuous
100
AcDbLine
 10
-2807.195780712233
 20
4074.380527661587
 30
0.0
 11
-2757.135766128216
 21
4065.553596435766
 31
0.0
  0
LINE
  5
8499
330
1E
100
AcDbEntity
  8
003
  6
Continuous
100
AcDbLine
 10
-2807.195780712234
 20
4074.380527661587
 30
0.0
 11
-2755.434837241054
 21
4065.253676780693
 31
0.0
  0
LINE
  5
849A
330
1E
100
AcDbEntity
  8
002
100
AcDbLine
 10
-2809.788792391633
 20
4183.488393053732
 30
0.0
 11
-2769.90407839464
 21
4176.455641858223
 31
0.0
  0
LINE
  5
849B
330
1E
100
AcDbEntity
  8
002
100
AcDbLine
 10
-2799.034316361887
 20
4120.666492053162
 30
0.0
 11
-2808.064021600568
 21
4069.456488896526
 31
0.0
  0
LINE
  5
849C
330
1E
100
AcDbEntity
  8
002
100
AcDbLine
 10
-2826.116529569723
 20
4125.441816939003
 30
0.0
 11
-2773.921718660076
 21
4116.238463522654
 31
0.0
  0
LINE
  5
849D
330
1E
100
AcDbEntity
  8
002
100
AcDbLine
 10
-2791.529287110919
 20
4097.003767443722
 30
0.0
 11
-2833.961332252038
 21
3885.153533681421
 31
0.0
  0
LINE
  5
849E
330
1E
100
AcDbEntity
  8
003
100
AcDbLine
 10
-2780.979404154033
 20
4047.418487676477
 30
0.0
 11
-2827.351136460216
 21
3784.431325304248
 31
0.0
  0
LINE
  5
849F
330
1E
100
AcDbEntity
  8
003
100
AcDbLine
 10
-2790.335077807649
 20
4049.068145364313
 30
0.0
 11
-2836.99768927313
 21
3784.431325304248
 31
0.0
  0
LINE
  5
84A0
330
1E
100
AcDbEntity
  8
002
100
AcDbLine
 10
-2833.43203695137
 20
3962.232627142467
 30
0.0
 11
-2830.485409071445
 21
3957.482113605889
 31
0.0
  0
LINE
  5
84A1
330
1E
100
AcDbEntity
  8
002
100
AcDbLine
 10
-2834.423172094195
 20
3962.407391009676
 30
0.0
 11
-2831.476544214272
 21
3957.656877473098
 31
0.0
  0
LINE
  5
84A2
330
1E
100
AcDbEntity
  8
002
100
AcDbLine
 10
-2928.167376349241
 20
3963.7056243266
 30
0.0
 11
-2925.220748469317
 21
3958.955110790022
 31
0.0
  0
ARC
  5
84A3
330
1E
100
AcDbEntity
  8
002
100
AcDbCircle
 10
-2928.771362878822
 20
3957.888801883558
 30
0.0
 40
2.5
100
AcDbArc
 50
308.1896849999879
 51
31.81031500001687
  0
LINE
  5
84A4
330
1E
100
AcDbEntity
  8
002
100
AcDbLine
 10
-2831.139019437952
 20
3955.904984723424
 30
0.0
 11
-2928.50490112556
 21
3965.457517076274
 31
0.0
  0
LINE
  5
84A5
330
1E
100
AcDbEntity
  8
002
100
AcDbLine
 10
-2916.59987174347
 20
4119.057086007424
 30
0.0
 11
-2949.183839354466
 21
3905.470370468452
 31
0.0
  0
LINE
  5
84A6
330
1E
100
AcDbEntity
  8
002
100
AcDbLine
 10
-2833.743742102957
 20
3941.13286842824
 30
0.0
 11
-2931.109623790564
 21
3950.685400781091
 31
0.0
  0
LINE
  5
84A7
330
1E
100
AcDbEntity
  8
002
100
AcDbLine
 10
-2837.365419535517
 20
3949.387167464167
 30
0.0
 11
-2924.883223693001
 21
3957.203218040348
 31
0.0
  0
LINE
  5
84A8
330
1E
100
AcDbEntity
  8
002
100
AcDbLine
 10
-2836.348464767961
 20
3926.360752133057
 30
0.0
 11
-2933.714346455566
 21
3935.913284485908
 31
0.0
  0
LINE
  5
84A9
330
1E
100
AcDbEntity
  8
002
100
AcDbLine
 10
-2838.953187432966
 20
3911.588635837875
 30
0.0
 11
-2936.319069120571
 21
3921.141168190724
 31
0.0
  0
LINE
  5
84AA
330
1E
100
AcDbEntity
  8
002
100
AcDbLine
 10
-2842.574864865524
 20
3919.8429348738
 30
0.0
 11
-2930.092669023008
 21
3927.658985449981
 31
0.0
  0
LINE
  5
84AB
330
1E
100
AcDbEntity
  8
002
100
AcDbLine
 10
-2839.97014220052
 20
3934.615051168984
 30
0.0
 11
-2927.487946358005
 21
3942.431101745165
 31
0.0
  0
LINE
  5
84AC
330
1E
100
AcDbEntity
  8
002
100
AcDbLine
 10
-2841.55791009797
 20
3896.816519542691
 30
0.0
 11
-2938.923791785575
 21
3906.369051895541
 31
0.0
  0
LINE
  5
84AD
330
1E
100
AcDbEntity
  8
002
100
AcDbLine
 10
-2845.179587530529
 20
3905.070818578618
 30
0.0
 11
-2932.697391688012
 21
3912.886869154798
 31
0.0
  0
LINE
  5
84AE
330
1E
100
AcDbEntity
  8
002
100
AcDbLine
 10
-2850.389032860535
 20
3875.526585988251
 30
0.0
 11
-2937.906837018021
 21
3883.342636564432
 31
0.0
  0
LINE
  5
84AF
330
1E
100
AcDbEntity
  8
002
100
AcDbLine
 10
-2846.767355427977
 20
3867.272286952325
 30
0.0
 11
-2944.133237115582
 21
3876.824819305175
 31
0.0
  0
LINE
  5
84B0
330
1E
100
AcDbEntity
  8
002
100
AcDbLine
 10
-2849.372078092981
 20
3852.500170657141
 30
0.0
 11
-2946.737959780586
 21
3862.052703009993
 31
0.0
  0
LINE
  5
84B1
330
1E
100
AcDbEntity
  8
002
100
AcDbLine
 10
-2852.99375552554
 20
3860.754469693068
 30
0.0
 11
-2940.511559683024
 21
3868.570520269249
 31
0.0
  0
LINE
  5
84B2
330
1E
100
AcDbEntity
  8
002
100
AcDbLine
 10
-2844.162632762973
 20
3882.044403247508
 30
0.0
 11
-2941.528514450579
 21
3891.596935600358
 31
0.0
  0
LINE
  5
84B3
330
1E
100
AcDbEntity
  8
002
100
AcDbLine
 10
-2847.784310195533
 20
3890.298702283434
 30
0.0
 11
-2935.302114353016
 21
3898.114752859615
 31
0.0
  0
LINE
  5
84B4
330
1E
100
AcDbEntity
  8
002
100
AcDbLine
 10
-2858.203200855549
 20
3831.210237102703
 30
0.0
 11
-2945.721005013032
 21
3839.026287678883
 31
0.0
  0
LINE
  5
84B5
330
1E
100
AcDbEntity
  8
002
100
AcDbLine
 10
-2851.976800757986
 20
3837.72805436196
 30
0.0
 11
-2949.342682445591
 21
3847.280586714809
 31
0.0
  0
LINE
  5
84B6
330
1E
100
AcDbEntity
  8
002
100
AcDbLine
 10
-2855.598478190544
 20
3845.982353397884
 30
0.0
 11
-2943.116282348028
 21
3853.798403974066
 31
0.0
  0
LINE
  5
84B7
330
1E
100
AcDbEntity
  8
002
100
AcDbLine
 10
-2860.807923520553
 20
3816.438120807519
 30
0.0
 11
-2948.325727678037
 21
3824.254171383699
 31
0.0
  0
LINE
  5
84B8
330
1E
100
AcDbEntity
  8
002
100
AcDbLine
 10
-2863.412646185556
 20
3801.666004512336
 30
0.0
 11
-2950.930450343039
 21
3809.482055088516
 31
0.0
  0
LINE
  5
84B9
330
1E
100
AcDbEntity
  8
002
100
AcDbLine
 10
-2857.186246087993
 20
3808.183821771592
 30
0.0
 11
-2954.552127775599
 21
3817.736354124442
 31
0.0
  0
LINE
  5
84BA
330
1E
100
AcDbEntity
  8
002
100
AcDbLine
 10
-2859.790968752997
 20
3793.411705476409
 30
0.0
 11
-2957.156850440602
 21
3802.964237829259
 31
0.0
  0
LINE
  5
84BB
330
1E
100
AcDbEntity
  8
002
100
AcDbLine
 10
-2854.581523422988
 20
3822.955938066776
 30
0.0
 11
-2951.947405110595
 21
3832.508470419626
 31
0.0
  0
LINE
  5
84BC
330
1E
100
AcDbEntity
  8
002
100
AcDbLine
 10
-2876.436259510576
 20
3727.805423036421
 30
0.0
 11
-2963.95406366806
 21
3735.621473612602
 31
0.0
  0
LINE
  5
84BD
330
1E
100
AcDbEntity
  8
002
100
AcDbLine
 10
-2865.000414083004
 20
3763.867472886043
 30
0.0
 11
-2962.36629577061
 21
3773.420005238893
 31
0.0
  0
LINE
  5
84BE
330
1E
100
AcDbEntity
  8
002
100
AcDbLine
 10
-2862.395691418001
 20
3778.639589181226
 30
0.0
 11
-2959.761573105606
 21
3788.192121534077
 31
0.0
  0
LINE
  5
84BF
330
1E
100
AcDbEntity
  8
002
100
AcDbLine
 10
-2867.605136748008
 20
3749.09535659086
 30
0.0
 11
-2964.971018435615
 21
3758.647888943711
 31
0.0
  0
LINE
  5
84C0
330
1E
100
AcDbEntity
  8
002
100
AcDbLine
 10
-2871.226814180569
 20
3757.349655626787
 30
0.0
 11
-2958.744618338052
 21
3765.165706202967
 31
0.0
  0
LINE
  5
84C1
330
1E
100
AcDbEntity
  8
002
100
AcDbLine
 10
-2873.831536845571
 20
3742.577539331603
 30
0.0
 11
-2961.349341003057
 21
3750.393589907783
 31
0.0
  0
LINE
  5
84C2
330
1E
100
AcDbEntity
  8
002
100
AcDbLine
 10
-2868.622091515564
 20
3772.12177192197
 30
0.0
 11
-2956.139895673048
 21
3779.937822498151
 31
0.0
  0
LINE
  5
84C3
330
1E
100
AcDbEntity
  8
002
100
AcDbLine
 10
-2866.01736885056
 20
3786.893888217152
 30
0.0
 11
-2953.535173008043
 21
3794.709938793333
 31
0.0
  0
ARC
  5
84C4
330
1E
100
AcDbEntity
  8
002
100
AcDbCircle
 10
-2948.183024395563
 20
3839.46040812305
 30
0.0
 40
2.5
100
AcDbArc
 50
308.1896849999879
 51
31.81031500001687
  0
LINE
  5
84C5
330
1E
100
AcDbEntity
  8
002
100
AcDbLine
 10
-2946.637357164005
 20
3837.495487261978
 30
0.0
 11
-2951.031052959622
 21
3834.039270836531
 31
0.0
  0
ARC
  5
84C6
330
1E
100
AcDbEntity
  8
002
100
AcDbCircle
 10
-2949.485385728065
 20
3832.074349975458
 30
0.0
 40
2.5
100
AcDbArc
 50
128.1896849999879
 51
211.8103150000168
  0
ARC
  5
84C7
330
1E
100
AcDbEntity
  8
002
100
AcDbCircle
 10
-2950.787747060567
 20
3824.688291827868
 30
0.0
 40
2.5
100
AcDbArc
 50
308.1896849999879
 51
31.81031500001687
  0
LINE
  5
84C8
330
1E
100
AcDbEntity
  8
002
100
AcDbLine
 10
-2951.609880334277
 20
3830.756577669951
 30
0.0
 11
-2948.663252454353
 21
3826.006064133374
 31
0.0
  0
ARC
  5
84C9
330
1E
100
AcDbEntity
  8
002
100
AcDbCircle
 10
-2952.090108393069
 20
3817.302233680276
 30
0.0
 40
2.5
100
AcDbArc
 50
128.1896849999879
 51
211.8103150000168
  0
ARC
  5
84CA
330
1E
100
AcDbEntity
  8
002
100
AcDbCircle
 10
-2953.392469725571
 20
3809.916175532684
 30
0.0
 40
2.5
100
AcDbArc
 50
308.1896849999879
 51
31.81031500001687
  0
ARC
  5
84CB
330
1E
100
AcDbEntity
  8
002
100
AcDbCircle
 10
-2955.997192390574
 20
3795.144059237501
 30
0.0
 40
2.5
100
AcDbArc
 50
308.1896849999879
 51
31.81031500001687
  0
LINE
  5
84CC
330
1E
100
AcDbEntity
  8
002
100
AcDbLine
 10
-2954.214602999281
 20
3815.984461374768
 30
0.0
 11
-2951.267975119357
 21
3811.23394783819
 31
0.0
  0
LINE
  5
84CD
330
1E
100
AcDbEntity
  8
002
100
AcDbLine
 10
-2949.242079829007
 20
3822.723370966794
 30
0.0
 11
-2953.635775624625
 21
3819.267154541348
 31
0.0
  0
ARC
  5
84CE
330
1E
100
AcDbEntity
  8
002
100
AcDbCircle
 10
-2954.694831058072
 20
3802.530117385092
 30
0.0
 40
2.5
100
AcDbArc
 50
128.1896849999879
 51
211.8103150000168
  0
LINE
  5
84CF
330
1E
100
AcDbEntity
  8
002
100
AcDbLine
 10
-2956.819325664284
 20
3801.212345079585
 30
0.0
 11
-2953.872697784361
 21
3796.461831543007
 31
0.0
  0
LINE
  5
84D0
330
1E
100
AcDbEntity
  8
002
100
AcDbLine
 10
-2951.846802494012
 20
3807.951254671611
 30
0.0
 11
-2956.240498289629
 21
3804.495038246164
 31
0.0
  0
ARC
  5
84D1
330
1E
100
AcDbEntity
  8
002
100
AcDbCircle
 10
-2957.299553723076
 20
3787.758001089909
 30
0.0
 40
2.5
100
AcDbArc
 50
128.1896849999879
 51
211.8103150000168
  0
ARC
  5
84D2
330
1E
100
AcDbEntity
  8
002
100
AcDbCircle
 10
-2958.601915055578
 20
3780.371942942317
 30
0.0
 40
2.5
100
AcDbArc
 50
308.1896849999879
 51
31.81031500001687
  0
LINE
  5
84D3
330
1E
100
AcDbEntity
  8
002
100
AcDbLine
 10
-2959.424048329289
 20
3786.440228784402
 30
0.0
 11
-2956.477420449364
 21
3781.689715247825
 31
0.0
  0
ARC
  5
84D4
330
1E
100
AcDbEntity
  8
002
100
AcDbCircle
 10
-2961.206637720582
 20
3765.599826647135
 30
0.0
 40
2.5
100
AcDbArc
 50
308.1896849999879
 51
31.81031500001687
  0
LINE
  5
84D5
330
1E
100
AcDbEntity
  8
002
100
AcDbLine
 10
-2962.028770994293
 20
3771.668112489219
 30
0.0
 11
-2959.082143114368
 21
3766.917598952641
 31
0.0
  0
ARC
  5
84D6
330
1E
100
AcDbEntity
  8
002
100
AcDbCircle
 10
-2959.90427638808
 20
3772.985884794727
 30
0.0
 40
2.5
100
AcDbArc
 50
128.1896849999879
 51
211.8103150000168
  0
LINE
  5
84D7
330
1E
100
AcDbEntity
  8
002
100
AcDbLine
 10
-2957.05624782402
 20
3778.407022081246
 30
0.0
 11
-2961.449943619638
 21
3774.950805655798
 31
0.0
  0
ARC
  5
84D8
330
1E
100
AcDbEntity
  8
002
100
AcDbCircle
 10
-2962.508999053085
 20
3758.213768499544
 30
0.0
 40
2.5
100
AcDbArc
 50
128.1896849999879
 51
211.8103150000168
  0
LINE
  5
84D9
330
1E
100
AcDbEntity
  8
002
100
AcDbLine
 10
-2964.633493659297
 20
3756.895996194035
 30
0.0
 11
-2961.686865779373
 21
3752.145482657459
 31
0.0
  0
ARC
  5
84DA
330
1E
100
AcDbEntity
  8
002
100
AcDbCircle
 10
-2963.811360385587
 20
3750.827710351952
 30
0.0
 40
2.5
100
AcDbArc
 50
308.1896849999879
 51
31.81031500001687
  0
LINE
  5
84DB
330
1E
100
AcDbEntity
  8
002
100
AcDbLine
 10
-2959.660970489023
 20
3763.634905786062
 30
0.0
 11
-2964.054666284642
 21
3760.178689360615
 31
0.0
  0
ARC
  5
84DC
330
1E
100
AcDbEntity
  8
002
100
AcDbCircle
 10
-2966.41608305059
 20
3736.055594056768
 30
0.0
 40
2.5
100
AcDbArc
 50
308.1896849999879
 51
31.81031500001687
  0
LINE
  5
84DD
330
1E
100
AcDbEntity
  8
002
100
AcDbLine
 10
-2954.451525159016
 20
3793.179138376427
 30
0.0
 11
-2958.845220954634
 21
3789.722921950982
 31
0.0
  0
ARC
  5
84DE
330
1E
100
AcDbEntity
  8
002
100
AcDbCircle
 10
-2927.345243075532
 20
3957.637338484515
 30
0.0
 40
2.5
100
AcDbArc
 50
308.1896849999879
 51
31.81031500001687
  0
LINE
  5
84DF
330
1E
100
AcDbEntity
  8
002
100
AcDbLine
 10
-2925.799575843972
 20
3955.672417623442
 30
0.0
 11
-2930.193271639591
 21
3952.216201197995
 31
0.0
  0
ARC
  5
84E0
330
1E
100
AcDbEntity
  8
002
100
AcDbCircle
 10
-2928.647604408034
 20
3950.251280336924
 30
0.0
 40
2.5
100
AcDbArc
 50
128.1896849999879
 51
211.8103150000168
  0
LINE
  5
84E1
330
1E
100
AcDbEntity
  8
002
100
AcDbLine
 10
-2927.225695647265
 20
3955.923881022485
 30
0.0
 11
-2931.619391442882
 21
3952.467664597039
 31
0.0
  0
ARC
  5
84E2
330
1E
100
AcDbEntity
  8
002
100
AcDbCircle
 10
-2930.073724211324
 20
3950.502743735967
 30
0.0
 40
2.5
100
AcDbArc
 50
128.1896849999879
 51
211.8103150000168
  0
ARC
  5
84E3
330
1E
100
AcDbEntity
  8
002
100
AcDbCircle
 10
-2929.949965740536
 20
3942.865222189332
 30
0.0
 40
2.5
100
AcDbArc
 50
308.1896849999879
 51
31.81031500001687
  0
LINE
  5
84E4
330
1E
100
AcDbEntity
  8
002
100
AcDbLine
 10
-2928.404298508976
 20
3940.900301328259
 30
0.0
 11
-2932.797994304594
 21
3937.444084902812
 31
0.0
  0
ARC
  5
84E5
330
1E
100
AcDbEntity
  8
002
100
AcDbCircle
 10
-2931.376085543826
 20
3943.116685588375
 30
0.0
 40
2.5
100
AcDbArc
 50
308.1896849999879
 51
31.81031500001687
  0
LINE
  5
84E6
330
1E
100
AcDbEntity
  8
002
100
AcDbLine
 10
-2929.830418312269
 20
3941.151764727303
 30
0.0
 11
-2934.224114107886
 21
3937.695548301856
 31
0.0
  0
LINE
  5
84E7
330
1E
100
AcDbEntity
  8
002
100
AcDbLine
 10
-2930.772099014246
 20
3948.933508031417
 30
0.0
 11
-2927.825471134321
 21
3944.182994494839
 31
0.0
  0
LINE
  5
84E8
330
1E
100
AcDbEntity
  8
002
100
AcDbLine
 10
-2932.198218817537
 20
3949.18497143046
 30
0.0
 11
-2929.251590937614
 21
3944.434457893881
 31
0.0
  0
LINE
  5
84E9
330
1E
100
AcDbEntity
  8
002
100
AcDbLine
 10
-2933.37682167925
 20
3934.161391736233
 30
0.0
 11
-2930.430193799326
 21
3929.410878199656
 31
0.0
  0
LINE
  5
84EA
330
1E
100
AcDbEntity
  8
002
100
AcDbLine
 10
-2934.802941482541
 20
3934.412855135276
 30
0.0
 11
-2931.856313602617
 21
3929.662341598699
 31
0.0
  0
ARC
  5
84EB
330
1E
100
AcDbEntity
  8
002
100
AcDbCircle
 10
-2935.159411070543
 20
3913.320989598966
 30
0.0
 40
2.5
100
AcDbArc
 50
308.1896849999879
 51
31.81031500001687
  0
ARC
  5
84EC
330
1E
100
AcDbEntity
  8
002
100
AcDbCircle
 10
-2936.585530873836
 20
3913.572452998009
 30
0.0
 40
2.5
100
AcDbArc
 50
308.1896849999879
 51
31.81031500001687
  0
ARC
  5
84ED
330
1E
100
AcDbEntity
  8
002
100
AcDbCircle
 10
-2932.554688405538
 20
3928.093105894149
 30
0.0
 40
2.5
100
AcDbArc
 50
308.1896849999879
 51
31.81031500001687
  0
ARC
  5
84EE
330
1E
100
AcDbEntity
  8
002
100
AcDbCircle
 10
-2933.980808208831
 20
3928.344569293193
 30
0.0
 40
2.5
100
AcDbArc
 50
308.1896849999879
 51
31.81031500001687
  0
ARC
  5
84EF
330
1E
100
AcDbEntity
  8
002
100
AcDbCircle
 10
-2933.85704973804
 20
3920.707047746558
 30
0.0
 40
2.5
100
AcDbArc
 50
128.1896849999879
 51
211.8103150000168
  0
ARC
  5
84F0
330
1E
100
AcDbEntity
  8
002
100
AcDbCircle
 10
-2935.283169541333
 20
3920.958511145601
 30
0.0
 40
2.5
100
AcDbArc
 50
128.1896849999879
 51
211.8103150000168
  0
LINE
  5
84F1
330
1E
100
AcDbEntity
  8
002
100
AcDbLine
 10
-2935.981544344253
 20
3919.389275441051
 30
0.0
 11
-2933.034916464328
 21
3914.638761904472
 31
0.0
  0
LINE
  5
84F2
330
1E
100
AcDbEntity
  8
002
100
AcDbLine
 10
-2937.407664147546
 20
3919.640738840093
 30
0.0
 11
-2934.461036267621
 21
3914.890225303515
 31
0.0
  0
LINE
  5
84F3
330
1E
100
AcDbEntity
  8
002
100
AcDbLine
 10
-2931.009021173981
 20
3926.128185033077
 30
0.0
 11
-2935.402716969598
 21
3922.67196860763
 31
0.0
  0
LINE
  5
84F4
330
1E
100
AcDbEntity
  8
002
100
AcDbLine
 10
-2932.435140977273
 20
3926.379648432119
 30
0.0
 11
-2936.828836772891
 21
3922.923432006673
 31
0.0
  0
LINE
  5
84F5
330
1E
100
AcDbEntity
  8
002
100
AcDbLine
 10
-2933.613743838985
 20
3911.356068737893
 30
0.0
 11
-2938.007439634603
 21
3907.899852312446
 31
0.0
  0
LINE
  5
84F6
330
1E
100
AcDbEntity
  8
002
100
AcDbLine
 10
-2935.039863642276
 20
3911.607532136936
 30
0.0
 11
-2939.433559437894
 21
3908.151315711489
 31
0.0
  0
ARC
  5
84F7
330
1E
100
AcDbEntity
  8
002
100
AcDbCircle
 10
-2931.252327073038
 20
3935.479164041741
 30
0.0
 40
2.5
100
AcDbArc
 50
128.1896849999879
 51
211.8103150000168
  0
ARC
  5
84F8
330
1E
100
AcDbEntity
  8
002
100
AcDbCircle
 10
-2932.678446876328
 20
3935.730627440783
 30
0.0
 40
2.5
100
AcDbArc
 50
128.1896849999879
 51
211.8103150000168
  0
LINE
  5
84F9
330
1E
100
AcDbEntity
  8
002
100
AcDbLine
 10
-2939.305196346113
 20
3903.728499173292
 30
0.0
 11
-2949.183839354466
 21
3905.470370468452
 31
0.0
  0
LINE
  5
84FA
330
1E
100
AcDbEntity
  8
002
100
AcDbLine
 10
-2938.586267009257
 20
3904.617159145867
 30
0.0
 11
-2935.639639129333
 21
3899.866645609289
 31
0.0
  0
LINE
  5
84FB
330
1E
100
AcDbEntity
  8
002
100
AcDbLine
 10
-2940.01238681255
 20
3904.86862254491
 30
0.0
 11
-2939.305196346113
 21
3903.728499173292
 31
0.0
  0
LINE
  5
84FC
330
1E
100
AcDbEntity
  8
002
100
AcDbLine
 10
-2936.218466503987
 20
3896.58395244271
 30
0.0
 11
-2940.612162299607
 21
3893.127736017264
 31
0.0
  0
LINE
  5
84FD
330
1E
100
AcDbEntity
  8
002
100
AcDbLine
 10
-2941.190989674261
 20
3889.845042850684
 30
0.0
 11
-2938.244361794337
 21
3885.094529314106
 31
0.0
  0
LINE
  5
84FE
330
1E
100
AcDbEntity
  8
002
100
AcDbLine
 10
-2938.823189168992
 20
3881.811836147528
 30
0.0
 11
-2943.216884964609
 21
3878.35561972208
 31
0.0
  0
ARC
  5
84FF
330
1E
100
AcDbEntity
  8
002
100
AcDbCircle
 10
-2940.368856400551
 20
3883.776757008599
 30
0.0
 40
2.5
100
AcDbArc
 50
308.1896849999879
 51
31.81031500001687
  0
ARC
  5
8500
330
1E
100
AcDbEntity
  8
002
100
AcDbCircle
 10
-2939.066495068049
 20
3891.162815156191
 30
0.0
 40
2.5
100
AcDbArc
 50
128.1896849999879
 51
211.8103150000168
  0
ARC
  5
8501
330
1E
100
AcDbEntity
  8
002
100
AcDbCircle
 10
-2937.764133735547
 20
3898.548873303783
 30
0.0
 40
2.5
100
AcDbArc
 50
308.1896849999879
 51
31.81031500001687
  0
ARC
  5
8502
330
1E
100
AcDbEntity
  8
002
100
AcDbCircle
 10
-2944.275940398056
 20
3861.618582565825
 30
0.0
 40
2.5
100
AcDbArc
 50
128.1896849999879
 51
211.8103150000168
  0
LINE
  5
8503
330
1E
100
AcDbEntity
  8
002
100
AcDbLine
 10
-2946.400435004269
 20
3860.300810260318
 30
0.0
 11
-2943.453807124345
 21
3855.55029672374
 31
0.0
  0
ARC
  5
8504
330
1E
100
AcDbEntity
  8
002
100
AcDbCircle
 10
-2945.578301730558
 20
3854.232524418233
 30
0.0
 40
2.5
100
AcDbArc
 50
308.1896849999879
 51
31.81031500001687
  0
LINE
  5
8505
330
1E
100
AcDbEntity
  8
002
100
AcDbLine
 10
-2943.795712339266
 20
3875.072926555501
 30
0.0
 11
-2940.849084459341
 21
3870.322413018923
 31
0.0
  0
ARC
  5
8506
330
1E
100
AcDbEntity
  8
002
100
AcDbCircle
 10
-2942.973579065556
 20
3869.004640713417
 30
0.0
 40
2.5
100
AcDbArc
 50
308.1896849999879
 51
31.81031500001687
  0
LINE
  5
8507
330
1E
100
AcDbEntity
  8
002
100
AcDbLine
 10
-2941.427911833996
 20
3867.039719852344
 30
0.0
 11
-2945.821607629614
 21
3863.583503426897
 31
0.0
  0
ARC
  5
8508
330
1E
100
AcDbEntity
  8
002
100
AcDbCircle
 10
-2941.671217733054
 20
3876.390698861008
 30
0.0
 40
2.5
100
AcDbArc
 50
128.1896849999879
 51
211.8103150000168
  0
LINE
  5
8509
330
1E
100
AcDbEntity
  8
002
100
AcDbLine
 10
-2949.005157669273
 20
3845.528693965135
 30
0.0
 11
-2946.058529789349
 21
3840.778180428556
 31
0.0
  0
ARC
  5
850A
330
1E
100
AcDbEntity
  8
002
100
AcDbCircle
 10
-2946.88066306306
 20
3846.846466270642
 30
0.0
 40
2.5
100
AcDbArc
 50
128.1896849999879
 51
211.8103150000168
  0
LINE
  5
850B
330
1E
100
AcDbEntity
  8
002
100
AcDbLine
 10
-2944.032634499
 20
3852.267603557161
 30
0.0
 11
-2948.426330294618
 21
3848.811387131714
 31
0.0
  0
ARC
  5
850C
330
1E
100
AcDbEntity
  8
002
100
AcDbCircle
 10
-2936.461772403045
 20
3905.934931451374
 30
0.0
 40
2.5
100
AcDbArc
 50
128.1896849999879
 51
211.8103150000168
  0
ARC
  5
850D
330
1E
100
AcDbEntity
  8
002
100
AcDbCircle
 10
-2937.887892206338
 20
3906.186394850417
 30
0.0
 40
2.5
100
AcDbArc
 50
128.1896849999879
 51
211.8103150000168
  0
LINE
  5
850E
330
1E
100
AcDbEntity
  8
002
100
AcDbLine
 10
-2855.260953414227
 20
3844.230460648212
 30
0.0
 11
-2852.314325534304
 21
3839.479947111633
 31
0.0
  0
LINE
  5
850F
330
1E
100
AcDbEntity
  8
003
100
AcDbLine
 10
-2840.58307708528
 20
3784.43132530425
 30
0.0
 11
-2846.627036582742
 21
3776.590026543007
 31
0.0
  0
ARC
  5
8510
330
1E
100
AcDbEntity
  8
002
100
AcDbCircle
 10
-2854.438820140516
 20
3838.162174806126
 30
0.0
 40
2.5
100
AcDbArc
 50
308.1896849999879
 51
31.81031500001687
  0
ARC
  5
8511
330
1E
100
AcDbEntity
  8
002
100
AcDbCircle
 10
-2855.741181473018
 20
3830.776116658534
 30
0.0
 40
2.5
100
AcDbArc
 50
128.1896849999879
 51
211.8103150000168
  0
ARC
  5
8512
330
1E
100
AcDbEntity
  8
002
100
AcDbCircle
 10
-2857.04354280552
 20
3823.390058510943
 30
0.0
 40
2.5
100
AcDbArc
 50
308.1896849999879
 51
31.81031500001687
  0
LINE
  5
8513
330
1E
100
AcDbEntity
  8
002
100
AcDbLine
 10
-2857.865676079231
 20
3829.458344353028
 30
0.0
 11
-2854.919048199308
 21
3824.70783081645
 31
0.0
  0
LINE
  5
8514
330
1E
100
AcDbEntity
  8
002
100
AcDbLine
 10
-2852.893152908958
 20
3836.197253945054
 30
0.0
 11
-2857.286848704576
 21
3832.741037519607
 31
0.0
  0
ARC
  5
8515
330
1E
100
AcDbEntity
  8
002
100
AcDbCircle
 10
-2858.345904138021
 20
3816.004000363351
 30
0.0
 40
2.5
100
AcDbArc
 50
128.1896849999879
 51
211.8103150000168
  0
LINE
  5
8516
330
1E
100
AcDbEntity
  8
002
100
AcDbLine
 10
-2860.470398744235
 20
3814.686228057846
 30
0.0
 11
-2857.523770864311
 21
3809.935714521266
 31
0.0
  0
ARC
  5
8517
330
1E
100
AcDbEntity
  8
002
100
AcDbCircle
 10
-2859.648265470523
 20
3808.61794221576
 30
0.0
 40
2.5
100
AcDbArc
 50
308.1896849999879
 51
31.81031500001687
  0
LINE
  5
8518
330
1E
100
AcDbEntity
  8
002
100
AcDbLine
 10
-2858.102598238967
 20
3806.653021354688
 30
0.0
 11
-2862.496294034583
 21
3803.19680492924
 31
0.0
  0
LINE
  5
8519
330
1E
100
AcDbEntity
  8
002
100
AcDbLine
 10
-2863.07512140924
 20
3799.914111762662
 30
0.0
 11
-2860.128493529315
 21
3795.163598226084
 31
0.0
  0
ARC
  5
851A
330
1E
100
AcDbEntity
  8
002
100
AcDbCircle
 10
-2860.950626803025
 20
3801.231884068169
 30
0.0
 40
2.5
100
AcDbArc
 50
128.1896849999879
 51
211.8103150000168
  0
LINE
  5
851B
330
1E
100
AcDbEntity
  8
002
100
AcDbLine
 10
-2855.497875573963
 20
3821.425137649871
 30
0.0
 11
-2859.89157136958
 21
3817.968921224424
 31
0.0
  0
LINE
  5
851C
330
1E
100
AcDbEntity
  8
003
100
AcDbLine
 10
-2846.627036582742
 20
3776.590026543007
 30
0.0
 11
-2848.862535435859
 21
3774.75514838188
 31
0.0
  0
LINE
  5
851D
330
1E
100
AcDbEntity
  8
003
100
AcDbLine
 10
-2846.627036582742
 20
3776.590026543007
 30
0.0
 11
-2848.862535435859
 21
3774.75514838188
 31
0.0
  0
LINE
  5
851E
330
1E
100
AcDbEntity
  8
003
 62
     3
100
AcDbLine
 10
-2849.238594341035
 20
3767.995487893771
 30
0.0
 11
-2847.86495491547
 21
3765.497481581884
 31
0.0
  0
LINE
  5
851F
330
1E
100
AcDbEntity
  8
003
 62
     3
100
AcDbLine
 10
-2850.243085124959
 20
3770.403020721228
 30
0.0
 11
-2849.238594341035
 21
3767.995487893771
 31
0.0
  0
LINE
  5
8520
330
1E
100
AcDbEntity
  8
003
 62
     3
100
AcDbLine
 10
-2850.306656258419
 20
3772.610747056472
 30
0.0
 11
-2850.243085124959
 21
3770.403020721228
 31
0.0
  0
LINE
  5
8521
330
1E
100
AcDbEntity
  8
003
 62
     3
100
AcDbLine
 10
-2848.862535435859
 20
3774.75514838188
 30
0.0
 11
-2850.306656258419
 21
3772.610747056472
 31
0.0
  0
LINE
  5
8522
330
1E
100
AcDbEntity
  8
003
 62
     3
100
AcDbLine
 10
-2849.238594341035
 20
3767.995487893771
 30
0.0
 11
-2847.86495491547
 21
3765.497481581884
 31
0.0
  0
LINE
  5
8523
330
1E
100
AcDbEntity
  8
003
 62
     3
100
AcDbLine
 10
-2850.243085124961
 20
3770.403020721228
 30
0.0
 11
-2849.238594341035
 21
3767.995487893771
 31
0.0
  0
LINE
  5
8524
330
1E
100
AcDbEntity
  8
003
 62
     3
100
AcDbLine
 10
-2850.306656258419
 20
3772.610747056472
 30
0.0
 11
-2850.243085124961
 21
3770.403020721228
 31
0.0
  0
LINE
  5
8525
330
1E
100
AcDbEntity
  8
003
 62
     3
100
AcDbLine
 10
-2848.862535435859
 20
3774.75514838188
 30
0.0
 11
-2850.306656258419
 21
3772.610747056472
 31
0.0
  0
LINE
  5
8526
330
1E
100
AcDbEntity
  8
002
100
AcDbLine
 10
-2860.70732090397
 20
3791.880905059505
 30
0.0
 11
-2865.101016699587
 21
3788.424688634058
 31
0.0
  0
LINE
  5
8527
330
1E
100
AcDbEntity
  8
002
100
AcDbLine
 10
-2868.284566739246
 20
3770.369879172295
 30
0.0
 11
-2865.337938859324
 21
3765.619365635717
 31
0.0
  0
LINE
  5
8528
330
1E
100
AcDbEntity
  8
002
100
AcDbLine
 10
-2863.312043568974
 20
3777.108788764321
 30
0.0
 11
-2867.705739364592
 21
3773.652572338874
 31
0.0
  0
ARC
  5
8529
330
1E
100
AcDbEntity
  8
002
100
AcDbCircle
 10
-2863.555349468029
 20
3786.459767772986
 30
0.0
 40
2.5
100
AcDbArc
 50
128.1896849999879
 51
211.8103150000168
  0
LINE
  5
852A
330
1E
100
AcDbEntity
  8
002
100
AcDbLine
 10
-2865.679844074242
 20
3785.141995467478
 30
0.0
 11
-2862.733216194319
 21
3780.3914819309
 31
0.0
  0
ARC
  5
852B
330
1E
100
AcDbEntity
  8
002
100
AcDbCircle
 10
-2866.160072133034
 20
3771.687651477803
 30
0.0
 40
2.5
100
AcDbArc
 50
128.1896849999879
 51
211.8103150000168
  0
ARC
  5
852C
330
1E
100
AcDbEntity
  8
002
100
AcDbCircle
 10
-2864.857710800531
 20
3779.073709625394
 30
0.0
 40
2.5
100
AcDbArc
 50
308.1896849999879
 51
31.81031500001687
  0
LINE
  5
852D
330
1E
100
AcDbEntity
  8
003
 62
     3
100
AcDbLine
 10
-2847.005563799203
 20
3758.61768023942
 30
0.0
 11
-2848.487806939438
 21
3756.694650923243
 31
0.0
  0
LINE
  5
852E
330
1E
100
AcDbEntity
  8
003
 62
     3
100
AcDbLine
 10
-2847.005563799203
 20
3758.617680239417
 30
0.0
 11
-2848.487806939438
 21
3756.694650923243
 31
0.0
  0
LINE
  5
852F
330
1E
100
AcDbEntity
  8
003
 62
     3
100
AcDbLine
 10
-2852.500043738828
 20
3744.752510586264
 30
0.0
 11
-2851.395521360902
 21
3741.577154494119
 31
0.0
  0
LINE
  5
8530
330
1E
100
AcDbEntity
  8
003
 62
     3
100
AcDbLine
 10
-2852.500043738828
 20
3744.752510586264
 30
0.0
 11
-2851.395521360902
 21
3741.577154494119
 31
0.0
  0
LINE
  5
8531
330
1E
100
AcDbEntity
  8
003
 62
     3
100
AcDbLine
 10
-2850.640770298468
 20
3738.51368841421
 30
0.0
 11
-2850.89640650955
 21
3735.722023513735
 31
0.0
  0
LINE
  5
8532
330
1E
100
AcDbEntity
  8
003
 62
     3
100
AcDbLine
 10
-2851.395521360902
 20
3741.577154494119
 30
0.0
 11
-2850.640770298468
 21
3738.51368841421
 31
0.0
  0
LINE
  5
8533
330
1E
100
AcDbEntity
  8
003
 62
     3
100
AcDbLine
 10
-2850.640770298468
 20
3738.51368841421
 30
0.0
 11
-2850.896406509551
 21
3735.722023513735
 31
0.0
  0
LINE
  5
8534
330
1E
100
AcDbEntity
  8
003
 62
     3
100
AcDbLine
 10
-2851.395521360902
 20
3741.577154494119
 30
0.0
 11
-2850.640770298468
 21
3738.51368841421
 31
0.0
  0
LINE
  5
8535
330
1E
100
AcDbEntity
  8
003
 62
     3
100
AcDbLine
 10
-2853.293723791128
 20
3747.879843901129
 30
0.0
 11
-2852.500043738828
 21
3744.752510586264
 31
0.0
  0
LINE
  5
8536
330
1E
100
AcDbEntity
  8
003
 62
     3
100
AcDbLine
 10
-2853.115945559777
 20
3750.799243271517
 30
0.0
 11
-2853.293723791128
 21
3747.879843901129
 31
0.0
  0
LINE
  5
8537
330
1E
100
AcDbEntity
  8
003
 62
     3
100
AcDbLine
 10
-2851.989258698269
 20
3752.874070437985
 30
0.0
 11
-2853.115945559777
 21
3750.799243271517
 31
0.0
  0
LINE
  5
8538
330
1E
100
AcDbEntity
  8
003
 62
     3
100
AcDbLine
 10
-2850.297791870373
 20
3754.809660264447
 30
0.0
 11
-2851.989258698269
 21
3752.874070437985
 31
0.0
  0
LINE
  5
8539
330
1E
100
AcDbEntity
  8
003
 62
     3
100
AcDbLine
 10
-2848.487806939438
 20
3756.694650923243
 30
0.0
 11
-2850.297791870373
 21
3754.809660264447
 31
0.0
  0
LINE
  5
853A
330
1E
100
AcDbEntity
  8
003
 62
     3
100
AcDbLine
 10
-2853.293723791128
 20
3747.879843901129
 30
0.0
 11
-2852.500043738828
 21
3744.752510586264
 31
0.0
  0
LINE
  5
853B
330
1E
100
AcDbEntity
  8
003
 62
     3
100
AcDbLine
 10
-2853.115945559777
 20
3750.799243271517
 30
0.0
 11
-2853.293723791128
 21
3747.879843901129
 31
0.0
  0
LINE
  5
853C
330
1E
100
AcDbEntity
  8
003
 62
     3
100
AcDbLine
 10
-2851.989258698269
 20
3752.874070437985
 30
0.0
 11
-2853.115945559777
 21
3750.799243271517
 31
0.0
  0
LINE
  5
853D
330
1E
100
AcDbEntity
  8
003
 62
     3
100
AcDbLine
 10
-2850.297791870373
 20
3754.809660264447
 30
0.0
 11
-2851.989258698269
 21
3752.874070437985
 31
0.0
  0
LINE
  5
853E
330
1E
100
AcDbEntity
  8
003
 62
     3
100
AcDbLine
 10
-2848.487806939438
 20
3756.694650923243
 30
0.0
 11
-2850.297791870373
 21
3754.809660264447
 31
0.0
  0
LINE
  5
853F
330
1E
100
AcDbEntity
  8
003
 62
     3
100
AcDbLine
 10
-2846.693940811512
 20
3763.018335314292
 30
0.0
 11
-2846.297320721079
 21
3760.667383721103
 31
0.0
  0
LINE
  5
8540
330
1E
100
AcDbEntity
  8
003
 62
     3
100
AcDbLine
 10
-2846.693940811512
 20
3763.018335314292
 30
0.0
 11
-2846.297320721079
 21
3760.667383721103
 31
0.0
  0
LINE
  5
8541
330
1E
100
AcDbEntity
  8
003
100
AcDbLine
 10
-2846.297320721079
 20
3760.667383721103
 30
0.0
 11
-2847.005563799203
 21
3758.61768023942
 31
0.0
  0
LINE
  5
8542
330
1E
100
AcDbEntity
  8
003
 62
     3
100
AcDbLine
 10
-2846.297320721079
 20
3760.667383721103
 30
0.0
 11
-2847.005563799203
 21
3758.617680239417
 31
0.0
  0
LINE
  5
8543
330
1E
100
AcDbEntity
  8
002
100
AcDbLine
 10
-2865.916766233978
 20
3762.336672469138
 30
0.0
 11
-2870.310462029596
 21
3758.880456043692
 31
0.0
  0
LINE
  5
8544
330
1E
100
AcDbEntity
  8
002
100
AcDbLine
 10
-2870.889289404251
 20
3755.597762877112
 30
0.0
 11
-2867.942661524326
 21
3750.847249340535
 31
0.0
  0
ARC
  5
8545
330
1E
100
AcDbEntity
  8
002
100
AcDbCircle
 10
-2868.764794798039
 20
3756.915535182619
 30
0.0
 40
2.5
100
AcDbArc
 50
128.1896849999879
 51
211.8103150000168
  0
ARC
  5
8546
330
1E
100
AcDbEntity
  8
002
100
AcDbCircle
 10
-2870.067156130539
 20
3749.529477035027
 30
0.0
 40
2.5
100
AcDbArc
 50
308.1896849999879
 51
31.81031500001687
  0
LINE
  5
8547
330
1E
100
AcDbEntity
  8
002
100
AcDbLine
 10
-2873.494012069255
 20
3740.82564658193
 30
0.0
 11
-2870.547384189331
 21
3736.075133045351
 31
0.0
  0
ARC
  5
8548
330
1E
100
AcDbEntity
  8
002
100
AcDbCircle
 10
-2871.369517463041
 20
3742.143418887437
 30
0.0
 40
2.5
100
AcDbArc
 50
128.1896849999879
 51
211.8103150000168
  0
LINE
  5
8549
330
1E
100
AcDbEntity
  8
002
100
AcDbLine
 10
-2868.521488898983
 20
3747.564556173955
 30
0.0
 11
-2872.9151846946
 21
3744.108339748509
 31
0.0
  0
ARC
  5
854A
330
1E
100
AcDbEntity
  8
002
100
AcDbCircle
 10
-2867.462433465536
 20
3764.301593330211
 30
0.0
 40
2.5
100
AcDbArc
 50
308.1896849999879
 51
31.81031500001687
  0
LINE
  5
854B
330
1E
100
AcDbEntity
  8
003
100
AcDbLine
 10
-2847.86495491547
 20
3765.497481581884
 30
0.0
 11
-2846.693940811512
 21
3763.018335314292
 31
0.0
  0
LINE
  5
854C
330
1E
100
AcDbEntity
  8
003
100
AcDbLine
 10
-2847.86495491547
 20
3765.497481581884
 30
0.0
 11
-2846.693940811512
 21
3763.018335314292
 31
0.0
  0
LINE
  5
854D
330
1E
100
AcDbEntity
  8
003
 62
     3
100
AcDbLine
 10
-2852.156579650815
 20
3733.742628830345
 30
0.0
 11
-2854.046532455789
 21
3731.931477228334
 31
0.0
  0
LINE
  5
854E
330
1E
100
AcDbEntity
  8
003
 62
     3
100
AcDbLine
 10
-2852.156579650815
 20
3733.742628830342
 30
0.0
 11
-2854.046532455789
 21
3731.931477228334
 31
0.0
  0
LINE
  5
854F
330
1E
100
AcDbEntity
  8
003
 62
     3
100
AcDbLine
 10
-2857.877529096628
 20
3728.361136312642
 30
0.0
 11
-2858.899449501848
 21
3726.375557525379
 31
0.0
  0
LINE
  5
8550
330
1E
100
AcDbEntity
  8
003
 62
     3
100
AcDbLine
 10
-2857.877529096628
 20
3728.361136312642
 30
0.0
 11
-2858.899449501848
 21
3726.375557525379
 31
0.0
  0
LINE
  5
8551
330
1E
100
AcDbEntity
  8
003
 62
     3
100
AcDbLine
 10
-2858.899449501848
 20
3726.375557525379
 30
0.0
 11
-2858.774656447691
 21
3723.778018991978
 31
0.0
  0
LINE
  5
8552
330
1E
100
AcDbEntity
  8
003
 62
     3
100
AcDbLine
 10
-2858.899449501848
 20
3726.375557525379
 30
0.0
 11
-2858.774656447691
 21
3723.778018991978
 31
0.0
  0
LINE
  5
8553
330
1E
100
AcDbEntity
  8
003
 62
     3
100
AcDbLine
 10
-2856.106703499374
 20
3730.175378083797
 30
0.0
 11
-2857.877529096628
 21
3728.361136312642
 31
0.0
  0
LINE
  5
8554
330
1E
100
AcDbEntity
  8
003
 62
     3
100
AcDbLine
 10
-2856.106703499374
 20
3730.175378083797
 30
0.0
 11
-2857.877529096628
 21
3728.361136312642
 31
0.0
  0
LINE
  5
8555
330
1E
100
AcDbEntity
  8
003
 62
     3
100
AcDbLine
 10
-2854.046532455789
 20
3731.931477228334
 30
0.0
 11
-2856.106703499374
 21
3730.175378083797
 31
0.0
  0
LINE
  5
8556
330
1E
100
AcDbEntity
  8
003
 62
     3
100
AcDbLine
 10
-2854.046532455789
 20
3731.931477228334
 30
0.0
 11
-2856.106703499374
 21
3730.175378083797
 31
0.0
  0
ARC
  5
8557
330
1E
100
AcDbEntity
  8
002
100
AcDbCircle
 10
-2872.671878795543
 20
3734.757360739845
 30
0.0
 40
2.5
100
AcDbArc
 50
308.1896849999879
 51
31.81031500001687
  0
LINE
  5
8558
330
1E
100
AcDbEntity
  8
003
 62
     3
100
AcDbLine
 10
-2850.89640650955
 20
3735.722023513735
 30
0.0
 11
-2852.156579650815
 21
3733.742628830345
 31
0.0
  0
LINE
  5
8559
330
1E
100
AcDbEntity
  8
003
 62
     3
100
AcDbLine
 10
-2850.896406509551
 20
3735.722023513735
 30
0.0
 11
-2852.156579650815
 21
3733.742628830342
 31
0.0
  0
ARC
  5
855A
330
1E
100
AcDbEntity
  8
002
100
AcDbCircle
 10
-2873.974240128045
 20
3727.371302592253
 30
0.0
 40
2.5
100
AcDbArc
 50
128.1896849999879
 51
211.8103150000168
  0
LINE
  5
855B
330
1E
100
AcDbEntity
  8
002
100
AcDbLine
 10
-2871.126211563986
 20
3732.792439878772
 30
0.0
 11
-2875.519907359603
 21
3729.336223453325
 31
0.0
  0
ARC
  5
855C
330
1E
100
AcDbEntity
  8
002
100
AcDbCircle
 10
-2862.252988135527
 20
3793.845825920578
 30
0.0
 40
2.5
100
AcDbArc
 50
308.1896849999879
 51
31.81031500001687
  0
LINE
  5
855D
330
1E
100
AcDbEntity
  8
002
100
AcDbLine
 10
-2839.869539583938
 20
3910.057835420969
 30
0.0
 11
-2844.263235379556
 21
3906.601618995523
 31
0.0
  0
LINE
  5
855E
330
1E
100
AcDbEntity
  8
002
100
AcDbLine
 10
-2833.961332252038
 20
3885.153533681421
 30
0.0
 11
-2845.748459809954
 21
3887.231922294934
 31
0.0
  0
LINE
  5
855F
330
1E
100
AcDbEntity
  8
002
100
AcDbLine
 10
-2841.483127106117
 20
3895.110955258578
 30
0.0
 11
-2845.876822901735
 21
3891.65473883313
 31
0.0
  0
LINE
  5
8560
330
1E
100
AcDbEntity
  8
002
100
AcDbLine
 10
-2842.474262248943
 20
3895.285719125787
 30
0.0
 11
-2846.86795804456
 21
3891.82950270034
 31
0.0
  0
LINE
  5
8561
330
1E
100
AcDbEntity
  8
002
100
AcDbLine
 10
-2843.850927611385
 20
3903.144161961736
 30
0.0
 11
-2840.904299731461
 21
3898.393648425156
 31
0.0
  0
LINE
  5
8562
330
1E
100
AcDbEntity
  8
002
100
AcDbLine
 10
-2844.84206275421
 20
3903.318925828943
 30
0.0
 11
-2841.895434874288
 21
3898.568412292366
 31
0.0
  0
LINE
  5
8563
330
1E
100
AcDbEntity
  8
002
100
AcDbLine
 10
-2838.878404441113
 20
3909.88307155376
 30
0.0
 11
-2843.272100236731
 21
3906.426855128314
 31
0.0
  0
ARC
  5
8564
330
1E
100
AcDbEntity
  8
002
100
AcDbCircle
 10
-2841.726433005172
 20
3904.461934267242
 30
0.0
 40
2.5
100
AcDbArc
 50
128.1896849999879
 51
211.8103150000168
  0
LINE
  5
8565
330
1E
100
AcDbEntity
  8
002
100
AcDbLine
 10
-2847.446785419215
 20
3888.54680953376
 30
0.0
 11
-2844.50015753929
 21
3883.796295997182
 31
0.0
  0
ARC
  5
8566
330
1E
100
AcDbEntity
  8
002
100
AcDbCircle
 10
-2845.322290813003
 20
3889.864581839267
 30
0.0
 40
2.5
100
AcDbArc
 50
128.1896849999879
 51
211.8103150000168
  0
ARC
  5
8567
330
1E
100
AcDbEntity
  8
002
100
AcDbCircle
 10
-2844.331155670177
 20
3889.689817972058
 30
0.0
 40
2.5
100
AcDbArc
 50
128.1896849999879
 51
211.8103150000168
  0
LINE
  5
8568
330
1E
100
AcDbEntity
  8
002
100
AcDbLine
 10
-2846.455650276389
 20
3888.372045666552
 30
0.0
 11
-2845.748459809954
 21
3887.231922294934
 31
0.0
  0
ARC
  5
8569
330
1E
100
AcDbEntity
  8
002
100
AcDbCircle
 10
-2846.624652145503
 20
3882.478523691675
 30
0.0
 40
2.5
100
AcDbArc
 50
308.1896849999879
 51
31.81031500001687
  0
ARC
  5
856A
330
1E
100
AcDbEntity
  8
002
100
AcDbCircle
 10
-2847.927013478005
 20
3875.092465544085
 30
0.0
 40
2.5
100
AcDbArc
 50
128.1896849999879
 51
211.8103150000168
  0
LINE
  5
856B
330
1E
100
AcDbEntity
  8
002
100
AcDbLine
 10
-2850.05150808422
 20
3873.774693238577
 30
0.0
 11
-2847.104880204295
 21
3869.024179701999
 31
0.0
  0
LINE
  5
856C
330
1E
100
AcDbEntity
  8
002
100
AcDbLine
 10
-2847.68370757895
 20
3865.741486535419
 30
0.0
 11
-2852.077403374567
 21
3862.285270109974
 31
0.0
  0
ARC
  5
856D
330
1E
100
AcDbEntity
  8
002
100
AcDbCircle
 10
-2849.229374810507
 20
3867.706407396493
 30
0.0
 40
2.5
100
AcDbArc
 50
308.1896849999879
 51
31.81031500001687
  0
LINE
  5
856E
330
1E
100
AcDbEntity
  8
002
100
AcDbLine
 10
-2852.656230749224
 20
3859.002576943395
 30
0.0
 11
-2849.709602869299
 21
3854.252063406816
 31
0.0
  0
ARC
  5
856F
330
1E
100
AcDbEntity
  8
002
100
AcDbCircle
 10
-2851.834097475512
 20
3852.934291101309
 30
0.0
 40
2.5
100
AcDbArc
 50
308.1896849999879
 51
31.81031500001687
  0
ARC
  5
8570
330
1E
100
AcDbEntity
  8
002
100
AcDbCircle
 10
-2850.531736143009
 20
3860.320349248901
 30
0.0
 40
2.5
100
AcDbArc
 50
128.1896849999879
 51
211.8103150000168
  0
LINE
  5
8571
330
1E
100
AcDbEntity
  8
002
100
AcDbLine
 10
-2845.078984913947
 20
3880.513602830603
 30
0.0
 11
-2849.472680709565
 21
3877.057386405156
 31
0.0
  0
ARC
  5
8572
330
1E
100
AcDbEntity
  8
002
100
AcDbCircle
 10
-2853.136458808014
 20
3845.548232953718
 30
0.0
 40
2.5
100
AcDbArc
 50
128.1896849999879
 51
211.8103150000168
  0
LINE
  5
8573
330
1E
100
AcDbEntity
  8
002
100
AcDbLine
 10
-2850.288430243954
 20
3850.969370240238
 30
0.0
 11
-2854.682126039572
 21
3847.51315381479
 31
0.0
  0
ARC
  5
8574
330
1E
100
AcDbEntity
  8
002
100
AcDbCircle
 10
-2842.717568147998
 20
3904.63669813445
 30
0.0
 40
2.5
100
AcDbArc
 50
128.1896849999879
 51
211.8103150000168
  0
ARC
  5
8575
330
1E
100
AcDbEntity
  8
002
100
AcDbCircle
 10
-2832.60990367766
 20
3956.164341300383
 30
0.0
 40
2.5
100
AcDbArc
 50
308.1896849999879
 51
31.81031500001687
  0
ARC
  5
8576
330
1E
100
AcDbEntity
  8
002
100
AcDbCircle
 10
-2833.601038820485
 20
3956.339105167591
 30
0.0
 40
2.5
100
AcDbArc
 50
308.1896849999879
 51
31.81031500001687
  0
ARC
  5
8577
330
1E
100
AcDbEntity
  8
002
100
AcDbCircle
 10
-2835.214626342663
 20
3941.392225005199
 30
0.0
 40
2.5
100
AcDbArc
 50
308.1896849999879
 51
31.81031500001687
  0
ARC
  5
8578
330
1E
100
AcDbEntity
  8
002
100
AcDbCircle
 10
-2834.903400152987
 20
3948.95304702
 30
0.0
 40
2.5
100
AcDbArc
 50
128.1896849999879
 51
211.8103150000168
  0
ARC
  5
8579
330
1E
100
AcDbEntity
  8
002
100
AcDbCircle
 10
-2833.912265010162
 20
3948.778283152791
 30
0.0
 40
2.5
100
AcDbArc
 50
128.1896849999879
 51
211.8103150000168
  0
LINE
  5
857A
330
1E
100
AcDbEntity
  8
002
100
AcDbLine
 10
-2834.660094253932
 20
3939.602068011335
 30
0.0
 11
-2839.053790049549
 21
3936.145851585889
 31
0.0
  0
LINE
  5
857B
330
1E
100
AcDbEntity
  8
002
100
AcDbLine
 10
-2837.0278947592
 20
3947.635274714493
 30
0.0
 11
-2834.081266879275
 21
3942.884761177915
 31
0.0
  0
LINE
  5
857C
330
1E
100
AcDbEntity
  8
002
100
AcDbLine
 10
-2836.273681776109
 20
3924.655187848944
 30
0.0
 11
-2840.667377571726
 21
3921.198971423497
 31
0.0
  0
LINE
  5
857D
330
1E
100
AcDbEntity
  8
002
100
AcDbLine
 10
-2837.264816918934
 20
3924.829951716153
 30
0.0
 11
-2841.658512714552
 21
3921.373735290706
 31
0.0
  0
ARC
  5
857E
330
1E
100
AcDbEntity
  8
002
100
AcDbCircle
 10
-2840.112845482994
 20
3919.408814429634
 30
0.0
 40
2.5
100
AcDbArc
 50
128.1896849999879
 51
211.8103150000168
  0
ARC
  5
857F
330
1E
100
AcDbEntity
  8
002
100
AcDbCircle
 10
-2839.121710340169
 20
3919.234050562426
 30
0.0
 40
2.5
100
AcDbArc
 50
128.1896849999879
 51
211.8103150000168
  0
ARC
  5
8580
330
1E
100
AcDbEntity
  8
002
100
AcDbCircle
 10
-2837.819349007666
 20
3926.620108710016
 30
0.0
 40
2.5
100
AcDbArc
 50
308.1896849999879
 51
31.81031500001687
  0
ARC
  5
8581
330
1E
100
AcDbEntity
  8
002
100
AcDbCircle
 10
-2838.810484150492
 20
3926.794872577225
 30
0.0
 40
2.5
100
AcDbArc
 50
308.1896849999879
 51
31.81031500001687
  0
ARC
  5
8582
330
1E
100
AcDbEntity
  8
002
100
AcDbCircle
 10
-2840.42407167267
 20
3911.847992414834
 30
0.0
 40
2.5
100
AcDbArc
 50
308.1896849999879
 51
31.81031500001687
  0
ARC
  5
8583
330
1E
100
AcDbEntity
  8
002
100
AcDbCircle
 10
-2841.415206815496
 20
3912.022756282042
 30
0.0
 40
2.5
100
AcDbArc
 50
308.1896849999879
 51
31.81031500001687
  0
LINE
  5
8584
330
1E
100
AcDbEntity
  8
002
100
AcDbLine
 10
-2841.246204946381
 20
3917.916278256917
 30
0.0
 11
-2838.299577066458
 21
3913.16576472034
 31
0.0
  0
LINE
  5
8585
330
1E
100
AcDbEntity
  8
002
100
AcDbLine
 10
-2842.237340089208
 20
3918.091042124127
 30
0.0
 11
-2839.290712209283
 21
3913.340528587548
 31
0.0
  0
LINE
  5
8586
330
1E
100
AcDbEntity
  8
002
100
AcDbLine
 10
-2838.641482281376
 20
3932.688394552101
 30
0.0
 11
-2835.694854401454
 21
3927.937881015523
 31
0.0
  0
LINE
  5
8587
330
1E
100
AcDbEntity
  8
002
100
AcDbLine
 10
-2839.632617424204
 20
3932.863158419309
 30
0.0
 11
-2836.685989544279
 21
3928.112644882732
 31
0.0
  0
ARC
  5
8588
330
1E
100
AcDbEntity
  8
002
100
AcDbCircle
 10
-2837.50812281799
 20
3934.180930724816
 30
0.0
 40
2.5
100
AcDbArc
 50
128.1896849999879
 51
211.8103150000168
  0
ARC
  5
8589
330
1E
100
AcDbEntity
  8
002
100
AcDbCircle
 10
-2836.516987675166
 20
3934.006166857608
 30
0.0
 40
2.5
100
AcDbArc
 50
128.1896849999879
 51
211.8103150000168
  0
LINE
  5
858A
330
1E
100
AcDbEntity
  8
002
100
AcDbLine
 10
-2831.064236446101
 20
3954.19942043931
 30
0.0
 11
-2835.457932241718
 21
3950.743204013864
 31
0.0
  0
LINE
  5
858B
330
1E
100
AcDbEntity
  8
002
100
AcDbLine
 10
-2832.055371588927
 20
3954.374184306519
 30
0.0
 11
-2836.449067384545
 21
3950.917967881071
 31
0.0
  0
LINE
  5
858C
330
1E
100
AcDbEntity
  8
002
100
AcDbLine
 10
-2833.668959111104
 20
3939.427304144128
 30
0.0
 11
-2838.062654906721
 21
3935.97108771868
 31
0.0
  0
ARC
  5
858D
330
1E
100
AcDbEntity
  8
002
100
AcDbCircle
 10
-2836.205761485487
 20
3941.566988872408
 30
0.0
 40
2.5
100
AcDbArc
 50
308.1896849999879
 51
31.81031500001687
  0
LINE
  5
858E
330
1E
100
AcDbEntity
  8
002
100
AcDbLine
 10
-2836.036759616374
 20
3947.460510847285
 30
0.0
 11
-2833.090131736449
 21
3942.709997310707
 31
0.0
  0
ARC
  5
858F
330
1E
100
AcDbEntity
  8
002
100
AcDbCircle
 10
-2843.028794337675
 20
3897.07587611965
 30
0.0
 40
2.5
100
AcDbArc
 50
308.1896849999879
 51
31.81031500001687
  0
ARC
  5
8590
330
1E
100
AcDbEntity
  8
002
100
AcDbCircle
 10
-2844.0199294805
 20
3897.250639986859
 30
0.0
 40
2.5
100
AcDbArc
 50
308.1896849999879
 51
31.81031500001687
  0
LINE
  5
8591
330
1E
100
AcDbEntity
  8
002
100
AcDbLine
 10
-2891.640035770551
 20
4079.116062075339
 30
0.0
 11
-2881.586722566902
 21
4106.737312415287
 31
0.0
  0
LINE
  5
8592
330
1E
100
AcDbEntity
  8
002
100
AcDbLine
 10
-2835.976039634946
 20
4069.30099770258
 30
0.0
 11
-2904.04544237297
 21
4075.380148401812
 31
0.0
  0
LINE
  5
8593
330
1E
100
AcDbEntity
  8
002
100
AcDbLine
 10
-2819.132360880488
 20
4052.791981530449
 30
0.0
 11
-2906.650165037972
 21
4060.60803210663
 31
0.0
  0
LINE
  5
8594
330
1E
100
AcDbEntity
  8
002
100
AcDbLine
 10
-2824.341806210497
 20
4023.247748940081
 30
0.0
 11
-2911.859610367981
 21
4031.063799516263
 31
0.0
  0
LINE
  5
8595
330
1E
100
AcDbEntity
  8
002
100
AcDbLine
 10
-2818.115406112934
 20
4029.76556619934
 30
0.0
 11
-2915.48128780054
 21
4039.31809855219
 31
0.0
  0
LINE
  5
8596
330
1E
100
AcDbEntity
  8
002
100
AcDbLine
 10
-2821.737083545493
 20
4038.019865235265
 30
0.0
 11
-2909.254887702976
 21
4045.835915811447
 31
0.0
  0
LINE
  5
8597
330
1E
100
AcDbEntity
  8
002
100
AcDbLine
 10
-2907.32959502921
 20
4081.882554688064
 30
0.0
 11
-2816.190113439168
 21
4065.812205075958
 31
0.0
  0
LINE
  5
8598
330
1E
100
AcDbEntity
  8
002
100
AcDbLine
 10
-2815.51068344793
 20
4044.537682494523
 30
0.0
 11
-2912.876565135535
 21
4054.090214847373
 31
0.0
  0
LINE
  5
8599
330
1E
100
AcDbEntity
  8
002
100
AcDbLine
 10
-2812.905960782925
 20
4059.309798789706
 30
0.0
 11
-2910.27184247053
 21
4068.862331142556
 31
0.0
  0
LINE
  5
859A
330
1E
100
AcDbEntity
  8
002
100
AcDbLine
 10
-2896.600839445189
 20
4094.724409461768
 30
0.0
 11
-2871.586722537631
 21
4163.450130777468
 31
0.0
  0
LINE
  5
859B
330
1E
100
AcDbEntity
  8
002
100
AcDbLine
 10
-2829.551251540504
 20
3993.703516349716
 30
0.0
 11
-2917.069055697988
 21
4001.519566925897
 31
0.0
  0
LINE
  5
859C
330
1E
100
AcDbEntity
  8
002
100
AcDbLine
 10
-2826.946528875502
 20
4008.4756326449
 30
0.0
 11
-2914.464333032985
 21
4016.291683221081
 31
0.0
  0
LINE
  5
859D
330
1E
100
AcDbEntity
  8
002
100
AcDbLine
 10
-2832.155974205508
 20
3978.931400054533
 30
0.0
 11
-2919.673778362992
 21
3986.747450630714
 31
0.0
  0
LINE
  5
859E
330
1E
100
AcDbEntity
  8
002
100
AcDbLine
 10
-2825.929574107945
 20
3985.449217313791
 30
0.0
 11
-2923.295455795551
 21
3995.00174966664
 31
0.0
  0
LINE
  5
859F
330
1E
100
AcDbEntity
  8
002
100
AcDbLine
 10
-2828.53429677295
 20
3970.677101018607
 30
0.0
 11
-2925.900178460555
 21
3980.229633371457
 31
0.0
  0
LINE
  5
85A0
330
1E
100
AcDbEntity
  8
002
100
AcDbLine
 10
-2823.324851442941
 20
4000.221333608973
 30
0.0
 11
-2920.690733130548
 21
4009.773865961824
 31
0.0
  0
LINE
  5
85A1
330
1E
100
AcDbEntity
  8
002
100
AcDbLine
 10
-2834.760696870513
 20
3964.15928375935
 30
0.0
 11
-2922.278501027996
 21
3971.97533433553
 31
0.0
  0
LINE
  5
85A2
330
1E
100
AcDbEntity
  8
002
100
AcDbLine
 10
-2820.720128777937
 20
4014.993449904157
 30
0.0
 11
-2918.086010465544
 21
4024.545982257007
 31
0.0
  0
LINE
  5
85A3
330
1E
100
AcDbEntity
  8
002
100
AcDbLine
 10
-2922.812210915866
 20
4094.766823719684
 30
0.0
 11
-2926.632470824539
 21
4073.101053153417
 31
0.0
  0
LINE
  5
85A4
330
1E
100
AcDbEntity
  8
002
100
AcDbLine
 10
-2907.32959502921
 20
4081.882554688064
 30
0.0
 11
-2904.382967149286
 21
4077.132041151486
 31
0.0
  0
LINE
  5
85A5
330
1E
100
AcDbEntity
  8
002
100
AcDbLine
 10
-2908.755714832501
 20
4082.134018087108
 30
0.0
 11
-2905.809086952578
 21
4077.38350455053
 31
0.0
  0
LINE
  5
85A6
330
1E
100
AcDbEntity
  8
003
 62
     3
100
AcDbLine
 10
-2922.812210915866
 20
4094.766823719684
 30
0.0
 11
-2926.632470824539
 21
4073.101053153417
 31
0.0
  0
LINE
  5
85A7
330
1E
100
AcDbEntity
  8
003
 62
     3
100
AcDbLine
 10
-2922.812210915866
 20
4094.766823719684
 30
0.0
 11
-2926.632470824539
 21
4073.101053153417
 31
0.0
  0
LINE
  5
85A8
330
1E
100
AcDbEntity
  8
002
100
AcDbLine
 10
-2926.98877348753
 20
3978.729204020826
 30
0.0
 11
-2924.042145607606
 21
3973.978690484248
 31
0.0
  0
LINE
  5
85A9
330
1E
100
AcDbEntity
  8
002
100
AcDbLine
 10
-2922.016250317257
 20
3985.468113612853
 30
0.0
 11
-2926.409946112873
 21
3982.011897187405
 31
0.0
  0
LINE
  5
85AA
330
1E
100
AcDbEntity
  8
002
100
AcDbLine
 10
-2923.194853178969
 20
3970.444533918625
 30
0.0
 11
-2927.588548974587
 21
3966.988317493179
 31
0.0
  0
LINE
  5
85AB
330
1E
100
AcDbEntity
  8
002
100
AcDbLine
 10
-2924.62097298226
 20
3970.695997317669
 30
0.0
 11
-2929.014668777877
 21
3967.239780892222
 31
0.0
  0
LINE
  5
85AC
330
1E
100
AcDbEntity
  8
002
100
AcDbLine
 10
-2925.562653684237
 20
3978.477740621783
 30
0.0
 11
-2922.616025804313
 21
3973.727227085205
 31
0.0
  0
ARC
  5
85AD
330
1E
100
AcDbEntity
  8
002
100
AcDbCircle
 10
-2923.438159078024
 20
3979.79551292729
 30
0.0
 40
2.5
100
AcDbArc
 50
128.1896849999879
 51
211.8103150000168
  0
ARC
  5
85AE
330
1E
100
AcDbEntity
  8
002
100
AcDbCircle
 10
-2924.864278881317
 20
3980.046976326333
 30
0.0
 40
2.5
100
AcDbArc
 50
128.1896849999879
 51
211.8103150000168
  0
ARC
  5
85AF
330
1E
100
AcDbEntity
  8
002
100
AcDbCircle
 10
-2927.469001546322
 20
3965.27486003115
 30
0.0
 40
2.5
100
AcDbArc
 50
128.1896849999879
 51
211.8103150000168
  0
LINE
  5
85B0
330
1E
100
AcDbEntity
  8
002
100
AcDbLine
 10
-2929.593496152532
 20
3963.957087725642
 30
0.0
 11
-2926.64686827261
 21
3959.206574189065
 31
0.0
  0
ARC
  5
85B1
330
1E
100
AcDbEntity
  8
002
100
AcDbCircle
 10
-2926.042881743029
 20
3965.023396632107
 30
0.0
 40
2.5
100
AcDbArc
 50
128.1896849999879
 51
211.8103150000168
  0
ARC
  5
85B2
330
1E
100
AcDbEntity
  8
002
100
AcDbCircle
 10
-2906.5074617555
 20
4075.81426884598
 30
0.0
 40
2.5
100
AcDbArc
 50
308.1896849999879
 51
31.81031500001687
  0
ARC
  5
85B3
330
1E
100
AcDbEntity
  8
002
100
AcDbCircle
 10
-2907.933581558791
 20
4076.065732245023
 30
0.0
 40
2.5
100
AcDbArc
 50
308.1896849999879
 51
31.81031500001687
  0
LINE
  5
85B4
330
1E
100
AcDbEntity
  8
002
100
AcDbLine
 10
-2904.96179452394
 20
4073.849347984908
 30
0.0
 11
-2909.355490319558
 21
4070.393131559462
 31
0.0
  0
ARC
  5
85B5
330
1E
100
AcDbEntity
  8
002
100
AcDbCircle
 10
-2909.112184420504
 20
4061.042152550796
 30
0.0
 40
2.5
100
AcDbArc
 50
308.1896849999879
 51
31.81031500001687
  0
ARC
  5
85B6
330
1E
100
AcDbEntity
  8
002
100
AcDbCircle
 10
-2907.809823088002
 20
4068.428210698388
 30
0.0
 40
2.5
100
AcDbArc
 50
128.1896849999879
 51
211.8103150000168
  0
LINE
  5
85B7
330
1E
100
AcDbEntity
  8
002
100
AcDbLine
 10
-2911.360437497505
 20
4067.361901791924
 30
0.0
 11
-2908.413809617581
 21
4062.611388255347
 31
0.0
  0
ARC
  5
85B8
330
1E
100
AcDbEntity
  8
002
100
AcDbCircle
 10
-2909.235942891293
 20
4068.679674097432
 30
0.0
 40
2.5
100
AcDbArc
 50
128.1896849999879
 51
211.8103150000168
  0
LINE
  5
85B9
330
1E
100
AcDbEntity
  8
002
100
AcDbLine
 10
-2908.992636992238
 20
4059.328695088768
 30
0.0
 11
-2913.386332787855
 21
4055.87247866332
 31
0.0
  0
ARC
  5
85BA
330
1E
100
AcDbEntity
  8
002
100
AcDbCircle
 10
-2910.414545753004
 20
4053.656094403206
 30
0.0
 40
2.5
100
AcDbArc
 50
128.1896849999879
 51
211.8103150000168
  0
ARC
  5
85BB
330
1E
100
AcDbEntity
  8
002
100
AcDbCircle
 10
-2911.840665556297
 20
4053.907557802249
 30
0.0
 40
2.5
100
AcDbArc
 50
128.1896849999879
 51
211.8103150000168
  0
ARC
  5
85BC
330
1E
100
AcDbEntity
  8
002
100
AcDbCircle
 10
-2910.538304223795
 20
4061.29361594984
 30
0.0
 40
2.5
100
AcDbArc
 50
308.1896849999879
 51
31.81031500001687
  0
LINE
  5
85BD
330
1E
100
AcDbEntity
  8
002
100
AcDbLine
 10
-2909.934317694215
 20
4067.110438392882
 30
0.0
 11
-2906.98768981429
 21
4062.359924856304
 31
0.0
  0
LINE
  5
85BE
330
1E
100
AcDbEntity
  8
002
100
AcDbLine
 10
-2906.387914327233
 20
4074.10081138395
 30
0.0
 11
-2910.78161012285
 21
4070.644594958504
 31
0.0
  0
LINE
  5
85BF
330
1E
100
AcDbEntity
  8
002
100
AcDbLine
 10
-2907.566517188945
 20
4059.077231689725
 30
0.0
 11
-2911.960212984562
 21
4055.621015264278
 31
0.0
  0
ARC
  5
85C0
330
1E
100
AcDbEntity
  8
002
100
AcDbCircle
 10
-2911.716907085507
 20
4046.270036255615
 30
0.0
 40
2.5
100
AcDbArc
 50
308.1896849999879
 51
31.81031500001687
  0
ARC
  5
85C1
330
1E
100
AcDbEntity
  8
002
100
AcDbCircle
 10
-2913.1430268888
 20
4046.521499654657
 30
0.0
 40
2.5
100
AcDbArc
 50
308.1896849999879
 51
31.81031500001687
  0
LINE
  5
85C2
330
1E
100
AcDbEntity
  8
002
100
AcDbLine
 10
-2910.171239853949
 20
4044.305115394541
 30
0.0
 11
-2914.564935649567
 21
4040.848898969094
 31
0.0
  0
ARC
  5
85C3
330
1E
100
AcDbEntity
  8
002
100
AcDbCircle
 10
-2914.321629750511
 20
4031.497919960431
 30
0.0
 40
2.5
100
AcDbArc
 50
308.1896849999879
 51
31.81031500001687
  0
ARC
  5
85C4
330
1E
100
AcDbEntity
  8
002
100
AcDbCircle
 10
-2915.747749553804
 20
4031.749383359474
 30
0.0
 40
2.5
100
AcDbArc
 50
308.1896849999879
 51
31.81031500001687
  0
LINE
  5
85C5
330
1E
100
AcDbEntity
  8
002
100
AcDbLine
 10
-2912.539040359217
 20
4052.338322097699
 30
0.0
 11
-2909.592412479295
 21
4047.587808561121
 31
0.0
  0
LINE
  5
85C6
330
1E
100
AcDbEntity
  8
002
100
AcDbLine
 10
-2913.96516016251
 20
4052.589785496741
 30
0.0
 11
-2911.018532282585
 21
4047.839271960163
 31
0.0
  0
ARC
  5
85C7
330
1E
100
AcDbEntity
  8
002
100
AcDbCircle
 10
-2914.445388221302
 20
4039.135441507065
 30
0.0
 40
2.5
100
AcDbArc
 50
128.1896849999879
 51
211.8103150000168
  0
ARC
  5
85C8
330
1E
100
AcDbEntity
  8
002
100
AcDbCircle
 10
-2915.623991083013
 20
4024.11186181284
 30
0.0
 40
2.5
100
AcDbArc
 50
128.1896849999879
 51
211.8103150000168
  0
ARC
  5
85C9
330
1E
100
AcDbEntity
  8
002
100
AcDbCircle
 10
-2917.050110886304
 20
4024.363325211883
 30
0.0
 40
2.5
100
AcDbArc
 50
128.1896849999879
 51
211.8103150000168
  0
ARC
  5
85CA
330
1E
100
AcDbEntity
  8
002
100
AcDbCircle
 10
-2913.019268418009
 20
4038.883978108023
 30
0.0
 40
2.5
100
AcDbArc
 50
128.1896849999879
 51
211.8103150000168
  0
LINE
  5
85CB
330
1E
100
AcDbEntity
  8
002
100
AcDbLine
 10
-2915.143763024222
 20
4037.566205802515
 30
0.0
 11
-2912.197135144297
 21
4032.815692265938
 31
0.0
  0
LINE
  5
85CC
330
1E
100
AcDbEntity
  8
002
100
AcDbLine
 10
-2916.569882827514
 20
4037.817669201557
 30
0.0
 11
-2913.623254947589
 21
4033.067155664981
 31
0.0
  0
LINE
  5
85CD
330
1E
100
AcDbEntity
  8
002
100
AcDbLine
 10
-2911.59735965724
 20
4044.556578793584
 30
0.0
 11
-2915.991055452858
 21
4041.100362368137
 31
0.0
  0
LINE
  5
85CE
330
1E
100
AcDbEntity
  8
002
100
AcDbLine
 10
-2912.775962518953
 20
4029.532999099358
 30
0.0
 11
-2917.169658314571
 21
4026.076782673912
 31
0.0
  0
LINE
  5
85CF
330
1E
100
AcDbEntity
  8
002
100
AcDbLine
 10
-2914.202082322244
 20
4029.784462498401
 30
0.0
 11
-2918.595778117862
 21
4026.328246072955
 31
0.0
  0
ARC
  5
85D0
330
1E
100
AcDbEntity
  8
002
100
AcDbCircle
 10
-2922.259556216313
 20
3994.819092621516
 30
0.0
 40
2.5
100
AcDbArc
 50
128.1896849999879
 51
211.8103150000168
  0
ARC
  5
85D1
330
1E
100
AcDbEntity
  8
002
100
AcDbCircle
 10
-2918.228713748018
 20
4009.339745517656
 30
0.0
 40
2.5
100
AcDbArc
 50
128.1896849999879
 51
211.8103150000168
  0
LINE
  5
85D2
330
1E
100
AcDbEntity
  8
002
100
AcDbLine
 10
-2915.380685183956
 20
4014.760882804175
 30
0.0
 11
-2919.774380979573
 21
4011.304666378729
 31
0.0
  0
LINE
  5
85D3
330
1E
100
AcDbEntity
  8
002
100
AcDbLine
 10
-2916.806804987249
 20
4015.012346203218
 30
0.0
 11
-2921.200500782866
 21
4011.556129777771
 31
0.0
  0
LINE
  5
85D4
330
1E
100
AcDbEntity
  8
002
100
AcDbLine
 10
-2920.35320835423
 20
4008.021973212149
 30
0.0
 11
-2917.406580474306
 21
4003.271459675572
 31
0.0
  0
LINE
  5
85D5
330
1E
100
AcDbEntity
  8
002
100
AcDbLine
 10
-2921.779328157521
 20
4008.273436611192
 30
0.0
 11
-2918.832700277599
 21
4003.522923074615
 31
0.0
  0
ARC
  5
85D6
330
1E
100
AcDbEntity
  8
002
100
AcDbCircle
 10
-2919.654833551309
 20
4009.591208916699
 30
0.0
 40
2.5
100
AcDbArc
 50
128.1896849999879
 51
211.8103150000168
  0
ARC
  5
85D7
330
1E
100
AcDbEntity
  8
002
100
AcDbCircle
 10
-2918.352472218806
 20
4016.977267064291
 30
0.0
 40
2.5
100
AcDbArc
 50
308.1896849999879
 51
31.81031500001687
  0
ARC
  5
85D8
330
1E
100
AcDbEntity
  8
002
100
AcDbCircle
 10
-2920.83343641302
 20
3994.567629222473
 30
0.0
 40
2.5
100
AcDbArc
 50
128.1896849999879
 51
211.8103150000168
  0
LINE
  5
85D9
330
1E
100
AcDbEntity
  8
002
100
AcDbLine
 10
-2917.985407848961
 20
3999.988766508992
 30
0.0
 11
-2922.379103644578
 21
3996.532550083545
 31
0.0
  0
LINE
  5
85DA
330
1E
100
AcDbEntity
  8
002
100
AcDbLine
 10
-2919.411527652253
 20
4000.240229908034
 30
0.0
 11
-2923.805223447871
 21
3996.784013482589
 31
0.0
  0
ARC
  5
85DB
330
1E
100
AcDbEntity
  8
002
100
AcDbCircle
 10
-2919.53107508052
 20
4001.953687370065
 30
0.0
 40
2.5
100
AcDbArc
 50
308.1896849999879
 51
31.81031500001687
  0
ARC
  5
85DC
330
1E
100
AcDbEntity
  8
002
100
AcDbCircle
 10
-2920.957194883811
 20
4002.205150769108
 30
0.0
 40
2.5
100
AcDbArc
 50
308.1896849999879
 51
31.81031500001687
  0
ARC
  5
85DD
330
1E
100
AcDbEntity
  8
002
100
AcDbCircle
 10
-2924.740520410527
 20
3972.409454779699
 30
0.0
 40
2.5
100
AcDbArc
 50
308.1896849999879
 51
31.81031500001687
  0
ARC
  5
85DE
330
1E
100
AcDbEntity
  8
002
100
AcDbCircle
 10
-2926.16664021382
 20
3972.660918178741
 30
0.0
 40
2.5
100
AcDbArc
 50
308.1896849999879
 51
31.81031500001687
  0
LINE
  5
85DF
330
1E
100
AcDbEntity
  8
002
100
AcDbLine
 10
-2920.590130513965
 20
3985.216650213809
 30
0.0
 11
-2924.983826309582
 21
3981.760433788361
 31
0.0
  0
ARC
  5
85E0
330
1E
100
AcDbEntity
  8
002
100
AcDbCircle
 10
-2922.135797745522
 20
3987.181571074882
 30
0.0
 40
2.5
100
AcDbArc
 50
308.1896849999879
 51
31.81031500001687
  0
ARC
  5
85E1
330
1E
100
AcDbEntity
  8
002
100
AcDbCircle
 10
-2923.561917548815
 20
3987.433034473924
 30
0.0
 40
2.5
100
AcDbArc
 50
308.1896849999879
 51
31.81031500001687
  0
LINE
  5
85E2
330
1E
100
AcDbEntity
  8
002
100
AcDbLine
 10
-2922.957931019233
 20
3993.249856916966
 30
0.0
 11
-2920.01130313931
 21
3988.499343380388
 31
0.0
  0
LINE
  5
85E3
330
1E
100
AcDbEntity
  8
002
100
AcDbLine
 10
-2924.384050822526
 20
3993.501320316009
 30
0.0
 11
-2921.437422942601
 21
3988.750806779431
 31
0.0
  0
ARC
  5
85E4
330
1E
100
AcDbEntity
  8
002
100
AcDbCircle
 10
-2916.926352415515
 20
4016.725803665248
 30
0.0
 40
2.5
100
AcDbArc
 50
308.1896849999879
 51
31.81031500001687
  0
LINE
  5
85E5
330
1E
100
AcDbEntity
  8
002
100
AcDbLine
 10
-2917.748485689226
 20
4022.794089507333
 30
0.0
 11
-2914.801857809301
 21
4018.043575970754
 31
0.0
  0
LINE
  5
85E6
330
1E
100
AcDbEntity
  8
002
100
AcDbLine
 10
-2919.174605492517
 20
4023.045552906375
 30
0.0
 11
-2916.227977612594
 21
4018.295039369797
 31
0.0
  0
LINE
  5
85E7
330
1E
100
AcDbEntity
  8
002
100
AcDbLine
 10
-2927.188603001674
 20
4154.025119901816
 30
0.0
 11
-2925.035031673158
 21
4166.238629824476
 31
0.0
  0
LINE
  5
85E8
330
1E
100
AcDbEntity
  8
002
100
AcDbLine
 10
-2926.566920376968
 20
4143.153931061029
 30
0.0
 11
-2890.355020305023
 21
4136.768796055626
 31
0.0
  0
LINE
  5
85E9
330
1E
100
AcDbEntity
  8
002
100
AcDbLine
 10
-2955.007374110946
 20
4125.829364936433
 30
0.0
 11
-2908.229005842866
 21
4117.581076497254
 31
0.0
  0
LINE
  5
85EA
330
1E
100
AcDbEntity
  8
002
100
AcDbLine
 10
-2959.67580160952
 20
4101.26686936477
 30
0.0
 11
-2921.925883938154
 21
4094.610540359785
 31
0.0
  0
LINE
  5
85EB
330
1E
100
AcDbEntity
  8
003
 62
     3
100
AcDbLine
 10
-2959.67580160952
 20
4101.26686936477
 30
0.0
 11
-2921.925883938156
 21
4094.610540359784
 31
0.0
  0
LINE
  5
85EC
330
1E
100
AcDbEntity
  8
003
 62
     3
100
AcDbLine
 10
-2959.67580160952
 20
4101.26686936477
 30
0.0
 11
-2921.925883938156
 21
4094.610540359784
 31
0.0
  0
LINE
  5
85ED
330
1E
100
AcDbEntity
  8
002
  6
Continuous
100
AcDbLine
 10
-2959.675802594329
 20
4101.266869538418
 30
0.0
 11
-2909.615787025502
 21
4092.439938138949
 31
0.0
  0
LINE
  5
85EE
330
1E
100
AcDbEntity
  8
003
  6
Continuous
100
AcDbLine
 10
-2961.376731481488
 20
4101.56678919349
 30
0.0
 11
-2909.615787025503
 21
4092.439938138948
 31
0.0
  0
ARC
  5
85EF
330
1E
100
AcDbEntity
  8
002
100
AcDbCircle
 10
-2934.479215353689
 20
4170.045705138627
 30
0.0
 40
5.0
100
AcDbArc
 50
305.0000000000368
 51
348.9390880000074
  0
LINE
  5
85F0
330
1E
100
AcDbEntity
  8
002
100
AcDbLine
 10
-2931.61133309563
 20
4165.949944808209
 30
0.0
 11
-2934.05483059499
 21
4164.238989439562
 31
0.0
  0
LINE
  5
85F1
330
1E
100
AcDbEntity
  8
002
100
AcDbLine
 10
-2927.783659739985
 20
4144.891614957049
 30
0.0
 11
-2925.205642806652
 21
4144.437041014977
 31
0.0
  0
LINE
  5
85F2
330
1E
100
AcDbEntity
  8
002
100
AcDbLine
 10
-2928.173410754687
 20
4154.198768079484
 30
0.0
 11
-2927.188603001674
 21
4154.025119901816
 31
0.0
  0
LINE
  5
85F3
330
1E
100
AcDbEntity
  8
002
100
AcDbLine
 10
-2926.566920376968
 20
4143.153931061029
 30
0.0
 11
-2926.844108827263
 21
4144.725946781385
 31
0.0
  0
LINE
  5
85F4
330
1E
100
AcDbEntity
  8
002
100
AcDbLine
 10
-2928.942115670665
 20
4144.080455381703
 30
0.0
 11
-2929.115763848333
 21
4143.095647628689
 31
0.0
  0
LINE
  5
85F5
330
1E
100
AcDbEntity
  8
002
100
AcDbLine
 10
-2927.783659739985
 20
4144.891614957049
 30
0.0
 11
-2928.942115670665
 21
4144.080455381703
 31
0.0
  0
LINE
  5
85F6
330
1E
100
AcDbEntity
  8
002
100
AcDbLine
 10
-2930.100571601344
 20
4143.269295806358
 30
0.0
 11
-2931.728166893927
 21
4142.676899938555
 31
0.0
  0
LINE
  5
85F7
330
1E
100
AcDbEntity
  8
002
100
AcDbLine
 10
-2930.100571601344
 20
4143.269295806358
 30
0.0
 11
-2929.115763848333
 21
4143.095647628689
 31
0.0
  0
LINE
  5
85F8
330
1E
100
AcDbEntity
  8
002
100
AcDbLine
 10
-2928.173410754687
 20
4154.198768079484
 30
0.0
 11
-2930.101773720693
 21
4151.90063397346
 31
0.0
  0
ARC
  5
85F9
330
1E
100
AcDbEntity
  8
002
100
AcDbCircle
 10
-2931.186948336932
 20
4160.143229109144
 30
0.0
 40
5.0
100
AcDbArc
 50
125.0000000000368
 51
169.9999999999961
  0
LINE
  5
85FA
330
1E
100
AcDbEntity
  8
002
100
AcDbLine
 10
-2942.349980842958
 20
4125.628378221621
 30
0.0
 11
-2940.727661692268
 21
4123.311466360262
 31
0.0
  0
LINE
  5
85FB
330
1E
100
AcDbEntity
  8
002
100
AcDbLine
 10
-2933.655105929658
 20
4122.959177887143
 30
0.0
 11
-2935.311219050701
 21
4122.356401383094
 31
0.0
  0
LINE
  5
85FC
330
1E
100
AcDbEntity
  8
002
100
AcDbLine
 10
-2933.834007421182
 20
4122.095929116595
 30
0.0
 11
-2935.16083521399
 21
4123.209270502206
 31
0.0
  0
LINE
  5
85FD
330
1E
100
AcDbEntity
  8
002
100
AcDbLine
 10
-2955.007374110946
 20
4125.829364936433
 30
0.0
 11
-2959.348578552619
 21
4101.209171111128
 31
0.0
  0
LINE
  5
85FE
330
1E
100
AcDbEntity
  8
002
100
AcDbLine
 10
-2930.101773720693
 20
4151.90063397346
 30
0.0
 11
-2935.311219050701
 21
4122.356401383094
 31
0.0
  0
LINE
  5
85FF
330
1E
100
AcDbEntity
  8
002
100
AcDbLine
 10
-2928.173410754687
 20
4154.198768079484
 30
0.0
 11
-2933.834007421182
 21
4122.095929116595
 31
0.0
  0
LINE
  5
8600
330
1E
100
AcDbEntity
  8
002
100
AcDbLine
 10
-2942.349980842958
 20
4125.628378221621
 30
0.0
 11
-2936.110987101992
 21
4161.011469997478
 31
0.0
  0
ARC
  5
8601
330
1E
100
AcDbEntity
  8
002
100
AcDbCircle
 10
-2886.412605356792
 20
4160.294236181143
 30
0.0
 40
0.8526290000000001
100
AcDbArc
 50
176.9999999999938
 51
320.0000000000073
  0
LINE
  5
8602
330
1E
100
AcDbEntity
  8
002
100
AcDbLine
 10
-2889.486779416687
 20
4141.692834820687
 30
0.0
 11
-2890.959616435177
 21
4136.875402665804
 31
0.0
  0
LINE
  5
8603
330
1E
100
AcDbEntity
  8
002
100
AcDbLine
 10
-2887.714509618843
 20
4151.743876304666
 30
0.0
 11
-2889.486779416687
 21
4141.692834820687
 31
0.0
  0
LINE
  5
8604
330
1E
100
AcDbEntity
  8
002
100
AcDbLine
 10
-2885.759453930799
 20
4159.746177381632
 30
0.0
 11
-2884.96981383025
 21
4160.687233575283
 31
0.0
  0
LINE
  5
8605
330
1E
100
AcDbEntity
  8
002
100
AcDbLine
 10
-2904.408745934194
 20
4139.246847063523
 30
0.0
 11
-2906.036341226776
 21
4138.654451195722
 31
0.0
  0
LINE
  5
8606
330
1E
100
AcDbEntity
  8
002
100
AcDbLine
 10
-2905.885957563712
 20
4139.507319330023
 30
0.0
 11
-2904.559129597257
 21
4138.393978929221
 31
0.0
  0
LINE
  5
8607
330
1E
100
AcDbEntity
  8
002
100
AcDbLine
 10
-2918.169918058569
 20
4161.981845232938
 30
0.0
 11
-2920.882576879539
 21
4160.994518786601
 31
0.0
  0
LINE
  5
8608
330
1E
100
AcDbEntity
  8
002
100
AcDbLine
 10
-2923.93125281677
 20
4143.704618369874
 30
0.0
 11
-2923.120093241425
 21
4142.546162439195
 31
0.0
  0
LINE
  5
8609
330
1E
100
AcDbEntity
  8
002
100
AcDbLine
 10
-2923.93125281677
 20
4143.704618369874
 30
0.0
 11
-2920.882576879539
 21
4160.994518786601
 31
0.0
  0
LINE
  5
860A
330
1E
100
AcDbEntity
  8
002
100
AcDbLine
 10
-2909.706217472385
 20
4117.841548763755
 30
0.0
 11
-2908.078622006154
 21
4118.433945616366
 31
0.0
  0
LINE
  5
860B
330
1E
100
AcDbEntity
  8
002
100
AcDbLine
 10
-2912.946047296367
 20
4087.950019818054
 30
0.0
 11
-2910.484027913837
 21
4087.515899373887
 31
0.0
  0
LINE
  5
860C
330
1E
100
AcDbEntity
  8
002
100
AcDbLine
 10
-2913.814288184703
 20
4083.025981052993
 30
0.0
 11
-2908.755714832501
 21
4082.134018087108
 31
0.0
  0
LINE
  5
860D
330
1E
100
AcDbEntity
  8
002
100
AcDbLine
 10
-2912.946047296367
 20
4087.950019818054
 30
0.0
 11
-2913.814288184703
 21
4083.025981052993
 31
0.0
  0
LINE
  5
860E
330
1E
100
AcDbEntity
  8
002
100
AcDbLine
 10
-2917.584679496481
 20
4119.23073418509
 30
0.0
 11
-2921.925883938154
 21
4094.610540359785
 31
0.0
  0
LINE
  5
860F
330
1E
100
AcDbEntity
  8
002
100
AcDbLine
 10
-2905.885957563712
 20
4139.507319330023
 30
0.0
 11
-2909.706217472385
 21
4117.841548763755
 31
0.0
  0
LINE
  5
8610
330
1E
100
AcDbEntity
  8
002
100
AcDbLine
 10
-2904.408745934194
 20
4139.246847063523
 30
0.0
 11
-2908.229005842866
 21
4117.581076497254
 31
0.0
  0
LINE
  5
8611
330
1E
100
AcDbEntity
  8
002
100
AcDbLine
 10
-2901.454322675157
 20
4138.725902530523
 30
0.0
 11
-2910.484027913837
 21
4087.515899373887
 31
0.0
  0
LINE
  5
8612
330
1E
100
AcDbEntity
  8
002
  6
Continuous
100
AcDbLine
 10
-2921.925883938154
 20
4094.610540359785
 30
0.0
 11
-2909.615787025502
 21
4092.439938138949
 31
0.0
  0
LINE
  5
8613
330
1E
100
AcDbEntity
  8
002
100
AcDbLine
 10
-2841.640035371003
 20
4070.299712969464
 30
0.0
 11
-2832.65397331796
 21
4094.988717118466
 31
0.0
  0
LINE
  5
8614
330
1E
100
AcDbEntity
  8
002
100
AcDbLine
 10
-2805.602002218036
 20
4069.022368452359
 30
0.0
 11
-2806.470243106372
 21
4064.098329687298
 31
0.0
  0
LINE
  5
8615
330
1E
100
AcDbEntity
  8
002
100
AcDbLine
 10
-2805.602002218036
 20
4069.022368452359
 30
0.0
 11
-2808.064021600568
 21
4069.456488896526
 31
0.0
  0
ARC
  5
8616
330
1E
100
AcDbEntity
  8
002
100
AcDbCircle
 10
-2814.37684502263
 20
4059.569155366665
 30
0.0
 40
2.5
100
AcDbArc
 50
308.1896849999879
 51
31.81031500001687
  0
ARC
  5
8617
330
1E
100
AcDbEntity
  8
002
100
AcDbCircle
 10
-2816.670341497958
 20
4052.357861086282
 30
0.0
 40
2.5
100
AcDbArc
 50
128.1896849999879
 51
211.8103150000168
  0
ARC
  5
8618
330
1E
100
AcDbEntity
  8
002
100
AcDbCircle
 10
-2815.679206355133
 20
4052.183097219073
 30
0.0
 40
2.5
100
AcDbArc
 50
128.1896849999879
 51
211.8103150000168
  0
LINE
  5
8619
330
1E
100
AcDbEntity
  8
002
100
AcDbLine
 10
-2813.822312933898
 20
4057.778998372801
 30
0.0
 11
-2818.216008729516
 21
4054.322781947353
 31
0.0
  0
LINE
  5
861A
330
1E
100
AcDbEntity
  8
002
100
AcDbLine
 10
-2815.198978296343
 20
4065.637441208749
 30
0.0
 11
-2806.470243106372
 21
4064.098329687298
 31
0.0
  0
LINE
  5
861B
330
1E
100
AcDbEntity
  8
002
100
AcDbLine
 10
-2816.190113439168
 20
4065.812205075958
 30
0.0
 11
-2813.243485559243
 21
4061.06169153938
 31
0.0
  0
LINE
  5
861C
330
1E
100
AcDbEntity
  8
002
100
AcDbLine
 10
-2815.198978296343
 20
4065.637441208749
 30
0.0
 11
-2812.252350416418
 21
4060.886927672171
 31
0.0
  0
ARC
  5
861D
330
1E
100
AcDbEntity
  8
002
100
AcDbCircle
 10
-2815.367980165456
 20
4059.743919233873
 30
0.0
 40
2.5
100
AcDbArc
 50
308.1896849999879
 51
31.81031500001687
  0
LINE
  5
861E
330
1E
100
AcDbEntity
  8
002
100
AcDbLine
 10
-2812.831177791073
 20
4057.604234505592
 30
0.0
 11
-2817.22487358669
 21
4054.148018080145
 31
0.0
  0
ARC
  5
861F
330
1E
100
AcDbEntity
  8
002
100
AcDbCircle
 10
-2816.981567687635
 20
4044.797039071482
 30
0.0
 40
2.5
100
AcDbArc
 50
308.1896849999879
 51
31.81031500001687
  0
ARC
  5
8620
330
1E
100
AcDbEntity
  8
002
100
AcDbCircle
 10
-2817.97270283046
 20
4044.97180293869
 30
0.0
 40
2.5
100
AcDbArc
 50
308.1896849999879
 51
31.81031500001687
  0
LINE
  5
8621
330
1E
100
AcDbEntity
  8
002
100
AcDbLine
 10
-2821.399558769175
 20
4036.267972485592
 30
0.0
 11
-2818.452930889252
 21
4031.517458949013
 31
0.0
  0
ARC
  5
8622
330
1E
100
AcDbEntity
  8
002
100
AcDbCircle
 10
-2819.275064162963
 20
4037.585744791098
 30
0.0
 40
2.5
100
AcDbArc
 50
128.1896849999879
 51
211.8103150000168
  0
ARC
  5
8623
330
1E
100
AcDbEntity
  8
002
100
AcDbCircle
 10
-2818.283929020137
 20
4037.41098092389
 30
0.0
 40
2.5
100
AcDbArc
 50
128.1896849999879
 51
211.8103150000168
  0
LINE
  5
8624
330
1E
100
AcDbEntity
  8
002
100
AcDbLine
 10
-2819.031758263907
 20
4028.234765782435
 30
0.0
 11
-2823.425454059524
 21
4024.778549356987
 31
0.0
  0
LINE
  5
8625
330
1E
100
AcDbEntity
  8
002
100
AcDbLine
 10
-2818.040623121081
 20
4028.060001915226
 30
0.0
 11
-2822.434318916699
 21
4024.603785489779
 31
0.0
  0
ARC
  5
8626
330
1E
100
AcDbEntity
  8
002
100
AcDbCircle
 10
-2821.879786827967
 20
4022.813628495916
 30
0.0
 40
2.5
100
AcDbArc
 50
128.1896849999879
 51
211.8103150000168
  0
ARC
  5
8627
330
1E
100
AcDbEntity
  8
002
100
AcDbCircle
 10
-2820.888651685141
 20
4022.638864628707
 30
0.0
 40
2.5
100
AcDbArc
 50
128.1896849999879
 51
211.8103150000168
  0
LINE
  5
8628
330
1E
100
AcDbEntity
  8
002
100
AcDbLine
 10
-2816.427035598902
 20
4043.006882077617
 30
0.0
 11
-2820.82073139452
 21
4039.550665652171
 31
0.0
  0
LINE
  5
8629
330
1E
100
AcDbEntity
  8
002
100
AcDbLine
 10
-2815.435900456077
 20
4042.83211821041
 30
0.0
 11
-2819.829596251695
 21
4039.375901784961
 31
0.0
  0
LINE
  5
862A
330
1E
100
AcDbEntity
  8
002
100
AcDbLine
 10
-2820.40842362635
 20
4036.093208618384
 30
0.0
 11
-2817.461795746427
 21
4031.342695081805
 31
0.0
  0
ARC
  5
862B
330
1E
100
AcDbEntity
  8
002
100
AcDbCircle
 10
-2819.586290352639
 20
4030.024922776299
 30
0.0
 40
2.5
100
AcDbArc
 50
308.1896849999879
 51
31.81031500001687
  0
ARC
  5
862C
330
1E
100
AcDbEntity
  8
002
100
AcDbCircle
 10
-2820.577425495465
 20
4030.199686643507
 30
0.0
 40
2.5
100
AcDbArc
 50
308.1896849999879
 51
31.81031500001687
  0
LINE
  5
862D
330
1E
100
AcDbEntity
  8
002
100
AcDbLine
 10
-2817.803700961345
 20
4050.865324913566
 30
0.0
 11
-2814.857073081423
 21
4046.114811376988
 31
0.0
  0
LINE
  5
862E
330
1E
100
AcDbEntity
  8
002
100
AcDbLine
 10
-2818.794836104173
 20
4051.040088780775
 30
0.0
 11
-2815.848208224248
 21
4046.289575244196
 31
0.0
  0
LINE
  5
862F
330
1E
100
AcDbEntity
  8
002
100
AcDbLine
 10
-2826.609004099184
 20
4006.723739895225
 30
0.0
 11
-2823.662376219259
 21
4001.973226358648
 31
0.0
  0
ARC
  5
8630
330
1E
100
AcDbEntity
  8
002
100
AcDbCircle
 10
-2823.493374350146
 20
4007.866748333524
 30
0.0
 40
2.5
100
AcDbArc
 50
128.1896849999879
 51
211.8103150000168
  0
LINE
  5
8631
330
1E
100
AcDbEntity
  8
002
100
AcDbLine
 10
-2824.241203593916
 20
3998.690533192069
 30
0.0
 11
-2828.634899389531
 21
3995.234316766622
 31
0.0
  0
LINE
  5
8632
330
1E
100
AcDbEntity
  8
002
100
AcDbLine
 10
-2825.617868956358
 20
4006.548976028017
 30
0.0
 11
-2822.671241076434
 21
4001.798462491438
 31
0.0
  0
LINE
  5
8633
330
1E
100
AcDbEntity
  8
002
100
AcDbLine
 10
-2821.636480928912
 20
4013.462649487251
 30
0.0
 11
-2826.030176724529
 21
4010.006433061804
 31
0.0
  0
LINE
  5
8634
330
1E
100
AcDbEntity
  8
002
100
AcDbLine
 10
-2823.250068451089
 20
3998.515769324859
 30
0.0
 11
-2827.643764246706
 21
3995.059552899413
 31
0.0
  0
ARC
  5
8635
330
1E
100
AcDbEntity
  8
002
100
AcDbCircle
 10
-2824.48450949297
 20
4008.041512200732
 30
0.0
 40
2.5
100
AcDbArc
 50
128.1896849999879
 51
211.8103150000168
  0
ARC
  5
8636
330
1E
100
AcDbEntity
  8
002
100
AcDbCircle
 10
-2824.795735682648
 20
4000.480690185932
 30
0.0
 40
2.5
100
AcDbArc
 50
308.1896849999879
 51
31.81031500001687
  0
ARC
  5
8637
330
1E
100
AcDbEntity
  8
002
100
AcDbCircle
 10
-2822.191013017643
 20
4015.252806481115
 30
0.0
 40
2.5
100
AcDbArc
 50
308.1896849999879
 51
31.81031500001687
  0
ARC
  5
8638
330
1E
100
AcDbEntity
  8
002
100
AcDbCircle
 10
-2823.182148160469
 20
4015.427570348324
 30
0.0
 40
2.5
100
AcDbArc
 50
308.1896849999879
 51
31.81031500001687
  0
LINE
  5
8639
330
1E
100
AcDbEntity
  8
002
100
AcDbLine
 10
-2820.645345786086
 20
4013.287885620044
 30
0.0
 11
-2825.039041581701
 21
4009.831669194595
 31
0.0
  0
ARC
  5
863A
330
1E
100
AcDbEntity
  8
002
100
AcDbCircle
 10
-2825.786870825472
 20
4000.65545405314
 30
0.0
 40
2.5
100
AcDbArc
 50
308.1896849999879
 51
31.81031500001687
  0
ARC
  5
863B
330
1E
100
AcDbEntity
  8
002
100
AcDbCircle
 10
-2827.40045834765
 20
3985.708573890749
 30
0.0
 40
2.5
100
AcDbArc
 50
308.1896849999879
 51
31.81031500001687
  0
LINE
  5
863C
330
1E
100
AcDbEntity
  8
002
100
AcDbLine
 10
-2828.222591621361
 20
3991.776859732834
 30
0.0
 11
-2825.275963741438
 21
3987.026346196256
 31
0.0
  0
LINE
  5
863D
330
1E
100
AcDbEntity
  8
002
100
AcDbLine
 10
-2829.213726764188
 20
3991.951623600043
 30
0.0
 11
-2826.267098884263
 21
3987.201110063464
 31
0.0
  0
LINE
  5
863E
330
1E
100
AcDbEntity
  8
002
100
AcDbLine
 10
-2830.827314286365
 20
3977.00474343765
 30
0.0
 11
-2827.880686406443
 21
3972.254229901072
 31
0.0
  0
LINE
  5
863F
330
1E
100
AcDbEntity
  8
002
100
AcDbLine
 10
-2825.854791116093
 20
3983.743653029677
 30
0.0
 11
-2830.248486911711
 21
3980.28743660423
 31
0.0
  0
LINE
  5
8640
330
1E
100
AcDbEntity
  8
002
100
AcDbLine
 10
-2831.81844942919
 20
3977.179507304859
 30
0.0
 11
-2828.871821549268
 21
3972.428993768282
 31
0.0
  0
LINE
  5
8641
330
1E
100
AcDbEntity
  8
002
100
AcDbLine
 10
-2826.845926258918
 20
3983.918416896885
 30
0.0
 11
-2831.239622054536
 21
3980.462200471438
 31
0.0
  0
ARC
  5
8642
330
1E
100
AcDbEntity
  8
002
100
AcDbCircle
 10
-2829.693954822978
 20
3978.497279610365
 30
0.0
 40
2.5
100
AcDbArc
 50
128.1896849999879
 51
211.8103150000168
  0
ARC
  5
8643
330
1E
100
AcDbEntity
  8
002
100
AcDbCircle
 10
-2828.702819680152
 20
3978.322515743157
 30
0.0
 40
2.5
100
AcDbArc
 50
128.1896849999879
 51
211.8103150000168
  0
ARC
  5
8644
330
1E
100
AcDbEntity
  8
002
100
AcDbCircle
 10
-2828.391593490476
 20
3985.883337757957
 30
0.0
 40
2.5
100
AcDbArc
 50
308.1896849999879
 51
31.81031500001687
  0
LINE
  5
8645
330
1E
100
AcDbEntity
  8
002
100
AcDbLine
 10
-2828.459513781097
 20
3968.971536734493
 30
0.0
 11
-2832.853209576715
 21
3965.515320309046
 31
0.0
  0
LINE
  5
8646
330
1E
100
AcDbEntity
  8
002
100
AcDbLine
 10
-2829.450648923923
 20
3969.146300601702
 30
0.0
 11
-2833.84434471954
 21
3965.690084176255
 31
0.0
  0
ARC
  5
8647
330
1E
100
AcDbEntity
  8
002
100
AcDbCircle
 10
-2830.005181012655
 20
3970.936457595566
 30
0.0
 40
2.5
100
AcDbArc
 50
308.1896849999879
 51
31.81031500001687
  0
ARC
  5
8648
330
1E
100
AcDbEntity
  8
002
100
AcDbCircle
 10
-2830.99631615548
 20
3971.111221462775
 30
0.0
 40
2.5
100
AcDbArc
 50
308.1896849999879
 51
31.81031500001687
  0
ARC
  5
8649
330
1E
100
AcDbEntity
  8
002
100
AcDbCircle
 10
-2827.089232157974
 20
3993.269395905549
 30
0.0
 40
2.5
100
AcDbArc
 50
128.1896849999879
 51
211.8103150000168
  0
ARC
  5
864A
330
1E
100
AcDbEntity
  8
002
100
AcDbCircle
 10
-2826.098097015148
 20
3993.09463203834
 30
0.0
 40
2.5
100
AcDbArc
 50
128.1896849999879
 51
211.8103150000168
  0
ARC
  5
864B
330
1E
100
AcDbEntity
  8
002
100
AcDbCircle
 10
-2832.298677487983
 20
3963.725163315183
 30
0.0
 40
2.5
100
AcDbArc
 50
128.1896849999879
 51
211.8103150000168
  0
ARC
  5
864C
330
1E
100
AcDbEntity
  8
002
100
AcDbCircle
 10
-2831.307542345157
 20
3963.550399447974
 30
0.0
 40
2.5
100
AcDbArc
 50
128.1896849999879
 51
211.8103150000168
  0
LINE
  5
864D
330
1E
100
AcDbEntity
  8
002
100
AcDbLine
 10
-2823.013146291354
 20
4021.3210923232
 30
0.0
 11
-2820.066518411429
 21
4016.570578786622
 31
0.0
  0
LINE
  5
864E
330
1E
100
AcDbEntity
  8
002
100
AcDbLine
 10
-2824.004281434179
 20
4021.495856190409
 30
0.0
 11
-2821.057653554257
 21
4016.74534265383
 31
0.0
  0
LINE
  5
864F
330
1E
100
AcDbEntity
  8
002
100
AcDbLine
 10
-2859.25516683175
 20
4192.210649505354
 30
0.0
 11
-2836.378601722963
 21
4188.176893850741
 31
0.0
  0
LINE
  5
8650
330
1E
100
AcDbEntity
  8
002
100
AcDbLine
 10
-2847.668090196246
 20
4082.975814164949
 30
0.0
 11
-2822.653973288689
 21
4151.701535480646
 31
0.0
  0
LINE
  5
8651
330
1E
100
AcDbEntity
  8
002
100
AcDbLine
 10
-2875.83584400274
 20
4134.208673535872
 30
0.0
 11
-2841.141585857805
 21
4128.091139749254
 31
0.0
  0
LINE
  5
8652
330
1E
100
AcDbEntity
  8
002
100
AcDbLine
 10
-2875.582904009839
 20
4134.164073390622
 30
0.0
 11
-2840.888645864906
 21
4128.046539604006
 31
0.0
  0
ARC
  5
8653
330
1E
100
AcDbEntity
  8
002
100
AcDbCircle
 10
-2859.507254521037
 20
4194.793665896193
 30
0.0
 40
0.5
100
AcDbArc
 50
343.0000000000192
 51
79.9999999999961
  0
LINE
  5
8654
330
1E
100
AcDbEntity
  8
002
100
AcDbLine
 10
-2859.893756870762
 20
4191.819321347883
 30
0.0
 11
-2859.25516683175
 21
4192.210649505354
 31
0.0
  0
ARC
  5
8655
330
1E
100
AcDbEntity
  8
002
100
AcDbCircle
 10
-2871.241387841241
 20
4157.619141202955
 30
0.0
 40
0.8526290000000001
100
AcDbArc
 50
199.9999999999892
 51
343.0000000000192
  0
LINE
  5
8656
330
1E
100
AcDbEntity
  8
002
100
AcDbLine
 10
-2872.042597550469
 20
4157.327525511276
 30
0.0
 11
-2872.462755366994
 21
4158.481901718913
 31
0.0
  0
LINE
  5
8657
330
1E
100
AcDbEntity
  8
002
100
AcDbLine
 10
-2859.029102101083
 20
4194.647480718495
 30
0.0
 11
-2872.942393323659
 21
4149.139153639662
 31
0.0
  0
LINE
  5
8658
330
1E
100
AcDbEntity
  8
002
100
AcDbLine
 10
-2874.714663121505
 20
4139.088112155683
 30
0.0
 11
-2874.978307879688
 21
4134.057466780444
 31
0.0
  0
LINE
  5
8659
330
1E
100
AcDbEntity
  8
002
100
AcDbLine
 10
-2872.942393323659
 20
4149.139153639662
 30
0.0
 11
-2874.714663121505
 21
4139.088112155683
 31
0.0
  0
LINE
  5
865A
330
1E
100
AcDbEntity
  8
002
100
AcDbLine
 10
-2810.427382430644
 20
4183.097064896263
 30
0.0
 11
-2809.788792391633
 21
4183.488393053732
 31
0.0
  0
ARC
  5
865B
330
1E
100
AcDbEntity
  8
002
100
AcDbCircle
 10
-2810.040879096112
 20
4186.071409270925
 30
0.0
 40
0.5
100
AcDbArc
 50
343.0000000000192
 51
79.9999999999961
  0
LINE
  5
865C
330
1E
100
AcDbEntity
  8
002
100
AcDbLine
 10
-2829.308685632431
 20
4189.976556728292
 30
0.0
 11
-2828.866409643613
 21
4189.605443261358
 31
0.0
  0
LINE
  5
865D
330
1E
100
AcDbEntity
  8
002
100
AcDbLine
 10
-2815.816819416165
 20
4187.597576694256
 30
0.0
 11
-2816.359351180357
 21
4187.400111404988
 31
0.0
  0
LINE
  5
865E
330
1E
100
AcDbEntity
  8
002
100
AcDbLine
 10
-2809.954055007278
 20
4186.563813147432
 30
0.0
 11
-2815.816819416165
 21
4187.597576694256
 31
0.0
  0
ARC
  5
865F
330
1E
100
AcDbEntity
  8
002
100
AcDbCircle
 10
-2821.775013401122
 20
4148.896884751333
 30
0.0
 40
0.8526290000000001
100
AcDbArc
 50
199.9999999999892
 51
343.0000000000192
  0
LINE
  5
8660
330
1E
100
AcDbEntity
  8
002
100
AcDbLine
 10
-2822.576222125544
 20
4148.605268886009
 30
0.0
 11
-2822.996380926877
 21
4149.759645267291
 31
0.0
  0
LINE
  5
8661
330
1E
100
AcDbEntity
  8
002
100
AcDbLine
 10
-2809.562726676158
 20
4185.925224093227
 30
0.0
 11
-2823.476018883543
 21
4140.416897188043
 31
0.0
  0
LINE
  5
8662
330
1E
100
AcDbEntity
  8
002
100
AcDbLine
 10
-2822.654360887083
 20
4148.81995205935
 30
0.0
 11
-2815.816819416165
 21
4187.597576694256
 31
0.0
  0
ARC
  5
8663
330
1E
100
AcDbEntity
  8
002
100
AcDbCircle
 10
-2835.258273145344
 20
4190.517916224962
 30
0.0
 40
0.5
100
AcDbArc
 50
79.9999999999961
 51
176.9999999999938
  0
LINE
  5
8664
330
1E
100
AcDbEntity
  8
002
100
AcDbLine
 10
-2835.912365488102
 20
4187.59075501219
 30
0.0
 11
-2836.378601722963
 21
4188.176893850741
 31
0.0
  0
ARC
  5
8665
330
1E
100
AcDbEntity
  8
002
100
AcDbCircle
 10
-2836.946230916675
 20
4151.571979729522
 30
0.0
 40
0.8526290000000001
100
AcDbArc
 50
176.9999999999938
 51
320.0000000000073
  0
LINE
  5
8666
330
1E
100
AcDbEntity
  8
002
100
AcDbLine
 10
-2836.293078505872
 20
4151.023920756364
 30
0.0
 11
-2835.503439390133
 21
4151.964977123662
 31
0.0
  0
LINE
  5
8667
330
1E
100
AcDbEntity
  8
002
100
AcDbLine
 10
-2835.757587721413
 20
4190.544084851415
 30
0.0
 11
-2838.248135178726
 21
4143.021619853047
 31
0.0
  0
LINE
  5
8668
330
1E
100
AcDbEntity
  8
002
100
AcDbLine
 10
-2835.17144905651
 20
4191.010320101468
 30
0.0
 11
-2829.308685632431
 21
4189.976556728292
 31
0.0
  0
LINE
  5
8669
330
1E
100
AcDbEntity
  8
002
100
AcDbLine
 10
-2836.14622710335
 20
4151.198932093386
 30
0.0
 11
-2829.308685632431
 21
4189.976556728292
 31
0.0
  0
LINE
  5
866A
330
1E
100
AcDbEntity
  8
002
100
AcDbLine
 10
-2825.248288681388
 20
4130.365855704063
 30
0.0
 11
-2825.511933439571
 21
4125.335210328825
 31
0.0
  0
LINE
  5
866B
330
1E
100
AcDbEntity
  8
002
100
AcDbLine
 10
-2840.02040497657
 20
4132.970578369067
 30
0.0
 11
-2841.493241995058
 21
4128.153146214184
 31
0.0
  0
LINE
  5
866C
330
1E
100
AcDbEntity
  8
002
100
AcDbLine
 10
-2838.248135178726
 20
4143.021619853047
 30
0.0
 11
-2840.02040497657
 21
4132.970578369067
 31
0.0
  0
LINE
  5
866D
330
1E
100
AcDbEntity
  8
002
100
AcDbLine
 10
-2823.476018883543
 20
4140.416897188043
 30
0.0
 11
-2825.248288681388
 21
4130.365855704063
 31
0.0
  0
LINE
  5
866E
330
1E
100
AcDbEntity
  8
003
100
AcDbLine
 10
-2755.434837241054
 20
4065.253676780693
 30
0.0
 11
-2673.436479328031
 21
4162.49208121427
 31
0.0
  0
LINE
  5
866F
330
1E
100
AcDbEntity
  8
003
100
AcDbLine
 10
-2751.336691329479
 20
4042.191677624115
 30
0.0
 11
-2652.938661275995
 21
4158.877762846042
 31
0.0
  0
LINE
  5
8670
330
1E
100
AcDbEntity
  8
003
  6
Continuous
100
AcDbLine
 10
-2746.148144899141
 20
4175.313109666707
 30
0.0
 11
-2652.938661275995
 21
4158.877762846042
 31
0.0
  0
LINE
  5
8671
330
1E
100
AcDbEntity
  8
002
100
AcDbLine
 10
-2753.121784743443
 20
4090.231488514713
 30
0.0
 11
-2757.462989185116
 21
4065.611294689407
 31
0.0
  0
LINE
  5
8672
330
1E
100
AcDbEntity
  8
002
100
AcDbLine
 10
-2790.544479357908
 20
4096.830119266057
 30
0.0
 11
-2794.885683799581
 21
4072.209925440751
 31
0.0
  0
LINE
  5
8673
330
1E
100
AcDbEntity
  8
002
100
AcDbLine
 10
-2794.885683799581
 20
4072.209925440751
 30
0.0
 11
-2757.135765143408
 21
4065.553596262117
 31
0.0
  0
LINE
  5
8674
330
1E
100
AcDbEntity
  8
003
100
AcDbLine
 10
-2751.336691329479
 20
4042.191677624115
 30
0.0
 11
-2800.675559214278
 21
4050.891451229815
 31
0.0
  0
LINE
  5
8675
330
1E
100
AcDbEntity
  8
003
 62
     3
100
AcDbLine
 10
-2794.885683799581
 20
4072.209925440751
 30
0.0
 11
-2757.135765143408
 21
4065.553596262117
 31
0.0
  0
LINE
  5
8676
330
1E
100
AcDbEntity
  8
003
 62
     3
100
AcDbLine
 10
-2794.885683799581
 20
4072.209925440751
 30
0.0
 11
-2757.135765143408
 21
4065.553596262117
 31
0.0
  0
LINE
  5
8677
330
1E
100
AcDbEntity
  8
003
 62
     3
100
AcDbLine
 10
-2794.885683799581
 20
4072.209925440751
 30
0.0
 11
-2757.135765143408
 21
4065.553596262117
 31
0.0
  0
LINE
  5
8678
330
1E
100
AcDbEntity
  8
003
 62
     3
100
AcDbLine
 10
-2793.999356821871
 20
4072.053642080851
 30
0.0
 11
-2797.819616730543
 21
4050.387871514582
 31
0.0
  0
LINE
  5
8679
330
1E
100
AcDbEntity
  8
002
  6
CENTER
100
AcDbLine
 10
-2767.532383761587
 20
4184.1608609995
 30
0.0
 11
-2750.101026544023
 21
4181.087242411677
 31
0.0
  0
LINE
  5
867A
330
1E
100
AcDbEntity
  8
002
100
AcDbLine
 10
-2765.084585300761
 20
4094.371706241574
 30
0.0
 11
-2758.845591559795
 21
4129.754798017429
 31
0.0
  0
LINE
  5
867B
330
1E
100
AcDbEntity
  8
002
100
AcDbLine
 10
-2799.900153011523
 20
4098.479776953893
 30
0.0
 11
-2753.121784743443
 21
4090.231488514713
 31
0.0
  0
LINE
  5
867C
330
1E
100
AcDbEntity
  8
002
100
AcDbLine
 10
-2761.384825363085
 20
4135.934418663184
 30
0.0
 11
-2759.673869994438
 21
4133.490921163824
 31
0.0
  0
LINE
  5
867D
330
1E
100
AcDbEntity
  8
002
100
AcDbLine
 10
-2769.90407839464
 20
4176.455641858223
 30
0.0
 11
-2768.687339031621
 21
4174.717957962204
 31
0.0
  0
ARC
  5
867E
330
1E
100
AcDbEntity
  8
002
100
AcDbCircle
 10
-2757.289065032668
 20
4138.802300921243
 30
0.0
 40
5.0
100
AcDbArc
 50
171.0609120000181
 51
215.0000000000368
  0
LINE
  5
867F
330
1E
100
AcDbEntity
  8
002
100
AcDbLine
 10
-2768.687339031621
 20
4174.717957962204
 30
0.0
 11
-2775.372793871798
 21
4136.802859471234
 31
0.0
  0
LINE
  5
8680
330
1E
100
AcDbEntity
  8
002
100
AcDbLine
 10
-2768.634554766709
 20
4126.067763297442
 30
0.0
 11
-2769.619362519721
 21
4126.241411475108
 31
0.0
  0
LINE
  5
8681
330
1E
100
AcDbEntity
  8
002
100
AcDbLine
 10
-2768.634554766709
 20
4126.067763297442
 30
0.0
 11
-2767.608494473679
 21
4123.248684658418
 31
0.0
  0
LINE
  5
8682
330
1E
100
AcDbEntity
  8
002
100
AcDbLine
 10
-2771.372875188712
 20
4116.296746954993
 30
0.0
 11
-2771.54652336638
 21
4115.311939201982
 31
0.0
  0
LINE
  5
8683
330
1E
100
AcDbEntity
  8
002
100
AcDbLine
 10
-2770.561715613366
 20
4115.138291024313
 30
0.0
 11
-2771.54652336638
 21
4115.311939201982
 31
0.0
  0
LINE
  5
8684
330
1E
100
AcDbEntity
  8
002
100
AcDbLine
 10
-2771.372875188712
 20
4116.296746954993
 30
0.0
 11
-2772.184034764057
 21
4117.455202885672
 31
0.0
  0
LINE
  5
8685
330
1E
100
AcDbEntity
  8
002
100
AcDbLine
 10
-2770.561715613366
 20
4115.138291024313
 30
0.0
 11
-2769.234887646913
 21
4114.024950623512
 31
0.0
  0
LINE
  5
8686
330
1E
100
AcDbEntity
  8
002
100
AcDbLine
 10
-2776.210089864938
 20
4117.657391719834
 30
0.0
 11
-2773.161413927708
 21
4134.947292136563
 31
0.0
  0
LINE
  5
8687
330
1E
100
AcDbEntity
  8
002
100
AcDbLine
 10
-2776.210089864938
 20
4117.657391719834
 30
0.0
 11
-2777.368545795618
 21
4116.84623214449
 31
0.0
  0
LINE
  5
8688
330
1E
100
AcDbEntity
  8
002
100
AcDbLine
 10
-2773.921718660076
 20
4116.238463522654
 30
0.0
 11
-2773.123585676779
 21
4117.620871061336
 31
0.0
  0
LINE
  5
8689
330
1E
100
AcDbEntity
  8
002
100
AcDbLine
 10
-2772.184034764057
 20
4117.455202885672
 30
0.0
 11
-2774.763775110959
 21
4117.910080712054
 31
0.0
  0
LINE
  5
868A
330
1E
100
AcDbEntity
  8
002
100
AcDbLine
 10
-2765.084585300761
 20
4094.371706241574
 30
0.0
 11
-2767.40149716212
 21
4092.749387090883
 31
0.0
  0
LINE
  5
868B
330
1E
100
AcDbEntity
  8
002
100
AcDbLine
 10
-2774.295151433205
 20
4093.964924334551
 30
0.0
 11
-2772.667555966974
 21
4094.557321187162
 31
0.0
  0
LINE
  5
868C
330
1E
100
AcDbEntity
  8
002
100
AcDbLine
 10
-2774.144767596494
 20
4094.817793453662
 30
0.0
 11
-2772.817939803688
 21
4093.704452068052
 31
0.0
  0
LINE
  5
868D
330
1E
100
AcDbEntity
  8
002
100
AcDbLine
 10
-2767.608494473679
 20
4123.248684658418
 30
0.0
 11
-2772.817939803688
 21
4093.704452068052
 31
0.0
  0
LINE
  5
868E
330
1E
100
AcDbEntity
  8
002
100
AcDbLine
 10
-2768.634554766709
 20
4126.067763297442
 30
0.0
 11
-2774.295151433205
 21
4093.964924334551
 31
0.0
  0
LINE
  5
868F
330
1E
100
AcDbEntity
  8
002
100
AcDbLine
 10
-2794.602681473332
 20
4119.88507525366
 30
0.0
 11
-2796.230276765915
 21
4119.292679385859
 31
0.0
  0
LINE
  5
8690
330
1E
100
AcDbEntity
  8
002
100
AcDbLine
 10
-2796.079893102851
 20
4120.14554752016
 30
0.0
 11
-2794.753065136395
 21
4119.032207119358
 31
0.0
  0
LINE
  5
8691
330
1E
100
AcDbEntity
  8
002
100
AcDbLine
 10
-2798.422941382005
 20
4098.219304687392
 30
0.0
 11
-2799.74976917481
 21
4099.332646073002
 31
0.0
  0
LINE
  5
8692
330
1E
100
AcDbEntity
  8
002
100
AcDbLine
 10
-2794.602681473332
 20
4119.88507525366
 30
0.0
 11
-2798.422941382005
 21
4098.219304687392
 31
0.0
  0
LINE
  5
8693
330
1E
100
AcDbEntity
  8
002
100
AcDbLine
 10
-2796.079893102851
 20
4120.14554752016
 30
0.0
 11
-2799.900153011523
 21
4098.479776953893
 31
0.0
  0
LINE
  5
8694
330
1E
100
AcDbEntity
  8
002
100
AcDbLine
 10
-2769.619362519721
 20
4126.241411475108
 30
0.0
 11
-2767.465791191205
 21
4138.454921397768
 31
0.0
  0
LINE
  5
8695
330
1E
100
AcDbEntity
  8
002
100
AcDbLine
 10
-2775.372793871798
 20
4136.802859471234
 30
0.0
 11
-2773.161413927708
 21
4134.947292136563
 31
0.0
  0
LINE
  5
8696
330
1E
100
AcDbEntity
  8
002
100
AcDbLine
 10
-2755.097855016287
 20
4184.911161493146
 30
0.0
 11
-2760.043080208734
 21
4185.65022994645
 31
0.0
  0
LINE
  5
8697
330
1E
100
AcDbEntity
  8
002
100
AcDbLine
 10
-2754.942444493399
 20
4185.89918503676
 30
0.0
 11
-2759.887668701038
 21
4186.638253316417
 31
0.0
  0
LINE
  5
8698
330
1E
100
AcDbEntity
  8
002
100
AcDbLine
 10
-2755.999096359484
 20
4179.181533486199
 30
0.0
 11
-2760.903617558753
 21
4180.179370034071
 31
0.0
  0
LINE
  5
8699
330
1E
100
AcDbEntity
  8
002
100
AcDbLine
 10
-2756.154657594567
 20
4178.192551553398
 30
0.0
 11
-2761.059179952292
 21
4179.190387290109
 31
0.0
  0
ARC
  5
869A
330
1E
100
AcDbEntity
  8
002
100
AcDbCircle
 10
-2763.769630324856
 20
4130.623038905765
 30
0.0
 40
5.0
100
AcDbArc
 50
349.999999999996
 51
35.00000000003685
  0
LINE
  5
869B
330
1E
100
AcDbEntity
  8
003
  6
Continuous
100
AcDbLine
 10
-3025.670307476539
 20
4224.60040863508
 30
0.0
 11
-2931.135496686831
 21
4207.931370876686
 31
0.0
  0
LINE
  5
869C
330
1E
100
AcDbEntity
  8
001
100
AcDbLine
 10
-3116.755620224655
 20
4390.17643956755
 30
0.0
 11
-2892.535699986076
 21
4390.17643956755
 31
0.0
  0
TEXT
  5
869D
330
1E
100
AcDbEntity
  8
001
100
AcDbText
 10
-3116.755620224655
 20
4393.817988227158
 30
0.0
 40
18.0
  1
10°振りアンカー頭部構造図
 41
0.787037
100
AcDbText
  0
LINE
  5
869E
330
1E
100
AcDbEntity
  8
003
100
AcDbLine
 10
-2925.889771332859
 20
4234.544885304249
 30
0.0
 11
-3184.540844682444
 21
4234.544885304249
 31
0.0
  0
LINE
  5
869F
330
1E
100
AcDbEntity
  8
003
100
AcDbLine
 10
-2925.71344435215
 20
4234.544885304249
 30
0.0
 11
-3184.364517701736
 21
4234.544885304249
 31
0.0
  0
LINE
  5
86A0
330
1E
100
AcDbEntity
  8
003
 48
0.25
100
AcDbLine
 10
-3257.924792837217
 20
4219.281024088057
 30
0.0
 11
-3184.540844682444
 21
4234.544885304249
 31
0.0
  0
LWPOLYLINE
  5
86A1
330
1E
100
AcDbEntity
  8
003
  6
Continuous
100
AcDbPolyline
 90
        4
 70
     1
 43
0.0
 10
-3184.364517701736
 20
4235.544885304249
 10
-3135.748798585678
 20
4235.544885304249
 10
-3135.748798585678
 20
4235.544885304249
 10
-3184.364517701736
 20
4235.544885304249
  0
LINE
  5
86A2
330
1E
100
AcDbEntity
  8
002
100
AcDbLine
 10
-2899.220849644816
 20
4298.769485652536
 30
0.0
 11
-2746.394965249479
 21
4271.822158883005
 31
0.0
  0
LINE
  5
86A3
330
1E
100
AcDbEntity
  8
002
100
AcDbLine
 10
-2752.096902578843
 20
4267.750431217051
 30
0.0
 11
-2895.25539409212
 21
4292.993135788367
 31
0.0
  0
LINE
  5
86A4
330
1E
100
AcDbEntity
  8
002
100
AcDbLine
 10
-2884.637824481435
 20
4199.732576726735
 30
0.0
 11
-2878.775060072548
 21
4198.698813179912
 31
0.0
  0
ARC
  5
86A5
330
1E
100
AcDbEntity
  8
002
100
AcDbCircle
 10
-2900.089090533151
 20
4293.845446887475
 30
0.0
 40
5.0
100
AcDbArc
 50
79.9999999999961
 51
168.9390880000074
  0
ARC
  5
86A6
330
1E
100
AcDbEntity
  8
002
100
AcDbCircle
 10
-2896.123634980455
 20
4288.069097023305
 30
0.0
 40
5.0
100
AcDbArc
 50
79.9999999999961
 51
168.9390880000074
  0
LINE
  5
86A7
330
1E
100
AcDbEntity
  8
002
100
AcDbLine
 10
-2885.378740913027
 20
4196.313011637459
 30
0.0
 11
-2885.84497616308
 21
4196.89915030236
 31
0.0
  0
ARC
  5
86A8
330
1E
100
AcDbEntity
  8
002
100
AcDbCircle
 10
-2884.724648570269
 20
4199.24017285023
 30
0.0
 40
0.5
100
AcDbArc
 50
79.9999999999961
 51
176.9999999999938
  0
LINE
  5
86A9
330
1E
100
AcDbEntity
  8
002
100
AcDbLine
 10
-2909.746779322373
 20
4201.113683086927
 30
0.0
 11
-2885.84497616308
 21
4196.89915030236
 31
0.0
  0
LINE
  5
86AA
330
1E
100
AcDbEntity
  8
002
100
AcDbLine
 10
-2870.121191845697
 20
4244.897953482651
 30
0.0
 11
-2857.614133382441
 21
4242.692621626281
 31
0.0
  0
LINE
  5
86AB
330
1E
100
AcDbEntity
  8
002
100
AcDbLine
 10
-2865.283193856281
 20
4196.319833145875
 30
0.0
 11
-2865.825725620476
 21
4196.122367856608
 31
0.0
  0
LINE
  5
86AC
330
1E
100
AcDbEntity
  8
002
100
AcDbLine
 10
-2878.775060072548
 20
4198.698813179912
 30
0.0
 11
-2878.33278408373
 21
4198.327699712978
 31
0.0
  0
LINE
  5
86AD
330
1E
100
AcDbEntity
  8
002
100
AcDbLine
 10
-2876.600839560294
 20
4208.150045201322
 30
0.0
 11
-2863.641544845132
 21
4243.755416890986
 31
0.0
  0
LINE
  5
86AE
330
1E
100
AcDbEntity
  8
002
100
AcDbLine
 10
-2828.671439777135
 20
4286.316431316309
 30
0.0
 11
-2829.410739786368
 21
4281.369656795344
 31
0.0
  0
LINE
  5
86AF
330
1E
100
AcDbEntity
  8
002
100
AcDbLine
 10
-2827.6845277189
 20
4286.155701996351
 30
0.0
 11
-2828.423828712941
 21
4281.208927649035
 31
0.0
  0
LINE
  5
86B0
330
1E
100
AcDbEntity
  8
002
100
AcDbLine
 10
-2817.931286190585
 20
4284.435942365543
 30
0.0
 11
-2818.928467958021
 21
4279.534639356383
 31
0.0
  0
LINE
  5
86B1
330
1E
100
AcDbEntity
  8
002
100
AcDbLine
 10
-2816.948920531856
 20
4284.249434891491
 30
0.0
 11
-2817.946101314484
 21
4279.348131708684
 31
0.0
  0
LINE
  5
86B2
330
1E
100
AcDbEntity
  8
002
100
AcDbLine
 10
-2820.65481740558
 20
4236.175697031032
 30
0.0
 11
-2808.147758942324
 21
4233.970365174662
 31
0.0
  0
LINE
  5
86B3
330
1E
100
AcDbEntity
  8
002
100
AcDbLine
 10
-2827.668090137706
 20
4196.401450889308
 30
0.0
 11
-2813.641544445582
 21
4234.939067785112
 31
0.0
  0
ARC
  5
86B4
330
1E
100
AcDbEntity
  8
002
100
AcDbCircle
 10
-2747.263206137813
 20
4266.898120117945
 30
0.0
 40
5.0
100
AcDbArc
 50
351.0609120000181
 51
79.9999999999961
  0
ARC
  5
86B5
330
1E
100
AcDbEntity
  8
002
100
AcDbCircle
 10
-2752.965143467177
 20
4262.826392451993
 30
0.0
 40
5.0
100
AcDbArc
 50
351.0609120000181
 51
79.9999999999961
  0
LINE
  5
86B6
330
1E
100
AcDbEntity
  8
003
100
AcDbLine
 10
-1509.093127253529
 20
4029.786977575827
 30
0.0
 11
-1509.093127253529
 21
4256.807511240366
 31
0.0
  0
LINE
  5
86B7
330
1E
100
AcDbEntity
  8
002
100
AcDbLine
 10
-1858.769803461705
 20
4158.46905330425
 30
0.0
 11
-1858.769803461705
 21
4197.84488530425
 31
0.0
  0
LINE
  5
86B8
330
1E
100
AcDbEntity
  8
002
100
AcDbLine
 10
-1872.469803461706
 20
4158.46905330425
 30
0.0
 11
-1872.469803461706
 21
4197.84488530425
 31
0.0
  0
LINE
  5
86B9
330
1E
100
AcDbEntity
  8
002
100
AcDbLine
 10
-1878.919282461707
 20
4197.283951304251
 30
0.0
 11
-1873.119803461706
 21
4150.050980304249
 31
0.0
  0
LINE
  5
86BA
330
1E
100
AcDbEntity
  8
002
100
AcDbLine
 10
-1852.320323461706
 20
4197.283951304251
 30
0.0
 11
-1858.119803461706
 21
4150.050980304249
 31
0.0
  0
LINE
  5
86BB
330
1E
100
AcDbEntity
  8
002
100
AcDbLine
 10
-1871.969803461706
 20
4146.869352304251
 30
0.0
 11
-1859.269803461706
 21
4218.894631304251
 31
0.0
  0
LINE
  5
86BC
330
1E
100
AcDbEntity
  8
002
100
AcDbLine
 10
-1871.969803461706
 20
4244.844885304249
 30
0.0
 11
-1871.969803461706
 21
4077.84488530425
 31
0.0
  0
LINE
  5
86BD
330
1E
100
AcDbEntity
  8
002
100
AcDbLine
 10
-1859.269803461706
 20
4244.844885304249
 30
0.0
 11
-1859.269803461706
 21
4077.84488530425
 31
0.0
  0
LINE
  5
86BE
330
1E
100
AcDbEntity
  8
002
100
AcDbLine
 10
-1908.999276461707
 20
4158.46905330425
 30
0.0
 11
-1908.999276461707
 21
4197.84488530425
 31
0.0
  0
LINE
  5
86BF
330
1E
100
AcDbEntity
  8
002
100
AcDbLine
 10
-1922.699276461706
 20
4158.46905330425
 30
0.0
 11
-1922.699276461706
 21
4197.84488530425
 31
0.0
  0
LINE
  5
86C0
330
1E
100
AcDbEntity
  8
002
100
AcDbLine
 10
-1922.199276461706
 20
4149.942377304251
 30
0.0
 11
-1909.499276461707
 21
4221.96765630425
 31
0.0
  0
LINE
  5
86C1
330
1E
100
AcDbEntity
  8
002
100
AcDbLine
 10
-1929.148756461707
 20
4197.283951304251
 30
0.0
 11
-1923.349276461705
 21
4150.050980304249
 31
0.0
  0
LINE
  5
86C2
330
1E
100
AcDbEntity
  8
002
100
AcDbLine
 10
-1922.199276461706
 20
4244.844885304249
 30
0.0
 11
-1922.199276461706
 21
4077.84488530425
 31
0.0
  0
LINE
  5
86C3
330
1E
100
AcDbEntity
  8
002
100
AcDbLine
 10
-1909.499276461707
 20
4244.844885304249
 30
0.0
 11
-1909.499276461707
 21
4077.84488530425
 31
0.0
  0
LINE
  5
86C4
330
1E
100
AcDbEntity
  8
003
100
AcDbLine
 10
-1987.179242331021
 20
4087.844885304249
 30
0.0
 11
-2059.755773461707
 21
4212.844885304249
 31
0.0
  0
LINE
  5
86C5
330
1E
100
AcDbEntity
  8
002
100
AcDbLine
 10
-1902.549797461706
 20
4197.283951304251
 30
0.0
 11
-1908.349276461706
 21
4150.050980304249
 31
0.0
  0
LINE
  5
86C6
330
1E
100
AcDbEntity
  8
003
100
AcDbLine
 10
-1995.219803335937
 20
4065.844885304249
 30
0.0
 11
-2080.569803461707
 21
4212.844885304249
 31
0.0
  0
DIMENSION
  5
86C7
330
1E
100
AcDbEntity
  8
001
  6
Continuous
100
AcDbDimension
  2
*D6
 10
-2096.310827534923
 20
4087.844885304249
 30
0.0
 11
-2096.310827534924
 21
4130.138760711703
 31
0.0
 70
   160
 71
     5
 42
125.0000000000009
  3
ISO-25
100
AcDbAlignedDimension
 13
-1985.436923461706
 23
4212.844885304249
 33
0.0
 14
-1985.119803461707
 24
4087.844885304249
 34
0.0
 50
90.0
100
AcDbRotatedDimension
  0
LINE
  5
86C8
330
1E
100
AcDbEntity
  8
002
  6
CENTER
100
AcDbLine
 10
-1865.619803461706
 20
4256.695365304251
 30
0.0
 11
-1865.619803461706
 21
4077.84488530425
 31
0.0
  0
LINE
  5
86C9
330
1E
100
AcDbEntity
  8
002
  6
CENTER
100
AcDbLine
 10
-1915.849276461705
 20
4255.80430830425
 30
0.0
 11
-1915.849276461705
 21
4077.84488530425
 31
0.0
  0
LINE
  5
86CA
330
1E
100
AcDbEntity
  8
001
100
AcDbLine
 10
-1955.119803461706
 20
4174.09488530425
 30
0.0
 11
-2058.955782461706
 21
4265.99980530425
 31
0.0
  0
LINE
  5
86CB
330
1E
100
AcDbEntity
  8
002
100
AcDbLine
 10
-1804.937189461707
 20
4282.937462304249
 30
0.0
 11
-1802.618946461707
 21
4157.75230930425
 31
0.0
  0
LINE
  5
86CC
330
1E
100
AcDbEntity
  8
002
100
AcDbLine
 10
-1797.657149461707
 20
4159.861580304251
 30
0.0
 11
-1800.028925461707
 21
4287.937462304249
 31
0.0
  0
LINE
  5
86CD
330
1E
100
AcDbEntity
  8
002
100
AcDbLine
 10
-1960.302416461707
 20
4282.937462304249
 30
0.0
 11
-1962.620660461707
 21
4157.75230930425
 31
0.0
  0
LINE
  5
86CE
330
1E
100
AcDbEntity
  8
002
100
AcDbLine
 10
-1967.582457461707
 20
4159.861580304251
 30
0.0
 11
-1965.210681461707
 21
4287.937462304249
 31
0.0
  0
LINE
  5
86CF
330
1E
100
AcDbEntity
  8
003
100
AcDbLine
 10
-2256.003751616481
 20
4028.246067730566
 30
0.0
 11
-2256.003751616481
 21
4256.837198675474
 31
0.0
  0
LINE
  5
86D0
330
1E
100
AcDbEntity
  8
001
100
AcDbLine
 10
-1803.119803461706
 20
4135.84488530425
 30
0.0
 11
-1733.884446913265
 21
4199.003268862549
 31
0.0
  0
LINE
  5
86D1
330
1E
100
AcDbEntity
  8
003
100
AcDbLine
 10
-1770.019803587474
 20
4065.844885304249
 30
0.0
 11
-1684.669803461707
 21
4212.844885304249
 31
0.0
  0
LINE
  5
86D2
330
1E
100
AcDbEntity
  8
003
100
AcDbLine
 10
-1778.060363592392
 20
4087.844885304249
 30
0.0
 11
-1705.483832461706
 21
4212.844885304249
 31
0.0
  0
LINE
  5
86D3
330
1E
100
AcDbEntity
  8
001
 62
     3
100
AcDbLine
 10
-1394.109013358749
 20
3103.014188730266
 30
0.0
 11
-1394.109013358749
 21
4445.334188730266
 31
0.0
  0
LINE
  5
86D4
330
1E
100
AcDbEntity
  8
004
  6
CENTER2
 62
     6
100
AcDbLine
 10
-1882.619803461706
 20
4317.65135730425
 30
0.0
 11
-1882.619803461706
 21
3635.064074304249
 31
0.0
  0
LINE
  5
86D5
330
1E
100
AcDbEntity
  8
003
100
AcDbLine
 10
-2510.837841493557
 20
4027.486977575827
 30
0.0
 11
-2510.837841493557
 21
4254.507511240364
 31
0.0
  0
LINE
  5
86D6
330
1E
100
AcDbEntity
  8
003
100
AcDbLine
 10
-1948.019803461706
 20
4087.844885304249
 30
0.0
 11
-1987.179242331021
 21
4087.844885304249
 31
0.0
  0
LINE
  5
86D7
330
1E
100
AcDbEntity
  8
003
100
AcDbLine
 10
-1995.219803335937
 20
4065.844885304249
 30
0.0
 11
-1947.619803461706
 21
4065.844885304249
 31
0.0
  0
LINE
  5
86D8
330
1E
100
AcDbEntity
  8
002
100
AcDbLine
 10
-1985.452074461707
 20
4087.844885304249
 30
0.0
 11
-1947.119803461706
 21
4087.844885304249
 31
0.0
  0
LINE
  5
86D9
330
1E
100
AcDbEntity
  8
002
100
AcDbLine
 10
-1985.119803461706
 20
4112.84488530425
 30
0.0
 11
-1937.619803461706
 21
4112.84488530425
 31
0.0
  0
LINE
  5
86DA
330
1E
100
AcDbEntity
  8
001
100
AcDbLine
 10
-1942.655192461707
 20
3963.17370830425
 30
0.0
 11
-2024.008051461707
 21
3905.53299230425
 31
0.0
  0
LINE
  5
86DB
330
1E
100
AcDbEntity
  8
004
  6
CENTER
 62
     6
100
AcDbLine
 10
-1773.604737676634
 20
3410.050144455355
 30
0.0
 11
-2013.971482676635
 21
3410.050144455355
 31
0.0
  0
LINE
  5
86DC
330
1E
100
AcDbEntity
  8
001
100
AcDbLine
 10
-2070.048939676635
 20
3551.318243455354
 30
0.0
 11
-1904.048939676635
 21
3551.318243455354
 31
0.0
  0
TEXT
  5
86DD
330
1E
100
AcDbEntity
  8
001
100
AcDbText
 10
-2070.048939676635
 20
3551.318243455354
 30
0.0
 40
18.5
  1
メッキ付　円形プレート
 41
0.6756760000000001
100
AcDbText
  0
LWPOLYLINE
  5
86DE
330
1E
100
AcDbEntity
  8
003
100
AcDbPolyline
 90
       64
 70
     0
 43
0.0
 10
-2254.276583155675
 20
3787.73132530425
 10
-1947.741232108228
 20
3787.73132530425
 10
-1949.624145461707
 20
3785.536132763319
 10
-1950.673955461706
 20
3783.173540763319
 10
-1950.227982461706
 20
3781.010393763319
 10
-1948.820688461707
 20
3778.813864763319
 10
-1947.034143461707
 20
3776.592338763318
 10
-1945.450420461706
 20
3774.354200763319
 10
-1944.651587461706
 20
3772.10783776332
 10
-1944.993143461707
 20
3769.96628876332
 10
-1946.118937461706
 20
3767.815085763318
 10
-1947.574099461706
 20
3765.644431763319
 10
-1948.903757461706
 20
3763.444527763319
 10
-1949.653037461706
 20
3761.205574763319
 10
-1949.321166461707
 20
3758.299656763319
 10
-1947.996488461707
 20
3755.357655763319
 10
-1946.357351461707
 20
3752.422338763318
 10
-1945.082101461707
 20
3749.536474763319
 10
-1944.849086461706
 20
3746.74283076332
 10
-1945.746396461706
 20
3744.574680763319
 10
-1947.293133461706
 20
3742.462857763319
 10
-1949.017062461707
 20
3740.375692763319
 10
-1950.445945461706
 20
3738.28151276332
 10
-1951.107548461707
 20
3736.148644763319
 10
-1950.533593461706
 20
3733.612238763319
 10
-1948.981876461706
 20
3731.017910763319
 10
-1947.124915461706
 20
3728.401411763319
 10
-1945.635225461707
 20
3725.798495763319
 10
-1945.185324461706
 20
3723.244912763318
 10
-1945.978766461706
 20
3721.117359763319
 10
-1947.511226461707
 20
3719.029936763319
 10
-1949.266497461706
 20
3716.960400763319
 10
-1950.728367461707
 20
3714.886508763319
 10
-1951.380628461707
 20
3712.786016763319
 10
-1950.763248461706
 20
3710.419000763319
 10
-1949.175131461706
 20
3708.022323763319
 10
-1947.262039461706
 20
3705.625877763319
 10
-1945.669729461706
 20
3703.259553763319
 10
-1945.043962461707
 20
3700.953242763319
 10
-1945.656020461706
 20
3698.990044763319
 10
-1947.065184461706
 20
3697.061530763319
 10
-1948.822805461707
 20
3695.132919763319
 10
-1950.480233461706
 20
3693.169431763319
 10
-1951.588820461707
 20
3691.136283763319
 10
-1951.446638461706
 20
3687.321948763319
 10
-1949.421753461706
 20
3683.320368763319
 10
-1946.745641461706
 20
3679.270361763319
 10
-1944.649781461706
 20
3675.310745763319
 10
-1944.365653461707
 20
3671.580338763319
 10
-1945.533561461706
 20
3669.399195763319
 10
-1947.405037461706
 20
3667.311695763319
 10
-1949.479572461706
 20
3665.265869763319
 10
-1951.256655461706
 20
3663.209748763319
 10
-1952.235779461706
 20
3661.091361763319
 10
-1951.836435461706
 20
3658.23361676332
 10
-1950.119126461706
 20
3655.236833763319
 10
-1947.891285461707
 20
3652.148958763319
 10
-1945.960342461706
 20
3649.017938763319
 10
-1945.133730461707
 20
3645.891718763319
 10
-1945.723990461706
 20
3643.293921763319
 10
-1947.174893461706
 20
3640.726609763319
 10
-1948.993233461706
 20
3638.182911763319
 10
-1950.685802461706
 20
3635.655960763319
 10
-1951.759395461706
 20
3633.138884763319
  0
CIRCLE
  5
86DF
330
1E
100
AcDbEntity
  8
002
100
AcDbCircle
 10
-1892.120263676635
 20
3410.050144455355
 30
0.0
 40
102.4999999999999
  0
DIMENSION
  5
86E0
330
1E
100
AcDbEntity
  8
001
  6
Continuous
100
AcDbDimension
  2
*D7
 10
-2306.474759019916
 20
3327.550144455355
 30
0.0
 11
-2319.974759019917
 21
3410.050144455355
 31
0.0
 70
    32
  1
M165
 71
     5
 42
165.0
  3
ISO-25
100
AcDbAlignedDimension
 13
-2266.788068858726
 23
3492.550144455355
 33
0.0
 14
-2266.788068858726
 24
3327.550144455355
 34
0.0
 50
90.0
100
AcDbRotatedDimension
  0
CIRCLE
  5
86E1
330
1E
100
AcDbEntity
  8
002
100
AcDbCircle
 10
-2483.562291858727
 20
3410.050144455355
 30
0.0
 40
56.5
  0
CIRCLE
  5
86E2
330
1E
100
AcDbEntity
  8
002
100
AcDbCircle
 10
-2483.562291858727
 20
3410.050144455355
 30
0.0
 40
55.0
  0
CIRCLE
  5
86E3
330
1E
100
AcDbEntity
  8
002
100
AcDbCircle
 10
-2483.562291858727
 20
3410.050144455355
 30
0.0
 40
82.5
  0
CIRCLE
  5
86E4
330
1E
100
AcDbEntity
  8
002
100
AcDbCircle
 10
-2483.562291858727
 20
3410.050144455355
 30
0.0
 40
81.0
  0
CIRCLE
  5
86E5
330
1E
100
AcDbEntity
  8
002
100
AcDbCircle
 10
-2483.562291858727
 20
3410.050144455355
 30
0.0
 40
80.0
  0
CIRCLE
  5
86E6
330
1E
100
AcDbEntity
  8
002
100
AcDbCircle
 10
-2483.562291858727
 20
3410.050144455355
 30
0.0
 40
77.5
  0
CIRCLE
  5
86E7
330
1E
100
AcDbEntity
  8
002
100
AcDbCircle
 10
-2483.562291858727
 20
3410.050144455355
 30
0.0
 40
79.0
  0
CIRCLE
  5
86E8
330
1E
100
AcDbEntity
  8
002
100
AcDbCircle
 10
-2483.562291858727
 20
3410.050144455355
 30
0.0
 40
78.04595500000001
  0
LINE
  5
86E9
330
1E
100
AcDbEntity
  8
004
  6
CENTER
 62
     6
100
AcDbLine
 10
-2387.098739858725
 20
3410.050144455355
 30
0.0
 11
-2582.538210858725
 21
3410.050144455355
 31
0.0
  0
LINE
  5
86EA
330
1E
100
AcDbEntity
  8
004
  6
CENTER
 62
     6
100
AcDbLine
 10
-2483.562291858727
 20
3506.093878455354
 30
0.0
 11
-2483.562291858727
 21
3311.391914455354
 31
0.0
  0
LINE
  5
86EB
330
1E
100
AcDbEntity
  8
003
100
AcDbLine
 10
-2510.837841493557
 20
3980.884940575828
 30
0.0
 11
-2510.837841493557
 21
3752.366415204608
 31
0.0
  0
LINE
  5
86EC
330
1E
100
AcDbEntity
  8
003
100
AcDbLine
 10
-2529.238239493557
 20
3980.884940575828
 30
0.0
 11
-2510.837841493557
 21
3980.884940575828
 31
0.0
  0
LINE
  5
86ED
330
1E
100
AcDbEntity
  8
003
100
AcDbLine
 10
-2491.113958493557
 20
4027.486977575827
 30
0.0
 11
-2529.238239493557
 21
3980.884940575828
 31
0.0
  0
LINE
  5
86EE
330
1E
100
AcDbEntity
  8
003
100
AcDbLine
 10
-2510.837841493557
 20
4027.486977575827
 30
0.0
 11
-2491.113958493557
 21
4027.486977575827
 31
0.0
  0
LINE
  5
86EF
330
1E
100
AcDbEntity
  8
002
100
AcDbLine
 10
-2268.154093858725
 20
3477.107690455355
 30
0.0
 11
-2254.211639858726
 21
3491.050144455355
 31
0.0
  0
LINE
  5
86F0
330
1E
100
AcDbEntity
  8
002
100
AcDbLine
 10
-2268.154093858725
 20
3410.050144455355
 30
0.0
 11
-2268.154093858725
 21
3487.550144455354
 31
0.0
  0
LINE
  5
86F1
330
1E
100
AcDbEntity
  8
002
100
AcDbLine
 10
-2246.154093858725
 20
3329.050144455355
 30
0.0
 11
-2246.154093858725
 21
3491.050144455355
 31
0.0
  0
LINE
  5
86F2
330
1E
100
AcDbEntity
  8
002
100
AcDbLine
 10
-2269.654093858725
 20
3489.050144455354
 30
0.0
 11
-2269.654093858725
 21
3331.050144455355
 31
0.0
  0
LINE
  5
86F3
330
1E
100
AcDbEntity
  8
004
  6
CENTER
 62
     6
100
AcDbLine
 10
-2285.723390858725
 20
3410.050144455355
 30
0.0
 11
-2227.106826858725
 21
3410.050144455355
 31
0.0
  0
LINE
  5
86F4
330
1E
100
AcDbEntity
  8
001
  6
Continuous
100
AcDbLine
 10
-2236.779093858725
 20
3466.550144455355
 30
0.0
 11
-2201.691231697848
 21
3466.550144455355
 31
0.0
  0
LINE
  5
86F5
330
1E
100
AcDbEntity
  8
002
100
AcDbLine
 10
-2267.654093858725
 20
3329.050144455355
 30
0.0
 11
-2267.654093858725
 21
3410.050144455355
 31
0.0
  0
LINE
  5
86F6
330
1E
100
AcDbEntity
  8
002
100
AcDbLine
 10
-2268.654093858726
 20
3330.050144455355
 30
0.0
 11
-2268.654093858726
 21
3410.050144455355
 31
0.0
  0
LINE
  5
86F7
330
1E
100
AcDbEntity
  8
002
100
AcDbLine
 10
-2269.654093858725
 20
3331.050144455355
 30
0.0
 11
-2268.654093858726
 21
3330.050144455355
 31
0.0
  0
LINE
  5
86F8
330
1E
100
AcDbEntity
  8
002
100
AcDbLine
 10
-2266.788068858726
 20
3327.550144455355
 30
0.0
 11
-2247.020118858725
 21
3327.550144455355
 31
0.0
  0
LINE
  5
86F9
330
1E
100
AcDbEntity
  8
002
100
AcDbLine
 10
-2246.154093858725
 20
3329.050144455355
 30
0.0
 11
-2247.020118858725
 21
3327.550144455355
 31
0.0
  0
LINE
  5
86FA
330
1E
100
AcDbEntity
  8
002
100
AcDbLine
 10
-2268.654093858726
 20
3330.050144455355
 30
0.0
 11
-2267.654093858725
 21
3330.050144455355
 31
0.0
  0
LINE
  5
86FB
330
1E
100
AcDbEntity
  8
002
100
AcDbLine
 10
-2267.654093858725
 20
3329.050144455355
 30
0.0
 11
-2266.788068858726
 21
3327.550144455355
 31
0.0
  0
LINE
  5
86FC
330
1E
100
AcDbEntity
  8
002
100
AcDbLine
 10
-2267.654093858725
 20
3329.050144455355
 30
0.0
 11
-2246.154093858725
 21
3329.050144455355
 31
0.0
  0
LINE
  5
86FD
330
1E
100
AcDbEntity
  8
002
100
AcDbLine
 10
-2247.020118858725
 20
3327.550144455355
 30
0.0
 11
-2247.020118858725
 21
3366.188545455354
 31
0.0
  0
LINE
  5
86FE
330
1E
100
AcDbEntity
  8
002
100
AcDbLine
 10
-2266.788068858726
 20
3327.550144455355
 30
0.0
 11
-2266.788068858726
 21
3366.188545455354
 31
0.0
  0
LINE
  5
86FF
330
1E
100
AcDbEntity
  8
002
100
AcDbLine
 10
-2246.154093858725
 20
3466.550144455355
 30
0.0
 11
-2247.020118858725
 21
3465.050144455355
 31
0.0
  0
LINE
  5
8700
330
1E
100
AcDbEntity
  8
002
100
AcDbLine
 10
-2250.427367858727
 20
3466.550144455355
 30
0.0
 11
-2246.154093858725
 21
3470.823419455355
 31
0.0
  0
LINE
  5
8701
330
1E
100
AcDbEntity
  8
002
100
AcDbLine
 10
-2264.569503858725
 20
3466.550144455355
 30
0.0
 11
-2246.154093858725
 21
3484.965554455355
 31
0.0
  0
LINE
  5
8702
330
1E
100
AcDbEntity
  8
002
100
AcDbLine
 10
-2268.154093858725
 20
3466.550144455355
 30
0.0
 11
-2267.288068858726
 21
3465.050144455355
 31
0.0
  0
LINE
  5
8703
330
1E
100
AcDbEntity
  8
002
100
AcDbLine
 10
-2268.154093858725
 20
3466.550144455355
 30
0.0
 11
-2246.154093858725
 21
3466.550144455355
 31
0.0
  0
LINE
  5
8704
330
1E
100
AcDbEntity
  8
002
100
AcDbLine
 10
-2267.288068858726
 20
3465.050144455355
 30
0.0
 11
-2247.020118858725
 21
3465.050144455355
 31
0.0
  0
LINE
  5
8705
330
1E
100
AcDbEntity
  8
002
100
AcDbLine
 10
-2247.020118858725
 20
3465.050144455355
 30
0.0
 11
-2247.020118858725
 21
3442.431230455354
 31
0.0
  0
LINE
  5
8706
330
1E
100
AcDbEntity
  8
002
100
AcDbLine
 10
-2267.288068858726
 20
3465.050144455355
 30
0.0
 11
-2267.288068858726
 21
3442.431230455354
 31
0.0
  0
INSERT
  5
8707
330
1E
100
AcDbEntity
  8
001
  6
Continuous
100
AcDbBlockReference
  2
_Open30
 10
-2203.191231697848
 20
3466.550144455355
 30
0.0
 41
12.0
 42
12.0
 43
12.0
 50
90.0
  0
MTEXT
  5
8708
330
1E
100
AcDbEntity
  8
001
  6
Continuous
100
AcDbMText
 10
-2216.691231697849
 20
3430.038964167487
 30
0.0
 40
12.0
 41
0.0
 71
     5
 72
     1
  1
\A1;M113
 11
0.0000000000000001
 21
1.0
 31
0.0
 73
     1
 44
1.0
  0
LINE
  5
8709
330
1E
100
AcDbEntity
  8
001
  6
Continuous
100
AcDbLine
 10
-2203.191231697848
 20
3454.550144455355
 30
0.0
 11
-2203.191231697848
 21
3398.38892141657
 31
0.0
  0
DIMENSION
  5
870A
330
1E
100
AcDbEntity
  8
001
  6
Continuous
100
AcDbDimension
  2
*D8
 10
-2268.154093858726
 20
3520.823224938356
 30
0.0
 11
-2204.654093858726
 21
3520.823224938356
 31
0.0
 70
   160
 71
     5
 42
22.0
  3
ISO-25
100
AcDbAlignedDimension
 13
-2246.154093858726
 23
3491.050144455355
 33
0.0
 14
-2268.154093858726
 24
3491.050144455355
 34
0.0
100
AcDbRotatedDimension
  0
LINE
  5
870B
330
1E
100
AcDbEntity
  8
002
100
AcDbLine
 10
-2268.154093858725
 20
3487.550144455354
 30
0.0
 11
-2269.654093858725
 21
3488.096100455355
 31
0.0
  0
LINE
  5
870C
330
1E
100
AcDbEntity
  8
002
100
AcDbLine
 10
-2268.654093858726
 20
3490.050144455355
 30
0.0
 11
-2269.654093858725
 21
3489.050144455354
 31
0.0
  0
LINE
  5
870D
330
1E
100
AcDbEntity
  8
002
100
AcDbLine
 10
-2266.788068858726
 20
3492.550144455355
 30
0.0
 11
-2247.020118858725
 21
3492.550144455355
 31
0.0
  0
LINE
  5
870E
330
1E
100
AcDbEntity
  8
002
100
AcDbLine
 10
-2246.154093858725
 20
3491.050144455355
 30
0.0
 11
-2247.020118858725
 21
3492.550144455355
 31
0.0
  0
LINE
  5
870F
330
1E
100
AcDbEntity
  8
002
100
AcDbLine
 10
-2268.654093858726
 20
3490.050144455355
 30
0.0
 11
-2267.654093858725
 21
3490.050144455355
 31
0.0
  0
LINE
  5
8710
330
1E
100
AcDbEntity
  8
002
100
AcDbLine
 10
-2267.654093858725
 20
3491.050144455355
 30
0.0
 11
-2267.654093858725
 21
3490.050144455355
 31
0.0
  0
LINE
  5
8711
330
1E
100
AcDbEntity
  8
002
100
AcDbLine
 10
-2267.654093858725
 20
3491.050144455355
 30
0.0
 11
-2266.788068858726
 21
3492.550144455355
 31
0.0
  0
LINE
  5
8712
330
1E
100
AcDbEntity
  8
002
100
AcDbLine
 10
-2267.654093858725
 20
3491.050144455355
 30
0.0
 11
-2246.154093858725
 21
3491.050144455355
 31
0.0
  0
TEXT
  5
8713
330
1E
100
AcDbEntity
  8
001
100
AcDbText
 10
-2220.029089461706
 20
4159.83978730425
 30
0.0
 40
12.8
  1
テーパーコーン
 41
0.716146
100
AcDbText
  0
LINE
  5
8714
330
1E
100
AcDbEntity
  8
001
100
AcDbLine
 10
-2132.029089461706
 20
4155.83978730425
 30
0.0
 11
-2231.029089461706
 21
4155.83978730425
 31
0.0
  0
LINE
  5
8715
330
1E
100
AcDbEntity
  8
003
100
AcDbLine
 10
-2256.003751616481
 20
3981.644030730567
 30
0.0
 11
-2256.003751616481
 21
3762.549071847139
 31
0.0
  0
LINE
  5
8716
330
1E
100
AcDbEntity
  8
003
100
AcDbLine
 10
-2274.404149616481
 20
3981.644030730567
 30
0.0
 11
-2256.003751616481
 21
3981.644030730567
 31
0.0
  0
LINE
  5
8717
330
1E
100
AcDbEntity
  8
003
100
AcDbLine
 10
-2236.27986861648
 20
4028.246067730566
 30
0.0
 11
-2274.404149616481
 21
3981.644030730567
 31
0.0
  0
LINE
  5
8718
330
1E
100
AcDbEntity
  8
003
100
AcDbLine
 10
-2256.003751616481
 20
4028.246067730566
 30
0.0
 11
-2236.27986861648
 21
4028.246067730566
 31
0.0
  0
LINE
  5
8719
330
1E
100
AcDbEntity
  8
001
100
AcDbLine
 10
-2024.008051461707
 20
3905.53299230425
 30
0.0
 11
-2145.008051461707
 21
3905.53299230425
 31
0.0
  0
TEXT
  5
871A
330
1E
100
AcDbEntity
  8
001
100
AcDbText
 10
-2134.008051461707
 20
3909.532992304249
 30
0.0
 40
12.8
  1
ジョイントコネクタ
 41
0.716146
100
AcDbText
  0
LWPOLYLINE
  5
871B
330
1E
100
AcDbEntity
  8
003
100
AcDbPolyline
 90
        3
 70
     0
 43
0.0
 10
-2066.922473461707
 20
4172.84957330425
 10
-2059.858261461707
 20
4177.172986304251
 10
-2068.137755461707
 20
4176.96090630425
  0
LINE
  5
871C
330
1E
100
AcDbEntity
  8
001
100
AcDbLine
 10
-2059.858261461706
 20
4177.172986304251
 30
0.0
 11
-2132.029089461706
 21
4155.83978730425
 31
0.0
  0
LINE
  5
871D
330
1E
100
AcDbEntity
  8
003
 62
     3
100
AcDbLine
 10
-2010.032173461706
 20
4091.35652430425
 30
0.0
 11
-1994.465749461705
 21
4100.394580304249
 31
0.0
  0
LINE
  5
871E
330
1E
100
AcDbEntity
  8
004
  6
CENTER2
 62
     6
100
AcDbLine
 10
-2012.362927461706
 20
4084.79975230425
 30
0.0
 11
-1987.750067461706
 21
4099.09028030425
 31
0.0
  0
LINE
  5
871F
330
1E
100
AcDbEntity
  8
003
100
AcDbLine
 10
-2005.513145461707
 20
4083.573312304249
 30
0.0
 11
-1989.946721461707
 21
4092.61136830425
 31
0.0
  0
LINE
  5
8720
330
1E
100
AcDbEntity
  8
002
100
AcDbLine
 10
-1985.119803461706
 20
4112.84488530425
 30
0.0
 11
-1985.119803461706
 21
4087.844885304249
 31
0.0
  0
TEXT
  5
8721
330
1E
100
AcDbEntity
  8
001
100
AcDbText
 10
-1696.90956535875
 20
3118.934365730266
 30
0.0
 40
24.0
  1
ＶＳＬ協会
 41
0.9920629999999999
100
AcDbText
  0
LINE
  5
8722
330
1E
100
AcDbEntity
  8
001
 62
     3
100
AcDbLine
 10
-1394.109013358749
 20
3243.014188730267
 30
0.0
 11
-1834.109013358749
 21
3243.014188730267
 31
0.0
  0
LINE
  5
8723
330
1E
100
AcDbEntity
  8
001
 62
     3
100
AcDbLine
 10
-1394.109013358749
 20
3163.014188730266
 30
0.0
 11
-1834.109013358749
 21
3163.014188730266
 31
0.0
  0
TEXT
  5
8724
330
1E
100
AcDbEntity
  8
001
100
AcDbText
 10
-1754.018319358751
 20
3179.564007730266
 30
0.0
 40
25.405405
  1
ＰＵＣ受圧板　アンカー頭部図面
 41
0.673759
100
AcDbText
  0
TEXT
  5
8725
330
1E
100
AcDbEntity
  8
001
100
AcDbText
 10
-1786.603511358749
 20
3216.505197730266
 30
0.0
 40
18.5
  1
ＶＳＬ工法　Ｅ５－１２用
 41
0.7207210000000001
100
AcDbText
  0
LINE
  5
8726
330
1E
100
AcDbEntity
  8
001
 62
     3
100
AcDbLine
 10
-1834.109013358749
 20
3103.014188730266
 30
0.0
 11
-1834.109013358749
 21
3243.014188730267
 31
0.0
  0
LINE
  5
8727
330
1E
100
AcDbEntity
  8
001
 62
     3
100
AcDbLine
 10
-1794.109013358749
 20
3103.014188730266
 30
0.0
 11
-1794.109013358749
 21
3243.014188730267
 31
0.0
  0
LINE
  5
8728
330
1E
100
AcDbEntity
  8
001
 62
     3
100
AcDbLine
 10
-1454.10901335875
 20
3103.014188730266
 30
0.0
 11
-1454.10901335875
 21
3163.014188730266
 31
0.0
  0
LINE
  5
8729
330
1E
100
AcDbEntity
  8
001
100
AcDbLine
 10
-1655.807300461707
 20
4156.42056130425
 30
0.0
 11
-1512.807300461706
 21
4156.42056130425
 31
0.0
  0
LINE
  5
872A
330
1E
100
AcDbEntity
  8
004
  6
CENTER
 62
     6
100
AcDbLine
 10
-1657.513122676635
 20
3410.050144455355
 30
0.0
 11
-1595.801807676634
 21
3410.050144455355
 31
0.0
  0
DIMENSION
  5
872B
330
1E
100
AcDbEntity
  8
001
  6
Continuous
100
AcDbDimension
  2
*D9
 10
-1613.905978676635
 20
3547.487161681423
 30
0.0
 11
-1572.405978676635
 21
3560.987161681423
 31
0.0
 70
    32
 71
     5
 42
25.0
  3
ISO-25
100
AcDbAlignedDimension
 13
-1638.905978676635
 23
3512.550144455355
 33
0.0
 14
-1613.905978676635
 24
3512.550144455355
 34
0.0
100
AcDbRotatedDimension
  0
DIMENSION
  5
872C
330
1E
100
AcDbEntity
  8
001
  6
Continuous
100
AcDbDimension
  2
*D10
 10
-1678.713438957549
 20
3307.550144455355
 30
0.0
 11
-1692.213438957549
 21
3410.050144455355
 31
0.0
 70
    32
  1
φ205
 71
     5
 42
205.0
  3
ISO-25
100
AcDbAlignedDimension
 13
-1638.905978676635
 23
3512.550144455355
 33
0.0
 14
-1638.905978676635
 24
3307.550144455355
 34
0.0
 50
90.0
100
AcDbRotatedDimension
  0
LWPOLYLINE
  5
872D
330
1E
100
AcDbEntity
  8
003
100
AcDbPolyline
 90
       64
 70
     0
 43
0.0
 10
-1507.365958792724
 20
3787.73132530425
 10
-1817.741232108227
 20
3787.73132530425
 10
-1819.624145461706
 20
3785.536132763319
 10
-1820.673955461706
 20
3783.173540763319
 10
-1820.227982461706
 20
3781.010393763319
 10
-1818.820688461707
 20
3778.813864763319
 10
-1817.034143461707
 20
3776.592338763318
 10
-1815.450420461706
 20
3774.354200763319
 10
-1814.651587461706
 20
3772.10783776332
 10
-1814.993143461706
 20
3769.96628876332
 10
-1816.118937461706
 20
3767.815085763318
 10
-1817.574099461706
 20
3765.644431763319
 10
-1818.903757461707
 20
3763.444527763319
 10
-1819.653037461706
 20
3761.205574763319
 10
-1819.321166461707
 20
3758.299656763319
 10
-1817.996488461707
 20
3755.357655763319
 10
-1816.357351461707
 20
3752.422338763318
 10
-1815.082101461707
 20
3749.536474763319
 10
-1814.849086461706
 20
3746.74283076332
 10
-1815.746396461706
 20
3744.574680763319
 10
-1817.293133461706
 20
3742.462857763319
 10
-1819.017062461707
 20
3740.375692763319
 10
-1820.445945461706
 20
3738.28151276332
 10
-1821.107548461707
 20
3736.148644763319
 10
-1820.533593461706
 20
3733.612238763319
 10
-1818.981876461707
 20
3731.017910763319
 10
-1817.124915461707
 20
3728.401411763319
 10
-1815.635225461707
 20
3725.798495763319
 10
-1815.185324461707
 20
3723.244912763318
 10
-1815.978766461706
 20
3721.117359763319
 10
-1817.511226461706
 20
3719.029936763319
 10
-1819.266497461707
 20
3716.960400763319
 10
-1820.728367461707
 20
3714.886508763319
 10
-1821.380628461707
 20
3712.786016763319
 10
-1820.763248461706
 20
3710.419000763319
 10
-1819.175131461707
 20
3708.022323763319
 10
-1817.262039461706
 20
3705.625877763319
 10
-1815.669729461706
 20
3703.259553763319
 10
-1815.043962461707
 20
3700.953242763319
 10
-1815.656020461706
 20
3698.990044763319
 10
-1817.065184461706
 20
3697.061530763319
 10
-1818.822805461707
 20
3695.132919763319
 10
-1820.480233461706
 20
3693.169431763319
 10
-1821.588820461706
 20
3691.136283763319
 10
-1821.446638461706
 20
3687.321948763319
 10
-1819.421753461707
 20
3683.320368763319
 10
-1816.745641461706
 20
3679.270361763319
 10
-1814.649781461706
 20
3675.310745763319
 10
-1814.365653461707
 20
3671.580338763319
 10
-1815.533561461706
 20
3669.399195763319
 10
-1817.405037461706
 20
3667.311695763319
 10
-1819.479572461706
 20
3665.265869763319
 10
-1821.256655461706
 20
3663.209748763319
 10
-1822.235779461706
 20
3661.091361763319
 10
-1821.836435461706
 20
3658.23361676332
 10
-1820.119126461706
 20
3655.236833763319
 10
-1817.891285461707
 20
3652.148958763319
 10
-1815.960342461706
 20
3649.017938763319
 10
-1815.133730461706
 20
3645.891718763319
 10
-1815.723990461706
 20
3643.293921763319
 10
-1817.174893461706
 20
3640.726609763319
 10
-1818.993233461706
 20
3638.182911763319
 10
-1820.685802461707
 20
3635.655960763319
 10
-1821.759395461706
 20
3633.138884763319
  0
LINE
  5
872E
330
1E
100
AcDbEntity
  8
002
100
AcDbLine
 10
-1834.262838461707
 20
3725.34488530425
 30
0.0
 11
-1837.989618461706
 21
3721.17821930425
 31
0.0
  0
LINE
  5
872F
330
1E
100
AcDbEntity
  8
002
100
AcDbLine
 10
-1926.808293461706
 20
3725.34488530425
 30
0.0
 11
-1930.535073461706
 21
3721.17821930425
 31
0.0
  0
LINE
  5
8730
330
1E
100
AcDbEntity
  8
002
100
AcDbLine
 10
-1833.626228461706
 20
3727.011552304249
 30
0.0
 11
-1931.171683461707
 21
3719.51155230425
 31
0.0
  0
LINE
  5
8731
330
1E
100
AcDbEntity
  8
001
100
AcDbLine
 10
-1835.706524461706
 20
3708.73079530425
 30
0.0
 11
-1776.605071461706
 21
3669.745145304249
 31
0.0
  0
LINE
  5
8732
330
1E
100
AcDbEntity
  8
004
  6
CENTER
 62
     6
100
AcDbLine
 10
-1892.120263676635
 20
3524.535270455354
 30
0.0
 11
-1892.120263676635
 21
3292.193002455354
 31
0.0
  0
CIRCLE
  5
8733
330
1E
100
AcDbEntity
  8
002
100
AcDbCircle
 10
-1892.120263676635
 20
3410.050144455355
 30
0.0
 40
64.5
  0
LINE
  5
8734
330
1E
100
AcDbEntity
  8
002
100
AcDbLine
 10
-1838.626228461706
 20
3704.51155230425
 30
0.0
 11
-1926.171683461707
 21
3697.01155230425
 31
0.0
  0
LINE
  5
8735
330
1E
100
AcDbEntity
  8
002
100
AcDbLine
 10
-1838.626228461706
 20
3689.511552304249
 30
0.0
 11
-1926.171683461707
 21
3682.01155230425
 31
0.0
  0
LINE
  5
8736
330
1E
100
AcDbEntity
  8
002
100
AcDbLine
 10
-1838.626228461706
 20
3719.51155230425
 30
0.0
 11
-1926.171683461707
 21
3712.01155230425
 31
0.0
  0
LINE
  5
8737
330
1E
100
AcDbEntity
  8
002
100
AcDbLine
 10
-1850.215815461706
 20
3680.73602530425
 30
0.0
 11
-1931.171683461707
 21
3674.51155230425
 31
0.0
  0
LINE
  5
8738
330
1E
100
AcDbEntity
  8
002
100
AcDbLine
 10
-1833.626228461706
 20
3712.01155230425
 30
0.0
 11
-1931.171683461707
 21
3704.51155230425
 31
0.0
  0
LINE
  5
8739
330
1E
100
AcDbEntity
  8
002
100
AcDbLine
 10
-1833.626228461706
 20
3697.01155230425
 30
0.0
 11
-1931.171683461707
 21
3689.511552304249
 31
0.0
  0
LWPOLYLINE
  5
873A
330
1E
100
AcDbEntity
  8
002
100
AcDbPolyline
 90
       46
 70
     0
 43
0.0
 10
-1826.054761461706
 20
3693.64567630425
 10
-1831.066694461706
 20
3690.25614530425
 10
-1836.172606461706
 20
3687.127908304249
 10
-1841.400565461707
 20
3684.33900130425
 10
-1846.778638461707
 20
3681.96745930425
 10
-1852.334891461706
 20
3680.091318304249
 10
-1854.691247461706
 20
3679.475822304249
 10
-1857.079168461706
 20
3678.94858530425
 10
-1859.494919461706
 20
3678.49972530425
 10
-1861.934766461706
 20
3678.11936230425
 10
-1864.394974461707
 20
3677.79761330425
 10
-1866.871810461707
 20
3677.52459830425
 10
-1869.361540461707
 20
3677.29043330425
 10
-1871.860429461706
 20
3677.08523830425
 10
-1874.364743461706
 20
3676.899132304249
 10
-1876.870749461707
 20
3676.72223230425
 10
-1879.374712461707
 20
3676.544657304249
 10
-1881.872898461707
 20
3676.356526304251
 10
-1884.361573461706
 20
3676.14795630425
 10
-1886.837003461707
 20
3675.90906730425
 10
-1889.295453461707
 20
3675.62997730425
 10
-1891.733190461707
 20
3675.300804304249
 10
-1894.146480461706
 20
3674.91166730425
 10
-1896.531588461707
 20
3674.452684304251
 10
-1898.884780461706
 20
3673.91397330425
 10
-1901.202322461706
 20
3673.28565430425
 10
-1903.284440461706
 20
3672.62721430425
 10
-1905.335001461706
 20
3671.88905830425
 10
-1907.355272461707
 20
3671.07438630425
 10
-1909.346522461706
 20
3670.18639930425
 10
-1911.310016461706
 20
3669.22829730425
 10
-1913.247022461707
 20
3668.203282304249
 10
-1915.158808461706
 20
3667.11455530425
 10
-1917.046639461706
 20
3665.96531530425
 10
-1918.911783461706
 20
3664.75876430425
 10
-1920.755507461707
 20
3663.49810330425
 10
-1922.579078461707
 20
3662.18653130425
 10
-1924.383764461706
 20
3660.82725130425
 10
-1926.170830461706
 20
3659.42346330425
 10
-1927.941545461706
 20
3657.97836730425
 10
-1929.697175461706
 20
3656.49516530425
 10
-1931.438988461707
 20
3654.97705730425
 10
-1933.168250461707
 20
3653.427244304249
 10
-1934.886228461706
 20
3651.848926304249
 10
-1936.594189461706
 20
3650.245305304249
 10
-1938.293402461706
 20
3648.61958130425
  0
LINE
  5
873B
330
1E
100
AcDbEntity
  8
002
100
AcDbLine
 10
-1926.808293461706
 20
3710.344885304249
 30
0.0
 11
-1930.535073461706
 21
3706.17821930425
 31
0.0
  0
ARC
  5
873C
330
1E
100
AcDbEntity
  8
002
100
AcDbCircle
 10
-1928.671683461707
 20
3712.01155230425
 30
0.0
 40
2.5
100
AcDbArc
 50
318.1896850000205
 51
41.81031499997946
  0
ARC
  5
873D
330
1E
100
AcDbEntity
  8
002
100
AcDbCircle
 10
-1928.671683461707
 20
3719.51155230425
 30
0.0
 40
2.5
100
AcDbArc
 50
138.1896850000205
 51
221.8103149999794
  0
LINE
  5
873E
330
1E
100
AcDbEntity
  8
002
100
AcDbLine
 10
-1930.535073461706
 20
3717.844885304249
 30
0.0
 11
-1926.808293461706
 21
3713.678219304251
 31
0.0
  0
ARC
  5
873F
330
1E
100
AcDbEntity
  8
002
100
AcDbCircle
 10
-1928.671683461707
 20
3682.01155230425
 30
0.0
 40
2.5
100
AcDbArc
 50
318.1896850000205
 51
41.81031499997946
  0
ARC
  5
8740
330
1E
100
AcDbEntity
  8
002
100
AcDbCircle
 10
-1928.671683461707
 20
3697.01155230425
 30
0.0
 40
2.5
100
AcDbArc
 50
318.1896850000205
 51
41.81031499997946
  0
ARC
  5
8741
330
1E
100
AcDbEntity
  8
002
100
AcDbCircle
 10
-1928.671683461707
 20
3689.511552304249
 30
0.0
 40
2.5
100
AcDbArc
 50
138.1896850000205
 51
221.8103149999794
  0
LINE
  5
8742
330
1E
100
AcDbEntity
  8
002
100
AcDbLine
 10
-1930.535073461706
 20
3702.84488530425
 30
0.0
 11
-1926.808293461706
 21
3698.67821930425
 31
0.0
  0
LINE
  5
8743
330
1E
100
AcDbEntity
  8
002
100
AcDbLine
 10
-1926.808293461706
 20
3695.344885304249
 30
0.0
 11
-1930.535073461706
 21
3691.17821930425
 31
0.0
  0
LINE
  5
8744
330
1E
100
AcDbEntity
  8
002
100
AcDbLine
 10
-1930.535073461706
 20
3687.84488530425
 30
0.0
 11
-1926.808293461706
 21
3683.67821930425
 31
0.0
  0
ARC
  5
8745
330
1E
100
AcDbEntity
  8
002
100
AcDbCircle
 10
-1928.671683461707
 20
3704.51155230425
 30
0.0
 40
2.5
100
AcDbArc
 50
138.1896850000205
 51
221.8103149999794
  0
ARC
  5
8746
330
1E
100
AcDbEntity
  8
002
100
AcDbCircle
 10
-1928.671683461707
 20
3667.01155230425
 30
0.0
 40
2.5
100
AcDbArc
 50
318.1896850000205
 51
41.81031499997946
  0
ARC
  5
8747
330
1E
100
AcDbEntity
  8
002
100
AcDbCircle
 10
-1928.671683461707
 20
3659.51155230425
 30
0.0
 40
2.5
100
AcDbArc
 50
138.1896850000205
 51
221.8103149999794
  0
LINE
  5
8748
330
1E
100
AcDbEntity
  8
002
100
AcDbLine
 10
-1930.535073461706
 20
3657.844885304249
 30
0.0
 11
-1929.488099461707
 21
3656.67433330425
 31
0.0
  0
ARC
  5
8749
330
1E
100
AcDbEntity
  8
002
100
AcDbCircle
 10
-1928.671683461707
 20
3674.51155230425
 30
0.0
 40
2.5
100
AcDbArc
 50
138.1896850000205
 51
221.8103149999794
  0
LINE
  5
874A
330
1E
100
AcDbEntity
  8
002
100
AcDbLine
 10
-1925.513144461707
 20
3659.94662230425
 30
0.0
 11
-1931.171683461707
 21
3659.51155230425
 31
0.0
  0
LINE
  5
874B
330
1E
100
AcDbEntity
  8
002
100
AcDbLine
 10
-1926.808293461706
 20
3665.34488530425
 30
0.0
 11
-1930.535073461706
 21
3661.17821930425
 31
0.0
  0
LINE
  5
874C
330
1E
100
AcDbEntity
  8
002
100
AcDbLine
 10
-1930.535073461706
 20
3672.844885304249
 30
0.0
 11
-1926.808293461706
 21
3668.67821930425
 31
0.0
  0
LINE
  5
874D
330
1E
100
AcDbEntity
  8
002
100
AcDbLine
 10
-1913.428400461707
 20
3668.10326630425
 30
0.0
 11
-1926.171683461707
 21
3667.01155230425
 31
0.0
  0
LINE
  5
874E
330
1E
100
AcDbEntity
  8
002
100
AcDbLine
 10
-1926.808293461706
 20
3680.344885304249
 30
0.0
 11
-1930.535073461706
 21
3676.17821930425
 31
0.0
  0
LINE
  5
874F
330
1E
100
AcDbEntity
  8
002
100
AcDbLine
 10
-1834.262838461707
 20
3710.344885304249
 30
0.0
 11
-1837.989618461706
 21
3706.17821930425
 31
0.0
  0
LINE
  5
8750
330
1E
100
AcDbEntity
  8
002
100
AcDbLine
 10
-1837.989618461706
 20
3717.844885304249
 30
0.0
 11
-1834.262838461707
 21
3713.678219304251
 31
0.0
  0
ARC
  5
8751
330
1E
100
AcDbEntity
  8
002
100
AcDbCircle
 10
-1836.126228461705
 20
3712.01155230425
 30
0.0
 40
2.5
100
AcDbArc
 50
318.1896850000205
 51
41.81031499997946
  0
ARC
  5
8752
330
1E
100
AcDbEntity
  8
002
100
AcDbCircle
 10
-1836.126228461705
 20
3719.51155230425
 30
0.0
 40
2.5
100
AcDbArc
 50
138.1896850000205
 51
221.8103149999794
  0
LINE
  5
8753
330
1E
100
AcDbEntity
  8
002
100
AcDbLine
 10
-1837.989618461706
 20
3702.84488530425
 30
0.0
 11
-1834.262838461707
 21
3698.67821930425
 31
0.0
  0
LINE
  5
8754
330
1E
100
AcDbEntity
  8
002
100
AcDbLine
 10
-1834.262838461707
 20
3695.344885304249
 30
0.0
 11
-1837.989618461706
 21
3691.17821930425
 31
0.0
  0
LINE
  5
8755
330
1E
100
AcDbEntity
  8
002
100
AcDbLine
 10
-1837.989618461706
 20
3687.84488530425
 30
0.0
 11
-1836.951508461707
 21
3686.684243304251
 31
0.0
  0
ARC
  5
8756
330
1E
100
AcDbEntity
  8
002
100
AcDbCircle
 10
-1836.126228461705
 20
3697.01155230425
 30
0.0
 40
2.5
100
AcDbArc
 50
318.1896850000205
 51
41.81031499997946
  0
ARC
  5
8757
330
1E
100
AcDbEntity
  8
002
100
AcDbCircle
 10
-1836.126228461705
 20
3689.511552304249
 30
0.0
 40
2.5
100
AcDbArc
 50
138.1896850000205
 51
221.8103149999794
  0
LWPOLYLINE
  5
8758
330
1E
100
AcDbEntity
  8
001
100
AcDbPolyline
 90
        3
 70
     0
 43
0.0
 10
-1827.848210461706
 20
3706.11509530425
 10
-1835.706524461706
 20
3708.73079530425
 10
-1830.208875461706
 20
3702.53637530425
  0
ARC
  5
8759
330
1E
100
AcDbEntity
  8
002
100
AcDbCircle
 10
-1836.126228461705
 20
3704.51155230425
 30
0.0
 40
2.5
100
AcDbArc
 50
138.1896850000205
 51
221.8103149999794
  0
LINE
  5
875A
330
1E
100
AcDbEntity
  8
001
100
AcDbLine
 10
-1776.605071461706
 20
3669.745145304249
 30
0.0
 11
-1666.605071461706
 21
3669.745145304249
 31
0.0
  0
TEXT
  5
875B
330
1E
100
AcDbEntity
  8
001
100
AcDbText
 10
-1765.605071461706
 20
3673.74514530425
 30
0.0
 40
12.8
  1
コルゲートシース
 41
0.716146
100
AcDbText
  0
LINE
  5
875C
330
1E
100
AcDbEntity
  8
002
100
AcDbLine
 10
-1852.119803461706
 20
4194.84488530425
 30
0.0
 11
-1811.619803461706
 21
4194.84488530425
 31
0.0
  0
LINE
  5
875D
330
1E
100
AcDbEntity
  8
002
100
AcDbLine
 10
-1827.619803461706
 20
4112.84488530425
 30
0.0
 11
-1780.119803461706
 21
4112.84488530425
 31
0.0
  0
LINE
  5
875E
330
1E
100
AcDbEntity
  8
002
100
AcDbLine
 10
-1858.119803461706
 20
4134.844885304249
 30
0.0
 11
-1805.119803461706
 21
4134.844885304249
 31
0.0
  0
ARC
  5
875F
330
1E
100
AcDbEntity
  8
002
100
AcDbCircle
 10
-1835.119803461706
 20
3959.51155230425
 30
0.0
 40
2.5
100
AcDbArc
 50
138.1896850000205
 51
221.8103149999794
  0
ARC
  5
8760
330
1E
100
AcDbEntity
  8
002
100
AcDbCircle
 10
-1836.126228461705
 20
3959.51155230425
 30
0.0
 40
2.5
100
AcDbArc
 50
138.1896850000205
 51
221.8103149999794
  0
ARC
  5
8761
330
1E
100
AcDbEntity
  8
002
100
AcDbCircle
 10
-1928.671683461707
 20
3959.51155230425
 30
0.0
 40
2.5
100
AcDbArc
 50
138.1896850000205
 51
221.8103149999794
  0
ARC
  5
8762
330
1E
100
AcDbEntity
  8
002
100
AcDbCircle
 10
-1930.119803461706
 20
3959.51155230425
 30
0.0
 40
2.5
100
AcDbArc
 50
138.1896850000205
 51
221.8103149999794
  0
LWPOLYLINE
  5
8763
330
1E
100
AcDbEntity
  8
001
100
AcDbPolyline
 90
        3
 70
     0
 43
0.0
 10
-1947.943531461707
 20
3956.79966130425
 10
-1942.655192461706
 20
3963.17370830425
 10
-1950.422051461706
 20
3960.29779130425
  0
LINE
  5
8764
330
1E
100
AcDbEntity
  8
002
100
AcDbLine
 10
-1838.626228461706
 20
3959.51155230425
 30
0.0
 11
-1926.171683461707
 21
3952.01155230425
 31
0.0
  0
LINE
  5
8765
330
1E
100
AcDbEntity
  8
002
100
AcDbLine
 10
-1819.119803461706
 20
4112.84488530425
 30
0.0
 11
-1824.119803461706
 21
3896.844885304249
 31
0.0
  0
LINE
  5
8766
330
1E
100
AcDbEntity
  8
002
100
AcDbLine
 10
-1946.119803461706
 20
4112.84488530425
 30
0.0
 11
-1941.119803461706
 21
3896.844885304249
 31
0.0
  0
LINE
  5
8767
330
1E
100
AcDbEntity
  8
003
100
AcDbLine
 10
-1965.119803461706
 20
4065.844885304249
 30
0.0
 11
-1965.119803461706
 21
3787.73132530425
 31
0.0
  0
LINE
  5
8768
330
1E
100
AcDbEntity
  8
003
100
AcDbLine
 10
-1955.619803461706
 20
4065.844885304249
 30
0.0
 11
-1955.619803461706
 21
3787.73132530425
 31
0.0
  0
LINE
  5
8769
330
1E
100
AcDbEntity
  8
002
100
AcDbLine
 10
-1838.626228461706
 20
3929.51155230425
 30
0.0
 11
-1926.171683461707
 21
3922.01155230425
 31
0.0
  0
LINE
  5
876A
330
1E
100
AcDbEntity
  8
002
100
AcDbLine
 10
-1838.626228461706
 20
3914.511552304249
 30
0.0
 11
-1926.171683461707
 21
3907.01155230425
 31
0.0
  0
LINE
  5
876B
330
1E
100
AcDbEntity
  8
002
100
AcDbLine
 10
-1838.626228461706
 20
3899.51155230425
 30
0.0
 11
-1926.171683461707
 21
3892.01155230425
 31
0.0
  0
LINE
  5
876C
330
1E
100
AcDbEntity
  8
002
100
AcDbLine
 10
-1838.626228461706
 20
3884.51155230425
 30
0.0
 11
-1926.171683461707
 21
3877.011552304249
 31
0.0
  0
LINE
  5
876D
330
1E
100
AcDbEntity
  8
002
100
AcDbLine
 10
-1838.626228461706
 20
3869.51155230425
 30
0.0
 11
-1926.171683461707
 21
3862.01155230425
 31
0.0
  0
LINE
  5
876E
330
1E
100
AcDbEntity
  8
002
100
AcDbLine
 10
-1838.626228461706
 20
3854.51155230425
 30
0.0
 11
-1926.171683461707
 21
3847.01155230425
 31
0.0
  0
LINE
  5
876F
330
1E
100
AcDbEntity
  8
002
100
AcDbLine
 10
-1838.626228461706
 20
3839.51155230425
 30
0.0
 11
-1926.171683461707
 21
3832.01155230425
 31
0.0
  0
LINE
  5
8770
330
1E
100
AcDbEntity
  8
002
100
AcDbLine
 10
-1838.626228461706
 20
3944.51155230425
 30
0.0
 11
-1926.171683461707
 21
3937.01155230425
 31
0.0
  0
LINE
  5
8771
330
1E
100
AcDbEntity
  8
002
100
AcDbLine
 10
-1833.626228461706
 20
3952.01155230425
 30
0.0
 11
-1931.171683461707
 21
3944.51155230425
 31
0.0
  0
LINE
  5
8772
330
1E
100
AcDbEntity
  8
002
100
AcDbLine
 10
-1833.626228461706
 20
3937.01155230425
 30
0.0
 11
-1931.171683461707
 21
3929.51155230425
 31
0.0
  0
LINE
  5
8773
330
1E
100
AcDbEntity
  8
002
100
AcDbLine
 10
-1833.626228461706
 20
3922.01155230425
 30
0.0
 11
-1931.171683461707
 21
3914.511552304249
 31
0.0
  0
LINE
  5
8774
330
1E
100
AcDbEntity
  8
002
100
AcDbLine
 10
-1833.626228461706
 20
3907.01155230425
 30
0.0
 11
-1931.171683461707
 21
3899.51155230425
 31
0.0
  0
LINE
  5
8775
330
1E
100
AcDbEntity
  8
002
100
AcDbLine
 10
-1833.626228461706
 20
3892.01155230425
 30
0.0
 11
-1931.171683461707
 21
3884.51155230425
 31
0.0
  0
LINE
  5
8776
330
1E
100
AcDbEntity
  8
002
100
AcDbLine
 10
-1833.626228461706
 20
3877.011552304249
 30
0.0
 11
-1931.171683461707
 21
3869.51155230425
 31
0.0
  0
LINE
  5
8777
330
1E
100
AcDbEntity
  8
002
100
AcDbLine
 10
-1833.626228461706
 20
3862.01155230425
 30
0.0
 11
-1931.171683461707
 21
3854.51155230425
 31
0.0
  0
LINE
  5
8778
330
1E
100
AcDbEntity
  8
002
100
AcDbLine
 10
-1833.626228461706
 20
3847.01155230425
 30
0.0
 11
-1931.171683461707
 21
3839.51155230425
 31
0.0
  0
LINE
  5
8779
330
1E
100
AcDbEntity
  8
002
100
AcDbLine
 10
-1838.626228461706
 20
3824.51155230425
 30
0.0
 11
-1926.171683461707
 21
3817.01155230425
 31
0.0
  0
LINE
  5
877A
330
1E
100
AcDbEntity
  8
002
100
AcDbLine
 10
-1838.626228461706
 20
3809.51155230425
 30
0.0
 11
-1926.171683461707
 21
3802.01155230425
 31
0.0
  0
LINE
  5
877B
330
1E
100
AcDbEntity
  8
002
100
AcDbLine
 10
-1833.626228461706
 20
3817.01155230425
 30
0.0
 11
-1931.171683461707
 21
3809.51155230425
 31
0.0
  0
LINE
  5
877C
330
1E
100
AcDbEntity
  8
002
100
AcDbLine
 10
-1833.626228461706
 20
3802.01155230425
 30
0.0
 11
-1931.171683461707
 21
3794.51155230425
 31
0.0
  0
LINE
  5
877D
330
1E
100
AcDbEntity
  8
002
100
AcDbLine
 10
-1833.626228461706
 20
3832.01155230425
 30
0.0
 11
-1931.171683461707
 21
3824.51155230425
 31
0.0
  0
LINE
  5
877E
330
1E
100
AcDbEntity
  8
002
100
AcDbLine
 10
-1838.626228461706
 20
3734.51155230425
 30
0.0
 11
-1926.171683461707
 21
3727.011552304249
 31
0.0
  0
LINE
  5
877F
330
1E
100
AcDbEntity
  8
002
100
AcDbLine
 10
-1838.626228461706
 20
3779.51155230425
 30
0.0
 11
-1926.171683461707
 21
3772.01155230425
 31
0.0
  0
LINE
  5
8780
330
1E
100
AcDbEntity
  8
002
100
AcDbLine
 10
-1838.626228461706
 20
3764.51155230425
 30
0.0
 11
-1926.171683461707
 21
3757.01155230425
 31
0.0
  0
LINE
  5
8781
330
1E
100
AcDbEntity
  8
002
100
AcDbLine
 10
-1838.626228461706
 20
3749.51155230425
 30
0.0
 11
-1926.171683461707
 21
3742.01155230425
 31
0.0
  0
LINE
  5
8782
330
1E
100
AcDbEntity
  8
002
100
AcDbLine
 10
-1833.626228461706
 20
3742.01155230425
 30
0.0
 11
-1931.171683461707
 21
3734.51155230425
 31
0.0
  0
LINE
  5
8783
330
1E
100
AcDbEntity
  8
002
100
AcDbLine
 10
-1833.626228461706
 20
3787.01155230425
 30
0.0
 11
-1931.171683461707
 21
3779.51155230425
 31
0.0
  0
LINE
  5
8784
330
1E
100
AcDbEntity
  8
002
100
AcDbLine
 10
-1833.626228461706
 20
3772.01155230425
 30
0.0
 11
-1931.171683461707
 21
3764.51155230425
 31
0.0
  0
LINE
  5
8785
330
1E
100
AcDbEntity
  8
002
100
AcDbLine
 10
-1833.626228461706
 20
3757.01155230425
 30
0.0
 11
-1931.171683461707
 21
3749.51155230425
 31
0.0
  0
LINE
  5
8786
330
1E
100
AcDbEntity
  8
002
100
AcDbLine
 10
-1838.626228461706
 20
3794.51155230425
 30
0.0
 11
-1926.171683461707
 21
3787.01155230425
 31
0.0
  0
ARC
  5
8787
330
1E
100
AcDbEntity
  8
002
100
AcDbCircle
 10
-1928.671683461707
 20
3839.51155230425
 30
0.0
 40
2.5
100
AcDbArc
 50
138.1896850000205
 51
221.8103149999794
  0
ARC
  5
8788
330
1E
100
AcDbEntity
  8
002
100
AcDbCircle
 10
-1928.671683461707
 20
3832.01155230425
 30
0.0
 40
2.5
100
AcDbArc
 50
318.1896850000205
 51
41.81031499997946
  0
LINE
  5
8789
330
1E
100
AcDbEntity
  8
002
100
AcDbLine
 10
-1930.535073461706
 20
3837.844885304249
 30
0.0
 11
-1926.808293461706
 21
3833.67821930425
 31
0.0
  0
ARC
  5
878A
330
1E
100
AcDbEntity
  8
002
100
AcDbCircle
 10
-1928.671683461707
 20
3824.51155230425
 30
0.0
 40
2.5
100
AcDbArc
 50
138.1896850000205
 51
221.8103149999794
  0
LINE
  5
878B
330
1E
100
AcDbEntity
  8
002
100
AcDbLine
 10
-1926.808293461706
 20
3830.344885304249
 30
0.0
 11
-1930.535073461706
 21
3826.17821930425
 31
0.0
  0
ARC
  5
878C
330
1E
100
AcDbEntity
  8
002
100
AcDbCircle
 10
-1928.671683461707
 20
3817.01155230425
 30
0.0
 40
2.5
100
AcDbArc
 50
318.1896850000205
 51
41.81031499997946
  0
ARC
  5
878D
330
1E
100
AcDbEntity
  8
002
100
AcDbCircle
 10
-1928.671683461707
 20
3802.01155230425
 30
0.0
 40
2.5
100
AcDbArc
 50
318.1896850000205
 51
41.81031499997946
  0
ARC
  5
878E
330
1E
100
AcDbEntity
  8
002
100
AcDbCircle
 10
-1928.671683461707
 20
3809.51155230425
 30
0.0
 40
2.5
100
AcDbArc
 50
138.1896850000205
 51
221.8103149999794
  0
ARC
  5
878F
330
1E
100
AcDbEntity
  8
002
100
AcDbCircle
 10
-1928.671683461707
 20
3794.51155230425
 30
0.0
 40
2.5
100
AcDbArc
 50
138.1896850000205
 51
221.8103149999794
  0
LINE
  5
8790
330
1E
100
AcDbEntity
  8
002
100
AcDbLine
 10
-1926.808293461706
 20
3800.34488530425
 30
0.0
 11
-1930.535073461706
 21
3796.17821930425
 31
0.0
  0
LINE
  5
8791
330
1E
100
AcDbEntity
  8
002
100
AcDbLine
 10
-1930.535073461706
 20
3807.844885304249
 30
0.0
 11
-1926.808293461706
 21
3803.67821930425
 31
0.0
  0
LINE
  5
8792
330
1E
100
AcDbEntity
  8
002
100
AcDbLine
 10
-1926.808293461706
 20
3815.344885304249
 30
0.0
 11
-1930.535073461706
 21
3811.178219304251
 31
0.0
  0
LINE
  5
8793
330
1E
100
AcDbEntity
  8
002
100
AcDbLine
 10
-1930.535073461706
 20
3822.844885304249
 30
0.0
 11
-1926.808293461706
 21
3818.67821930425
 31
0.0
  0
ARC
  5
8794
330
1E
100
AcDbEntity
  8
002
100
AcDbCircle
 10
-1928.671683461707
 20
3787.01155230425
 30
0.0
 40
2.5
100
AcDbArc
 50
318.1896850000205
 51
41.81031499997946
  0
ARC
  5
8795
330
1E
100
AcDbEntity
  8
002
100
AcDbCircle
 10
-1928.671683461707
 20
3772.01155230425
 30
0.0
 40
2.5
100
AcDbArc
 50
318.1896850000205
 51
41.81031499997946
  0
ARC
  5
8796
330
1E
100
AcDbEntity
  8
002
100
AcDbCircle
 10
-1928.671683461707
 20
3779.51155230425
 30
0.0
 40
2.5
100
AcDbArc
 50
138.1896850000205
 51
221.8103149999794
  0
LINE
  5
8797
330
1E
100
AcDbEntity
  8
002
100
AcDbLine
 10
-1926.808293461706
 20
3785.344885304249
 30
0.0
 11
-1930.535073461706
 21
3781.17821930425
 31
0.0
  0
LINE
  5
8798
330
1E
100
AcDbEntity
  8
002
100
AcDbLine
 10
-1930.535073461706
 20
3777.844885304249
 30
0.0
 11
-1926.808293461706
 21
3773.678219304251
 31
0.0
  0
LINE
  5
8799
330
1E
100
AcDbEntity
  8
002
100
AcDbLine
 10
-1926.808293461706
 20
3770.344885304249
 30
0.0
 11
-1930.535073461706
 21
3766.17821930425
 31
0.0
  0
ARC
  5
879A
330
1E
100
AcDbEntity
  8
002
100
AcDbCircle
 10
-1928.671683461707
 20
3757.01155230425
 30
0.0
 40
2.5
100
AcDbArc
 50
318.1896850000205
 51
41.81031499997946
  0
ARC
  5
879B
330
1E
100
AcDbEntity
  8
002
100
AcDbCircle
 10
-1928.671683461707
 20
3742.01155230425
 30
0.0
 40
2.5
100
AcDbArc
 50
318.1896850000205
 51
41.81031499997946
  0
ARC
  5
879C
330
1E
100
AcDbEntity
  8
002
100
AcDbCircle
 10
-1928.671683461707
 20
3749.51155230425
 30
0.0
 40
2.5
100
AcDbArc
 50
138.1896850000205
 51
221.8103149999794
  0
LINE
  5
879D
330
1E
100
AcDbEntity
  8
002
100
AcDbLine
 10
-1926.808293461706
 20
3740.344885304249
 30
0.0
 11
-1930.535073461706
 21
3736.17821930425
 31
0.0
  0
LINE
  5
879E
330
1E
100
AcDbEntity
  8
002
100
AcDbLine
 10
-1926.808293461706
 20
3755.344885304249
 30
0.0
 11
-1930.535073461706
 21
3751.17821930425
 31
0.0
  0
LINE
  5
879F
330
1E
100
AcDbEntity
  8
002
100
AcDbLine
 10
-1930.535073461706
 20
3762.84488530425
 30
0.0
 11
-1926.808293461706
 21
3758.67821930425
 31
0.0
  0
LINE
  5
87A0
330
1E
100
AcDbEntity
  8
002
100
AcDbLine
 10
-1930.535073461706
 20
3747.844885304249
 30
0.0
 11
-1926.808293461706
 21
3743.67821930425
 31
0.0
  0
ARC
  5
87A1
330
1E
100
AcDbEntity
  8
002
100
AcDbCircle
 10
-1928.671683461707
 20
3764.51155230425
 30
0.0
 40
2.5
100
AcDbArc
 50
138.1896850000205
 51
221.8103149999794
  0
ARC
  5
87A2
330
1E
100
AcDbEntity
  8
002
100
AcDbCircle
 10
-1928.671683461707
 20
3727.011552304249
 30
0.0
 40
2.5
100
AcDbArc
 50
318.1896850000205
 51
41.81031499997946
  0
LINE
  5
87A3
330
1E
100
AcDbEntity
  8
002
100
AcDbLine
 10
-1930.535073461706
 20
3732.844885304249
 30
0.0
 11
-1926.808293461706
 21
3728.67821930425
 31
0.0
  0
ARC
  5
87A4
330
1E
100
AcDbEntity
  8
002
100
AcDbCircle
 10
-1928.671683461707
 20
3734.51155230425
 30
0.0
 40
2.5
100
AcDbArc
 50
138.1896850000205
 51
221.8103149999794
  0
LINE
  5
87A5
330
1E
100
AcDbEntity
  8
002
100
AcDbLine
 10
-1930.535073461706
 20
3792.84488530425
 30
0.0
 11
-1926.808293461706
 21
3788.67821930425
 31
0.0
  0
ARC
  5
87A6
330
1E
100
AcDbEntity
  8
002
100
AcDbCircle
 10
-1928.671683461707
 20
3952.01155230425
 30
0.0
 40
2.5
100
AcDbArc
 50
318.1896850000205
 51
41.81031499997946
  0
ARC
  5
87A7
330
1E
100
AcDbEntity
  8
002
100
AcDbCircle
 10
-1928.671683461707
 20
3937.01155230425
 30
0.0
 40
2.5
100
AcDbArc
 50
318.1896850000205
 51
41.81031499997946
  0
LINE
  5
87A8
330
1E
100
AcDbEntity
  8
002
100
AcDbLine
 10
-1931.983193461706
 20
3957.844885304249
 30
0.0
 11
-1928.256413461706
 21
3953.67821930425
 31
0.0
  0
ARC
  5
87A9
330
1E
100
AcDbEntity
  8
002
100
AcDbCircle
 10
-1928.671683461707
 20
3944.51155230425
 30
0.0
 40
2.5
100
AcDbArc
 50
138.1896850000205
 51
221.8103149999794
  0
LINE
  5
87AA
330
1E
100
AcDbEntity
  8
002
100
AcDbLine
 10
-1931.983193461706
 20
3942.84488530425
 30
0.0
 11
-1928.256413461706
 21
3938.67821930425
 31
0.0
  0
LINE
  5
87AB
330
1E
100
AcDbEntity
  8
002
100
AcDbLine
 10
-1928.256413461706
 20
3950.34488530425
 30
0.0
 11
-1931.983193461706
 21
3946.17821930425
 31
0.0
  0
ARC
  5
87AC
330
1E
100
AcDbEntity
  8
002
100
AcDbCircle
 10
-1930.119803461706
 20
3944.51155230425
 30
0.0
 40
2.5
100
AcDbArc
 50
138.1896850000205
 51
221.8103149999794
  0
LINE
  5
87AD
330
1E
100
AcDbEntity
  8
002
100
AcDbLine
 10
-1930.535073461706
 20
3957.844885304249
 30
0.0
 11
-1926.808293461706
 21
3953.67821930425
 31
0.0
  0
LINE
  5
87AE
330
1E
100
AcDbEntity
  8
002
100
AcDbLine
 10
-1930.535073461706
 20
3942.84488530425
 30
0.0
 11
-1926.808293461706
 21
3938.67821930425
 31
0.0
  0
LINE
  5
87AF
330
1E
100
AcDbEntity
  8
002
100
AcDbLine
 10
-1926.808293461706
 20
3950.34488530425
 30
0.0
 11
-1930.535073461706
 21
3946.17821930425
 31
0.0
  0
ARC
  5
87B0
330
1E
100
AcDbEntity
  8
002
100
AcDbCircle
 10
-1930.119803461706
 20
3937.01155230425
 30
0.0
 40
2.5
100
AcDbArc
 50
318.1896850000205
 51
41.81031499997946
  0
ARC
  5
87B1
330
1E
100
AcDbEntity
  8
002
100
AcDbCircle
 10
-1930.119803461706
 20
3952.01155230425
 30
0.0
 40
2.5
100
AcDbArc
 50
318.1896850000205
 51
41.81031499997946
  0
ARC
  5
87B2
330
1E
100
AcDbEntity
  8
002
100
AcDbCircle
 10
-1928.671683461707
 20
3922.01155230425
 30
0.0
 40
2.5
100
AcDbArc
 50
318.1896850000205
 51
41.81031499997946
  0
ARC
  5
87B3
330
1E
100
AcDbEntity
  8
002
100
AcDbCircle
 10
-1928.671683461707
 20
3914.511552304249
 30
0.0
 40
2.5
100
AcDbArc
 50
138.1896850000205
 51
221.8103149999794
  0
LINE
  5
87B4
330
1E
100
AcDbEntity
  8
002
100
AcDbLine
 10
-1931.983193461706
 20
3927.844885304249
 30
0.0
 11
-1928.256413461706
 21
3923.67821930425
 31
0.0
  0
LINE
  5
87B5
330
1E
100
AcDbEntity
  8
002
100
AcDbLine
 10
-1931.983193461706
 20
3912.84488530425
 30
0.0
 11
-1928.256413461706
 21
3908.67821930425
 31
0.0
  0
LINE
  5
87B6
330
1E
100
AcDbEntity
  8
002
100
AcDbLine
 10
-1928.256413461706
 20
3920.344885304249
 30
0.0
 11
-1931.983193461706
 21
3916.17821930425
 31
0.0
  0
ARC
  5
87B7
330
1E
100
AcDbEntity
  8
002
100
AcDbCircle
 10
-1930.119803461706
 20
3914.511552304249
 30
0.0
 40
2.5
100
AcDbArc
 50
138.1896850000205
 51
221.8103149999794
  0
ARC
  5
87B8
330
1E
100
AcDbEntity
  8
002
100
AcDbCircle
 10
-1928.671683461707
 20
3929.51155230425
 30
0.0
 40
2.5
100
AcDbArc
 50
138.1896850000205
 51
221.8103149999794
  0
ARC
  5
87B9
330
1E
100
AcDbEntity
  8
002
100
AcDbCircle
 10
-1930.119803461706
 20
3929.51155230425
 30
0.0
 40
2.5
100
AcDbArc
 50
138.1896850000205
 51
221.8103149999794
  0
LINE
  5
87BA
330
1E
100
AcDbEntity
  8
002
100
AcDbLine
 10
-1930.535073461706
 20
3912.84488530425
 30
0.0
 11
-1926.808293461706
 21
3908.67821930425
 31
0.0
  0
LINE
  5
87BB
330
1E
100
AcDbEntity
  8
002
100
AcDbLine
 10
-1930.535073461706
 20
3927.844885304249
 30
0.0
 11
-1926.808293461706
 21
3923.67821930425
 31
0.0
  0
LINE
  5
87BC
330
1E
100
AcDbEntity
  8
002
100
AcDbLine
 10
-1926.808293461706
 20
3920.344885304249
 30
0.0
 11
-1930.535073461706
 21
3916.17821930425
 31
0.0
  0
ARC
  5
87BD
330
1E
100
AcDbEntity
  8
002
100
AcDbCircle
 10
-1930.119803461706
 20
3922.01155230425
 30
0.0
 40
2.5
100
AcDbArc
 50
318.1896850000205
 51
41.81031499997946
  0
LINE
  5
87BE
330
1E
100
AcDbEntity
  8
002
100
AcDbLine
 10
-1928.256413461706
 20
3935.344885304249
 30
0.0
 11
-1931.983193461706
 21
3931.17821930425
 31
0.0
  0
LINE
  5
87BF
330
1E
100
AcDbEntity
  8
002
100
AcDbLine
 10
-1926.808293461706
 20
3935.344885304249
 30
0.0
 11
-1930.535073461706
 21
3931.17821930425
 31
0.0
  0
ARC
  5
87C0
330
1E
100
AcDbEntity
  8
002
100
AcDbCircle
 10
-1928.671683461707
 20
3892.01155230425
 30
0.0
 40
2.5
100
AcDbArc
 50
318.1896850000205
 51
41.81031499997946
  0
ARC
  5
87C1
330
1E
100
AcDbEntity
  8
002
100
AcDbCircle
 10
-1928.671683461707
 20
3899.51155230425
 30
0.0
 40
2.5
100
AcDbArc
 50
138.1896850000205
 51
221.8103149999794
  0
LINE
  5
87C2
330
1E
100
AcDbEntity
  8
002
100
AcDbLine
 10
-1931.983193461706
 20
3897.844885304249
 30
0.0
 11
-1931.088766461707
 21
3896.844885304249
 31
0.0
  0
LINE
  5
87C3
330
1E
100
AcDbEntity
  8
002
100
AcDbLine
 10
-1928.256413461706
 20
3905.344885304249
 30
0.0
 11
-1931.983193461706
 21
3901.178219304251
 31
0.0
  0
ARC
  5
87C4
330
1E
100
AcDbEntity
  8
002
100
AcDbCircle
 10
-1930.119803461706
 20
3899.51155230425
 30
0.0
 40
2.5
100
AcDbArc
 50
138.1896850000205
 51
221.8103149999794
  0
LINE
  5
87C5
330
1E
100
AcDbEntity
  8
002
100
AcDbLine
 10
-1931.088766461707
 20
3896.844885304249
 30
0.0
 11
-1941.119803461706
 21
3896.844885304249
 31
0.0
  0
ARC
  5
87C6
330
1E
100
AcDbEntity
  8
002
100
AcDbCircle
 10
-1928.671683461707
 20
3884.51155230425
 30
0.0
 40
2.5
100
AcDbArc
 50
138.1896850000205
 51
221.8103149999794
  0
LINE
  5
87C7
330
1E
100
AcDbEntity
  8
002
100
AcDbLine
 10
-1930.535073461706
 20
3897.844885304249
 30
0.0
 11
-1926.808293461706
 21
3893.67821930425
 31
0.0
  0
LINE
  5
87C8
330
1E
100
AcDbEntity
  8
002
100
AcDbLine
 10
-1926.808293461706
 20
3890.34488530425
 30
0.0
 11
-1930.535073461706
 21
3886.17821930425
 31
0.0
  0
LINE
  5
87C9
330
1E
100
AcDbEntity
  8
002
100
AcDbLine
 10
-1926.808293461706
 20
3905.344885304249
 30
0.0
 11
-1930.535073461706
 21
3901.178219304251
 31
0.0
  0
LINE
  5
87CA
330
1E
100
AcDbEntity
  8
002
100
AcDbLine
 10
-1930.535073461706
 20
3882.844885304249
 30
0.0
 11
-1926.808293461706
 21
3878.67821930425
 31
0.0
  0
ARC
  5
87CB
330
1E
100
AcDbEntity
  8
002
100
AcDbCircle
 10
-1928.671683461707
 20
3862.01155230425
 30
0.0
 40
2.5
100
AcDbArc
 50
318.1896850000205
 51
41.81031499997946
  0
ARC
  5
87CC
330
1E
100
AcDbEntity
  8
002
100
AcDbCircle
 10
-1928.671683461707
 20
3869.51155230425
 30
0.0
 40
2.5
100
AcDbArc
 50
138.1896850000205
 51
221.8103149999794
  0
ARC
  5
87CD
330
1E
100
AcDbEntity
  8
002
100
AcDbCircle
 10
-1928.671683461707
 20
3854.51155230425
 30
0.0
 40
2.5
100
AcDbArc
 50
138.1896850000205
 51
221.8103149999794
  0
LINE
  5
87CE
330
1E
100
AcDbEntity
  8
002
100
AcDbLine
 10
-1930.535073461706
 20
3867.844885304249
 30
0.0
 11
-1926.808293461706
 21
3863.678219304251
 31
0.0
  0
LINE
  5
87CF
330
1E
100
AcDbEntity
  8
002
100
AcDbLine
 10
-1926.808293461706
 20
3875.344885304249
 30
0.0
 11
-1930.535073461706
 21
3871.17821930425
 31
0.0
  0
LINE
  5
87D0
330
1E
100
AcDbEntity
  8
002
100
AcDbLine
 10
-1926.808293461706
 20
3860.344885304249
 30
0.0
 11
-1930.535073461706
 21
3856.17821930425
 31
0.0
  0
ARC
  5
87D1
330
1E
100
AcDbEntity
  8
002
100
AcDbCircle
 10
-1928.671683461707
 20
3877.011552304249
 30
0.0
 40
2.5
100
AcDbArc
 50
318.1896850000205
 51
41.81031499997946
  0
ARC
  5
87D2
330
1E
100
AcDbEntity
  8
002
100
AcDbCircle
 10
-1928.671683461707
 20
3847.01155230425
 30
0.0
 40
2.5
100
AcDbArc
 50
318.1896850000205
 51
41.81031499997946
  0
LINE
  5
87D3
330
1E
100
AcDbEntity
  8
002
100
AcDbLine
 10
-1926.808293461706
 20
3845.344885304249
 30
0.0
 11
-1930.535073461706
 21
3841.17821930425
 31
0.0
  0
LINE
  5
87D4
330
1E
100
AcDbEntity
  8
002
100
AcDbLine
 10
-1930.535073461706
 20
3852.84488530425
 30
0.0
 11
-1926.808293461706
 21
3848.67821930425
 31
0.0
  0
ARC
  5
87D5
330
1E
100
AcDbEntity
  8
002
100
AcDbCircle
 10
-1928.671683461707
 20
3907.01155230425
 30
0.0
 40
2.5
100
AcDbArc
 50
318.1896850000205
 51
41.81031499997946
  0
ARC
  5
87D6
330
1E
100
AcDbEntity
  8
002
100
AcDbCircle
 10
-1930.119803461706
 20
3907.01155230425
 30
0.0
 40
2.5
100
AcDbArc
 50
318.1896850000205
 51
41.81031499997946
  0
ARC
  5
87D7
330
1E
100
AcDbEntity
  8
002
100
AcDbCircle
 10
-1836.126228461705
 20
3839.51155230425
 30
0.0
 40
2.5
100
AcDbArc
 50
138.1896850000205
 51
221.8103149999794
  0
LINE
  5
87D8
330
1E
100
AcDbEntity
  8
002
100
AcDbLine
 10
-1837.989618461706
 20
3837.844885304249
 30
0.0
 11
-1834.262838461707
 21
3833.67821930425
 31
0.0
  0
ARC
  5
87D9
330
1E
100
AcDbEntity
  8
002
100
AcDbCircle
 10
-1836.126228461705
 20
3832.01155230425
 30
0.0
 40
2.5
100
AcDbArc
 50
318.1896850000205
 51
41.81031499997946
  0
ARC
  5
87DA
330
1E
100
AcDbEntity
  8
002
100
AcDbCircle
 10
-1836.126228461705
 20
3824.51155230425
 30
0.0
 40
2.5
100
AcDbArc
 50
138.1896850000205
 51
221.8103149999794
  0
LINE
  5
87DB
330
1E
100
AcDbEntity
  8
002
100
AcDbLine
 10
-1834.262838461707
 20
3830.344885304249
 30
0.0
 11
-1837.989618461706
 21
3826.17821930425
 31
0.0
  0
LINE
  5
87DC
330
1E
100
AcDbEntity
  8
002
100
AcDbLine
 10
-1837.989618461706
 20
3807.844885304249
 30
0.0
 11
-1834.262838461707
 21
3803.67821930425
 31
0.0
  0
LINE
  5
87DD
330
1E
100
AcDbEntity
  8
002
100
AcDbLine
 10
-1834.262838461707
 20
3800.34488530425
 30
0.0
 11
-1837.989618461706
 21
3796.17821930425
 31
0.0
  0
LINE
  5
87DE
330
1E
100
AcDbEntity
  8
002
100
AcDbLine
 10
-1834.262838461707
 20
3815.344885304249
 30
0.0
 11
-1837.989618461706
 21
3811.178219304251
 31
0.0
  0
ARC
  5
87DF
330
1E
100
AcDbEntity
  8
002
100
AcDbCircle
 10
-1836.126228461705
 20
3817.01155230425
 30
0.0
 40
2.5
100
AcDbArc
 50
318.1896850000205
 51
41.81031499997946
  0
ARC
  5
87E0
330
1E
100
AcDbEntity
  8
002
100
AcDbCircle
 10
-1836.126228461705
 20
3802.01155230425
 30
0.0
 40
2.5
100
AcDbArc
 50
318.1896850000205
 51
41.81031499997946
  0
ARC
  5
87E1
330
1E
100
AcDbEntity
  8
002
100
AcDbCircle
 10
-1836.126228461705
 20
3809.51155230425
 30
0.0
 40
2.5
100
AcDbArc
 50
138.1896850000205
 51
221.8103149999794
  0
ARC
  5
87E2
330
1E
100
AcDbEntity
  8
002
100
AcDbCircle
 10
-1836.126228461705
 20
3794.51155230425
 30
0.0
 40
2.5
100
AcDbArc
 50
138.1896850000205
 51
221.8103149999794
  0
LINE
  5
87E3
330
1E
100
AcDbEntity
  8
002
100
AcDbLine
 10
-1837.989618461706
 20
3822.844885304249
 30
0.0
 11
-1834.262838461707
 21
3818.67821930425
 31
0.0
  0
LINE
  5
87E4
330
1E
100
AcDbEntity
  8
002
100
AcDbLine
 10
-1834.262838461707
 20
3785.344885304249
 30
0.0
 11
-1837.989618461706
 21
3781.17821930425
 31
0.0
  0
LINE
  5
87E5
330
1E
100
AcDbEntity
  8
002
100
AcDbLine
 10
-1837.989618461706
 20
3777.844885304249
 30
0.0
 11
-1834.262838461707
 21
3773.678219304251
 31
0.0
  0
LINE
  5
87E6
330
1E
100
AcDbEntity
  8
002
100
AcDbLine
 10
-1834.262838461707
 20
3770.344885304249
 30
0.0
 11
-1837.989618461706
 21
3766.17821930425
 31
0.0
  0
ARC
  5
87E7
330
1E
100
AcDbEntity
  8
002
100
AcDbCircle
 10
-1836.126228461705
 20
3787.01155230425
 30
0.0
 40
2.5
100
AcDbArc
 50
318.1896850000205
 51
41.81031499997946
  0
ARC
  5
87E8
330
1E
100
AcDbEntity
  8
002
100
AcDbCircle
 10
-1836.126228461705
 20
3772.01155230425
 30
0.0
 40
2.5
100
AcDbArc
 50
318.1896850000205
 51
41.81031499997946
  0
ARC
  5
87E9
330
1E
100
AcDbEntity
  8
002
100
AcDbCircle
 10
-1836.126228461705
 20
3779.51155230425
 30
0.0
 40
2.5
100
AcDbArc
 50
138.1896850000205
 51
221.8103149999794
  0
LINE
  5
87EA
330
1E
100
AcDbEntity
  8
002
100
AcDbLine
 10
-1834.262838461707
 20
3740.344885304249
 30
0.0
 11
-1837.989618461706
 21
3736.17821930425
 31
0.0
  0
LINE
  5
87EB
330
1E
100
AcDbEntity
  8
002
100
AcDbLine
 10
-1834.262838461707
 20
3755.344885304249
 30
0.0
 11
-1837.989618461706
 21
3751.17821930425
 31
0.0
  0
LINE
  5
87EC
330
1E
100
AcDbEntity
  8
002
100
AcDbLine
 10
-1837.989618461706
 20
3762.84488530425
 30
0.0
 11
-1834.262838461707
 21
3758.67821930425
 31
0.0
  0
LINE
  5
87ED
330
1E
100
AcDbEntity
  8
002
100
AcDbLine
 10
-1837.989618461706
 20
3747.844885304249
 30
0.0
 11
-1834.262838461707
 21
3743.67821930425
 31
0.0
  0
ARC
  5
87EE
330
1E
100
AcDbEntity
  8
002
100
AcDbCircle
 10
-1836.126228461705
 20
3757.01155230425
 30
0.0
 40
2.5
100
AcDbArc
 50
318.1896850000205
 51
41.81031499997946
  0
ARC
  5
87EF
330
1E
100
AcDbEntity
  8
002
100
AcDbCircle
 10
-1836.126228461705
 20
3742.01155230425
 30
0.0
 40
2.5
100
AcDbArc
 50
318.1896850000205
 51
41.81031499997946
  0
ARC
  5
87F0
330
1E
100
AcDbEntity
  8
002
100
AcDbCircle
 10
-1836.126228461705
 20
3749.51155230425
 30
0.0
 40
2.5
100
AcDbArc
 50
138.1896850000205
 51
221.8103149999794
  0
ARC
  5
87F1
330
1E
100
AcDbEntity
  8
002
100
AcDbCircle
 10
-1836.126228461705
 20
3764.51155230425
 30
0.0
 40
2.5
100
AcDbArc
 50
138.1896850000205
 51
221.8103149999794
  0
LINE
  5
87F2
330
1E
100
AcDbEntity
  8
002
100
AcDbLine
 10
-1837.989618461706
 20
3732.844885304249
 30
0.0
 11
-1834.262838461707
 21
3728.67821930425
 31
0.0
  0
ARC
  5
87F3
330
1E
100
AcDbEntity
  8
002
100
AcDbCircle
 10
-1836.126228461705
 20
3727.011552304249
 30
0.0
 40
2.5
100
AcDbArc
 50
318.1896850000205
 51
41.81031499997946
  0
ARC
  5
87F4
330
1E
100
AcDbEntity
  8
002
100
AcDbCircle
 10
-1836.126228461705
 20
3734.51155230425
 30
0.0
 40
2.5
100
AcDbArc
 50
138.1896850000205
 51
221.8103149999794
  0
LINE
  5
87F5
330
1E
100
AcDbEntity
  8
002
100
AcDbLine
 10
-1837.989618461706
 20
3792.84488530425
 30
0.0
 11
-1834.262838461707
 21
3788.67821930425
 31
0.0
  0
ARC
  5
87F6
330
1E
100
AcDbEntity
  8
002
100
AcDbCircle
 10
-1835.119803461706
 20
3952.01155230425
 30
0.0
 40
2.5
100
AcDbArc
 50
318.1896850000205
 51
41.81031499997946
  0
LINE
  5
87F7
330
1E
100
AcDbEntity
  8
002
100
AcDbLine
 10
-1837.989618461706
 20
3957.844885304249
 30
0.0
 11
-1834.262838461707
 21
3953.67821930425
 31
0.0
  0
LINE
  5
87F8
330
1E
100
AcDbEntity
  8
002
100
AcDbLine
 10
-1837.989618461706
 20
3942.84488530425
 30
0.0
 11
-1834.262838461707
 21
3938.67821930425
 31
0.0
  0
LINE
  5
87F9
330
1E
100
AcDbEntity
  8
002
100
AcDbLine
 10
-1834.262838461707
 20
3950.34488530425
 30
0.0
 11
-1837.989618461706
 21
3946.17821930425
 31
0.0
  0
ARC
  5
87FA
330
1E
100
AcDbEntity
  8
002
100
AcDbCircle
 10
-1835.119803461706
 20
3944.51155230425
 30
0.0
 40
2.5
100
AcDbArc
 50
138.1896850000205
 51
221.8103149999794
  0
ARC
  5
87FB
330
1E
100
AcDbEntity
  8
002
100
AcDbCircle
 10
-1836.126228461705
 20
3952.01155230425
 30
0.0
 40
2.5
100
AcDbArc
 50
318.1896850000205
 51
41.81031499997946
  0
LINE
  5
87FC
330
1E
100
AcDbEntity
  8
002
100
AcDbLine
 10
-1836.983193461706
 20
3957.844885304249
 30
0.0
 11
-1833.256413461706
 21
3953.67821930425
 31
0.0
  0
LINE
  5
87FD
330
1E
100
AcDbEntity
  8
002
100
AcDbLine
 10
-1833.256413461706
 20
3950.34488530425
 30
0.0
 11
-1836.983193461706
 21
3946.17821930425
 31
0.0
  0
LINE
  5
87FE
330
1E
100
AcDbEntity
  8
002
100
AcDbLine
 10
-1836.983193461706
 20
3942.84488530425
 30
0.0
 11
-1833.256413461706
 21
3938.67821930425
 31
0.0
  0
ARC
  5
87FF
330
1E
100
AcDbEntity
  8
002
100
AcDbCircle
 10
-1835.119803461706
 20
3937.01155230425
 30
0.0
 40
2.5
100
AcDbArc
 50
318.1896850000205
 51
41.81031499997946
  0
ARC
  5
8800
330
1E
100
AcDbEntity
  8
002
100
AcDbCircle
 10
-1836.126228461705
 20
3937.01155230425
 30
0.0
 40
2.5
100
AcDbArc
 50
318.1896850000205
 51
41.81031499997946
  0
ARC
  5
8801
330
1E
100
AcDbEntity
  8
002
100
AcDbCircle
 10
-1836.126228461705
 20
3944.51155230425
 30
0.0
 40
2.5
100
AcDbArc
 50
138.1896850000205
 51
221.8103149999794
  0
ARC
  5
8802
330
1E
100
AcDbEntity
  8
002
100
AcDbCircle
 10
-1835.119803461706
 20
3922.01155230425
 30
0.0
 40
2.5
100
AcDbArc
 50
318.1896850000205
 51
41.81031499997946
  0
LINE
  5
8803
330
1E
100
AcDbEntity
  8
002
100
AcDbLine
 10
-1837.989618461706
 20
3912.84488530425
 30
0.0
 11
-1834.262838461707
 21
3908.67821930425
 31
0.0
  0
LINE
  5
8804
330
1E
100
AcDbEntity
  8
002
100
AcDbLine
 10
-1834.262838461707
 20
3920.344885304249
 30
0.0
 11
-1837.989618461706
 21
3916.17821930425
 31
0.0
  0
LINE
  5
8805
330
1E
100
AcDbEntity
  8
002
100
AcDbLine
 10
-1837.989618461706
 20
3927.844885304249
 30
0.0
 11
-1834.262838461707
 21
3923.67821930425
 31
0.0
  0
ARC
  5
8806
330
1E
100
AcDbEntity
  8
002
100
AcDbCircle
 10
-1835.119803461706
 20
3914.511552304249
 30
0.0
 40
2.5
100
AcDbArc
 50
138.1896850000205
 51
221.8103149999794
  0
ARC
  5
8807
330
1E
100
AcDbEntity
  8
002
100
AcDbCircle
 10
-1835.119803461706
 20
3929.51155230425
 30
0.0
 40
2.5
100
AcDbArc
 50
138.1896850000205
 51
221.8103149999794
  0
ARC
  5
8808
330
1E
100
AcDbEntity
  8
002
100
AcDbCircle
 10
-1836.126228461705
 20
3922.01155230425
 30
0.0
 40
2.5
100
AcDbArc
 50
318.1896850000205
 51
41.81031499997946
  0
LINE
  5
8809
330
1E
100
AcDbEntity
  8
002
100
AcDbLine
 10
-1836.983193461706
 20
3927.844885304249
 30
0.0
 11
-1833.256413461706
 21
3923.67821930425
 31
0.0
  0
LINE
  5
880A
330
1E
100
AcDbEntity
  8
002
100
AcDbLine
 10
-1833.256413461706
 20
3920.344885304249
 30
0.0
 11
-1836.983193461706
 21
3916.17821930425
 31
0.0
  0
LINE
  5
880B
330
1E
100
AcDbEntity
  8
002
100
AcDbLine
 10
-1836.983193461706
 20
3912.84488530425
 30
0.0
 11
-1833.256413461706
 21
3908.67821930425
 31
0.0
  0
ARC
  5
880C
330
1E
100
AcDbEntity
  8
002
100
AcDbCircle
 10
-1836.126228461705
 20
3914.511552304249
 30
0.0
 40
2.5
100
AcDbArc
 50
138.1896850000205
 51
221.8103149999794
  0
ARC
  5
880D
330
1E
100
AcDbEntity
  8
002
100
AcDbCircle
 10
-1836.126228461705
 20
3929.51155230425
 30
0.0
 40
2.5
100
AcDbArc
 50
138.1896850000205
 51
221.8103149999794
  0
LINE
  5
880E
330
1E
100
AcDbEntity
  8
002
100
AcDbLine
 10
-1834.262838461707
 20
3935.344885304249
 30
0.0
 11
-1837.989618461706
 21
3931.17821930425
 31
0.0
  0
LINE
  5
880F
330
1E
100
AcDbEntity
  8
002
100
AcDbLine
 10
-1833.256413461706
 20
3935.344885304249
 30
0.0
 11
-1836.983193461706
 21
3931.17821930425
 31
0.0
  0
LINE
  5
8810
330
1E
100
AcDbEntity
  8
002
100
AcDbLine
 10
-1837.989618461706
 20
3897.844885304249
 30
0.0
 11
-1834.262838461707
 21
3893.67821930425
 31
0.0
  0
LINE
  5
8811
330
1E
100
AcDbEntity
  8
002
100
AcDbLine
 10
-1834.262838461707
 20
3890.34488530425
 30
0.0
 11
-1837.989618461706
 21
3886.17821930425
 31
0.0
  0
LINE
  5
8812
330
1E
100
AcDbEntity
  8
002
100
AcDbLine
 10
-1834.262838461707
 20
3905.344885304249
 30
0.0
 11
-1837.989618461706
 21
3901.178219304251
 31
0.0
  0
ARC
  5
8813
330
1E
100
AcDbEntity
  8
002
100
AcDbCircle
 10
-1835.119803461706
 20
3899.51155230425
 30
0.0
 40
2.5
100
AcDbArc
 50
138.1896850000205
 51
221.8103149999794
  0
LINE
  5
8814
330
1E
100
AcDbEntity
  8
002
100
AcDbLine
 10
-1836.983193461706
 20
3897.844885304249
 30
0.0
 11
-1836.088766461707
 21
3896.844885304249
 31
0.0
  0
LINE
  5
8815
330
1E
100
AcDbEntity
  8
002
100
AcDbLine
 10
-1837.989618461706
 20
3882.844885304249
 30
0.0
 11
-1834.262838461707
 21
3878.67821930425
 31
0.0
  0
ARC
  5
8816
330
1E
100
AcDbEntity
  8
002
100
AcDbCircle
 10
-1836.126228461705
 20
3892.01155230425
 30
0.0
 40
2.5
100
AcDbArc
 50
318.1896850000205
 51
41.81031499997946
  0
LINE
  5
8817
330
1E
100
AcDbEntity
  8
002
100
AcDbLine
 10
-1824.119803461706
 20
3896.844885304249
 30
0.0
 11
-1836.088766461707
 21
3896.844885304249
 31
0.0
  0
LINE
  5
8818
330
1E
100
AcDbEntity
  8
002
100
AcDbLine
 10
-1833.256413461706
 20
3905.344885304249
 30
0.0
 11
-1836.983193461706
 21
3901.178219304251
 31
0.0
  0
ARC
  5
8819
330
1E
100
AcDbEntity
  8
002
100
AcDbCircle
 10
-1836.126228461705
 20
3899.51155230425
 30
0.0
 40
2.5
100
AcDbArc
 50
138.1896850000205
 51
221.8103149999794
  0
ARC
  5
881A
330
1E
100
AcDbEntity
  8
002
100
AcDbCircle
 10
-1836.126228461705
 20
3884.51155230425
 30
0.0
 40
2.5
100
AcDbArc
 50
138.1896850000205
 51
221.8103149999794
  0
LINE
  5
881B
330
1E
100
AcDbEntity
  8
002
100
AcDbLine
 10
-1837.989618461706
 20
3867.844885304249
 30
0.0
 11
-1834.262838461707
 21
3863.678219304251
 31
0.0
  0
LINE
  5
881C
330
1E
100
AcDbEntity
  8
002
100
AcDbLine
 10
-1834.262838461707
 20
3875.344885304249
 30
0.0
 11
-1837.989618461706
 21
3871.17821930425
 31
0.0
  0
LINE
  5
881D
330
1E
100
AcDbEntity
  8
002
100
AcDbLine
 10
-1834.262838461707
 20
3860.344885304249
 30
0.0
 11
-1837.989618461706
 21
3856.17821930425
 31
0.0
  0
ARC
  5
881E
330
1E
100
AcDbEntity
  8
002
100
AcDbCircle
 10
-1836.126228461705
 20
3862.01155230425
 30
0.0
 40
2.5
100
AcDbArc
 50
318.1896850000205
 51
41.81031499997946
  0
ARC
  5
881F
330
1E
100
AcDbEntity
  8
002
100
AcDbCircle
 10
-1836.126228461705
 20
3869.51155230425
 30
0.0
 40
2.5
100
AcDbArc
 50
138.1896850000205
 51
221.8103149999794
  0
ARC
  5
8820
330
1E
100
AcDbEntity
  8
002
100
AcDbCircle
 10
-1836.126228461705
 20
3854.51155230425
 30
0.0
 40
2.5
100
AcDbArc
 50
138.1896850000205
 51
221.8103149999794
  0
ARC
  5
8821
330
1E
100
AcDbEntity
  8
002
100
AcDbCircle
 10
-1836.126228461705
 20
3877.011552304249
 30
0.0
 40
2.5
100
AcDbArc
 50
318.1896850000205
 51
41.81031499997946
  0
LINE
  5
8822
330
1E
100
AcDbEntity
  8
002
100
AcDbLine
 10
-1834.262838461707
 20
3845.344885304249
 30
0.0
 11
-1837.989618461706
 21
3841.17821930425
 31
0.0
  0
ARC
  5
8823
330
1E
100
AcDbEntity
  8
002
100
AcDbCircle
 10
-1836.126228461705
 20
3847.01155230425
 30
0.0
 40
2.5
100
AcDbArc
 50
318.1896850000205
 51
41.81031499997946
  0
LINE
  5
8824
330
1E
100
AcDbEntity
  8
002
100
AcDbLine
 10
-1837.989618461706
 20
3852.84488530425
 30
0.0
 11
-1834.262838461707
 21
3848.67821930425
 31
0.0
  0
ARC
  5
8825
330
1E
100
AcDbEntity
  8
002
100
AcDbCircle
 10
-1835.119803461706
 20
3907.01155230425
 30
0.0
 40
2.5
100
AcDbArc
 50
318.1896850000205
 51
41.81031499997946
  0
ARC
  5
8826
330
1E
100
AcDbEntity
  8
002
100
AcDbCircle
 10
-1836.126228461705
 20
3907.01155230425
 30
0.0
 40
2.5
100
AcDbArc
 50
318.1896850000205
 51
41.81031499997946
  0
LINE
  5
8827
330
1E
100
AcDbEntity
  8
002
100
AcDbLine
 10
-1902.349276461705
 20
4194.84488530425
 30
0.0
 11
-1879.119803461706
 21
4194.84488530425
 31
0.0
  0
LINE
  5
8828
330
1E
100
AcDbEntity
  8
002
100
AcDbLine
 10
-1858.080774461706
 20
4077.84488530425
 30
0.0
 11
-1926.171683461707
 21
4072.01155230425
 31
0.0
  0
LINE
  5
8829
330
1E
100
AcDbEntity
  8
002
100
AcDbLine
 10
-1838.626228461706
 20
4064.511552304249
 30
0.0
 11
-1926.171683461707
 21
4057.01155230425
 31
0.0
  0
LINE
  5
882A
330
1E
100
AcDbEntity
  8
002
100
AcDbLine
 10
-1908.606118461706
 20
4134.844885304249
 30
0.0
 11
-1873.376645461707
 21
4134.844885304249
 31
0.0
  0
LINE
  5
882B
330
1E
100
AcDbEntity
  8
002
100
AcDbLine
 10
-1908.349276461706
 20
4134.844885304249
 30
0.0
 11
-1873.119803461706
 21
4134.844885304249
 31
0.0
  0
LINE
  5
882C
330
1E
100
AcDbEntity
  8
002
100
AcDbLine
 10
-1838.626228461706
 20
4034.51155230425
 30
0.0
 11
-1926.171683461707
 21
4027.01155230425
 31
0.0
  0
LINE
  5
882D
330
1E
100
AcDbEntity
  8
002
100
AcDbLine
 10
-1838.626228461706
 20
4049.51155230425
 30
0.0
 11
-1926.171683461707
 21
4042.01155230425
 31
0.0
  0
LINE
  5
882E
330
1E
100
AcDbEntity
  8
002
100
AcDbLine
 10
-1833.626228461706
 20
4057.01155230425
 30
0.0
 11
-1931.171683461707
 21
4049.51155230425
 31
0.0
  0
LINE
  5
882F
330
1E
100
AcDbEntity
  8
002
100
AcDbLine
 10
-1833.626228461706
 20
4042.01155230425
 30
0.0
 11
-1931.171683461707
 21
4034.51155230425
 31
0.0
  0
LINE
  5
8830
330
1E
100
AcDbEntity
  8
002
100
AcDbLine
 10
-1930.535073461706
 20
4077.84488530425
 30
0.0
 11
-1837.989618461706
 21
4077.84488530425
 31
0.0
  0
LINE
  5
8831
330
1E
100
AcDbEntity
  8
002
100
AcDbLine
 10
-1833.626228461706
 20
4072.01155230425
 30
0.0
 11
-1931.171683461707
 21
4064.511552304249
 31
0.0
  0
LINE
  5
8832
330
1E
100
AcDbEntity
  8
002
100
AcDbLine
 10
-1838.626228461706
 20
4019.51155230425
 30
0.0
 11
-1926.171683461707
 21
4012.01155230425
 31
0.0
  0
LINE
  5
8833
330
1E
100
AcDbEntity
  8
002
100
AcDbLine
 10
-1838.626228461706
 20
4004.51155230425
 30
0.0
 11
-1926.171683461707
 21
3997.01155230425
 31
0.0
  0
LINE
  5
8834
330
1E
100
AcDbEntity
  8
002
100
AcDbLine
 10
-1838.626228461706
 20
3989.51155230425
 30
0.0
 11
-1926.171683461707
 21
3982.01155230425
 31
0.0
  0
LINE
  5
8835
330
1E
100
AcDbEntity
  8
002
100
AcDbLine
 10
-1838.626228461706
 20
3974.51155230425
 30
0.0
 11
-1926.171683461707
 21
3967.01155230425
 31
0.0
  0
LINE
  5
8836
330
1E
100
AcDbEntity
  8
002
100
AcDbLine
 10
-1833.626228461706
 20
4012.01155230425
 30
0.0
 11
-1931.171683461707
 21
4004.51155230425
 31
0.0
  0
LINE
  5
8837
330
1E
100
AcDbEntity
  8
002
100
AcDbLine
 10
-1833.626228461706
 20
3997.01155230425
 30
0.0
 11
-1931.171683461707
 21
3989.51155230425
 31
0.0
  0
LINE
  5
8838
330
1E
100
AcDbEntity
  8
002
100
AcDbLine
 10
-1833.626228461706
 20
3982.01155230425
 30
0.0
 11
-1931.171683461707
 21
3974.51155230425
 31
0.0
  0
LINE
  5
8839
330
1E
100
AcDbEntity
  8
002
100
AcDbLine
 10
-1833.626228461706
 20
3967.01155230425
 30
0.0
 11
-1931.171683461707
 21
3959.51155230425
 31
0.0
  0
LINE
  5
883A
330
1E
100
AcDbEntity
  8
002
100
AcDbLine
 10
-1833.626228461706
 20
4027.01155230425
 30
0.0
 11
-1931.171683461707
 21
4019.51155230425
 31
0.0
  0
LINE
  5
883B
330
1E
100
AcDbEntity
  8
002
100
AcDbLine
 10
-1931.983193461706
 20
4077.84488530425
 30
0.0
 11
-1928.256413461706
 21
4073.678219304251
 31
0.0
  0
LINE
  5
883C
330
1E
100
AcDbEntity
  8
002
100
AcDbLine
 10
-1930.535073461706
 20
4077.84488530425
 30
0.0
 11
-1926.808293461706
 21
4073.678219304251
 31
0.0
  0
LINE
  5
883D
330
1E
100
AcDbEntity
  8
003
100
AcDbLine
 10
-1948.019803461706
 20
4087.844885304249
 30
0.0
 11
-1948.019803461706
 21
4065.844885304249
 31
0.0
  0
ARC
  5
883E
330
1E
100
AcDbEntity
  8
002
100
AcDbCircle
 10
-1928.671683461707
 20
4072.01155230425
 30
0.0
 40
2.5
100
AcDbArc
 50
318.1896850000205
 51
41.81031499997946
  0
ARC
  5
883F
330
1E
100
AcDbEntity
  8
002
100
AcDbCircle
 10
-1928.671683461707
 20
4057.01155230425
 30
0.0
 40
2.5
100
AcDbArc
 50
318.1896850000205
 51
41.81031499997946
  0
ARC
  5
8840
330
1E
100
AcDbEntity
  8
002
100
AcDbCircle
 10
-1928.671683461707
 20
4064.511552304249
 30
0.0
 40
2.5
100
AcDbArc
 50
138.1896850000205
 51
221.8103149999794
  0
LINE
  5
8841
330
1E
100
AcDbEntity
  8
002
100
AcDbLine
 10
-1928.256413461706
 20
4055.34488530425
 30
0.0
 11
-1931.983193461706
 21
4051.17821930425
 31
0.0
  0
LINE
  5
8842
330
1E
100
AcDbEntity
  8
002
100
AcDbLine
 10
-1931.983193461706
 20
4062.84488530425
 30
0.0
 11
-1928.256413461706
 21
4058.67821930425
 31
0.0
  0
ARC
  5
8843
330
1E
100
AcDbEntity
  8
002
100
AcDbCircle
 10
-1930.119803461706
 20
4064.511552304249
 30
0.0
 40
2.5
100
AcDbArc
 50
138.1896850000205
 51
221.8103149999794
  0
LINE
  5
8844
330
1E
100
AcDbEntity
  8
002
100
AcDbLine
 10
-1928.256413461706
 20
4070.344885304249
 30
0.0
 11
-1931.983193461706
 21
4066.178219304251
 31
0.0
  0
ARC
  5
8845
330
1E
100
AcDbEntity
  8
002
100
AcDbCircle
 10
-1930.119803461706
 20
4072.01155230425
 30
0.0
 40
2.5
100
AcDbArc
 50
318.1896850000205
 51
41.81031499997946
  0
LINE
  5
8846
330
1E
100
AcDbEntity
  8
002
100
AcDbLine
 10
-1930.535073461706
 20
4062.84488530425
 30
0.0
 11
-1926.808293461706
 21
4058.67821930425
 31
0.0
  0
LINE
  5
8847
330
1E
100
AcDbEntity
  8
002
100
AcDbLine
 10
-1926.808293461706
 20
4055.34488530425
 30
0.0
 11
-1930.535073461706
 21
4051.17821930425
 31
0.0
  0
ARC
  5
8848
330
1E
100
AcDbEntity
  8
002
100
AcDbCircle
 10
-1930.119803461706
 20
4057.01155230425
 30
0.0
 40
2.5
100
AcDbArc
 50
318.1896850000205
 51
41.81031499997946
  0
LINE
  5
8849
330
1E
100
AcDbEntity
  8
002
100
AcDbLine
 10
-1926.808293461706
 20
4070.344885304249
 30
0.0
 11
-1930.535073461706
 21
4066.178219304251
 31
0.0
  0
ARC
  5
884A
330
1E
100
AcDbEntity
  8
002
100
AcDbCircle
 10
-1928.671683461707
 20
4027.01155230425
 30
0.0
 40
2.5
100
AcDbArc
 50
318.1896850000205
 51
41.81031499997946
  0
ARC
  5
884B
330
1E
100
AcDbEntity
  8
002
100
AcDbCircle
 10
-1928.671683461707
 20
4042.01155230425
 30
0.0
 40
2.5
100
AcDbArc
 50
318.1896850000205
 51
41.81031499997946
  0
LINE
  5
884C
330
1E
100
AcDbEntity
  8
002
100
AcDbLine
 10
-1931.983193461706
 20
4032.844885304249
 30
0.0
 11
-1928.256413461706
 21
4028.67821930425
 31
0.0
  0
LINE
  5
884D
330
1E
100
AcDbEntity
  8
002
100
AcDbLine
 10
-1928.256413461706
 20
4025.344885304249
 30
0.0
 11
-1931.983193461706
 21
4021.17821930425
 31
0.0
  0
ARC
  5
884E
330
1E
100
AcDbEntity
  8
002
100
AcDbCircle
 10
-1928.671683461707
 20
4034.51155230425
 30
0.0
 40
2.5
100
AcDbArc
 50
138.1896850000205
 51
221.8103149999794
  0
LINE
  5
884F
330
1E
100
AcDbEntity
  8
002
100
AcDbLine
 10
-1928.256413461706
 20
4040.344885304249
 30
0.0
 11
-1931.983193461706
 21
4036.17821930425
 31
0.0
  0
ARC
  5
8850
330
1E
100
AcDbEntity
  8
002
100
AcDbCircle
 10
-1930.119803461706
 20
4034.51155230425
 30
0.0
 40
2.5
100
AcDbArc
 50
138.1896850000205
 51
221.8103149999794
  0
LINE
  5
8851
330
1E
100
AcDbEntity
  8
002
100
AcDbLine
 10
-1931.983193461706
 20
4047.844885304249
 30
0.0
 11
-1928.256413461706
 21
4043.67821930425
 31
0.0
  0
LINE
  5
8852
330
1E
100
AcDbEntity
  8
002
100
AcDbLine
 10
-1930.535073461706
 20
4032.844885304249
 30
0.0
 11
-1926.808293461706
 21
4028.67821930425
 31
0.0
  0
ARC
  5
8853
330
1E
100
AcDbEntity
  8
002
100
AcDbCircle
 10
-1930.119803461706
 20
4027.01155230425
 30
0.0
 40
2.5
100
AcDbArc
 50
318.1896850000205
 51
41.81031499997946
  0
LINE
  5
8854
330
1E
100
AcDbEntity
  8
002
100
AcDbLine
 10
-1926.808293461706
 20
4025.344885304249
 30
0.0
 11
-1930.535073461706
 21
4021.17821930425
 31
0.0
  0
LINE
  5
8855
330
1E
100
AcDbEntity
  8
002
100
AcDbLine
 10
-1926.808293461706
 20
4040.344885304249
 30
0.0
 11
-1930.535073461706
 21
4036.17821930425
 31
0.0
  0
ARC
  5
8856
330
1E
100
AcDbEntity
  8
002
100
AcDbCircle
 10
-1930.119803461706
 20
4042.01155230425
 30
0.0
 40
2.5
100
AcDbArc
 50
318.1896850000205
 51
41.81031499997946
  0
LINE
  5
8857
330
1E
100
AcDbEntity
  8
002
100
AcDbLine
 10
-1930.535073461706
 20
4047.844885304249
 30
0.0
 11
-1926.808293461706
 21
4043.67821930425
 31
0.0
  0
ARC
  5
8858
330
1E
100
AcDbEntity
  8
002
100
AcDbCircle
 10
-1928.671683461707
 20
4049.51155230425
 30
0.0
 40
2.5
100
AcDbArc
 50
138.1896850000205
 51
221.8103149999794
  0
ARC
  5
8859
330
1E
100
AcDbEntity
  8
002
100
AcDbCircle
 10
-1930.119803461706
 20
4049.51155230425
 30
0.0
 40
2.5
100
AcDbArc
 50
138.1896850000205
 51
221.8103149999794
  0
ARC
  5
885A
330
1E
100
AcDbEntity
  8
002
100
AcDbCircle
 10
-1928.671683461707
 20
4012.01155230425
 30
0.0
 40
2.5
100
AcDbArc
 50
318.1896850000205
 51
41.81031499997946
  0
ARC
  5
885B
330
1E
100
AcDbEntity
  8
002
100
AcDbCircle
 10
-1928.671683461707
 20
3997.01155230425
 30
0.0
 40
2.5
100
AcDbArc
 50
318.1896850000205
 51
41.81031499997946
  0
ARC
  5
885C
330
1E
100
AcDbEntity
  8
002
100
AcDbCircle
 10
-1928.671683461707
 20
4004.51155230425
 30
0.0
 40
2.5
100
AcDbArc
 50
138.1896850000205
 51
221.8103149999794
  0
LINE
  5
885D
330
1E
100
AcDbEntity
  8
002
100
AcDbLine
 10
-1931.983193461706
 20
4017.844885304249
 30
0.0
 11
-1928.256413461706
 21
4013.67821930425
 31
0.0
  0
LINE
  5
885E
330
1E
100
AcDbEntity
  8
002
100
AcDbLine
 10
-1928.256413461706
 20
4010.344885304249
 30
0.0
 11
-1931.983193461706
 21
4006.17821930425
 31
0.0
  0
LINE
  5
885F
330
1E
100
AcDbEntity
  8
002
100
AcDbLine
 10
-1931.983193461706
 20
4002.844885304249
 30
0.0
 11
-1928.256413461706
 21
3998.678219304251
 31
0.0
  0
ARC
  5
8860
330
1E
100
AcDbEntity
  8
002
100
AcDbCircle
 10
-1930.119803461706
 20
4004.51155230425
 30
0.0
 40
2.5
100
AcDbArc
 50
138.1896850000205
 51
221.8103149999794
  0
LINE
  5
8861
330
1E
100
AcDbEntity
  8
002
100
AcDbLine
 10
-1930.535073461706
 20
4017.844885304249
 30
0.0
 11
-1926.808293461706
 21
4013.67821930425
 31
0.0
  0
LINE
  5
8862
330
1E
100
AcDbEntity
  8
002
100
AcDbLine
 10
-1926.808293461706
 20
4010.344885304249
 30
0.0
 11
-1930.535073461706
 21
4006.17821930425
 31
0.0
  0
ARC
  5
8863
330
1E
100
AcDbEntity
  8
002
100
AcDbCircle
 10
-1930.119803461706
 20
4012.01155230425
 30
0.0
 40
2.5
100
AcDbArc
 50
318.1896850000205
 51
41.81031499997946
  0
ARC
  5
8864
330
1E
100
AcDbEntity
  8
002
100
AcDbCircle
 10
-1930.119803461706
 20
3997.01155230425
 30
0.0
 40
2.5
100
AcDbArc
 50
318.1896850000205
 51
41.81031499997946
  0
LINE
  5
8865
330
1E
100
AcDbEntity
  8
002
100
AcDbLine
 10
-1930.535073461706
 20
4002.844885304249
 30
0.0
 11
-1926.808293461706
 21
3998.678219304251
 31
0.0
  0
ARC
  5
8866
330
1E
100
AcDbEntity
  8
002
100
AcDbCircle
 10
-1928.671683461707
 20
3982.01155230425
 30
0.0
 40
2.5
100
AcDbArc
 50
318.1896850000205
 51
41.81031499997946
  0
ARC
  5
8867
330
1E
100
AcDbEntity
  8
002
100
AcDbCircle
 10
-1928.671683461707
 20
3967.01155230425
 30
0.0
 40
2.5
100
AcDbArc
 50
318.1896850000205
 51
41.81031499997946
  0
ARC
  5
8868
330
1E
100
AcDbEntity
  8
002
100
AcDbCircle
 10
-1928.671683461707
 20
3989.51155230425
 30
0.0
 40
2.5
100
AcDbArc
 50
138.1896850000205
 51
221.8103149999794
  0
LINE
  5
8869
330
1E
100
AcDbEntity
  8
002
100
AcDbLine
 10
-1931.983193461706
 20
3987.84488530425
 30
0.0
 11
-1928.256413461706
 21
3983.67821930425
 31
0.0
  0
LINE
  5
886A
330
1E
100
AcDbEntity
  8
002
100
AcDbLine
 10
-1928.256413461706
 20
3980.34488530425
 30
0.0
 11
-1931.983193461706
 21
3976.17821930425
 31
0.0
  0
ARC
  5
886B
330
1E
100
AcDbEntity
  8
002
100
AcDbCircle
 10
-1930.119803461706
 20
3989.51155230425
 30
0.0
 40
2.5
100
AcDbArc
 50
138.1896850000205
 51
221.8103149999794
  0
LINE
  5
886C
330
1E
100
AcDbEntity
  8
002
100
AcDbLine
 10
-1931.983193461706
 20
3972.844885304249
 30
0.0
 11
-1928.256413461706
 21
3968.67821930425
 31
0.0
  0
ARC
  5
886D
330
1E
100
AcDbEntity
  8
002
100
AcDbCircle
 10
-1928.671683461707
 20
3974.51155230425
 30
0.0
 40
2.5
100
AcDbArc
 50
138.1896850000205
 51
221.8103149999794
  0
ARC
  5
886E
330
1E
100
AcDbEntity
  8
002
100
AcDbCircle
 10
-1930.119803461706
 20
3974.51155230425
 30
0.0
 40
2.5
100
AcDbArc
 50
138.1896850000205
 51
221.8103149999794
  0
LINE
  5
886F
330
1E
100
AcDbEntity
  8
002
100
AcDbLine
 10
-1930.535073461706
 20
3987.84488530425
 30
0.0
 11
-1926.808293461706
 21
3983.67821930425
 31
0.0
  0
LINE
  5
8870
330
1E
100
AcDbEntity
  8
002
100
AcDbLine
 10
-1926.808293461706
 20
3980.34488530425
 30
0.0
 11
-1930.535073461706
 21
3976.17821930425
 31
0.0
  0
ARC
  5
8871
330
1E
100
AcDbEntity
  8
002
100
AcDbCircle
 10
-1930.119803461706
 20
3982.01155230425
 30
0.0
 40
2.5
100
AcDbArc
 50
318.1896850000205
 51
41.81031499997946
  0
LINE
  5
8872
330
1E
100
AcDbEntity
  8
002
100
AcDbLine
 10
-1930.535073461706
 20
3972.844885304249
 30
0.0
 11
-1926.808293461706
 21
3968.67821930425
 31
0.0
  0
ARC
  5
8873
330
1E
100
AcDbEntity
  8
002
100
AcDbCircle
 10
-1930.119803461706
 20
3967.01155230425
 30
0.0
 40
2.5
100
AcDbArc
 50
318.1896850000205
 51
41.81031499997946
  0
LINE
  5
8874
330
1E
100
AcDbEntity
  8
002
100
AcDbLine
 10
-1928.256413461706
 20
3995.344885304249
 30
0.0
 11
-1931.983193461706
 21
3991.17821930425
 31
0.0
  0
LINE
  5
8875
330
1E
100
AcDbEntity
  8
002
100
AcDbLine
 10
-1926.808293461706
 20
3995.344885304249
 30
0.0
 11
-1930.535073461706
 21
3991.17821930425
 31
0.0
  0
LINE
  5
8876
330
1E
100
AcDbEntity
  8
002
100
AcDbLine
 10
-1928.256413461706
 20
3965.344885304249
 30
0.0
 11
-1931.983193461706
 21
3961.178219304251
 31
0.0
  0
LINE
  5
8877
330
1E
100
AcDbEntity
  8
002
100
AcDbLine
 10
-1926.808293461706
 20
3965.344885304249
 30
0.0
 11
-1930.535073461706
 21
3961.178219304251
 31
0.0
  0
ARC
  5
8878
330
1E
100
AcDbEntity
  8
002
100
AcDbCircle
 10
-1928.671683461707
 20
4019.51155230425
 30
0.0
 40
2.5
100
AcDbArc
 50
138.1896850000205
 51
221.8103149999794
  0
ARC
  5
8879
330
1E
100
AcDbEntity
  8
002
100
AcDbCircle
 10
-1930.119803461706
 20
4019.51155230425
 30
0.0
 40
2.5
100
AcDbArc
 50
138.1896850000205
 51
221.8103149999794
  0
LINE
  5
887A
330
1E
100
AcDbEntity
  8
002
100
AcDbLine
 10
-1953.619803461706
 20
4194.84488530425
 30
0.0
 11
-1929.349276461706
 21
4194.84488530425
 31
0.0
  0
LINE
  5
887B
330
1E
100
AcDbEntity
  8
002
100
AcDbLine
 10
-1960.119803461706
 20
4134.844885304249
 30
0.0
 11
-1923.349276461705
 21
4134.844885304249
 31
0.0
  0
LINE
  5
887C
330
1E
100
AcDbEntity
  8
002
100
AcDbLine
 10
-1953.619803461706
 20
4194.84488530425
 30
0.0
 11
-1955.119803461706
 21
4193.34488530425
 31
0.0
  0
LWPOLYLINE
  5
887D
330
1E
100
AcDbEntity
  8
001
100
AcDbPolyline
 90
        3
 70
     0
 43
0.0
 10
-1962.531066461706
 20
4177.79193530425
 10
-1955.119803461706
 20
4174.09488530425
 10
-1959.689620461706
 20
4181.00225530425
  0
LINE
  5
887E
330
1E
100
AcDbEntity
  8
002
100
AcDbLine
 10
-1955.119803461706
 20
4154.84488530425
 30
0.0
 11
-1957.619803461706
 21
4153.401510304251
 31
0.0
  0
LINE
  5
887F
330
1E
100
AcDbEntity
  8
002
100
AcDbLine
 10
-1961.619803461706
 20
4136.344885304249
 30
0.0
 11
-1959.002016461707
 21
4136.344885304249
 31
0.0
  0
LINE
  5
8880
330
1E
100
AcDbEntity
  8
002
100
AcDbLine
 10
-1957.619803461706
 20
4135.84488530425
 30
0.0
 11
-1957.619803461706
 21
4153.401510304251
 31
0.0
  0
LINE
  5
8881
330
1E
100
AcDbEntity
  8
002
100
AcDbLine
 10
-1962.619803461706
 20
4145.44296230425
 30
0.0
 11
-1962.619803461706
 21
4157.84488530425
 31
0.0
  0
LINE
  5
8882
330
1E
100
AcDbEntity
  8
002
100
AcDbLine
 10
-1963.619803461706
 20
4145.44296230425
 30
0.0
 11
-1965.119803461706
 21
4142.84488530425
 31
0.0
  0
LINE
  5
8883
330
1E
100
AcDbEntity
  8
002
100
AcDbLine
 10
-1969.046066461707
 20
4156.418623304251
 30
0.0
 11
-1971.155337461707
 21
4154.30935230425
 31
0.0
  0
ARC
  5
8884
330
1E
100
AcDbEntity
  8
002
100
AcDbCircle
 10
-1967.619803461706
 20
4150.773818304251
 30
0.0
 40
5.0
100
AcDbArc
 50
135.0
 51
180.0
  0
ARC
  5
8885
330
1E
100
AcDbEntity
  8
002
100
AcDbCircle
 10
-1972.581600461706
 20
4159.95415730425
 30
0.0
 40
5.0
100
AcDbArc
 50
315.0
 51
358.9390879999859
  0
LINE
  5
8886
330
1E
100
AcDbEntity
  8
002
100
AcDbLine
 10
-1963.619803461706
 20
4145.44296230425
 30
0.0
 11
-1962.619803461706
 21
4145.44296230425
 31
0.0
  0
LINE
  5
8887
330
1E
100
AcDbEntity
  8
002
100
AcDbLine
 10
-1955.119803461706
 20
4193.34488530425
 30
0.0
 11
-1955.119803461706
 21
4154.84488530425
 31
0.0
  0
LINE
  5
8888
330
1E
100
AcDbEntity
  8
002
100
AcDbLine
 10
-1962.619803461706
 20
4135.34488530425
 30
0.0
 11
-1962.619803461706
 21
4134.34488530425
 31
0.0
  0
LINE
  5
8889
330
1E
100
AcDbEntity
  8
002
100
AcDbLine
 10
-1963.619803461706
 20
4134.34488530425
 30
0.0
 11
-1965.119803461706
 21
4133.47886030425
 31
0.0
  0
LINE
  5
888A
330
1E
100
AcDbEntity
  8
002
100
AcDbLine
 10
-1963.593521461707
 20
4113.726085304249
 30
0.0
 11
-1965.119803461706
 21
4112.84488530425
 31
0.0
  0
LINE
  5
888B
330
1E
100
AcDbEntity
  8
002
100
AcDbLine
 10
-1963.619803461706
 20
4112.84488530425
 30
0.0
 11
-1965.119803461706
 21
4113.71091130425
 31
0.0
  0
LINE
  5
888C
330
1E
100
AcDbEntity
  8
002
100
AcDbLine
 10
-1972.619803461706
 20
4114.84488530425
 30
0.0
 11
-1970.619803461706
 21
4112.84488530425
 31
0.0
  0
LINE
  5
888D
330
1E
100
AcDbEntity
  8
002
100
AcDbLine
 10
-1963.619803461706
 20
4134.34488530425
 30
0.0
 11
-1962.619803461706
 21
4134.34488530425
 31
0.0
  0
LINE
  5
888E
330
1E
100
AcDbEntity
  8
002
100
AcDbLine
 10
-1947.119803461706
 20
4112.84488530425
 30
0.0
 11
-1947.119803461706
 21
4087.844885304249
 31
0.0
  0
LINE
  5
888F
330
1E
100
AcDbEntity
  8
002
100
AcDbLine
 10
-1960.119803461706
 20
4134.844885304249
 30
0.0
 11
-1960.665758461706
 21
4136.344885304249
 31
0.0
  0
LINE
  5
8890
330
1E
100
AcDbEntity
  8
002
100
AcDbLine
 10
-1961.619803461706
 20
4136.344885304249
 30
0.0
 11
-1962.619803461706
 21
4135.34488530425
 31
0.0
  0
LINE
  5
8891
330
1E
100
AcDbEntity
  8
002
100
AcDbLine
 10
-1957.619803461706
 20
4135.84488530425
 30
0.0
 11
-1956.619803461706
 21
4134.844885304249
 31
0.0
  0
LINE
  5
8892
330
1E
100
AcDbEntity
  8
002
100
AcDbLine
 10
-1963.619803461706
 20
4145.44296230425
 30
0.0
 11
-1963.619803461706
 21
4112.84488530425
 31
0.0
  0
LINE
  5
8893
330
1E
100
AcDbEntity
  8
002
100
AcDbLine
 10
-1965.119803461706
 20
4142.84488530425
 30
0.0
 11
-1965.119803461706
 21
4112.84488530425
 31
0.0
  0
LINE
  5
8894
330
1E
100
AcDbEntity
  8
002
100
AcDbLine
 10
-1972.619803461706
 20
4114.84488530425
 30
0.0
 11
-1972.619803461706
 21
4150.773818304251
 31
0.0
  0
LINE
  5
8895
330
1E
100
AcDbEntity
  8
002
100
AcDbLine
 10
-1928.788342461706
 20
4194.348612304251
 30
0.0
 11
-1929.349276461706
 21
4194.84488530425
 31
0.0
  0
ARC
  5
8896
330
1E
100
AcDbEntity
  8
002
100
AcDbCircle
 10
-1908.146647461706
 20
4158.69751430425
 30
0.0
 40
0.8526290000000001
100
AcDbArc
 50
209.9999999999972
 51
353.0000000000202
  0
LINE
  5
8897
330
1E
100
AcDbEntity
  8
002
100
AcDbLine
 10
-1908.885046461706
 20
4158.271200304251
 30
0.0
 11
-1909.499276461707
 21
4159.33507930425
 31
0.0
  0
LINE
  5
8898
330
1E
100
AcDbEntity
  8
002
100
AcDbLine
 10
-1922.813507461707
 20
4158.271200304251
 30
0.0
 11
-1922.199276461706
 21
4159.33507930425
 31
0.0
  0
LINE
  5
8899
330
1E
100
AcDbEntity
  8
002
100
AcDbLine
 10
-1908.349276461706
 20
4150.050980304249
 30
0.0
 11
-1908.349276461706
 21
4139.84488530425
 31
0.0
  0
LINE
  5
889A
330
1E
100
AcDbEntity
  8
002
100
AcDbLine
 10
-1923.349276461705
 20
4150.050980304249
 30
0.0
 11
-1923.349276461705
 21
4139.84488530425
 31
0.0
  0
ARC
  5
889B
330
1E
100
AcDbEntity
  8
002
100
AcDbCircle
 10
-1923.551905461707
 20
4158.69751430425
 30
0.0
 40
0.8526290000000001
100
AcDbArc
 50
186.9999999999797
 51
330.0000000000027
  0
LINE
  5
889C
330
1E
100
AcDbEntity
  8
002
100
AcDbLine
 10
-1937.619803461706
 20
4134.844885304249
 30
0.0
 11
-1939.119803461706
 21
4133.97886030425
 31
0.0
  0
LINE
  5
889D
330
1E
100
AcDbEntity
  8
002
100
AcDbLine
 10
-1939.119803461706
 20
4134.844885304249
 30
0.0
 11
-1937.619803461706
 21
4133.97886030425
 31
0.0
  0
LINE
  5
889E
330
1E
100
AcDbEntity
  8
002
100
AcDbLine
 10
-1939.119803461706
 20
4112.84488530425
 30
0.0
 11
-1937.619803461706
 21
4113.71091130425
 31
0.0
  0
LINE
  5
889F
330
1E
100
AcDbEntity
  8
002
100
AcDbLine
 10
-1939.119803461706
 20
4134.844885304249
 30
0.0
 11
-1939.119803461706
 21
4112.84488530425
 31
0.0
  0
LINE
  5
88A0
330
1E
100
AcDbEntity
  8
002
100
AcDbLine
 10
-1937.619803461706
 20
4134.844885304249
 30
0.0
 11
-1937.619803461706
 21
4112.84488530425
 31
0.0
  0
LINE
  5
88A1
330
1E
100
AcDbEntity
  8
002
100
AcDbLine
 10
-1937.119803461706
 20
4082.84488530425
 30
0.0
 11
-1934.619803461706
 21
4082.84488530425
 31
0.0
  0
LINE
  5
88A2
330
1E
100
AcDbEntity
  8
002
100
AcDbLine
 10
-1934.619803461706
 20
4134.844885304249
 30
0.0
 11
-1934.619803461706
 21
4082.84488530425
 31
0.0
  0
LINE
  5
88A3
330
1E
100
AcDbEntity
  8
002
100
AcDbLine
 10
-1937.119803461706
 20
4077.84488530425
 30
0.0
 11
-1931.983193461706
 21
4077.84488530425
 31
0.0
  0
LINE
  5
88A4
330
1E
100
AcDbEntity
  8
002
100
AcDbLine
 10
-1914.603477461707
 20
4077.84488530425
 30
0.0
 11
-1909.499276461707
 21
4106.792246304251
 31
0.0
  0
LINE
  5
88A5
330
1E
100
AcDbEntity
  8
002
100
AcDbLine
 10
-1937.119803461706
 20
4082.84488530425
 30
0.0
 11
-1937.119803461706
 21
4077.84488530425
 31
0.0
  0
LINE
  5
88A6
330
1E
100
AcDbEntity
  8
002
100
AcDbLine
 10
-1923.349276461705
 20
4139.84488530425
 30
0.0
 11
-1923.963199461706
 21
4134.844885304249
 31
0.0
  0
LINE
  5
88A7
330
1E
100
AcDbEntity
  8
002
100
AcDbLine
 10
-1908.349276461706
 20
4139.84488530425
 30
0.0
 11
-1907.735353461706
 21
4134.844885304249
 31
0.0
  0
LINE
  5
88A8
330
1E
100
AcDbEntity
  8
002
100
AcDbLine
 10
-1922.199276461706
 20
4092.35467230425
 30
0.0
 11
-1909.499276461707
 21
4164.37995130425
 31
0.0
  0
LINE
  5
88A9
330
1E
100
AcDbEntity
  8
002
100
AcDbLine
 10
-1902.910211461707
 20
4194.348612304251
 30
0.0
 11
-1902.349276461705
 21
4194.84488530425
 31
0.0
  0
LINE
  5
88AA
330
1E
100
AcDbEntity
  8
002
100
AcDbLine
 10
-1837.989618461706
 20
4077.84488530425
 30
0.0
 11
-1834.262838461707
 21
4073.678219304251
 31
0.0
  0
LINE
  5
88AB
330
1E
100
AcDbEntity
  8
002
100
AcDbLine
 10
-1836.983193461706
 20
4077.84488530425
 30
0.0
 11
-1833.256413461706
 21
4073.678219304251
 31
0.0
  0
ARC
  5
88AC
330
1E
100
AcDbEntity
  8
002
100
AcDbCircle
 10
-1835.119803461706
 20
4072.01155230425
 30
0.0
 40
2.5
100
AcDbArc
 50
318.1896850000205
 51
41.81031499997946
  0
ARC
  5
88AD
330
1E
100
AcDbEntity
  8
002
100
AcDbCircle
 10
-1835.119803461706
 20
4057.01155230425
 30
0.0
 40
2.5
100
AcDbArc
 50
318.1896850000205
 51
41.81031499997946
  0
LINE
  5
88AE
330
1E
100
AcDbEntity
  8
002
100
AcDbLine
 10
-1834.262838461707
 20
4055.34488530425
 30
0.0
 11
-1837.989618461706
 21
4051.17821930425
 31
0.0
  0
LINE
  5
88AF
330
1E
100
AcDbEntity
  8
002
100
AcDbLine
 10
-1837.989618461706
 20
4062.84488530425
 30
0.0
 11
-1834.262838461707
 21
4058.67821930425
 31
0.0
  0
ARC
  5
88B0
330
1E
100
AcDbEntity
  8
002
100
AcDbCircle
 10
-1835.119803461706
 20
4064.511552304249
 30
0.0
 40
2.5
100
AcDbArc
 50
138.1896850000205
 51
221.8103149999794
  0
LINE
  5
88B1
330
1E
100
AcDbEntity
  8
002
100
AcDbLine
 10
-1834.262838461707
 20
4070.344885304249
 30
0.0
 11
-1837.989618461706
 21
4066.178219304251
 31
0.0
  0
ARC
  5
88B2
330
1E
100
AcDbEntity
  8
002
100
AcDbCircle
 10
-1836.126228461705
 20
4057.01155230425
 30
0.0
 40
2.5
100
AcDbArc
 50
318.1896850000205
 51
41.81031499997946
  0
ARC
  5
88B3
330
1E
100
AcDbEntity
  8
002
100
AcDbCircle
 10
-1836.126228461705
 20
4072.01155230425
 30
0.0
 40
2.5
100
AcDbArc
 50
318.1896850000205
 51
41.81031499997946
  0
LINE
  5
88B4
330
1E
100
AcDbEntity
  8
002
100
AcDbLine
 10
-1833.256413461706
 20
4070.344885304249
 30
0.0
 11
-1836.983193461706
 21
4066.178219304251
 31
0.0
  0
LINE
  5
88B5
330
1E
100
AcDbEntity
  8
002
100
AcDbLine
 10
-1833.256413461706
 20
4055.34488530425
 30
0.0
 11
-1836.983193461706
 21
4051.17821930425
 31
0.0
  0
LINE
  5
88B6
330
1E
100
AcDbEntity
  8
002
100
AcDbLine
 10
-1836.983193461706
 20
4062.84488530425
 30
0.0
 11
-1833.256413461706
 21
4058.67821930425
 31
0.0
  0
ARC
  5
88B7
330
1E
100
AcDbEntity
  8
002
100
AcDbCircle
 10
-1836.126228461705
 20
4064.511552304249
 30
0.0
 40
2.5
100
AcDbArc
 50
138.1896850000205
 51
221.8103149999794
  0
ARC
  5
88B8
330
1E
100
AcDbEntity
  8
002
100
AcDbCircle
 10
-1835.119803461706
 20
4027.01155230425
 30
0.0
 40
2.5
100
AcDbArc
 50
318.1896850000205
 51
41.81031499997946
  0
LINE
  5
88B9
330
1E
100
AcDbEntity
  8
002
100
AcDbLine
 10
-1837.989618461706
 20
4032.844885304249
 30
0.0
 11
-1834.262838461707
 21
4028.67821930425
 31
0.0
  0
ARC
  5
88BA
330
1E
100
AcDbEntity
  8
002
100
AcDbCircle
 10
-1836.126228461705
 20
4027.01155230425
 30
0.0
 40
2.5
100
AcDbArc
 50
318.1896850000205
 51
41.81031499997946
  0
LINE
  5
88BB
330
1E
100
AcDbEntity
  8
002
100
AcDbLine
 10
-1836.983193461706
 20
4032.844885304249
 30
0.0
 11
-1833.256413461706
 21
4028.67821930425
 31
0.0
  0
LINE
  5
88BC
330
1E
100
AcDbEntity
  8
002
100
AcDbLine
 10
-1834.262838461707
 20
4025.344885304249
 30
0.0
 11
-1837.989618461706
 21
4021.17821930425
 31
0.0
  0
LINE
  5
88BD
330
1E
100
AcDbEntity
  8
002
100
AcDbLine
 10
-1833.256413461706
 20
4025.344885304249
 30
0.0
 11
-1836.983193461706
 21
4021.17821930425
 31
0.0
  0
ARC
  5
88BE
330
1E
100
AcDbEntity
  8
002
100
AcDbCircle
 10
-1835.119803461706
 20
4042.01155230425
 30
0.0
 40
2.5
100
AcDbArc
 50
318.1896850000205
 51
41.81031499997946
  0
LINE
  5
88BF
330
1E
100
AcDbEntity
  8
002
100
AcDbLine
 10
-1834.262838461707
 20
4040.344885304249
 30
0.0
 11
-1837.989618461706
 21
4036.17821930425
 31
0.0
  0
ARC
  5
88C0
330
1E
100
AcDbEntity
  8
002
100
AcDbCircle
 10
-1835.119803461706
 20
4034.51155230425
 30
0.0
 40
2.5
100
AcDbArc
 50
138.1896850000205
 51
221.8103149999794
  0
ARC
  5
88C1
330
1E
100
AcDbEntity
  8
002
100
AcDbCircle
 10
-1836.126228461705
 20
4042.01155230425
 30
0.0
 40
2.5
100
AcDbArc
 50
318.1896850000205
 51
41.81031499997946
  0
LINE
  5
88C2
330
1E
100
AcDbEntity
  8
002
100
AcDbLine
 10
-1833.256413461706
 20
4040.344885304249
 30
0.0
 11
-1836.983193461706
 21
4036.17821930425
 31
0.0
  0
ARC
  5
88C3
330
1E
100
AcDbEntity
  8
002
100
AcDbCircle
 10
-1836.126228461705
 20
4034.51155230425
 30
0.0
 40
2.5
100
AcDbArc
 50
138.1896850000205
 51
221.8103149999794
  0
LINE
  5
88C4
330
1E
100
AcDbEntity
  8
002
100
AcDbLine
 10
-1837.989618461706
 20
4047.844885304249
 30
0.0
 11
-1834.262838461707
 21
4043.67821930425
 31
0.0
  0
LINE
  5
88C5
330
1E
100
AcDbEntity
  8
002
100
AcDbLine
 10
-1836.983193461706
 20
4047.844885304249
 30
0.0
 11
-1833.256413461706
 21
4043.67821930425
 31
0.0
  0
ARC
  5
88C6
330
1E
100
AcDbEntity
  8
002
100
AcDbCircle
 10
-1835.119803461706
 20
4049.51155230425
 30
0.0
 40
2.5
100
AcDbArc
 50
138.1896850000205
 51
221.8103149999794
  0
ARC
  5
88C7
330
1E
100
AcDbEntity
  8
002
100
AcDbCircle
 10
-1836.126228461705
 20
4049.51155230425
 30
0.0
 40
2.5
100
AcDbArc
 50
138.1896850000205
 51
221.8103149999794
  0
ARC
  5
88C8
330
1E
100
AcDbEntity
  8
002
100
AcDbCircle
 10
-1835.119803461706
 20
4012.01155230425
 30
0.0
 40
2.5
100
AcDbArc
 50
318.1896850000205
 51
41.81031499997946
  0
ARC
  5
88C9
330
1E
100
AcDbEntity
  8
002
100
AcDbCircle
 10
-1835.119803461706
 20
3997.01155230425
 30
0.0
 40
2.5
100
AcDbArc
 50
318.1896850000205
 51
41.81031499997946
  0
LINE
  5
88CA
330
1E
100
AcDbEntity
  8
002
100
AcDbLine
 10
-1834.262838461707
 20
4010.344885304249
 30
0.0
 11
-1837.989618461706
 21
4006.17821930425
 31
0.0
  0
LINE
  5
88CB
330
1E
100
AcDbEntity
  8
002
100
AcDbLine
 10
-1837.989618461706
 20
4017.844885304249
 30
0.0
 11
-1834.262838461707
 21
4013.67821930425
 31
0.0
  0
ARC
  5
88CC
330
1E
100
AcDbEntity
  8
002
100
AcDbCircle
 10
-1835.119803461706
 20
4004.51155230425
 30
0.0
 40
2.5
100
AcDbArc
 50
138.1896850000205
 51
221.8103149999794
  0
LINE
  5
88CD
330
1E
100
AcDbEntity
  8
002
100
AcDbLine
 10
-1837.989618461706
 20
4002.844885304249
 30
0.0
 11
-1834.262838461707
 21
3998.678219304251
 31
0.0
  0
ARC
  5
88CE
330
1E
100
AcDbEntity
  8
002
100
AcDbCircle
 10
-1836.126228461705
 20
3997.01155230425
 30
0.0
 40
2.5
100
AcDbArc
 50
318.1896850000205
 51
41.81031499997946
  0
ARC
  5
88CF
330
1E
100
AcDbEntity
  8
002
100
AcDbCircle
 10
-1836.126228461705
 20
4012.01155230425
 30
0.0
 40
2.5
100
AcDbArc
 50
318.1896850000205
 51
41.81031499997946
  0
LINE
  5
88D0
330
1E
100
AcDbEntity
  8
002
100
AcDbLine
 10
-1836.983193461706
 20
4002.844885304249
 30
0.0
 11
-1833.256413461706
 21
3998.678219304251
 31
0.0
  0
LINE
  5
88D1
330
1E
100
AcDbEntity
  8
002
100
AcDbLine
 10
-1833.256413461706
 20
4010.344885304249
 30
0.0
 11
-1836.983193461706
 21
4006.17821930425
 31
0.0
  0
LINE
  5
88D2
330
1E
100
AcDbEntity
  8
002
100
AcDbLine
 10
-1836.983193461706
 20
4017.844885304249
 30
0.0
 11
-1833.256413461706
 21
4013.67821930425
 31
0.0
  0
ARC
  5
88D3
330
1E
100
AcDbEntity
  8
002
100
AcDbCircle
 10
-1836.126228461705
 20
4004.51155230425
 30
0.0
 40
2.5
100
AcDbArc
 50
138.1896850000205
 51
221.8103149999794
  0
ARC
  5
88D4
330
1E
100
AcDbEntity
  8
002
100
AcDbCircle
 10
-1835.119803461706
 20
3982.01155230425
 30
0.0
 40
2.5
100
AcDbArc
 50
318.1896850000205
 51
41.81031499997946
  0
ARC
  5
88D5
330
1E
100
AcDbEntity
  8
002
100
AcDbCircle
 10
-1835.119803461706
 20
3967.01155230425
 30
0.0
 40
2.5
100
AcDbArc
 50
318.1896850000205
 51
41.81031499997946
  0
LINE
  5
88D6
330
1E
100
AcDbEntity
  8
002
100
AcDbLine
 10
-1834.262838461707
 20
3980.34488530425
 30
0.0
 11
-1837.989618461706
 21
3976.17821930425
 31
0.0
  0
LINE
  5
88D7
330
1E
100
AcDbEntity
  8
002
100
AcDbLine
 10
-1837.989618461706
 20
3987.84488530425
 30
0.0
 11
-1834.262838461707
 21
3983.67821930425
 31
0.0
  0
ARC
  5
88D8
330
1E
100
AcDbEntity
  8
002
100
AcDbCircle
 10
-1835.119803461706
 20
3989.51155230425
 30
0.0
 40
2.5
100
AcDbArc
 50
138.1896850000205
 51
221.8103149999794
  0
LINE
  5
88D9
330
1E
100
AcDbEntity
  8
002
100
AcDbLine
 10
-1837.989618461706
 20
3972.844885304249
 30
0.0
 11
-1834.262838461707
 21
3968.67821930425
 31
0.0
  0
ARC
  5
88DA
330
1E
100
AcDbEntity
  8
002
100
AcDbCircle
 10
-1835.119803461706
 20
3974.51155230425
 30
0.0
 40
2.5
100
AcDbArc
 50
138.1896850000205
 51
221.8103149999794
  0
ARC
  5
88DB
330
1E
100
AcDbEntity
  8
002
100
AcDbCircle
 10
-1836.126228461705
 20
3967.01155230425
 30
0.0
 40
2.5
100
AcDbArc
 50
318.1896850000205
 51
41.81031499997946
  0
ARC
  5
88DC
330
1E
100
AcDbEntity
  8
002
100
AcDbCircle
 10
-1836.126228461705
 20
3982.01155230425
 30
0.0
 40
2.5
100
AcDbArc
 50
318.1896850000205
 51
41.81031499997946
  0
LINE
  5
88DD
330
1E
100
AcDbEntity
  8
002
100
AcDbLine
 10
-1836.983193461706
 20
3972.844885304249
 30
0.0
 11
-1833.256413461706
 21
3968.67821930425
 31
0.0
  0
LINE
  5
88DE
330
1E
100
AcDbEntity
  8
002
100
AcDbLine
 10
-1833.256413461706
 20
3980.34488530425
 30
0.0
 11
-1836.983193461706
 21
3976.17821930425
 31
0.0
  0
LINE
  5
88DF
330
1E
100
AcDbEntity
  8
002
100
AcDbLine
 10
-1836.983193461706
 20
3987.84488530425
 30
0.0
 11
-1833.256413461706
 21
3983.67821930425
 31
0.0
  0
ARC
  5
88E0
330
1E
100
AcDbEntity
  8
002
100
AcDbCircle
 10
-1836.126228461705
 20
3989.51155230425
 30
0.0
 40
2.5
100
AcDbArc
 50
138.1896850000205
 51
221.8103149999794
  0
ARC
  5
88E1
330
1E
100
AcDbEntity
  8
002
100
AcDbCircle
 10
-1836.126228461705
 20
3974.51155230425
 30
0.0
 40
2.5
100
AcDbArc
 50
138.1896850000205
 51
221.8103149999794
  0
LINE
  5
88E2
330
1E
100
AcDbEntity
  8
002
100
AcDbLine
 10
-1834.262838461707
 20
3995.344885304249
 30
0.0
 11
-1837.989618461706
 21
3991.17821930425
 31
0.0
  0
LINE
  5
88E3
330
1E
100
AcDbEntity
  8
002
100
AcDbLine
 10
-1833.256413461706
 20
3995.344885304249
 30
0.0
 11
-1836.983193461706
 21
3991.17821930425
 31
0.0
  0
LINE
  5
88E4
330
1E
100
AcDbEntity
  8
002
100
AcDbLine
 10
-1834.262838461707
 20
3965.344885304249
 30
0.0
 11
-1837.989618461706
 21
3961.178219304251
 31
0.0
  0
LINE
  5
88E5
330
1E
100
AcDbEntity
  8
002
100
AcDbLine
 10
-1833.256413461706
 20
3965.344885304249
 30
0.0
 11
-1836.983193461706
 21
3961.178219304251
 31
0.0
  0
ARC
  5
88E6
330
1E
100
AcDbEntity
  8
002
100
AcDbCircle
 10
-1835.119803461706
 20
4019.51155230425
 30
0.0
 40
2.5
100
AcDbArc
 50
138.1896850000205
 51
221.8103149999794
  0
ARC
  5
88E7
330
1E
100
AcDbEntity
  8
002
100
AcDbCircle
 10
-1836.126228461705
 20
4019.51155230425
 30
0.0
 40
2.5
100
AcDbArc
 50
138.1896850000205
 51
221.8103149999794
  0
LINE
  5
88E8
330
1E
100
AcDbEntity
  8
002
100
AcDbLine
 10
-1863.832146461707
 20
4077.84488530425
 30
0.0
 11
-1859.269803461706
 21
4103.719221304251
 31
0.0
  0
LINE
  5
88E9
330
1E
100
AcDbEntity
  8
002
100
AcDbLine
 10
-1871.969803461706
 20
4089.28164730425
 30
0.0
 11
-1859.269803461706
 21
4161.306926304251
 31
0.0
  0
LINE
  5
88EA
330
1E
100
AcDbEntity
  8
002
100
AcDbLine
 10
-1878.558868461706
 20
4194.348612304251
 30
0.0
 11
-1879.119803461706
 21
4194.84488530425
 31
0.0
  0
ARC
  5
88EB
330
1E
100
AcDbEntity
  8
002
100
AcDbCircle
 10
-1873.322432461707
 20
4158.69751430425
 30
0.0
 40
0.8526290000000001
100
AcDbArc
 50
186.9999999999797
 51
330.0000000000027
  0
LINE
  5
88EC
330
1E
100
AcDbEntity
  8
002
100
AcDbLine
 10
-1872.584033461706
 20
4158.271200304251
 30
0.0
 11
-1871.969803461706
 21
4159.33507930425
 31
0.0
  0
LINE
  5
88ED
330
1E
100
AcDbEntity
  8
002
100
AcDbLine
 10
-1873.119803461706
 20
4150.050980304249
 30
0.0
 11
-1873.119803461706
 21
4139.84488530425
 31
0.0
  0
LINE
  5
88EE
330
1E
100
AcDbEntity
  8
002
100
AcDbLine
 10
-1873.119803461706
 20
4139.84488530425
 30
0.0
 11
-1873.733726461707
 21
4134.844885304249
 31
0.0
  0
LINE
  5
88EF
330
1E
100
AcDbEntity
  8
002
100
AcDbLine
 10
-1852.680738461705
 20
4194.348612304251
 30
0.0
 11
-1852.119803461706
 21
4194.84488530425
 31
0.0
  0
ARC
  5
88F0
330
1E
100
AcDbEntity
  8
002
100
AcDbCircle
 10
-1857.917174461707
 20
4158.69751430425
 30
0.0
 40
0.8526290000000001
100
AcDbArc
 50
209.9999999999972
 51
353.0000000000202
  0
LINE
  5
88F1
330
1E
100
AcDbEntity
  8
002
100
AcDbLine
 10
-1858.655572461706
 20
4158.271200304251
 30
0.0
 11
-1859.269803461706
 21
4159.33507930425
 31
0.0
  0
LINE
  5
88F2
330
1E
100
AcDbEntity
  8
002
100
AcDbLine
 10
-1858.119803461706
 20
4150.050980304249
 30
0.0
 11
-1858.119803461706
 21
4139.84488530425
 31
0.0
  0
LINE
  5
88F3
330
1E
100
AcDbEntity
  8
002
100
AcDbLine
 10
-1826.119803461706
 20
4134.844885304249
 30
0.0
 11
-1827.619803461706
 21
4133.97886030425
 31
0.0
  0
LINE
  5
88F4
330
1E
100
AcDbEntity
  8
002
100
AcDbLine
 10
-1827.619803461706
 20
4134.844885304249
 30
0.0
 11
-1826.119803461706
 21
4133.97886030425
 31
0.0
  0
LINE
  5
88F5
330
1E
100
AcDbEntity
  8
002
100
AcDbLine
 10
-1826.119803461706
 20
4112.84488530425
 30
0.0
 11
-1827.619803461706
 21
4113.71091130425
 31
0.0
  0
LINE
  5
88F6
330
1E
100
AcDbEntity
  8
002
100
AcDbLine
 10
-1826.119803461706
 20
4134.844885304249
 30
0.0
 11
-1826.119803461706
 21
4112.84488530425
 31
0.0
  0
LINE
  5
88F7
330
1E
100
AcDbEntity
  8
002
100
AcDbLine
 10
-1827.619803461706
 20
4134.844885304249
 30
0.0
 11
-1827.619803461706
 21
4112.84488530425
 31
0.0
  0
LINE
  5
88F8
330
1E
100
AcDbEntity
  8
002
100
AcDbLine
 10
-1828.119803461706
 20
4082.84488530425
 30
0.0
 11
-1830.619803461706
 21
4082.84488530425
 31
0.0
  0
LINE
  5
88F9
330
1E
100
AcDbEntity
  8
002
100
AcDbLine
 10
-1830.619803461706
 20
4134.844885304249
 30
0.0
 11
-1830.619803461706
 21
4082.84488530425
 31
0.0
  0
LINE
  5
88FA
330
1E
100
AcDbEntity
  8
002
100
AcDbLine
 10
-1836.983193461706
 20
4077.84488530425
 30
0.0
 11
-1828.119803461706
 21
4077.84488530425
 31
0.0
  0
LINE
  5
88FB
330
1E
100
AcDbEntity
  8
002
100
AcDbLine
 10
-1828.119803461706
 20
4082.84488530425
 30
0.0
 11
-1828.119803461706
 21
4077.84488530425
 31
0.0
  0
LINE
  5
88FC
330
1E
100
AcDbEntity
  8
002
100
AcDbLine
 10
-1858.119803461706
 20
4139.84488530425
 30
0.0
 11
-1857.505880461707
 21
4134.844885304249
 31
0.0
  0
LINE
  5
88FD
330
1E
100
AcDbEntity
  8
003
100
AcDbLine
 10
-1800.119803461706
 20
4065.844885304249
 30
0.0
 11
-1800.119803461706
 21
3787.73132530425
 31
0.0
  0
LINE
  5
88FE
330
1E
100
AcDbEntity
  8
003
100
AcDbLine
 10
-1809.619803461706
 20
4065.844885304249
 30
0.0
 11
-1809.619803461706
 21
3787.73132530425
 31
0.0
  0
LINE
  5
88FF
330
1E
100
AcDbEntity
  8
001
100
AcDbLine
 10
-1780.119803461706
 20
4100.34488530425
 30
0.0
 11
-1655.807300461707
 21
4156.42056130425
 31
0.0
  0
LINE
  5
8900
330
1E
100
AcDbEntity
  8
003
100
AcDbLine
 10
-1817.219803461706
 20
4087.844885304249
 30
0.0
 11
-1817.219803461706
 21
4065.844885304249
 31
0.0
  0
LINE
  5
8901
330
1E
100
AcDbEntity
  8
003
100
AcDbLine
 10
-1817.619803461706
 20
4065.844885304249
 30
0.0
 11
-1770.019803587474
 21
4065.844885304249
 31
0.0
  0
LWPOLYLINE
  5
8902
330
1E
100
AcDbEntity
  8
001
100
AcDbPolyline
 90
        3
 70
     0
 43
0.0
 10
-1773.708818461706
 20
4105.58838430425
 10
-1780.119803461706
 20
4100.34488530425
 10
-1771.945978461706
 20
4101.680396304251
  0
LINE
  5
8903
330
1E
100
AcDbEntity
  8
003
100
AcDbLine
 10
-1817.219803461706
 20
4087.844885304249
 30
0.0
 11
-1778.060363592392
 21
4087.844885304249
 31
0.0
  0
LINE
  5
8904
330
1E
100
AcDbEntity
  8
002
100
AcDbLine
 10
-1811.619803461706
 20
4194.84488530425
 30
0.0
 11
-1810.119803461706
 21
4193.34488530425
 31
0.0
  0
LINE
  5
8905
330
1E
100
AcDbEntity
  8
002
100
AcDbLine
 10
-1796.193540461707
 20
4156.418623304251
 30
0.0
 11
-1794.084269461705
 21
4154.30935230425
 31
0.0
  0
ARC
  5
8906
330
1E
100
AcDbEntity
  8
002
100
AcDbCircle
 10
-1797.619803461706
 20
4150.773818304251
 30
0.0
 40
5.0
100
AcDbArc
 50
0.0
 51
45.0
  0
ARC
  5
8907
330
1E
100
AcDbEntity
  8
002
100
AcDbCircle
 10
-1792.658006461706
 20
4159.95415730425
 30
0.0
 40
5.0
100
AcDbArc
 50
181.060912000014
 51
225.0
  0
LINE
  5
8908
330
1E
100
AcDbEntity
  8
002
100
AcDbLine
 10
-1801.619803461706
 20
4145.44296230425
 30
0.0
 11
-1802.619803461706
 21
4145.44296230425
 31
0.0
  0
LINE
  5
8909
330
1E
100
AcDbEntity
  8
002
100
AcDbLine
 10
-1810.119803461706
 20
4154.84488530425
 30
0.0
 11
-1807.619803461706
 21
4153.401510304251
 31
0.0
  0
LINE
  5
890A
330
1E
100
AcDbEntity
  8
002
100
AcDbLine
 10
-1803.619803461706
 20
4136.344885304249
 30
0.0
 11
-1806.239340461706
 21
4136.344885304249
 31
0.0
  0
LINE
  5
890B
330
1E
100
AcDbEntity
  8
002
100
AcDbLine
 10
-1807.619803461706
 20
4135.84488530425
 30
0.0
 11
-1807.619803461706
 21
4153.401510304251
 31
0.0
  0
LINE
  5
890C
330
1E
100
AcDbEntity
  8
002
100
AcDbLine
 10
-1802.619803461706
 20
4145.44296230425
 30
0.0
 11
-1802.619803461706
 21
4157.84488530425
 31
0.0
  0
LINE
  5
890D
330
1E
100
AcDbEntity
  8
002
100
AcDbLine
 10
-1801.619803461706
 20
4145.44296230425
 30
0.0
 11
-1800.119803461706
 21
4142.84488530425
 31
0.0
  0
LWPOLYLINE
  5
890E
330
1E
100
AcDbEntity
  8
001
100
AcDbPolyline
 90
        3
 70
     0
 43
0.0
 10
-1798.654172461707
 20
4142.820065304249
 10
-1803.119803461706
 20
4135.84488530425
 10
-1795.764863461706
 20
4139.652753304249
  0
LINE
  5
890F
330
1E
100
AcDbEntity
  8
002
100
AcDbLine
 10
-1810.119803461706
 20
4193.34488530425
 30
0.0
 11
-1810.119803461706
 21
4154.84488530425
 31
0.0
  0
LINE
  5
8910
330
1E
100
AcDbEntity
  8
002
100
AcDbLine
 10
-1780.119803461706
 20
4112.84488530425
 30
0.0
 11
-1780.119803461706
 21
4087.844885304249
 31
0.0
  0
LINE
  5
8911
330
1E
100
AcDbEntity
  8
002
100
AcDbLine
 10
-1792.619803461706
 20
4114.84488530425
 30
0.0
 11
-1794.619803461706
 21
4112.84488530425
 31
0.0
  0
LINE
  5
8912
330
1E
100
AcDbEntity
  8
002
100
AcDbLine
 10
-1802.619803461706
 20
4135.34488530425
 30
0.0
 11
-1802.619803461706
 21
4134.34488530425
 31
0.0
  0
LINE
  5
8913
330
1E
100
AcDbEntity
  8
002
100
AcDbLine
 10
-1801.619803461706
 20
4134.34488530425
 30
0.0
 11
-1802.619803461706
 21
4134.34488530425
 31
0.0
  0
LINE
  5
8914
330
1E
100
AcDbEntity
  8
002
100
AcDbLine
 10
-1801.619803461706
 20
4134.34488530425
 30
0.0
 11
-1800.119803461706
 21
4133.47886030425
 31
0.0
  0
LINE
  5
8915
330
1E
100
AcDbEntity
  8
002
100
AcDbLine
 10
-1801.619803461706
 20
4112.84488530425
 30
0.0
 11
-1800.119803461706
 21
4113.71091130425
 31
0.0
  0
LINE
  5
8916
330
1E
100
AcDbEntity
  8
002
100
AcDbLine
 10
-1801.619803461706
 20
4113.71091130425
 30
0.0
 11
-1800.119803461706
 21
4112.84488530425
 31
0.0
  0
LINE
  5
8917
330
1E
100
AcDbEntity
  8
002
100
AcDbLine
 10
-1818.119803461706
 20
4112.84488530425
 30
0.0
 11
-1818.119803461706
 21
4087.844885304249
 31
0.0
  0
LINE
  5
8918
330
1E
100
AcDbEntity
  8
002
100
AcDbLine
 10
-1818.119803461706
 20
4087.844885304249
 30
0.0
 11
-1779.787531461707
 21
4087.844885304249
 31
0.0
  0
LINE
  5
8919
330
1E
100
AcDbEntity
  8
002
100
AcDbLine
 10
-1792.619803461706
 20
4114.84488530425
 30
0.0
 11
-1792.619803461706
 21
4150.773818304251
 31
0.0
  0
LINE
  5
891A
330
1E
100
AcDbEntity
  8
002
100
AcDbLine
 10
-1805.119803461706
 20
4134.844885304249
 30
0.0
 11
-1804.573848461706
 21
4136.344885304249
 31
0.0
  0
LINE
  5
891B
330
1E
100
AcDbEntity
  8
002
100
AcDbLine
 10
-1802.619803461706
 20
4135.34488530425
 30
0.0
 11
-1803.619803461706
 21
4136.344885304249
 31
0.0
  0
LINE
  5
891C
330
1E
100
AcDbEntity
  8
002
100
AcDbLine
 10
-1807.619803461706
 20
4135.84488530425
 30
0.0
 11
-1808.619803461706
 21
4134.844885304249
 31
0.0
  0
LINE
  5
891D
330
1E
100
AcDbEntity
  8
002
100
AcDbLine
 10
-1801.619803461706
 20
4145.44296230425
 30
0.0
 11
-1801.619803461706
 21
4112.84488530425
 31
0.0
  0
LINE
  5
891E
330
1E
100
AcDbEntity
  8
002
100
AcDbLine
 10
-1800.119803461706
 20
4142.84488530425
 30
0.0
 11
-1800.119803461706
 21
4112.84488530425
 31
0.0
  0
LINE
  5
891F
330
1E
100
AcDbEntity
  8
002
100
AcDbLine
 10
-1629.032381676635
 20
3474.550144455355
 30
0.0
 11
-1613.905978676635
 21
3489.676548455355
 31
0.0
  0
LINE
  5
8920
330
1E
100
AcDbEntity
  8
002
100
AcDbLine
 10
-1638.905978676635
 20
3478.818684455354
 30
0.0
 11
-1613.905978676635
 21
3503.818684455354
 31
0.0
  0
LINE
  5
8921
330
1E
100
AcDbEntity
  8
002
100
AcDbLine
 10
-1613.905978676635
 20
3512.550144455355
 30
0.0
 11
-1613.905978676635
 21
3307.550144455355
 31
0.0
  0
LINE
  5
8922
330
1E
100
AcDbEntity
  8
002
100
AcDbLine
 10
-1638.905978676635
 20
3307.550144455355
 30
0.0
 11
-1638.905978676635
 21
3512.550144455355
 31
0.0
  0
LINE
  5
8923
330
1E
100
AcDbEntity
  8
001
  6
Continuous
100
AcDbLine
 10
-1604.530978676635
 20
3474.550144455355
 30
0.0
 11
-1559.960100466607
 21
3474.550144455355
 31
0.0
  0
MTEXT
  5
8924
330
1E
100
AcDbEntity
  8
001
  6
Continuous
100
AcDbMText
 10
-1574.960100466607
 20
3430.460806493719
 30
0.0
 40
12.0
 41
0.0
 71
     5
 72
     1
  1
\A1;φ129
 11
0.0000000000000001
 21
1.0
 31
0.0
 73
     1
 44
1.0
  0
LINE
  5
8925
330
1E
100
AcDbEntity
  8
002
100
AcDbLine
 10
-1638.905978676635
 20
3307.550144455355
 30
0.0
 11
-1613.905978676635
 21
3307.550144455355
 31
0.0
  0
LINE
  5
8926
330
1E
100
AcDbEntity
  8
002
100
AcDbLine
 10
-1614.890246676635
 20
3474.550144455355
 30
0.0
 11
-1613.905978676635
 21
3475.534412455354
 31
0.0
  0
LINE
  5
8927
330
1E
100
AcDbEntity
  8
002
100
AcDbLine
 10
-1638.905978676635
 20
3474.550144455355
 30
0.0
 11
-1613.905978676635
 21
3474.550144455355
 31
0.0
  0
INSERT
  5
8928
330
1E
100
AcDbEntity
  8
001
  6
Continuous
100
AcDbBlockReference
  2
_Open30
 10
-1561.460100466607
 20
3474.550144455355
 30
0.0
 41
12.0
 42
12.0
 43
12.0
 50
90.0
  0
LINE
  5
8929
330
1E
100
AcDbEntity
  8
001
  6
Continuous
100
AcDbLine
 10
-1561.460100466607
 20
3462.550144455355
 30
0.0
 11
-1561.460100466607
 21
3400.752716334897
 31
0.0
  0
LINE
  5
892A
330
1E
100
AcDbEntity
  8
002
100
AcDbLine
 10
-1638.905978676635
 20
3512.550144455355
 30
0.0
 11
-1613.905978676635
 21
3512.550144455355
 31
0.0
  0
LINE
  5
892B
330
1E
100
AcDbEntity
  8
002
100
AcDbLine
 10
-1638.905978676635
 20
3507.102955455354
 30
0.0
 11
-1633.458788676634
 21
3512.550144455355
 31
0.0
  0
LINE
  5
892C
330
1E
100
AcDbEntity
  8
002
100
AcDbLine
 10
-1638.905978676635
 20
3492.960819455354
 30
0.0
 11
-1619.316652676634
 21
3512.550144455355
 31
0.0
  0
LINE
  5
892D
330
1E
100
AcDbEntity
  8
003
100
AcDbLine
 10
-1509.093127253529
 20
4029.786977575827
 30
0.0
 11
-1489.36924425353
 21
4029.786977575827
 31
0.0
  0
LINE
  5
892E
330
1E
100
AcDbEntity
  8
003
100
AcDbLine
 10
-1489.36924425353
 20
4029.786977575827
 30
0.0
 11
-1527.493525253529
 21
3983.184940575828
 31
0.0
  0
LINE
  5
892F
330
1E
100
AcDbEntity
  8
003
100
AcDbLine
 10
-1509.093127253529
 20
3983.184940575828
 30
0.0
 11
-1509.093127253529
 21
3754.66641520461
 31
0.0
  0
TEXT
  5
8930
330
1E
100
AcDbEntity
  8
001
100
AcDbText
 10
-1644.807300461707
 20
4160.42056130425
 30
0.0
 40
12.8
  1
メッキ付　円形プレート
 41
0.716146
100
AcDbText
  0
LINE
  5
8931
330
1E
100
AcDbEntity
  8
003
100
AcDbLine
 10
-1527.493525253529
 20
3983.184940575828
 30
0.0
 11
-1509.093127253529
 21
3983.184940575828
 31
0.0
  0
LINE
  5
8932
330
1E
100
AcDbEntity
  8
003
 62
     3
100
AcDbLine
 10
-1970.336305220813
 20
4212.844885304249
 30
0.0
 11
-2080.569803461707
 21
4212.844885304249
 31
0.0
  0
LINE
  5
8933
330
1E
100
AcDbEntity
  8
003
100
AcDbLine
 10
-1968.373166194777
 20
4237.84488530425
 30
0.0
 11
-2182.619803461708
 21
4237.84488530425
 31
0.0
  0
LINE
  5
8934
330
1E
100
AcDbEntity
  8
001
100
AcDbLine
 10
-1965.499595461706
 20
4247.751600496205
 30
0.0
 11
-2015.741496461707
 21
4318.022448496205
 31
0.0
  0
LWPOLYLINE
  5
8935
330
1E
100
AcDbEntity
  8
003
  6
Continuous
100
AcDbPolyline
 90
       12
 70
     1
 43
0.0
 10
-2032.602352723631
 20
4347.84488530425
 10
-1732.637254199782
 20
4347.84488530425
 10
-1632.637254199782
 20
4237.84488530425
 10
-1582.619803461706
 20
4237.84488530425
 10
-1582.619803461706
 20
4240.144885304251
 10
-1631.619803461707
 20
4240.144885304251
 10
-1731.619803461707
 20
4350.144885304249
 10
-2033.619803461707
 20
4350.144885304249
 10
-2133.619803461706
 20
4240.144885304251
 10
-2182.619803461706
 20
4240.144885304251
 10
-2182.619803461706
 20
4237.84488530425
 10
-2132.602352723631
 20
4237.84488530425
  0
LINE
  5
8936
330
1E
100
AcDbEntity
  8
003
 48
0.25
100
AcDbLine
 10
-2511.014168474265
 20
4219.251336652949
 30
0.0
 11
-2584.540844682443
 21
4234.544885304249
 31
0.0
  0
TEXT
  5
8937
330
1E
100
AcDbEntity
  8
001
100
AcDbText
 10
-2146.955782461707
 20
4269.999805304251
 30
0.0
 40
12.8
  1
アンカーヘッド
 41
0.716146
100
AcDbText
  0
LINE
  5
8938
330
1E
100
AcDbEntity
  8
001
100
AcDbLine
 10
-2058.955782461706
 20
4265.99980530425
 30
0.0
 11
-2157.955782461707
 21
4265.99980530425
 31
0.0
  0
LINE
  5
8939
330
1E
100
AcDbEntity
  8
001
100
AcDbLine
 10
-2015.741496461707
 20
4318.022448496205
 30
0.0
 11
-2169.741496461707
 21
4318.022448496205
 31
0.0
  0
TEXT
  5
893A
330
1E
100
AcDbEntity
  8
001
100
AcDbText
 10
-2158.741496461707
 20
4322.022448496205
 30
0.0
 40
12.8
  1
ヘッドキャップ　Ｓタイプ
 41
0.716146
100
AcDbText
  0
TEXT
  5
893B
330
1E
100
AcDbEntity
  8
001
100
AcDbText
 10
-2231.123531729815
 20
4393.817988227158
 30
0.0
 40
18.0
  1
角度なしアンカー頭部構造図
 41
0.787037
100
AcDbText
  0
LINE
  5
893C
330
1E
100
AcDbEntity
  8
001
100
AcDbLine
 10
-2231.123531729815
 20
4390.257031006304
 30
0.0
 11
-2010.072604006796
 21
4390.257031006304
 31
0.0
  0
LINE
  5
893D
330
1E
100
AcDbEntity
  8
003
 48
0.25
100
AcDbLine
 10
-2256.003751616481
 20
4222.581024088058
 30
0.0
 11
-2182.619803461708
 21
4237.84488530425
 31
0.0
  0
LINE
  5
893E
330
1E
100
AcDbEntity
  8
003
  6
Continuous
100
AcDbLine
 10
-2067.619803727837
 20
4212.844885304249
 30
0.0
 11
-2069.807020315985
 21
4237.84488530425
 31
0.0
  0
LINE
  5
893F
330
1E
100
AcDbEntity
  8
001
100
AcDbLine
 10
-1720.850479278029
 20
4366.574596575392
 30
0.0
 11
-1641.088811711176
 21
4366.574596575392
 31
0.0
  0
TEXT
  5
8940
330
1E
100
AcDbEntity
  8
001
100
AcDbText
 10
-1718.088811711175
 20
4370.574596575392
 30
0.0
 40
12.8
  1
ＰＣ鋼より線
 41
0.716146
100
AcDbText
  0
LINE
  5
8941
330
1E
100
AcDbEntity
  8
001
100
AcDbLine
 10
-1691.086436409245
 20
4302.167589499204
 30
0.0
 11
-1623.905153409244
 21
4345.857109499204
 31
0.0
  0
LINE
  5
8942
330
1E
100
AcDbEntity
  8
001
100
AcDbLine
 10
-1733.884446913265
 20
4199.003268862549
 30
0.0
 11
-1517.522179461707
 21
4199.003268862549
 31
0.0
  0
TEXT
  5
8943
330
1E
100
AcDbEntity
  8
001
100
AcDbText
 10
-1671.522179461706
 20
4203.003268862548
 30
0.0
 40
12.8
  1
両ネジ　ジョイントプレート
 41
0.716146
100
AcDbText
  0
LINE
  5
8944
330
1E
100
AcDbEntity
  8
003
100
AcDbLine
 10
-1582.619803461706
 20
4237.84488530425
 30
0.0
 11
-1796.834061908085
 21
4237.84488530425
 31
0.0
  0
LINE
  5
8945
330
1E
100
AcDbEntity
  8
002
100
AcDbLine
 10
-1960.211538461706
 20
4292.84488530425
 30
0.0
 11
-1805.028068461706
 21
4292.84488530425
 31
0.0
  0
LINE
  5
8946
330
1E
100
AcDbEntity
  8
002
100
AcDbLine
 10
-1809.936332461706
 20
4287.84488530425
 30
0.0
 11
-1955.303274461706
 21
4287.84488530425
 31
0.0
  0
LINE
  5
8947
330
1E
100
AcDbEntity
  8
001
100
AcDbLine
 10
-1859.269803461706
 20
4230.97673730425
 30
0.0
 11
-1720.850479278029
 21
4366.574596575392
 31
0.0
  0
ARC
  5
8948
330
1E
100
AcDbEntity
  8
002
100
AcDbCircle
 10
-1955.303274461706
 20
4282.84488530425
 30
0.0
 40
5.0
100
AcDbArc
 50
90.0
 51
178.9390879999859
  0
ARC
  5
8949
330
1E
100
AcDbEntity
  8
002
100
AcDbCircle
 10
-1960.211538461706
 20
4287.84488530425
 30
0.0
 40
5.0
100
AcDbArc
 50
90.0
 51
178.9390879999859
  0
LWPOLYLINE
  5
894A
330
1E
100
AcDbEntity
  8
001
100
AcDbPolyline
 90
        3
 70
     0
 43
0.0
 10
-1971.896216461706
 20
4253.012611496204
 10
-1965.499595461706
 20
4247.751600496205
 10
-1968.408726461706
 20
4255.506079496204
  0
LINE
  5
894B
330
1E
100
AcDbEntity
  8
002
100
AcDbLine
 10
-1922.199276461706
 20
4244.844885304249
 30
0.0
 11
-1909.499276461707
 21
4244.844885304249
 31
0.0
  0
LINE
  5
894C
330
1E
100
AcDbEntity
  8
002
100
AcDbLine
 10
-1903.046070461707
 20
4197.84488530425
 30
0.0
 11
-1908.999276461707
 21
4197.84488530425
 31
0.0
  0
LINE
  5
894D
330
1E
100
AcDbEntity
  8
002
100
AcDbLine
 10
-1908.999276461707
 20
4197.84488530425
 30
0.0
 11
-1909.499276461707
 21
4197.55621030425
 31
0.0
  0
LINE
  5
894E
330
1E
100
AcDbEntity
  8
002
100
AcDbLine
 10
-1922.699276461706
 20
4197.84488530425
 30
0.0
 11
-1922.199276461706
 21
4197.55621030425
 31
0.0
  0
ARC
  5
894F
330
1E
100
AcDbEntity
  8
002
100
AcDbCircle
 10
-1928.652483461706
 20
4197.344885304249
 30
0.0
 40
0.5
100
AcDbArc
 50
90.0
 51
186.9999999999797
  0
LINE
  5
8950
330
1E
100
AcDbEntity
  8
002
100
AcDbLine
 10
-1928.652483461706
 20
4197.84488530425
 30
0.0
 11
-1922.699276461706
 21
4197.84488530425
 31
0.0
  0
LINE
  5
8951
330
1E
100
AcDbEntity
  8
002
100
AcDbLine
 10
-1922.199276461706
 20
4207.53008130425
 30
0.0
 11
-1915.619670461707
 21
4244.844885304249
 31
0.0
  0
ARC
  5
8952
330
1E
100
AcDbEntity
  8
002
100
AcDbCircle
 10
-1903.046070461707
 20
4197.344885304249
 30
0.0
 40
0.5
100
AcDbArc
 50
353.0000000000202
 51
90.0
  0
LINE
  5
8953
330
1E
100
AcDbEntity
  8
002
100
AcDbLine
 10
-1871.969803461706
 20
4244.844885304249
 30
0.0
 11
-1859.269803461706
 21
4244.844885304249
 31
0.0
  0
LINE
  5
8954
330
1E
100
AcDbEntity
  8
002
100
AcDbLine
 10
-1877.667952461706
 20
4292.84488530425
 30
0.0
 11
-1877.798882461706
 21
4287.84488530425
 31
0.0
  0
LINE
  5
8955
330
1E
100
AcDbEntity
  8
002
100
AcDbLine
 10
-1876.668124461706
 20
4292.83179730425
 30
0.0
 11
-1876.799053461707
 21
4287.83179730425
 31
0.0
  0
LINE
  5
8956
330
1E
100
AcDbEntity
  8
002
100
AcDbLine
 10
-1888.571482461706
 20
4292.83179730425
 30
0.0
 11
-1888.440552461706
 21
4287.83179730425
 31
0.0
  0
LINE
  5
8957
330
1E
100
AcDbEntity
  8
002
100
AcDbLine
 10
-1887.571653461705
 20
4292.84488530425
 30
0.0
 11
-1887.440724461706
 21
4287.84488530425
 31
0.0
  0
ARC
  5
8958
330
1E
100
AcDbEntity
  8
002
100
AcDbCircle
 10
-1878.423009461706
 20
4197.344885304249
 30
0.0
 40
0.5
100
AcDbArc
 50
90.0
 51
186.9999999999797
  0
LINE
  5
8959
330
1E
100
AcDbEntity
  8
002
100
AcDbLine
 10
-1878.423009461706
 20
4197.84488530425
 30
0.0
 11
-1872.469803461706
 21
4197.84488530425
 31
0.0
  0
LINE
  5
895A
330
1E
100
AcDbEntity
  8
002
100
AcDbLine
 10
-1872.469803461706
 20
4197.84488530425
 30
0.0
 11
-1871.969803461706
 21
4197.55621030425
 31
0.0
  0
LINE
  5
895B
330
1E
100
AcDbEntity
  8
002
100
AcDbLine
 10
-1871.969803461706
 20
4204.457057304251
 30
0.0
 11
-1864.848339461707
 21
4244.844885304249
 31
0.0
  0
LWPOLYLINE
  5
895C
330
1E
100
AcDbEntity
  8
001
100
AcDbPolyline
 90
        3
 70
     0
 43
0.0
 10
-1855.055068461706
 20
4238.10632330425
 10
-1859.269803461706
 20
4230.97673730425
 10
-1852.054942461706
 20
4235.04377230425
  0
LINE
  5
895D
330
1E
100
AcDbEntity
  8
002
100
AcDbLine
 10
-1852.816596461707
 20
4197.84488530425
 30
0.0
 11
-1858.769803461705
 21
4197.84488530425
 31
0.0
  0
ARC
  5
895E
330
1E
100
AcDbEntity
  8
002
100
AcDbCircle
 10
-1852.816596461707
 20
4197.344885304249
 30
0.0
 40
0.5
100
AcDbArc
 50
353.0000000000202
 51
90.0
  0
LINE
  5
895F
330
1E
100
AcDbEntity
  8
002
100
AcDbLine
 10
-1858.769803461705
 20
4197.84488530425
 30
0.0
 11
-1859.269803461706
 21
4197.55621030425
 31
0.0
  0
LINE
  5
8960
330
1E
100
AcDbEntity
  8
003
100
AcDbLine
 10
-1794.781948439823
 20
4212.844885304249
 30
0.0
 11
-1684.669803461707
 21
4212.844885304249
 31
0.0
  0
ARC
  5
8961
330
1E
100
AcDbEntity
  8
002
100
AcDbCircle
 10
-1809.936332461706
 20
4282.84488530425
 30
0.0
 40
5.0
100
AcDbArc
 50
1.060912000014026
 51
90.0
  0
ARC
  5
8962
330
1E
100
AcDbEntity
  8
002
100
AcDbCircle
 10
-1805.028068461706
 20
4287.84488530425
 30
0.0
 40
5.0
100
AcDbArc
 50
1.060912000014026
 51
90.0
  0
LINE
  5
8963
330
1E
100
AcDbEntity
  8
002
  6
Continuous
100
AcDbLine
 10
-1794.781948439823
 20
4221.293322692036
 30
0.0
 11
-1794.781948439823
 21
4206.899897347764
 31
0.0
  0
LINE
  5
8964
330
1E
100
AcDbEntity
  8
002
100
AcDbLine
 10
-1798.506805461705
 20
4205.743020304251
 30
0.0
 11
-1803.505239461706
 21
4205.612131304252
 31
0.0
  0
LINE
  5
8965
330
1E
100
AcDbEntity
  8
002
100
AcDbLine
 10
-1798.525324461706
 20
4206.743020304251
 30
0.0
 11
-1803.523757461707
 21
4206.612131304251
 31
0.0
  0
LINE
  5
8966
330
1E
100
AcDbEntity
  8
002
100
AcDbLine
 10
-1798.399415461706
 20
4199.94393930425
 30
0.0
 11
-1803.402698461706
 21
4200.074955304249
 31
0.0
  0
LINE
  5
8967
330
1E
100
AcDbEntity
  8
002
100
AcDbLine
 10
-1798.380878461706
 20
4198.94296930425
 30
0.0
 11
-1803.384162461707
 21
4199.07398430425
 31
0.0
  0
LINE
  5
8968
330
1E
100
AcDbEntity
  8
002
  6
CENTER
100
AcDbLine
 10
-1810.622137461707
 20
4202.84488530425
 30
0.0
 11
-1792.921873461706
 21
4202.84488530425
 31
0.0
  0
LINE
  5
8969
330
1E
100
AcDbEntity
  8
003
  6
Continuous
100
AcDbLine
 10
-1697.619803195575
 20
4212.844885304249
 30
0.0
 11
-1695.432586607426
 21
4237.84488530425
 31
0.0
  0
LWPOLYLINE
  5
896A
330
1E
100
AcDbEntity
  8
001
100
AcDbPolyline
 90
        3
 70
     0
 43
0.0
 10
-1686.240757409244
 20
4307.556229499205
 10
-1691.086436409244
 20
4302.167589499204
 10
-1684.195635409245
 20
4304.411449499204
  0
LINE
  5
896B
330
1E
100
AcDbEntity
  8
001
100
AcDbLine
 10
-1623.905153409244
 20
4345.857109499204
 30
0.0
 11
-1561.444952965466
 21
4345.857109499204
 31
0.0
  0
TEXT
  5
896C
330
1E
100
AcDbEntity
  8
001
100
AcDbText
 10
-1623.209372831495
 20
4331.591683642049
 30
0.0
 40
11.19999999999999
  1
(高さ110mm)
 41
0.716146
100
AcDbText
  0
LINE
  5
896D
330
1E
100
AcDbEntity
  8
003
 48
0.25
100
AcDbLine
 10
-1509.093127253529
 20
4222.551336652948
 30
0.0
 11
-1582.619803461706
 21
4237.84488530425
 31
0.0
  0
TEXT
  5
896E
330
1E
100
AcDbEntity
  8
001
100
AcDbText
 10
-1614.280153409244
 20
4349.357127499205
 30
0.0
 40
11.19999999999999
  1
蓋
 41
0.716146
100
AcDbText
  0
ENDSEC
  0
SECTION
  2
OBJECTS
  0
DICTIONARY
  5
C
330
0
100
AcDbDictionary
281
     1
  3
ACAD_GROUP
350
D
  3
ACAD_LAYOUT
350
19
  3
ACAD_MLINESTYLE
350
16
  3
ACAD_PLOTSETTINGS
350
18
  3
ACAD_PLOTSTYLENAME
350
E
  3
AcDbVariableDictionary
350
454
  3
DWGPROPS
350
7C08
  0
DICTIONARY
  5
7AF7
330
1E
100
AcDbDictionary
280
     1
281
     1
  3
ACAD_LAYOUTSELFREF
360
7BF1
  0
DICTIONARY
  5
7AF9
330
1A
100
AcDbDictionary
280
     1
281
     1
  3
ACAD_LAYOUTSELFREF
360
7BF0
  0
DICTIONARY
  5
D
102
{ACAD_REACTORS
330
C
102
}
330
C
100
AcDbDictionary
281
     1
  0
DICTIONARY
  5
19
102
{ACAD_REACTORS
330
C
102
}
330
C
100
AcDbDictionary
281
     1
  3
Model
350
21
  3
ﾚｲｱｳﾄ1
350
1D
  0
DICTIONARY
  5
16
102
{ACAD_REACTORS
330
C
102
}
330
C
100
AcDbDictionary
281
     1
  3
Standard
350
17
  0
DICTIONARY
  5
18
102
{ACAD_REACTORS
330
C
102
}
330
C
100
AcDbDictionary
281
     1
  0
ACDBDICTIONARYWDFLT
  5
E
102
{ACAD_REACTORS
330
C
102
}
330
C
100
AcDbDictionary
281
     1
  3
Normal
350
F
100
AcDbDictionaryWithDefault
340
F
  0
DICTIONARY
  5
454
102
{ACAD_REACTORS
330
C
102
}
330
C
100
AcDbDictionary
281
     1
  3
DIMASSOC
350
455
  0
XRECORD
  5
7C08
102
{ACAD_REACTORS
330
C
102
}
330
C
100
AcDbXrecord
280
     1
  1
DWGPROPS COOKIE
  2

  3

  4

  6

  7

  8

  9

300
=
301
=
302
=
303
=
304
=
305
=
306
=
307
=
308
=
309
=
 40
0.3107204976851852
 41
2453874.388608576
 42
2454273.747609375
  1

 90
        0
  0
XRECORD
  5
7BF1
102
{ACAD_REACTORS
330
7AF7
102
}
330
7AF7
100
AcDbXrecord
280
     1
340
1E
  0
XRECORD
  5
7BF0
102
{ACAD_REACTORS
330
7AF9
102
}
330
7AF9
100
AcDbXrecord
280
     1
340
1A
  0
LAYOUT
  5
21
102
{ACAD_REACTORS
330
19
102
}
330
19
100
AcDbPlotSettings
  1

  2
EPSON LP-9000C
  4
A3
  6

 40
5.873749732971191
 41
5.873747825622558
 42
5.873748779296875
 43
5.873748779296875
 44
297.0106506347656
 45
419.9466552734374
 46
0.0
 47
0.0
 48
-3663.759132390855
 49
2629.142083096279
140
-1591.059132390855
141
4093.676429218777
142
1.0
143
5.133976593982239
 70
 11952
 72
     1
 73
     1
 74
     4
  7
ZenithPrinter.ctb
 75
     0
147
0.1947807867242994
148
3663.759132390855
149
-2629.142083096279
100
AcDbLayout
  1
Model
 70
     1
 71
     0
 10
0.0
 20
0.0
 11
12.0
 21
9.0
 12
0.0
 22
0.0
 32
0.0
 14
0.0
 24
0.0
 34
0.0
 15
0.0
 25
0.0
 35
0.0
146
0.0
 13
0.0
 23
0.0
 33
0.0
 16
1.0
 26
0.0
 36
0.0
 17
0.0
 27
1.0
 37
0.0
 76
     0
330
1E
  0
LAYOUT
  5
1D
102
{ACAD_REACTORS
330
19
102
}
330
19
100
AcDbPlotSettings
  1

  2
EPSON LP-9000C
  4

  6

 40
0.0
 41
0.0
 42
0.0
 43
0.0
 44
0.0
 45
0.0
 46
0.0
 47
0.0
 48
0.0
 49
0.0
140
0.0
141
0.0
142
1.0
143
1.0
 70
   688
 72
     0
 73
     0
 74
     5
  7
ZenithPrinter.ctb
 75
    16
147
1.0
148
0.0
149
0.0
100
AcDbLayout
  1
ﾚｲｱｳﾄ1
 70
     1
 71
     1
 10
0.0
 20
0.0
 11
12.0
 21
9.0
 12
0.0
 22
0.0
 32
0.0
 14
1.000000000000000E+20
 24
1.000000000000000E+20
 34
1.000000000000000E+20
 15
-1.000000000000000E+20
 25
-1.000000000000000E+20
 35
-1.000000000000000E+20
146
0.0
 13
0.0
 23
0.0
 33
0.0
 16
1.0
 26
0.0
 36
0.0
 17
0.0
 27
1.0
 37
0.0
 76
     0
330
1A
  0
MLINESTYLE
  5
17
102
{ACAD_REACTORS
330
16
102
}
330
16
100
AcDbMlineStyle
  2
STANDARD
 70
     0
  3

 62
   256
 51
90.0
 52
90.0
 71
     2
 49
0.5
 62
   256
  6
BYLAYER
 49
-0.5
 62
   256
  6
BYLAYER
  0
ACDBPLACEHOLDER
  5
F
102
{ACAD_REACTORS
330
E
102
}
330
E
  0
DICTIONARYVAR
  5
455
102
{ACAD_REACTORS
330
454
102
}
330
454
100
DictionaryVariables
280
     0
  1
1
  0
ENDSEC
  0
EOF
