  0
SECTION
  2
HEADER
  9
$ACADVER
  1
AC1015
  9
$ACADMAINTVER
 70
    20
  9
$DWGCODEPAGE
  3
ANSI_932
  9
$INSBASE
 10
0.0
 20
0.0
 30
0.0
  9
$EXTMIN
 10
19297.33324340743
 20
399.5611406887801
 30
-0.0015258207003583
  9
$EXTMAX
 10
34973.45429450509
 20
11600.69931656876
 30
0.0000000349246037
  9
$LIMMIN
 10
19226.82194673353
 20
296.0967856342831
  9
$LIMMAX
 10
34998.24149251197
 20
11634.95671002381
  9
$ORTHOMODE
 70
     1
  9
$REGENMODE
 70
     1
  9
$FILLMODE
 70
     1
  9
$QTEXTMODE
 70
     0
  9
$MIRRTEXT
 70
     1
  9
$LTSCALE
 40
220.0
  9
$ATTMODE
 70
     1
  9
$TEXTSIZE
 40
200.0
  9
$TRACEWID
 40
0.05
  9
$TEXTSTYLE
  7
JF3
  9
$CLAYER
  8
2
  9
$CELTYPE
  6
BYLAYER
  9
$CECOLOR
 62
   256
  9
$CELTSCALE
 40
1.0
  9
$DISPSILH
 70
     0
  9
$DIMSCALE
 40
20.0
  9
$DIMASZ
 40
3.0
  9
$DIMEXO
 40
3.0
  9
$DIMDLI
 40
0.0
  9
$DIMRND
 40
0.0
  9
$DIMDLE
 40
0.0
  9
$DIMEXE
 40
2.0
  9
$DIMTP
 40
0.0
  9
$DIMTM
 40
0.0
  9
$DIMTXT
 40
3.0
  9
$DIMCEN
 40
0.0
  9
$DIMTSZ
 40
0.0
  9
$DIMTOL
 70
     0
  9
$DIMLIM
 70
     0
  9
$DIMTIH
 70
     0
  9
$DIMTOH
 70
     0
  9
$DIMSE1
 70
     0
  9
$DIMSE2
 70
     0
  9
$DIMTAD
 70
     1
  9
$DIMZIN
 70
     9
  9
$DIMBLK
  1

  9
$DIMASO
 70
     1
  9
$DIMSHO
 70
     1
  9
$DIMPOST
  1

  9
$DIMAPOST
  1

  9
$DIMALT
 70
     0
  9
$DIMALTD
 70
     2
  9
$DIMALTF
 40
25.4
  9
$DIMLFAC
 40
0.5
  9
$DIMTOFL
 70
     1
  9
$DIMTVP
 40
0.0
  9
$DIMTIX
 70
     1
  9
$DIMSOXD
 70
     0
  9
$DIMSAH
 70
     0
  9
$DIMBLK1
  1

  9
$DIMBLK2
  1

  9
$DIMSTYLE
  2
ST20-10
  9
$DIMCLRD
 70
   256
  9
$DIMCLRE
 70
   256
  9
$DIMCLRT
 70
     7
  9
$DIMTFAC
 40
0.3333333333333333
  9
$DIMGAP
 40
1.0
  9
$DIMJUST
 70
     0
  9
$DIMSD1
 70
     0
  9
$DIMSD2
 70
     0
  9
$DIMTOLJ
 70
     1
  9
$DIMTZIN
 70
     1
  9
$DIMALTZ
 70
     1
  9
$DIMALTTZ
 70
     1
  9
$DIMUPT
 70
     0
  9
$DIMDEC
 70
     0
  9
$DIMTDEC
 70
     0
  9
$DIMALTU
 70
     2
  9
$DIMALTTD
 70
     2
  9
$DIMTXSTY
  7
JF3
  9
$DIMAUNIT
 70
     1
  9
$DIMADEC
 70
     3
  9
$DIMALTRND
 40
0.0
  9
$DIMAZIN
 70
     0
  9
$DIMDSEP
 70
    46
  9
$DIMATFIT
 70
     3
  9
$DIMFRAC
 70
     0
  9
$DIMLDRBLK
  1

  9
$DIMLUNIT
 70
     2
  9
$DIMLWD
 70
    -2
  9
$DIMLWE
 70
    -2
  9
$DIMTMOVE
 70
     2
  9
$LUNITS
 70
     2
  9
$LUPREC
 70
     4
  9
$SKETCHINC
 40
0.1
  9
$FILLETRAD
 40
0.0
  9
$AUNITS
 70
     0
  9
$AUPREC
 70
     0
  9
$MENU
  1
acad
  9
$ELEVATION
 40
0.0
  9
$PELEVATION
 40
0.0
  9
$THICKNESS
 40
0.0
  9
$LIMCHECK
 70
     0
  9
$CHAMFERA
 40
0.0
  9
$CHAMFERB
 40
0.0
  9
$CHAMFERC
 40
0.0
  9
$CHAMFERD
 40
0.0
  9
$SKPOLY
 70
     0
  9
$TDCREATE
 40
2451227.813129282
  9
$TDUCREATE
 40
2451227.438129283
  9
$TDUPDATE
 40
2456765.515027199
  9
$TDUUPDATE
 40
2456765.140027199
  9
$TDINDWG
 40
0.7808698380
  9
$TDUSRTIMER
 40
0.7808698380
  9
$USRTIMER
 70
     1
  9
$ANGBASE
 50
0.0
  9
$ANGDIR
 70
     0
  9
$PDMODE
 70
     0
  9
$PDSIZE
 40
0.0
  9
$PLINEWID
 40
0.0
  9
$SPLFRAME
 70
     0
  9
$SPLINETYPE
 70
     6
  9
$SPLINESEGS
 70
     8
  9
$HANDSEED
  5
B79C
  9
$SURFTAB1
 70
     6
  9
$SURFTAB2
 70
     6
  9
$SURFTYPE
 70
     6
  9
$SURFU
 70
     6
  9
$SURFV
 70
     6
  9
$UCSBASE
  2

  9
$UCSNAME
  2

  9
$UCSORG
 10
7441.502354646868
 20
2158.167244848408
 30
0.0
  9
$UCSXDIR
 10
1.0
 20
0.0000000000000011
 30
0.0
  9
$UCSYDIR
 10
-0.0000000000000011
 20
1.0
 30
0.0
  9
$UCSORTHOREF
  2

  9
$UCSORTHOVIEW
 70
     0
  9
$UCSORGTOP
 10
0.0
 20
0.0
 30
0.0
  9
$UCSORGBOTTOM
 10
0.0
 20
0.0
 30
0.0
  9
$UCSORGLEFT
 10
0.0
 20
0.0
 30
0.0
  9
$UCSORGRIGHT
 10
0.0
 20
0.0
 30
0.0
  9
$UCSORGFRONT
 10
0.0
 20
0.0
 30
0.0
  9
$UCSORGBACK
 10
0.0
 20
0.0
 30
0.0
  9
$PUCSBASE
  2

  9
$PUCSNAME
  2

  9
$PUCSORG
 10
0.0
 20
0.0
 30
0.0
  9
$PUCSXDIR
 10
1.0
 20
0.0
 30
0.0
  9
$PUCSYDIR
 10
0.0
 20
1.0
 30
0.0
  9
$PUCSORTHOREF
  2

  9
$PUCSORTHOVIEW
 70
     0
  9
$PUCSORGTOP
 10
0.0
 20
0.0
 30
0.0
  9
$PUCSORGBOTTOM
 10
0.0
 20
0.0
 30
0.0
  9
$PUCSORGLEFT
 10
0.0
 20
0.0
 30
0.0
  9
$PUCSORGRIGHT
 10
0.0
 20
0.0
 30
0.0
  9
$PUCSORGFRONT
 10
0.0
 20
0.0
 30
0.0
  9
$PUCSORGBACK
 10
0.0
 20
0.0
 30
0.0
  9
$USERI1
 70
     0
  9
$USERI2
 70
     0
  9
$USERI3
 70
     0
  9
$USERI4
 70
     0
  9
$USERI5
 70
     0
  9
$USERR1
 40
0.0
  9
$USERR2
 40
0.0
  9
$USERR3
 40
0.0
  9
$USERR4
 40
0.0
  9
$USERR5
 40
0.0
  9
$WORLDVIEW
 70
     1
  9
$SHADEDGE
 70
     3
  9
$SHADEDIF
 70
    70
  9
$TILEMODE
 70
     1
  9
$MAXACTVP
 70
    48
  9
$PINSBASE
 10
0.0
 20
0.0
 30
0.0
  9
$PLIMCHECK
 70
     0
  9
$PEXTMIN
 10
1.000000000000000E+20
 20
1.000000000000000E+20
 30
1.000000000000000E+20
  9
$PEXTMAX
 10
-1.000000000000000E+20
 20
-1.000000000000000E+20
 30
-1.000000000000000E+20
  9
$PLIMMIN
 10
0.0
 20
0.0
  9
$PLIMMAX
 10
12.0
 20
9.0
  9
$UNITMODE
 70
     0
  9
$VISRETAIN
 70
     1
  9
$PLINEGEN
 70
     0
  9
$PSLTSCALE
 70
     1
  9
$TREEDEPTH
 70
  3020
  9
$CMLSTYLE
  2
STANDARD
  9
$CMLJUST
 70
     0
  9
$CMLSCALE
 40
1.0
  9
$PROXYGRAPHICS
 70
     1
  9
$MEASUREMENT
 70
     0
  9
$CELWEIGHT
370
    -1
  9
$ENDCAPS
280
     0
  9
$JOINSTYLE
280
     0
  9
$LWDISPLAY
290
     0
  9
$INSUNITS
 70
     0
  9
$HYPERLINKBASE
  1

  9
$STYLESHEET
  1
描画.ctb
  9
$XEDIT
290
     1
  9
$CEPSNTYPE
380
     0
  9
$PSTYLEMODE
290
     1
  9
$FINGERPRINTGUID
  2
{6E4CAC3F-ECF9-4DEC-9439-EF8945963850}
  9
$VERSIONGUID
  2
{23237A5A-BE29-47B1-A0DC-F5AAECD9C788}
  9
$EXTNAMES
290
     1
  9
$PSVPSCALE
 40
0.0
  9
$OLESTARTUP
290
     0
  0
ENDSEC
  0
SECTION
  2
CLASSES
  0
CLASS
  1
ACDBDICTIONARYWDFLT
  2
AcDbDictionaryWithDefault
  3
ObjectDBX Classes
 90
        0
280
     0
281
     0
  0
CLASS
  1
ACDBPLACEHOLDER
  2
AcDbPlaceHolder
  3
ObjectDBX Classes
 90
        0
280
     0
281
     0
  0
CLASS
  1
LAYOUT
  2
AcDbLayout
  3
ObjectDBX Classes
 90
        0
280
     0
281
     0
  0
CLASS
  1
PLOTSETTINGS
  2
AcDbPlotSettings
  3
ObjectDBX Classes
 90
        0
280
     0
281
     0
  0
CLASS
  1
DICTIONARYVAR
  2
AcDbDictionaryVar
  3
ObjectDBX Classes
 90
        0
280
     0
281
     0
  0
CLASS
  1
MATERIAL
  2
AcDbMaterial
  3
ObjectDBX Classes
 90
     1153
280
     0
281
     0
  0
CLASS
  1
VISUALSTYLE
  2
AcDbVisualStyle
  3
ObjectDBX Classes
 90
     4095
280
     0
281
     0
  0
CLASS
  1
TABLESTYLE
  2
AcDbTableStyle
  3
ObjectDBX Classes
 90
     4095
280
     0
281
     0
  0
CLASS
  1
SCALE
  2
AcDbScale
  3
ObjectDBX Classes
 90
     1153
280
     0
281
     0
  0
CLASS
  1
MLEADERSTYLE
  2
AcDbMLeaderStyle
  3
ACDB_MLEADERSTYLE_CLASS
 90
     4095
280
     0
281
     0
  0
CLASS
  1
SORTENTSTABLE
  2
AcDbSortentsTable
  3
ObjectDBX Classes
 90
        0
280
     0
281
     0
  0
CLASS
  1
CELLSTYLEMAP
  2
AcDbCellStyleMap
  3
ObjectDBX Classes
 90
     1152
280
     0
281
     0
  0
ENDSEC
  0
SECTION
  2
TABLES
  0
TABLE
  2
VPORT
  5
8
102
{ACAD_XDICTIONARY
360
B628
102
}
330
0
100
AcDbSymbolTable
 70
     1
  0
VPORT
  5
9DE1
330
8
100
AcDbSymbolTableRecord
100
AcDbViewportTableRecord
  2
*Active
 70
     0
 10
0.0
 20
0.0
 11
1.0
 21
1.0
 12
27112.53171962275
 22
5965.526747829049
 13
0.0
 23
0.0
 14
1.0
 24
1.0
 15
0.0
 25
0.0
 16
0.0
 26
0.0
 36
1.0
 17
0.0
 27
0.0
 37
0.0
 40
11435.79601804587
 41
1.684426229508196
 42
50.0
 43
0.0
 44
0.0
 50
0.0
 51
0.0
 71
     0
 72
   100
 73
     1
 74
     1
 75
     0
 76
     0
 77
     0
 78
     0
281
     0
 65
     1
110
7441.502354646868
120
2158.167244848408
130
0.0
111
1.0
121
0.0000000000000011
131
0.0
112
-0.0000000000000011
122
1.0
132
0.0
 79
     0
146
0.0
1001
ACAD_NAV_VCDISPLAY
1070
     3
  0
ENDTAB
  0
TABLE
  2
LTYPE
  5
5
330
0
100
AcDbSymbolTable
 70
     4
  0
LTYPE
  5
12
330
5
100
AcDbSymbolTableRecord
100
AcDbLinetypeTableRecord
  2
BYBLOCK
 70
     0
  3

 72
    65
 73
     0
 40
0.0
  0
LTYPE
  5
13
330
5
100
AcDbSymbolTableRecord
100
AcDbLinetypeTableRecord
  2
BYLAYER
 70
     0
  3

 72
    65
 73
     0
 40
0.0
  0
LTYPE
  5
14
330
5
100
AcDbSymbolTableRecord
100
AcDbLinetypeTableRecord
  2
CONTINUOUS
 70
     0
  3
実線
 72
    65
 73
     0
 40
0.0
  0
LTYPE
  5
1F
330
5
100
AcDbSymbolTableRecord
100
AcDbLinetypeTableRecord
  2
HIDDEN
 70
     0
  3
_ _ _ _ _ _ _ _ _ _ _ _ _ _ _ _ _ _ _ _ _ _ _
 72
    65
 73
     2
 40
0.375
 49
0.25
 74
     0
 49
-0.125
 74
     0
  0
LTYPE
  5
20
330
5
100
AcDbSymbolTableRecord
100
AcDbLinetypeTableRecord
  2
CENTER
 70
     0
  3
____ _ ____ _ ____ _ ____ _ ____ _ ____ _ ____
 72
    65
 73
     4
 40
2.0
 49
1.25
 74
     0
 49
-0.25
 74
     0
 49
0.25
 74
     0
 49
-0.25
 74
     0
  0
ENDTAB
  0
TABLE
  2
LAYER
  5
2
102
{ACAD_XDICTIONARY
360
39AC
102
}
330
0
100
AcDbSymbolTable
 70
     5
  0
LAYER
  5
E
102
{ACAD_XDICTIONARY
360
A056
102
}
330
2
100
AcDbSymbolTableRecord
100
AcDbLayerTableRecord
  2
0
 70
     0
 62
     7
  6
CONTINUOUS
370
    -3
390
7C9
  0
LAYER
  5
82E
330
2
100
AcDbSymbolTableRecord
100
AcDbLayerTableRecord
  2
DEFPOINTS
 70
     0
 62
     7
  6
CONTINUOUS
290
     0
370
    -3
390
7C9
  0
LAYER
  5
57B5
102
{ACAD_XDICTIONARY
360
A058
102
}
330
2
100
AcDbSymbolTableRecord
100
AcDbLayerTableRecord
  2
1
 70
     0
 62
     3
  6
CONTINUOUS
370
    -3
390
7C9
  0
LAYER
  5
57B6
102
{ACAD_XDICTIONARY
360
A05A
102
}
330
2
100
AcDbSymbolTableRecord
100
AcDbLayerTableRecord
  2
2
 70
     0
 62
     4
  6
CONTINUOUS
370
    -3
390
7C9
  0
LAYER
  5
57B7
102
{ACAD_XDICTIONARY
360
A05C
102
}
330
2
100
AcDbSymbolTableRecord
100
AcDbLayerTableRecord
  2
3
 70
     0
 62
     7
  6
CONTINUOUS
370
    -3
390
7C9
  0
ENDTAB
  0
TABLE
  2
STYLE
  5
3
330
0
100
AcDbSymbolTable
 70
     5
  0
STYLE
  5
F
330
3
100
AcDbSymbolTableRecord
100
AcDbTextStyleTableRecord
  2
STANDARD
 70
     0
 40
0.0
 41
1.0
 50
0.0
 71
     0
 42
220.0
  3
TXT
  4

  0
STYLE
  5
82F
330
3
100
AcDbSymbolTableRecord
100
AcDbTextStyleTableRecord
  2
JF
 70
     0
 40
0.0
 41
0.8
 50
0.0
 71
     0
 42
3.5
  3
romanc
  4
bigfont
  0
STYLE
  5
830
330
3
100
AcDbSymbolTableRecord
100
AcDbTextStyleTableRecord
  2
JF2
 70
     4
 40
0.0
 41
1.0
 50
0.0
 71
     0
 42
3.5
  3
romans
  4
bigfont
  0
STYLE
  5
831
330
3
100
AcDbSymbolTableRecord
100
AcDbTextStyleTableRecord
  2
JF3
 70
     0
 40
0.0
 41
0.8
 50
0.0
 71
     0
 42
200.0
  3
ROMANS.SHX
  4
bigfont
  0
ENDTAB
  0
TABLE
  2
VIEW
  5
6
330
0
100
AcDbSymbolTable
 70
     0
  0
ENDTAB
  0
TABLE
  2
UCS
  5
7
330
0
100
AcDbSymbolTable
 70
     0
  0
ENDTAB
  0
TABLE
  2
APPID
  5
9
330
0
100
AcDbSymbolTable
 70
     8
  0
APPID
  5
10
330
9
100
AcDbSymbolTableRecord
100
AcDbRegAppTableRecord
  2
ACAD
 70
     0
  0
APPID
  5
9E32
330
9
100
AcDbSymbolTableRecord
100
AcDbRegAppTableRecord
  2
ACAD_EXEMPT_FROM_CAD_STANDARDS
 70
     0
  0
APPID
  5
9E3E
330
9
100
AcDbSymbolTableRecord
100
AcDbRegAppTableRecord
  2
ACAD_NAV_VCDISPLAY
 70
     0
  0
APPID
  5
9E3F
330
9
100
AcDbSymbolTableRecord
100
AcDbRegAppTableRecord
  2
ACAD_PSEXT
 70
     0
  0
APPID
  5
9E5F
330
9
100
AcDbSymbolTableRecord
100
AcDbRegAppTableRecord
  2
ACAD_DSTYLE_DIMJAG
 70
     0
  0
APPID
  5
9E60
330
9
100
AcDbSymbolTableRecord
100
AcDbRegAppTableRecord
  2
ACAD_DSTYLE_DIMTALN
 70
     0
  0
APPID
  5
9E61
330
9
100
AcDbSymbolTableRecord
100
AcDbRegAppTableRecord
  2
ACAD_DSTYLE_DIMBREAK
 70
     0
  0
APPID
  5
B666
330
9
100
AcDbSymbolTableRecord
100
AcDbRegAppTableRecord
  2
ACAD_MLEADERVER
 70
     0
  0
ENDTAB
  0
TABLE
  2
DIMSTYLE
  5
A
330
0
100
AcDbSymbolTable
 70
     8
100
AcDbDimStyleTable
 71
     6
340
1E4A
340
57BA
340
171B
340
52C
340
9C4
340
832
  0
DIMSTYLE
105
52C
330
A
100
AcDbSymbolTableRecord
100
AcDbDimStyleTableRecord
  2
STANDARD
 70
     0
178
     7
340
F
1001
ACAD_DSTYLE_DIMJAG
1070
   388
1040
1.5
1001
ACAD_DSTYLE_DIMTALN
1070
   392
1070
     0
  0
DIMSTYLE
105
832
102
{ACAD_REACTORS
330
9283
330
9284
330
9285
330
9291
330
9292
330
929C
330
A819
330
A81A
330
A830
330
A83D
330
A83E
330
A83F
330
A841
330
B27C
330
B27D
330
B280
330
B284
330
B285
330
B286
330
B288
102
}
330
A
100
AcDbSymbolTableRecord
100
AcDbDimStyleTableRecord
  2
ST20
 70
     0
 40
20.0
 41
2.0
 42
2.0
 43
0.0
 44
2.0
 73
     0
 74
     0
 77
     1
 78
     9
140
3.0
141
0.0
146
0.3333333333333333
147
1.0
172
     1
174
     1
176
   256
177
   256
178
     7
179
     3
271
     0
272
     0
275
     1
279
     2
284
     1
285
     1
286
     1
340
831
1001
ACAD_DSTYLE_DIMJAG
1070
   388
1040
1.5
1001
ACAD_DSTYLE_DIMTALN
1070
   392
1070
     0
  0
DIMSTYLE
105
836
102
{ACAD_REACTORS
330
9E5D
102
}
330
A
100
AcDbSymbolTableRecord
100
AcDbDimStyleTableRecord
  2
ST20$7
 70
     0
 40
20.0
 41
2.0
 42
2.0
 43
0.0
 44
2.0
 73
     0
 74
     0
 77
     1
 78
     1
140
3.0
141
0.0
146
0.3333333333333333
147
1.0
172
     1
174
     1
178
     7
179
     3
271
     0
272
     0
275
     1
279
     2
284
     1
285
     1
286
     1
340
831
1001
ACAD_DSTYLE_DIMBREAK
1070
   391
1040
0.125
1001
ACAD_DSTYLE_DIMJAG
1070
   388
1040
1.5
1001
ACAD_DSTYLE_DIMTALN
1070
   392
1070
     0
  0
DIMSTYLE
105
9C4
102
{ACAD_REACTORS
330
9281
330
9282
330
9286
330
9299
330
929A
330
929B
102
}
330
A
100
AcDbSymbolTableRecord
100
AcDbDimStyleTableRecord
  2
ST20（詳細）
 70
     0
 40
20.0
 41
3.0
 42
3.0
 43
0.0
 44
2.0
 73
     0
 74
     0
 77
     1
 78
     9
140
3.0
141
0.0
146
0.3333333333333333
147
1.0
172
     1
174
     1
176
   256
177
   256
178
     7
179
     3
271
     0
272
     0
275
     1
279
     2
284
     1
285
     1
286
     1
340
831
1001
ACAD_DSTYLE_DIMJAG
1070
   388
1040
1.5
1001
ACAD_DSTYLE_DIMTALN
1070
   392
1070
     0
  0
DIMSTYLE
105
171B
102
{ACAD_REACTORS
330
93A4
330
A99D
330
A9A6
330
A9A7
330
A9CF
330
A9DB
330
A9DD
330
A9DE
330
A9EC
330
B32E
102
}
330
A
100
AcDbSymbolTableRecord
100
AcDbDimStyleTableRecord
  2
ST20-5
 70
     0
 40
20.0
 41
3.0
 42
3.0
 43
0.0
 44
2.0
 73
     0
 74
     0
 77
     1
 78
     9
140
3.0
141
0.0
144
0.25
146
0.3333333333333333
147
1.0
172
     1
174
     1
176
   256
177
   256
178
     7
179
     3
271
     0
272
     0
275
     1
279
     2
284
     1
285
     1
286
     1
340
831
1001
ACAD_DSTYLE_DIMJAG
1070
   388
1040
1.5
1001
ACAD_DSTYLE_DIMTALN
1070
   392
1070
     0
  0
DIMSTYLE
105
1E4A
102
{ACAD_REACTORS
330
5BED
330
5BEE
330
B407
330
B414
330
B421
102
}
330
A
100
AcDbSymbolTableRecord
100
AcDbDimStyleTableRecord
  2
ST20-10
 70
     0
 40
20.0
 41
3.0
 42
3.0
 43
0.0
 44
2.0
 73
     0
 74
     0
 77
     1
 78
     9
140
3.0
141
0.0
144
0.5
146
0.3333333333333333
147
1.0
172
     1
174
     1
176
   256
177
   256
178
     7
179
     3
271
     0
272
     0
275
     1
279
     2
284
     1
285
     1
286
     1
340
831
1001
ACAD_DSTYLE_DIMJAG
1070
   388
1040
1.5
1001
ACAD_DSTYLE_DIMTALN
1070
   392
1070
     0
  0
DIMSTYLE
105
57BA
102
{ACAD_REACTORS
330
A9CE
330
A9D0
330
A9F4
330
A9FB
330
AA01
330
AA03
330
AA04
330
AA05
330
B3EF
102
}
330
A
100
AcDbSymbolTableRecord
100
AcDbDimStyleTableRecord
  2
ST20-5（詳細）
 70
     0
 40
20.0
 41
2.0
 42
3.0
 43
0.0
 44
1.5
 73
     0
 74
     0
 77
     1
 78
     9
140
3.0
141
0.0
144
0.25
146
0.3333333333333333
147
1.0
172
     1
174
     1
176
   256
177
   256
178
     7
271
     1
272
     1
279
     2
284
     1
285
     1
286
     1
340
831
1001
ACAD_DSTYLE_DIMJAG
1070
   388
1040
1.5
1001
ACAD_DSTYLE_DIMTALN
1070
   392
1070
     0
  0
ENDTAB
  0
TABLE
  2
BLOCK_RECORD
  5
1
330
0
100
AcDbSymbolTable
 70
    52
  0
BLOCK_RECORD
  5
18
102
{ACAD_XDICTIONARY
360
7F6
102
}
330
1
100
AcDbSymbolTableRecord
100
AcDbBlockTableRecord
  2
*MODEL_SPACE
340
7CC
  0
BLOCK_RECORD
  5
15
102
{ACAD_XDICTIONARY
360
7F4
102
}
330
1
100
AcDbSymbolTableRecord
100
AcDbBlockTableRecord
  2
*PAPER_SPACE
340
7CD
  0
BLOCK_RECORD
  5
5F0F
330
1
100
AcDbSymbolTableRecord
100
AcDbBlockTableRecord
  2
*D0
340
0
  0
BLOCK_RECORD
  5
5F1B
330
1
100
AcDbSymbolTableRecord
100
AcDbBlockTableRecord
  2
*D1
340
0
  0
BLOCK_RECORD
  5
95E8
330
1
100
AcDbSymbolTableRecord
100
AcDbBlockTableRecord
  2
*D2
340
0
  0
BLOCK_RECORD
  5
95F4
330
1
100
AcDbSymbolTableRecord
100
AcDbBlockTableRecord
  2
*D3
340
0
  0
BLOCK_RECORD
  5
9600
330
1
100
AcDbSymbolTableRecord
100
AcDbBlockTableRecord
  2
*D4
340
0
  0
BLOCK_RECORD
  5
960E
330
1
100
AcDbSymbolTableRecord
100
AcDbBlockTableRecord
  2
*D5
340
0
  0
BLOCK_RECORD
  5
961C
330
1
100
AcDbSymbolTableRecord
100
AcDbBlockTableRecord
  2
*D6
340
0
  0
BLOCK_RECORD
  5
9628
330
1
100
AcDbSymbolTableRecord
100
AcDbBlockTableRecord
  2
*D7
340
0
  0
BLOCK_RECORD
  5
9634
330
1
100
AcDbSymbolTableRecord
100
AcDbBlockTableRecord
  2
*D8
340
0
  0
BLOCK_RECORD
  5
9642
330
1
100
AcDbSymbolTableRecord
100
AcDbBlockTableRecord
  2
*D9
340
0
  0
BLOCK_RECORD
  5
9650
330
1
100
AcDbSymbolTableRecord
100
AcDbBlockTableRecord
  2
*D10
340
0
  0
BLOCK_RECORD
  5
965C
330
1
100
AcDbSymbolTableRecord
100
AcDbBlockTableRecord
  2
*D11
340
0
  0
BLOCK_RECORD
  5
9668
330
1
100
AcDbSymbolTableRecord
100
AcDbBlockTableRecord
  2
*D12
340
0
  0
BLOCK_RECORD
  5
9674
330
1
100
AcDbSymbolTableRecord
100
AcDbBlockTableRecord
  2
*D13
340
0
  0
BLOCK_RECORD
  5
97CE
330
1
100
AcDbSymbolTableRecord
100
AcDbBlockTableRecord
  2
*D14
340
0
  0
BLOCK_RECORD
  5
A157
330
1
100
AcDbSymbolTableRecord
100
AcDbBlockTableRecord
  2
_OPEN
340
0
102
{BLKREFS
331
A99A
331
B294
102
}
  0
BLOCK_RECORD
  5
AB99
330
1
100
AcDbSymbolTableRecord
100
AcDbBlockTableRecord
  2
*D16
340
0
  0
BLOCK_RECORD
  5
ABA5
330
1
100
AcDbSymbolTableRecord
100
AcDbBlockTableRecord
  2
*D17
340
0
  0
BLOCK_RECORD
  5
ABB1
330
1
100
AcDbSymbolTableRecord
100
AcDbBlockTableRecord
  2
*D18
340
0
  0
BLOCK_RECORD
  5
AC29
330
1
100
AcDbSymbolTableRecord
100
AcDbBlockTableRecord
  2
*D19
340
0
  0
BLOCK_RECORD
  5
AC37
330
1
100
AcDbSymbolTableRecord
100
AcDbBlockTableRecord
  2
*D20
340
0
  0
BLOCK_RECORD
  5
AC43
330
1
100
AcDbSymbolTableRecord
100
AcDbBlockTableRecord
  2
*D21
340
0
  0
BLOCK_RECORD
  5
AC5D
330
1
100
AcDbSymbolTableRecord
100
AcDbBlockTableRecord
  2
*D22
340
0
  0
BLOCK_RECORD
  5
AC6B
330
1
100
AcDbSymbolTableRecord
100
AcDbBlockTableRecord
  2
*D23
340
0
  0
BLOCK_RECORD
  5
AC79
330
1
100
AcDbSymbolTableRecord
100
AcDbBlockTableRecord
  2
*D24
340
0
  0
BLOCK_RECORD
  5
AC9D
330
1
100
AcDbSymbolTableRecord
100
AcDbBlockTableRecord
  2
*D25
340
0
  0
BLOCK_RECORD
  5
ACAB
330
1
100
AcDbSymbolTableRecord
100
AcDbBlockTableRecord
  2
*D26
340
0
  0
BLOCK_RECORD
  5
ACCF
330
1
100
AcDbSymbolTableRecord
100
AcDbBlockTableRecord
  2
*D27
340
0
  0
BLOCK_RECORD
  5
ACDB
330
1
100
AcDbSymbolTableRecord
100
AcDbBlockTableRecord
  2
*D28
340
0
  0
BLOCK_RECORD
  5
ACF3
330
1
100
AcDbSymbolTableRecord
100
AcDbBlockTableRecord
  2
*D29
340
0
  0
BLOCK_RECORD
  5
AD01
330
1
100
AcDbSymbolTableRecord
100
AcDbBlockTableRecord
  2
*D30
340
0
  0
BLOCK_RECORD
  5
AD0D
330
1
100
AcDbSymbolTableRecord
100
AcDbBlockTableRecord
  2
*D31
340
0
  0
BLOCK_RECORD
  5
AD75
330
1
100
AcDbSymbolTableRecord
100
AcDbBlockTableRecord
  2
*D32
340
0
  0
BLOCK_RECORD
  5
AD81
330
1
100
AcDbSymbolTableRecord
100
AcDbBlockTableRecord
  2
*D33
340
0
  0
BLOCK_RECORD
  5
ADDD
330
1
100
AcDbSymbolTableRecord
100
AcDbBlockTableRecord
  2
*D34
340
0
  0
BLOCK_RECORD
  5
AE1B
330
1
100
AcDbSymbolTableRecord
100
AcDbBlockTableRecord
  2
*D35
340
0
  0
BLOCK_RECORD
  5
AE27
330
1
100
AcDbSymbolTableRecord
100
AcDbBlockTableRecord
  2
*D36
340
0
  0
BLOCK_RECORD
  5
AE33
330
1
100
AcDbSymbolTableRecord
100
AcDbBlockTableRecord
  2
*D37
340
0
  0
BLOCK_RECORD
  5
AE41
330
1
100
AcDbSymbolTableRecord
100
AcDbBlockTableRecord
  2
*D38
340
0
  0
BLOCK_RECORD
  5
B297
330
1
100
AcDbSymbolTableRecord
100
AcDbBlockTableRecord
  2
*D39
340
0
  0
BLOCK_RECORD
  5
B2A3
330
1
100
AcDbSymbolTableRecord
100
AcDbBlockTableRecord
  2
*D40
340
0
  0
BLOCK_RECORD
  5
B2AF
330
1
100
AcDbSymbolTableRecord
100
AcDbBlockTableRecord
  2
*D41
340
0
  0
BLOCK_RECORD
  5
B2BB
330
1
100
AcDbSymbolTableRecord
100
AcDbBlockTableRecord
  2
*D42
340
0
  0
BLOCK_RECORD
  5
B2C7
330
1
100
AcDbSymbolTableRecord
100
AcDbBlockTableRecord
  2
*D43
340
0
  0
BLOCK_RECORD
  5
B2D3
330
1
100
AcDbSymbolTableRecord
100
AcDbBlockTableRecord
  2
*D44
340
0
  0
BLOCK_RECORD
  5
B2E1
330
1
100
AcDbSymbolTableRecord
100
AcDbBlockTableRecord
  2
*D45
340
0
  0
BLOCK_RECORD
  5
B32F
330
1
100
AcDbSymbolTableRecord
100
AcDbBlockTableRecord
  2
*D46
340
0
  0
BLOCK_RECORD
  5
B3F0
330
1
100
AcDbSymbolTableRecord
100
AcDbBlockTableRecord
  2
*D47
340
0
  0
BLOCK_RECORD
  5
B408
330
1
100
AcDbSymbolTableRecord
100
AcDbBlockTableRecord
  2
*D48
340
0
  0
BLOCK_RECORD
  5
B415
330
1
100
AcDbSymbolTableRecord
100
AcDbBlockTableRecord
  2
*D49
340
0
  0
BLOCK_RECORD
  5
B422
330
1
100
AcDbSymbolTableRecord
100
AcDbBlockTableRecord
  2
*D50
340
0
  0
ENDTAB
  0
ENDSEC
  0
SECTION
  2
BLOCKS
  0
BLOCK
  5
19
330
18
100
AcDbEntity
  8
0
100
AcDbBlockBegin
  2
*MODEL_SPACE
 70
     0
 10
0.0
 20
0.0
 30
0.0
  3
*MODEL_SPACE
  1

  0
ENDBLK
  5
1A
330
18
100
AcDbEntity
  8
0
100
AcDbBlockEnd
  0
BLOCK
  5
16
330
15
100
AcDbEntity
 67
     1
  8
0
100
AcDbBlockBegin
  2
*PAPER_SPACE
 70
     0
 10
0.0
 20
0.0
 30
0.0
  3
*PAPER_SPACE
  1

  0
ENDBLK
  5
17
330
15
100
AcDbEntity
 67
     1
  8
0
100
AcDbBlockEnd
  0
BLOCK
  5
5F19
330
5F0F
100
AcDbEntity
  8
0
100
AcDbBlockBegin
  2
*D0
 70
     1
 10
0.0
 20
0.0
 30
0.0
  3
*D0
  1

  0
LINE
  5
B5ED
330
5F0F
100
AcDbEntity
  8
2
  6
Continuous
370
    -2
100
AcDbLine
 10
31469.952753991
 20
6187.855439108765
 30
0.0
 11
31469.952753991
 21
6507.79248130715
 31
0.0
  0
LINE
  5
B5EE
330
5F0F
100
AcDbEntity
  8
2
  6
Continuous
370
    -2
100
AcDbLine
 10
32669.952753991
 20
6187.855439108765
 30
0.0
 11
32669.952753991
 21
6507.79248130715
 31
0.0
  0
LINE
  5
B5EF
330
5F0F
100
AcDbEntity
  8
2
  6
Continuous
370
    -2
100
AcDbLine
 10
31529.952753991
 20
6467.792481307149
 30
0.0
 11
32609.952753991
 21
6467.792481307149
 31
0.0
  0
SOLID
  5
B5F0
330
5F0F
100
AcDbEntity
  8
2
  6
Continuous
100
AcDbTrace
 10
31529.952753991
 20
6477.792481307151
 30
0.0
 11
31529.952753991
 21
6457.792481307151
 31
0.0
 12
31469.952753991
 22
6467.792481307149
 32
0.0
 13
31469.952753991
 23
6467.792481307149
 33
0.0
  0
SOLID
  5
B5F1
330
5F0F
100
AcDbEntity
  8
2
  6
Continuous
100
AcDbTrace
 10
32609.952753991
 20
6477.792481307151
 30
0.0
 11
32609.952753991
 21
6457.792481307151
 31
0.0
 12
32669.952753991
 22
6467.792481307149
 32
0.0
 13
32669.952753991
 23
6467.792481307149
 33
0.0
  0
MTEXT
  5
B5F2
330
5F0F
100
AcDbEntity
  8
2
  6
Continuous
 62
     7
100
AcDbMText
 10
32069.952753991
 20
6517.79248130715
 30
0.0
 40
60.0
 41
0.0
 71
     5
 72
     1
  1
\A1;600
  7
JF3
 73
     1
 44
1.0
1001
ACAD
1000
MTEXTBEGIN
1070
    73
1070
     1
1070
    44
1040
1.0
1070
    74
1070
     0
1000
MTEXTEND
  0
POINT
  5
B5F3
330
5F0F
100
AcDbEntity
  8
DEFPOINTS
  6
Continuous
 62
     0
100
AcDbPoint
 10
31469.952753991
 20
6127.855439108764
 30
0.0
  0
POINT
  5
B5F4
330
5F0F
100
AcDbEntity
  8
DEFPOINTS
  6
Continuous
 62
     0
100
AcDbPoint
 10
32669.952753991
 20
6127.855439108764
 30
0.0
  0
POINT
  5
B5F5
330
5F0F
100
AcDbEntity
  8
DEFPOINTS
  6
Continuous
 62
     0
100
AcDbPoint
 10
32669.952753991
 20
6467.792481307149
 30
0.0
  0
ENDBLK
  5
5F1A
330
5F0F
100
AcDbEntity
  8
0
100
AcDbBlockEnd
  0
BLOCK
  5
5F25
330
5F1B
100
AcDbEntity
  8
0
100
AcDbBlockBegin
  2
*D1
 70
     1
 10
0.0
 20
0.0
 30
0.0
  3
*D1
  1

  0
LINE
  5
B5F6
330
5F1B
100
AcDbEntity
  8
2
  6
Continuous
370
    -2
100
AcDbLine
 10
31138.242151991
 20
5947.855439108766
 30
0.0
 11
31138.242151991
 21
6685.845728131247
 31
0.0
  0
LINE
  5
B5F7
330
5F1B
100
AcDbEntity
  8
2
  6
Continuous
370
    -2
100
AcDbLine
 10
33001.663355991
 20
5947.855439108766
 30
0.0
 11
33001.663355991
 21
6685.845728131247
 31
0.0
  0
LINE
  5
B5F8
330
5F1B
100
AcDbEntity
  8
2
  6
Continuous
370
    -2
100
AcDbLine
 10
31198.242151991
 20
6645.845728131246
 30
0.0
 11
32941.663355991
 21
6645.845728131246
 31
0.0
  0
SOLID
  5
B5F9
330
5F1B
100
AcDbEntity
  8
2
  6
Continuous
100
AcDbTrace
 10
31198.242151991
 20
6655.845728131247
 30
0.0
 11
31198.242151991
 21
6635.845728131247
 31
0.0
 12
31138.242151991
 22
6645.845728131246
 32
0.0
 13
31138.242151991
 23
6645.845728131246
 33
0.0
  0
SOLID
  5
B5FA
330
5F1B
100
AcDbEntity
  8
2
  6
Continuous
100
AcDbTrace
 10
32941.663355991
 20
6655.845728131247
 30
0.0
 11
32941.663355991
 21
6635.845728131247
 31
0.0
 12
33001.663355991
 22
6645.845728131246
 32
0.0
 13
33001.663355991
 23
6645.845728131246
 33
0.0
  0
MTEXT
  5
B5FB
330
5F1B
100
AcDbEntity
  8
2
  6
Continuous
 62
     7
100
AcDbMText
 10
32069.952753991
 20
6695.845728131246
 30
0.0
 40
60.0
 41
0.0
 71
     5
 72
     1
  1
\A1;932
  7
JF3
 73
     1
 44
1.0
1001
ACAD
1000
MTEXTBEGIN
1070
    73
1070
     1
1070
    44
1040
1.0
1070
    74
1070
     0
1000
MTEXTEND
  0
POINT
  5
B5FC
330
5F1B
100
AcDbEntity
  8
DEFPOINTS
  6
Continuous
 62
     0
100
AcDbPoint
 10
31138.242151991
 20
5887.855439108767
 30
0.0
  0
POINT
  5
B5FD
330
5F1B
100
AcDbEntity
  8
DEFPOINTS
  6
Continuous
 62
     0
100
AcDbPoint
 10
33001.663355991
 20
5887.855439108767
 30
0.0
  0
POINT
  5
B5FE
330
5F1B
100
AcDbEntity
  8
DEFPOINTS
  6
Continuous
 62
     0
100
AcDbPoint
 10
33001.663355991
 20
6645.845728131246
 30
0.0
  0
ENDBLK
  5
5F26
330
5F1B
100
AcDbEntity
  8
0
100
AcDbBlockEnd
  0
BLOCK
  5
95F2
330
95E8
100
AcDbEntity
  8
0
100
AcDbBlockBegin
  2
*D2
 70
     1
 10
0.0
 20
0.0
 30
0.0
  3
*D2
  1

  0
LINE
  5
9F07
330
95E8
100
AcDbEntity
  8
2
  6
Continuous
370
    -2
100
AcDbLine
 10
22442.43136451146
 20
9142.903112538457
 30
0.0
 11
23654.7529036918
 21
9142.903112538457
 31
0.0
  0
LINE
  5
9F08
330
95E8
100
AcDbEntity
  8
2
  6
Continuous
370
    -2
100
AcDbLine
 10
22535.82216910917
 20
8492.903112538456
 30
0.0
 11
23654.7529036918
 21
8492.903112538456
 31
0.0
  0
LINE
  5
9F09
330
95E8
100
AcDbEntity
  8
2
  6
Continuous
370
    -2
100
AcDbLine
 10
23614.7529036918
 20
9082.903112538458
 30
0.0
 11
23614.7529036918
 21
8552.903112538457
 31
0.0
  0
SOLID
  5
9F0A
330
95E8
100
AcDbEntity
  8
2
  6
Continuous
100
AcDbTrace
 10
23604.7529036918
 20
9082.903112538458
 30
0.0
 11
23624.7529036918
 21
9082.903112538458
 31
0.0
 12
23614.7529036918
 22
9142.903112538457
 32
0.0
 13
23614.7529036918
 23
9142.903112538457
 33
0.0
  0
SOLID
  5
9F0B
330
95E8
100
AcDbEntity
  8
2
  6
Continuous
100
AcDbTrace
 10
23604.7529036918
 20
8552.903112538457
 30
0.0
 11
23624.7529036918
 21
8552.903112538457
 31
0.0
 12
23614.7529036918
 22
8492.903112538456
 32
0.0
 13
23614.7529036918
 23
8492.903112538456
 33
0.0
  0
MTEXT
  5
9F0C
330
95E8
100
AcDbEntity
  8
2
  6
Continuous
 62
     7
100
AcDbMText
 10
23564.75290369179
 20
8817.903112538461
 30
0.0
 40
60.0
 41
0.0
 71
     5
 72
     1
  1
\A1;650
  7
JF3
 11
0.0000000000000001
 21
1.0
 31
0.0
 73
     1
 44
1.0
1001
ACAD
1000
MTEXTBEGIN
1070
    73
1070
     1
1070
    44
1040
1.0
1070
    74
1070
     0
1000
MTEXTEND
  0
POINT
  5
9F0D
330
95E8
100
AcDbEntity
  8
DEFPOINTS
  6
Continuous
 62
     0
100
AcDbPoint
 10
22382.43136451147
 20
9142.903112538457
 30
0.0
  0
POINT
  5
9F0E
330
95E8
100
AcDbEntity
  8
DEFPOINTS
  6
Continuous
 62
     0
100
AcDbPoint
 10
22475.82216910917
 20
8492.903112538456
 30
0.0
  0
POINT
  5
9F0F
330
95E8
100
AcDbEntity
  8
DEFPOINTS
  6
Continuous
 62
     0
100
AcDbPoint
 10
23614.7529036918
 20
8492.903112538456
 30
0.0
  0
ENDBLK
  5
95F3
330
95E8
100
AcDbEntity
  8
0
100
AcDbBlockEnd
  0
BLOCK
  5
95FE
330
95F4
100
AcDbEntity
  8
0
100
AcDbBlockBegin
  2
*D3
 70
     1
 10
0.0
 20
0.0
 30
0.0
  3
*D3
  1

  0
LINE
  5
9F10
330
95F4
100
AcDbEntity
  8
2
  6
Continuous
370
    -2
100
AcDbLine
 10
22535.82216910917
 20
7892.903112538457
 30
0.0
 11
23654.7529036918
 21
7892.903112538457
 31
0.0
  0
LINE
  5
9F11
330
95F4
100
AcDbEntity
  8
2
  6
Continuous
370
    -2
100
AcDbLine
 10
22442.43136451147
 20
7242.90311253846
 30
0.0
 11
23654.7529036918
 21
7242.90311253846
 31
0.0
  0
LINE
  5
9F12
330
95F4
100
AcDbEntity
  8
2
  6
Continuous
370
    -2
100
AcDbLine
 10
23614.7529036918
 20
7832.903112538456
 30
0.0
 11
23614.7529036918
 21
7302.903112538459
 31
0.0
  0
SOLID
  5
9F13
330
95F4
100
AcDbEntity
  8
2
  6
Continuous
100
AcDbTrace
 10
23604.7529036918
 20
7832.903112538456
 30
0.0
 11
23624.7529036918
 21
7832.903112538456
 31
0.0
 12
23614.7529036918
 22
7892.903112538457
 32
0.0
 13
23614.7529036918
 23
7892.903112538457
 33
0.0
  0
SOLID
  5
9F14
330
95F4
100
AcDbEntity
  8
2
  6
Continuous
100
AcDbTrace
 10
23604.7529036918
 20
7302.903112538459
 30
0.0
 11
23624.7529036918
 21
7302.903112538459
 31
0.0
 12
23614.7529036918
 22
7242.90311253846
 32
0.0
 13
23614.7529036918
 23
7242.90311253846
 33
0.0
  0
MTEXT
  5
9F15
330
95F4
100
AcDbEntity
  8
2
  6
Continuous
 62
     7
100
AcDbMText
 10
23564.7529036918
 20
7567.903112538461
 30
0.0
 40
60.0
 41
0.0
 71
     5
 72
     1
  1
\A1;650
  7
JF3
 11
0.0000000000000001
 21
1.0
 31
0.0
 73
     1
 44
1.0
1001
ACAD
1000
MTEXTBEGIN
1070
    73
1070
     1
1070
    44
1040
1.0
1070
    74
1070
     0
1000
MTEXTEND
  0
POINT
  5
9F16
330
95F4
100
AcDbEntity
  8
DEFPOINTS
  6
Continuous
 62
     0
100
AcDbPoint
 10
22475.82216910917
 20
7892.903112538457
 30
0.0
  0
POINT
  5
9F17
330
95F4
100
AcDbEntity
  8
DEFPOINTS
  6
Continuous
 62
     0
100
AcDbPoint
 10
22382.43136451147
 20
7242.90311253846
 30
0.0
  0
POINT
  5
9F18
330
95F4
100
AcDbEntity
  8
DEFPOINTS
  6
Continuous
 62
     0
100
AcDbPoint
 10
23614.7529036918
 20
7242.90311253846
 30
0.0
  0
ENDBLK
  5
95FF
330
95F4
100
AcDbEntity
  8
0
100
AcDbBlockEnd
  0
BLOCK
  5
960C
330
9600
100
AcDbEntity
  8
0
100
AcDbBlockBegin
  2
*D4
 70
     1
 10
0.0
 20
0.0
 30
0.0
  3
*D4
  1

  0
LINE
  5
9E62
330
9600
100
AcDbEntity
  8
2
  6
Continuous
370
    -2
100
AcDbLine
 10
22515.82216910917
 20
8492.903112538456
 30
0.0
 11
23654.7529036918
 21
8492.903112538456
 31
0.0
  0
LINE
  5
9E63
330
9600
100
AcDbEntity
  8
2
  6
Continuous
370
    -2
100
AcDbLine
 10
23165.82216910917
 20
8399.512307940756
 30
0.0
 11
23654.7529036918
 21
8399.512307940756
 31
0.0
  0
LINE
  5
9E64
330
9600
100
AcDbEntity
  8
2
  6
Continuous
370
    -2
100
AcDbLine
 10
23614.7529036918
 20
8532.903112538457
 30
0.0
 11
23614.7529036918
 21
8572.903112538458
 31
0.0
  0
LINE
  5
9E65
330
9600
100
AcDbEntity
  8
2
  6
Continuous
370
    -2
100
AcDbLine
 10
23614.7529036918
 20
8359.512307940757
 30
0.0
 11
23614.7529036918
 21
8319.512307940756
 31
0.0
  0
LINE
  5
9E66
330
9600
100
AcDbEntity
  8
2
  6
Continuous
370
    -2
100
AcDbLine
 10
23614.7529036918
 20
8492.903112538456
 30
0.0
 11
23614.7529036918
 21
8399.512307940756
 31
0.0
  0
SOLID
  5
9E67
330
9600
100
AcDbEntity
  8
2
  6
Continuous
100
AcDbTrace
 10
23608.08623702513
 20
8532.903112538457
 30
0.0
 11
23621.41957035847
 21
8532.903112538457
 31
0.0
 12
23614.7529036918
 22
8492.903112538456
 32
0.0
 13
23614.7529036918
 23
8492.903112538456
 33
0.0
  0
SOLID
  5
9E68
330
9600
100
AcDbEntity
  8
2
  6
Continuous
100
AcDbTrace
 10
23608.08623702513
 20
8359.512307940757
 30
0.0
 11
23621.41957035847
 21
8359.512307940757
 31
0.0
 12
23614.7529036918
 22
8399.512307940756
 32
0.0
 13
23614.7529036918
 23
8399.512307940756
 33
0.0
  0
MTEXT
  5
9E69
330
9600
100
AcDbEntity
  8
2
  6
Continuous
 62
     7
100
AcDbMText
 10
23564.75290369179
 20
8446.20771023961
 30
0.0
 40
60.0
 41
0.0
 71
     5
 72
     1
  1
\A1;93
  7
JF3
 11
0.0000000000000001
 21
1.0
 31
0.0
 73
     1
 44
1.0
1001
ACAD
1000
MTEXTBEGIN
1070
    73
1070
     1
1070
    44
1040
1.0
1070
    74
1070
     0
1000
MTEXTEND
  0
POINT
  5
9E6A
330
9600
100
AcDbEntity
  8
DEFPOINTS
  6
Continuous
 62
     0
100
AcDbPoint
 10
22475.82216910917
 20
8492.903112538456
 30
0.0
  0
POINT
  5
9E6B
330
9600
100
AcDbEntity
  8
DEFPOINTS
  6
Continuous
 62
     0
100
AcDbPoint
 10
23125.82216910917
 20
8399.512307940756
 30
0.0
  0
POINT
  5
9E6C
330
9600
100
AcDbEntity
  8
DEFPOINTS
  6
Continuous
 62
     0
100
AcDbPoint
 10
23614.7529036918
 20
8399.512307940756
 30
0.0
  0
ENDBLK
  5
960D
330
9600
100
AcDbEntity
  8
0
100
AcDbBlockEnd
  0
BLOCK
  5
961A
330
960E
100
AcDbEntity
  8
0
100
AcDbBlockBegin
  2
*D5
 70
     1
 10
0.0
 20
0.0
 30
0.0
  3
*D5
  1

  0
LINE
  5
9E6D
330
960E
100
AcDbEntity
  8
2
  6
Continuous
370
    -2
100
AcDbLine
 10
22515.82216910917
 20
7892.903112538457
 30
0.0
 11
23654.7529036918
 21
7892.903112538457
 31
0.0
  0
LINE
  5
9E6E
330
960E
100
AcDbEntity
  8
2
  6
Continuous
370
    -2
100
AcDbLine
 10
23165.82216910917
 20
7986.293917136156
 30
0.0
 11
23654.7529036918
 21
7986.293917136156
 31
0.0
  0
LINE
  5
9E6F
330
960E
100
AcDbEntity
  8
2
  6
Continuous
370
    -2
100
AcDbLine
 10
23614.7529036918
 20
7852.903112538456
 30
0.0
 11
23614.7529036918
 21
7812.903112538457
 31
0.0
  0
LINE
  5
9E70
330
960E
100
AcDbEntity
  8
2
  6
Continuous
370
    -2
100
AcDbLine
 10
23614.7529036918
 20
8026.293917136156
 30
0.0
 11
23614.7529036918
 21
8066.293917136155
 31
0.0
  0
LINE
  5
9E71
330
960E
100
AcDbEntity
  8
2
  6
Continuous
370
    -2
100
AcDbLine
 10
23614.7529036918
 20
7892.903112538457
 30
0.0
 11
23614.7529036918
 21
7986.293917136156
 31
0.0
  0
SOLID
  5
9E72
330
960E
100
AcDbEntity
  8
2
  6
Continuous
100
AcDbTrace
 10
23608.08623702513
 20
7852.903112538456
 30
0.0
 11
23621.41957035847
 21
7852.903112538456
 31
0.0
 12
23614.7529036918
 22
7892.903112538457
 32
0.0
 13
23614.7529036918
 23
7892.903112538457
 33
0.0
  0
SOLID
  5
9E73
330
960E
100
AcDbEntity
  8
2
  6
Continuous
100
AcDbTrace
 10
23608.08623702513
 20
8026.293917136156
 30
0.0
 11
23621.41957035847
 21
8026.293917136156
 31
0.0
 12
23614.7529036918
 22
7986.293917136156
 32
0.0
 13
23614.7529036918
 23
7986.293917136156
 33
0.0
  0
MTEXT
  5
9E74
330
960E
100
AcDbEntity
  8
2
  6
Continuous
 62
     7
100
AcDbMText
 10
23564.7529036918
 20
7939.59851483731
 30
0.0
 40
60.0
 41
0.0
 71
     5
 72
     1
  1
\A1;93
  7
JF3
 11
0.0000000000000001
 21
1.0
 31
0.0
 73
     1
 44
1.0
1001
ACAD
1000
MTEXTBEGIN
1070
    73
1070
     1
1070
    44
1040
1.0
1070
    74
1070
     0
1000
MTEXTEND
  0
POINT
  5
9E75
330
960E
100
AcDbEntity
  8
DEFPOINTS
  6
Continuous
 62
     0
100
AcDbPoint
 10
22475.82216910917
 20
7892.903112538457
 30
0.0
  0
POINT
  5
9E76
330
960E
100
AcDbEntity
  8
DEFPOINTS
  6
Continuous
 62
     0
100
AcDbPoint
 10
23125.82216910917
 20
7986.293917136156
 30
0.0
  0
POINT
  5
9E77
330
960E
100
AcDbEntity
  8
DEFPOINTS
  6
Continuous
 62
     0
100
AcDbPoint
 10
23614.7529036918
 20
7986.293917136156
 30
0.0
  0
ENDBLK
  5
961B
330
960E
100
AcDbEntity
  8
0
100
AcDbBlockEnd
  0
BLOCK
  5
9626
330
961C
100
AcDbEntity
  8
0
100
AcDbBlockBegin
  2
*D6
 70
     1
 10
0.0
 20
0.0
 30
0.0
  3
*D6
  1

  0
LINE
  5
9E78
330
961C
100
AcDbEntity
  8
2
  6
Continuous
370
    -2
100
AcDbLine
 10
23165.82216910917
 20
8399.512307940755
 30
0.0
 11
23654.7529036918
 21
8399.512307940755
 31
0.0
  0
LINE
  5
9E79
330
961C
100
AcDbEntity
  8
2
  6
Continuous
370
    -2
100
AcDbLine
 10
23165.82216910917
 20
7986.29391713616
 30
0.0
 11
23654.7529036918
 21
7986.29391713616
 31
0.0
  0
LINE
  5
9E7A
330
961C
100
AcDbEntity
  8
2
  6
Continuous
370
    -2
100
AcDbLine
 10
23614.7529036918
 20
8359.512307940756
 30
0.0
 11
23614.7529036918
 21
8026.293917136159
 31
0.0
  0
SOLID
  5
9E7B
330
961C
100
AcDbEntity
  8
2
  6
Continuous
100
AcDbTrace
 10
23608.08623702514
 20
8359.512307940756
 30
0.0
 11
23621.41957035847
 21
8359.512307940756
 31
0.0
 12
23614.7529036918
 22
8399.512307940755
 32
0.0
 13
23614.7529036918
 23
8399.512307940755
 33
0.0
  0
SOLID
  5
9E7C
330
961C
100
AcDbEntity
  8
2
  6
Continuous
100
AcDbTrace
 10
23608.08623702513
 20
8026.293917136159
 30
0.0
 11
23621.41957035847
 21
8026.293917136159
 31
0.0
 12
23614.7529036918
 22
7986.29391713616
 32
0.0
 13
23614.7529036918
 23
7986.29391713616
 33
0.0
  0
MTEXT
  5
9E7D
330
961C
100
AcDbEntity
  8
2
  6
Continuous
 62
     7
100
AcDbMText
 10
23564.7529036918
 20
8192.903112538461
 30
0.0
 40
60.0
 41
0.0
 71
     5
 72
     1
  1
\A1;413
  7
JF3
 11
0.0000000000000001
 21
1.0
 31
0.0
 73
     1
 44
1.0
1001
ACAD
1000
MTEXTBEGIN
1070
    73
1070
     1
1070
    44
1040
1.0
1070
    74
1070
     0
1000
MTEXTEND
  0
POINT
  5
9E7E
330
961C
100
AcDbEntity
  8
DEFPOINTS
  6
Continuous
 62
     0
100
AcDbPoint
 10
23125.82216910917
 20
8399.512307940755
 30
0.0
  0
POINT
  5
9E7F
330
961C
100
AcDbEntity
  8
DEFPOINTS
  6
Continuous
 62
     0
100
AcDbPoint
 10
23125.82216910917
 20
7986.29391713616
 30
0.0
  0
POINT
  5
9E80
330
961C
100
AcDbEntity
  8
DEFPOINTS
  6
Continuous
 62
     0
100
AcDbPoint
 10
23614.7529036918
 20
7986.29391713616
 30
0.0
  0
ENDBLK
  5
9627
330
961C
100
AcDbEntity
  8
0
100
AcDbBlockEnd
  0
BLOCK
  5
9632
330
9628
100
AcDbEntity
  8
0
100
AcDbBlockBegin
  2
*D7
 70
     1
 10
0.0
 20
0.0
 30
0.0
  3
*D7
  1

  0
LINE
  5
9F19
330
9628
100
AcDbEntity
  8
2
  6
Continuous
370
    -2
100
AcDbLine
 10
22442.43136451146
 20
9142.903112538455
 30
0.0
 11
23799.71857982839
 21
9142.903112538455
 31
0.0
  0
LINE
  5
9F1A
330
9628
100
AcDbEntity
  8
2
  6
Continuous
370
    -2
100
AcDbLine
 10
22442.43136451147
 20
7242.90311253846
 30
0.0
 11
23799.71857982839
 21
7242.90311253846
 31
0.0
  0
LINE
  5
9F1B
330
9628
100
AcDbEntity
  8
2
  6
Continuous
370
    -2
100
AcDbLine
 10
23759.71857982839
 20
9082.903112538456
 30
0.0
 11
23759.71857982839
 21
7302.903112538459
 31
0.0
  0
SOLID
  5
9F1C
330
9628
100
AcDbEntity
  8
2
  6
Continuous
100
AcDbTrace
 10
23749.71857982839
 20
9082.903112538456
 30
0.0
 11
23769.71857982839
 21
9082.903112538456
 31
0.0
 12
23759.71857982839
 22
9142.903112538455
 32
0.0
 13
23759.71857982839
 23
9142.903112538455
 33
0.0
  0
SOLID
  5
9F1D
330
9628
100
AcDbEntity
  8
2
  6
Continuous
100
AcDbTrace
 10
23749.71857982839
 20
7302.903112538459
 30
0.0
 11
23769.71857982839
 21
7302.903112538459
 31
0.0
 12
23759.71857982839
 22
7242.90311253846
 32
0.0
 13
23759.71857982839
 23
7242.90311253846
 33
0.0
  0
MTEXT
  5
9F1E
330
9628
100
AcDbEntity
  8
2
  6
Continuous
 62
     7
100
AcDbMText
 10
23709.71857982839
 20
8192.903112538461
 30
0.0
 40
60.0
 41
0.0
 71
     5
 72
     1
  1
\A1;1900
  7
JF3
 11
0.0000000000000001
 21
1.0
 31
0.0
 73
     1
 44
1.0
1001
ACAD
1000
MTEXTBEGIN
1070
    73
1070
     1
1070
    44
1040
1.0
1070
    74
1070
     0
1000
MTEXTEND
  0
POINT
  5
9F1F
330
9628
100
AcDbEntity
  8
DEFPOINTS
  6
Continuous
 62
     0
100
AcDbPoint
 10
22382.43136451147
 20
9142.903112538455
 30
0.0
  0
POINT
  5
9F20
330
9628
100
AcDbEntity
  8
DEFPOINTS
  6
Continuous
 62
     0
100
AcDbPoint
 10
22382.43136451147
 20
7242.90311253846
 30
0.0
  0
POINT
  5
9F21
330
9628
100
AcDbEntity
  8
DEFPOINTS
  6
Continuous
 62
     0
100
AcDbPoint
 10
23759.71857982839
 20
7242.90311253846
 30
0.0
  0
ENDBLK
  5
9633
330
9628
100
AcDbEntity
  8
0
100
AcDbBlockEnd
  0
BLOCK
  5
9640
330
9634
100
AcDbEntity
  8
0
100
AcDbBlockBegin
  2
*D8
 70
     1
 10
0.0
 20
0.0
 30
0.0
  3
*D8
  1

  0
LINE
  5
9E81
330
9634
100
AcDbEntity
  8
2
  6
Continuous
370
    -2
100
AcDbLine
 10
22382.43136451147
 20
7202.903112538461
 30
0.0
 11
22382.43136451147
 21
6743.343554996979
 31
0.0
  0
LINE
  5
9E82
330
9634
100
AcDbEntity
  8
2
  6
Continuous
370
    -2
100
AcDbLine
 10
22475.82216910917
 20
7852.903112538458
 30
0.0
 11
22475.82216910917
 21
6743.343554996979
 31
0.0
  0
LINE
  5
9E83
330
9634
100
AcDbEntity
  8
2
  6
Continuous
370
    -2
100
AcDbLine
 10
22342.43136451147
 20
6783.343554996979
 30
0.0
 11
22302.43136451147
 21
6783.343554996979
 31
0.0
  0
LINE
  5
9E84
330
9634
100
AcDbEntity
  8
2
  6
Continuous
370
    -2
100
AcDbLine
 10
22515.82216910917
 20
6783.343554996979
 30
0.0
 11
22555.82216910917
 21
6783.343554996979
 31
0.0
  0
LINE
  5
9E85
330
9634
100
AcDbEntity
  8
2
  6
Continuous
370
    -2
100
AcDbLine
 10
22382.43136451147
 20
6783.343554996979
 30
0.0
 11
22475.82216910917
 21
6783.343554996979
 31
0.0
  0
SOLID
  5
9E86
330
9634
100
AcDbEntity
  8
2
  6
Continuous
100
AcDbTrace
 10
22342.43136451147
 20
6790.010221663646
 30
0.0
 11
22342.43136451147
 21
6776.676888330311
 31
0.0
 12
22382.43136451147
 22
6783.343554996979
 32
0.0
 13
22382.43136451147
 23
6783.343554996979
 33
0.0
  0
SOLID
  5
9E87
330
9634
100
AcDbEntity
  8
2
  6
Continuous
100
AcDbTrace
 10
22515.82216910917
 20
6790.010221663646
 30
0.0
 11
22515.82216910917
 21
6776.676888330311
 31
0.0
 12
22475.82216910917
 22
6783.343554996979
 32
0.0
 13
22475.82216910917
 23
6783.343554996979
 33
0.0
  0
MTEXT
  5
9E88
330
9634
100
AcDbEntity
  8
2
  6
Continuous
 62
     7
100
AcDbMText
 10
22429.12676681032
 20
6833.343554996979
 30
0.0
 40
60.0
 41
0.0
 71
     5
 72
     1
  1
\A1;93
  7
JF3
 73
     1
 44
1.0
1001
ACAD
1000
MTEXTBEGIN
1070
    73
1070
     1
1070
    44
1040
1.0
1070
    74
1070
     0
1000
MTEXTEND
  0
POINT
  5
9E89
330
9634
100
AcDbEntity
  8
DEFPOINTS
  6
Continuous
 62
     0
100
AcDbPoint
 10
22382.43136451147
 20
7242.90311253846
 30
0.0
  0
POINT
  5
9E8A
330
9634
100
AcDbEntity
  8
DEFPOINTS
  6
Continuous
 62
     0
100
AcDbPoint
 10
22475.82216910917
 20
7892.903112538457
 30
0.0
  0
POINT
  5
9E8B
330
9634
100
AcDbEntity
  8
DEFPOINTS
  6
Continuous
 62
     0
100
AcDbPoint
 10
22475.82216910917
 20
6783.343554996979
 30
0.0
  0
ENDBLK
  5
9641
330
9634
100
AcDbEntity
  8
0
100
AcDbBlockEnd
  0
BLOCK
  5
964E
330
9642
100
AcDbEntity
  8
0
100
AcDbBlockBegin
  2
*D9
 70
     1
 10
0.0
 20
0.0
 30
0.0
  3
*D9
  1

  0
LINE
  5
9E8C
330
9642
100
AcDbEntity
  8
2
  6
Continuous
370
    -2
100
AcDbLine
 10
21875.82216910915
 20
7852.903112538458
 30
0.0
 11
21875.82216910915
 21
6743.343554996979
 31
0.0
  0
LINE
  5
9E8D
330
9642
100
AcDbEntity
  8
2
  6
Continuous
370
    -2
100
AcDbLine
 10
21969.21297370687
 20
7202.903112538459
 30
0.0
 11
21969.21297370687
 21
6743.343554996979
 31
0.0
  0
LINE
  5
9E8E
330
9642
100
AcDbEntity
  8
2
  6
Continuous
370
    -2
100
AcDbLine
 10
21835.82216910915
 20
6783.343554996978
 30
0.0
 11
21795.82216910915
 21
6783.343554996978
 31
0.0
  0
LINE
  5
9E8F
330
9642
100
AcDbEntity
  8
2
  6
Continuous
370
    -2
100
AcDbLine
 10
22009.21297370687
 20
6783.343554996978
 30
0.0
 11
22049.21297370687
 21
6783.343554996978
 31
0.0
  0
LINE
  5
9E90
330
9642
100
AcDbEntity
  8
2
  6
Continuous
370
    -2
100
AcDbLine
 10
21875.82216910915
 20
6783.343554996978
 30
0.0
 11
21969.21297370687
 21
6783.343554996978
 31
0.0
  0
SOLID
  5
9E91
330
9642
100
AcDbEntity
  8
2
  6
Continuous
100
AcDbTrace
 10
21835.82216910915
 20
6790.010221663646
 30
0.0
 11
21835.82216910915
 21
6776.676888330311
 31
0.0
 12
21875.82216910915
 22
6783.343554996978
 32
0.0
 13
21875.82216910915
 23
6783.343554996978
 33
0.0
  0
SOLID
  5
9E92
330
9642
100
AcDbEntity
  8
2
  6
Continuous
100
AcDbTrace
 10
22009.21297370687
 20
6790.010221663646
 30
0.0
 11
22009.21297370687
 21
6776.676888330311
 31
0.0
 12
21969.21297370687
 22
6783.343554996978
 32
0.0
 13
21969.21297370687
 23
6783.343554996978
 33
0.0
  0
MTEXT
  5
9E93
330
9642
100
AcDbEntity
  8
2
  6
Continuous
 62
     7
100
AcDbMText
 10
21922.51757140801
 20
6833.343554996978
 30
0.0
 40
60.0
 41
0.0
 71
     5
 72
     1
  1
\A1;93
  7
JF3
 73
     1
 44
1.0
1001
ACAD
1000
MTEXTBEGIN
1070
    73
1070
     1
1070
    44
1040
1.0
1070
    74
1070
     0
1000
MTEXTEND
  0
POINT
  5
9E94
330
9642
100
AcDbEntity
  8
DEFPOINTS
  6
Continuous
 62
     0
100
AcDbPoint
 10
21875.82216910915
 20
7892.903112538457
 30
0.0
  0
POINT
  5
9E95
330
9642
100
AcDbEntity
  8
DEFPOINTS
  6
Continuous
 62
     0
100
AcDbPoint
 10
21969.21297370687
 20
7242.90311253846
 30
0.0
  0
POINT
  5
9E96
330
9642
100
AcDbEntity
  8
DEFPOINTS
  6
Continuous
 62
     0
100
AcDbPoint
 10
21969.21297370687
 20
6783.343554996978
 30
0.0
  0
ENDBLK
  5
964F
330
9642
100
AcDbEntity
  8
0
100
AcDbBlockEnd
  0
BLOCK
  5
965A
330
9650
100
AcDbEntity
  8
0
100
AcDbBlockBegin
  2
*D10
 70
     1
 10
0.0
 20
0.0
 30
0.0
  3
*D10
  1

  0
LINE
  5
9F22
330
9650
100
AcDbEntity
  8
2
  6
Continuous
370
    -2
100
AcDbLine
 10
21225.82216910917
 20
7926.293917136158
 30
0.0
 11
21225.82216910917
 21
6743.343554996979
 31
0.0
  0
LINE
  5
9F23
330
9650
100
AcDbEntity
  8
2
  6
Continuous
370
    -2
100
AcDbLine
 10
21875.82216910915
 20
7832.903112538457
 30
0.0
 11
21875.82216910915
 21
6743.343554996979
 31
0.0
  0
LINE
  5
9F24
330
9650
100
AcDbEntity
  8
2
  6
Continuous
370
    -2
100
AcDbLine
 10
21285.82216910917
 20
6783.343554996978
 30
0.0
 11
21815.82216910916
 21
6783.343554996978
 31
0.0
  0
SOLID
  5
9F25
330
9650
100
AcDbEntity
  8
2
  6
Continuous
100
AcDbTrace
 10
21285.82216910917
 20
6793.343554996979
 30
0.0
 11
21285.82216910917
 21
6773.343554996978
 31
0.0
 12
21225.82216910917
 22
6783.343554996978
 32
0.0
 13
21225.82216910917
 23
6783.343554996978
 33
0.0
  0
SOLID
  5
9F26
330
9650
100
AcDbEntity
  8
2
  6
Continuous
100
AcDbTrace
 10
21815.82216910916
 20
6793.343554996979
 30
0.0
 11
21815.82216910916
 21
6773.343554996978
 31
0.0
 12
21875.82216910915
 22
6783.343554996978
 32
0.0
 13
21875.82216910915
 23
6783.343554996978
 33
0.0
  0
MTEXT
  5
9F27
330
9650
100
AcDbEntity
  8
2
  6
Continuous
 62
     7
100
AcDbMText
 10
21550.82216910916
 20
6833.343554996978
 30
0.0
 40
60.0
 41
0.0
 71
     5
 72
     1
  1
\A1;650
  7
JF3
 73
     1
 44
1.0
1001
ACAD
1000
MTEXTBEGIN
1070
    73
1070
     1
1070
    44
1040
1.0
1070
    74
1070
     0
1000
MTEXTEND
  0
POINT
  5
9F28
330
9650
100
AcDbEntity
  8
DEFPOINTS
  6
Continuous
 62
     0
100
AcDbPoint
 10
21225.82216910917
 20
7986.293917136157
 30
0.0
  0
POINT
  5
9F29
330
9650
100
AcDbEntity
  8
DEFPOINTS
  6
Continuous
 62
     0
100
AcDbPoint
 10
21875.82216910915
 20
7892.903112538457
 30
0.0
  0
POINT
  5
9F2A
330
9650
100
AcDbEntity
  8
DEFPOINTS
  6
Continuous
 62
     0
100
AcDbPoint
 10
21875.82216910915
 20
6783.343554996978
 30
0.0
  0
ENDBLK
  5
965B
330
9650
100
AcDbEntity
  8
0
100
AcDbBlockEnd
  0
BLOCK
  5
9666
330
965C
100
AcDbEntity
  8
0
100
AcDbBlockBegin
  2
*D11
 70
     1
 10
0.0
 20
0.0
 30
0.0
  3
*D11
  1

  0
LINE
  5
9F2B
330
965C
100
AcDbEntity
  8
2
  6
Continuous
370
    -2
100
AcDbLine
 10
22475.82216910917
 20
7832.903112538457
 30
0.0
 11
22475.82216910917
 21
6743.343554996979
 31
0.0
  0
LINE
  5
9F2C
330
965C
100
AcDbEntity
  8
2
  6
Continuous
370
    -2
100
AcDbLine
 10
23125.82216910917
 20
7926.293917136156
 30
0.0
 11
23125.82216910917
 21
6743.343554996979
 31
0.0
  0
LINE
  5
9F2D
330
965C
100
AcDbEntity
  8
2
  6
Continuous
370
    -2
100
AcDbLine
 10
22535.82216910917
 20
6783.343554996979
 30
0.0
 11
23065.82216910917
 21
6783.343554996979
 31
0.0
  0
SOLID
  5
9F2E
330
965C
100
AcDbEntity
  8
2
  6
Continuous
100
AcDbTrace
 10
22535.82216910917
 20
6793.343554996979
 30
0.0
 11
22535.82216910917
 21
6773.34355499698
 31
0.0
 12
22475.82216910917
 22
6783.343554996979
 32
0.0
 13
22475.82216910917
 23
6783.343554996979
 33
0.0
  0
SOLID
  5
9F2F
330
965C
100
AcDbEntity
  8
2
  6
Continuous
100
AcDbTrace
 10
23065.82216910917
 20
6793.343554996979
 30
0.0
 11
23065.82216910917
 21
6773.34355499698
 31
0.0
 12
23125.82216910917
 22
6783.343554996979
 32
0.0
 13
23125.82216910917
 23
6783.343554996979
 33
0.0
  0
MTEXT
  5
9F30
330
965C
100
AcDbEntity
  8
2
  6
Continuous
 62
     7
100
AcDbMText
 10
22800.82216910917
 20
6833.343554996979
 30
0.0
 40
60.0
 41
0.0
 71
     5
 72
     1
  1
\A1;650
  7
JF3
 73
     1
 44
1.0
1001
ACAD
1000
MTEXTBEGIN
1070
    73
1070
     1
1070
    44
1040
1.0
1070
    74
1070
     0
1000
MTEXTEND
  0
POINT
  5
9F31
330
965C
100
AcDbEntity
  8
DEFPOINTS
  6
Continuous
 62
     0
100
AcDbPoint
 10
22475.82216910917
 20
7892.903112538457
 30
0.0
  0
POINT
  5
9F32
330
965C
100
AcDbEntity
  8
DEFPOINTS
  6
Continuous
 62
     0
100
AcDbPoint
 10
23125.82216910917
 20
7986.293917136156
 30
0.0
  0
POINT
  5
9F33
330
965C
100
AcDbEntity
  8
DEFPOINTS
  6
Continuous
 62
     0
100
AcDbPoint
 10
23125.82216910917
 20
6783.343554996979
 30
0.0
  0
ENDBLK
  5
9667
330
965C
100
AcDbEntity
  8
0
100
AcDbBlockEnd
  0
BLOCK
  5
9672
330
9668
100
AcDbEntity
  8
0
100
AcDbBlockBegin
  2
*D12
 70
     1
 10
0.0
 20
0.0
 30
0.0
  3
*D12
  1

  0
LINE
  5
9F34
330
9668
100
AcDbEntity
  8
2
  6
Continuous
370
    -2
100
AcDbLine
 10
21225.82216910917
 20
7926.29391713616
 30
0.0
 11
21225.82216910917
 21
6605.845728131235
 31
0.0
  0
LINE
  5
9F35
330
9668
100
AcDbEntity
  8
2
  6
Continuous
370
    -2
100
AcDbLine
 10
23125.82216910917
 20
7926.29391713616
 30
0.0
 11
23125.82216910917
 21
6605.845728131235
 31
0.0
  0
LINE
  5
9F36
330
9668
100
AcDbEntity
  8
2
  6
Continuous
370
    -2
100
AcDbLine
 10
21285.82216910917
 20
6645.845728131236
 30
0.0
 11
23065.82216910917
 21
6645.845728131236
 31
0.0
  0
SOLID
  5
9F37
330
9668
100
AcDbEntity
  8
2
  6
Continuous
100
AcDbTrace
 10
21285.82216910917
 20
6655.845728131236
 30
0.0
 11
21285.82216910917
 21
6635.845728131235
 31
0.0
 12
21225.82216910917
 22
6645.845728131236
 32
0.0
 13
21225.82216910917
 23
6645.845728131236
 33
0.0
  0
SOLID
  5
9F38
330
9668
100
AcDbEntity
  8
2
  6
Continuous
100
AcDbTrace
 10
23065.82216910917
 20
6655.845728131236
 30
0.0
 11
23065.82216910917
 21
6635.845728131235
 31
0.0
 12
23125.82216910917
 22
6645.845728131236
 32
0.0
 13
23125.82216910917
 23
6645.845728131236
 33
0.0
  0
MTEXT
  5
9F39
330
9668
100
AcDbEntity
  8
2
  6
Continuous
 62
     7
100
AcDbMText
 10
22175.82216910917
 20
6695.845728131236
 30
0.0
 40
60.0
 41
0.0
 71
     5
 72
     1
  1
\A1;1900
  7
JF3
 73
     1
 44
1.0
1001
ACAD
1000
MTEXTBEGIN
1070
    73
1070
     1
1070
    44
1040
1.0
1070
    74
1070
     0
1000
MTEXTEND
  0
POINT
  5
9F3A
330
9668
100
AcDbEntity
  8
DEFPOINTS
  6
Continuous
 62
     0
100
AcDbPoint
 10
21225.82216910917
 20
7986.29391713616
 30
0.0
  0
POINT
  5
9F3B
330
9668
100
AcDbEntity
  8
DEFPOINTS
  6
Continuous
 62
     0
100
AcDbPoint
 10
23125.82216910917
 20
7986.29391713616
 30
0.0
  0
POINT
  5
9F3C
330
9668
100
AcDbEntity
  8
DEFPOINTS
  6
Continuous
 62
     0
100
AcDbPoint
 10
23125.82216910917
 20
6645.845728131236
 30
0.0
  0
ENDBLK
  5
9673
330
9668
100
AcDbEntity
  8
0
100
AcDbBlockEnd
  0
BLOCK
  5
967E
330
9674
100
AcDbEntity
  8
0
100
AcDbBlockBegin
  2
*D13
 70
     1
 10
0.0
 20
0.0
 30
0.0
  3
*D13
  1

  0
LINE
  5
9E97
330
9674
100
AcDbEntity
  8
2
  6
Continuous
370
    -2
100
AcDbLine
 10
21969.21297370687
 20
7202.903112538459
 30
0.0
 11
21969.21297370687
 21
6743.343554996979
 31
0.0
  0
LINE
  5
9E98
330
9674
100
AcDbEntity
  8
2
  6
Continuous
370
    -2
100
AcDbLine
 10
22382.43136451147
 20
7202.903112538461
 30
0.0
 11
22382.43136451147
 21
6743.343554996979
 31
0.0
  0
LINE
  5
9E99
330
9674
100
AcDbEntity
  8
2
  6
Continuous
370
    -2
100
AcDbLine
 10
22009.21297370687
 20
6783.343554996979
 30
0.0
 11
22342.43136451147
 21
6783.343554996979
 31
0.0
  0
SOLID
  5
9E9A
330
9674
100
AcDbEntity
  8
2
  6
Continuous
100
AcDbTrace
 10
22009.21297370687
 20
6790.010221663646
 30
0.0
 11
22009.21297370687
 21
6776.676888330311
 31
0.0
 12
21969.21297370687
 22
6783.343554996979
 32
0.0
 13
21969.21297370687
 23
6783.343554996979
 33
0.0
  0
SOLID
  5
9E9B
330
9674
100
AcDbEntity
  8
2
  6
Continuous
100
AcDbTrace
 10
22342.43136451147
 20
6790.010221663646
 30
0.0
 11
22342.43136451147
 21
6776.676888330311
 31
0.0
 12
22382.43136451147
 22
6783.343554996979
 32
0.0
 13
22382.43136451147
 23
6783.343554996979
 33
0.0
  0
MTEXT
  5
9E9C
330
9674
100
AcDbEntity
  8
2
  6
Continuous
 62
     7
100
AcDbMText
 10
22175.82216910917
 20
6833.343554996979
 30
0.0
 40
60.0
 41
0.0
 71
     5
 72
     1
  1
\A1;413
  7
JF3
 73
     1
 44
1.0
1001
ACAD
1000
MTEXTBEGIN
1070
    73
1070
     1
1070
    44
1040
1.0
1070
    74
1070
     0
1000
MTEXTEND
  0
POINT
  5
9E9D
330
9674
100
AcDbEntity
  8
DEFPOINTS
  6
Continuous
 62
     0
100
AcDbPoint
 10
21969.21297370687
 20
7242.90311253846
 30
0.0
  0
POINT
  5
9E9E
330
9674
100
AcDbEntity
  8
DEFPOINTS
  6
Continuous
 62
     0
100
AcDbPoint
 10
22382.43136451147
 20
7242.90311253846
 30
0.0
  0
POINT
  5
9E9F
330
9674
100
AcDbEntity
  8
DEFPOINTS
  6
Continuous
 62
     0
100
AcDbPoint
 10
22382.43136451147
 20
6783.343554996979
 30
0.0
  0
ENDBLK
  5
967F
330
9674
100
AcDbEntity
  8
0
100
AcDbBlockEnd
  0
BLOCK
  5
97D8
330
97CE
100
AcDbEntity
  8
0
100
AcDbBlockBegin
  2
*D14
 70
     1
 10
0.0
 20
0.0
 30
0.0
  3
*D14
  1

  0
LINE
  5
B449
330
97CE
100
AcDbEntity
  8
2
  6
Continuous
370
    -2
100
AcDbLine
 10
31244.25656675542
 20
9077.372241727315
 30
0.0
 11
31244.25656675542
 21
9720.788770101721
 31
0.0
  0
LINE
  5
B44A
330
97CE
100
AcDbEntity
  8
2
  6
Continuous
370
    -2
100
AcDbLine
 10
32896.13821931106
 20
9058.110645937912
 30
0.0
 11
32896.13821931106
 21
9720.788770101721
 31
0.0
  0
LINE
  5
B44B
330
97CE
100
AcDbEntity
  8
2
  6
Continuous
370
    -2
100
AcDbLine
 10
31304.25656675543
 20
9680.78877010172
 30
0.0
 11
32836.13821931106
 21
9680.78877010172
 31
0.0
  0
SOLID
  5
B44C
330
97CE
100
AcDbEntity
  8
2
  6
Continuous
100
AcDbTrace
 10
31304.25656675543
 20
9690.788770101722
 30
0.0
 11
31304.25656675543
 21
9670.788770101722
 31
0.0
 12
31244.25656675542
 22
9680.78877010172
 32
0.0
 13
31244.25656675542
 23
9680.78877010172
 33
0.0
  0
SOLID
  5
B44D
330
97CE
100
AcDbEntity
  8
2
  6
Continuous
100
AcDbTrace
 10
32836.13821931106
 20
9690.788770101722
 30
0.0
 11
32836.13821931106
 21
9670.788770101722
 31
0.0
 12
32896.13821931106
 22
9680.78877010172
 32
0.0
 13
32896.13821931106
 23
9680.78877010172
 33
0.0
  0
MTEXT
  5
B44E
330
97CE
100
AcDbEntity
  8
2
  6
Continuous
 62
     7
100
AcDbMText
 10
32070.19739303324
 20
9730.788770101721
 30
0.0
 40
60.0
 41
0.0
 71
     5
 72
     1
  1
\A1;413
  7
JF3
 73
     1
 44
1.0
1001
ACAD
1000
MTEXTBEGIN
1070
    73
1070
     1
1070
    44
1040
1.0
1070
    74
1070
     0
1000
MTEXTEND
  0
POINT
  5
B44F
330
97CE
100
AcDbEntity
  8
DEFPOINTS
  6
Continuous
 62
     0
100
AcDbPoint
 10
31244.25656675542
 20
9017.372241727315
 30
0.0
  0
POINT
  5
B450
330
97CE
100
AcDbEntity
  8
DEFPOINTS
  6
Continuous
 62
     0
100
AcDbPoint
 10
32896.13821931106
 20
8998.110645937911
 30
0.0
  0
POINT
  5
B451
330
97CE
100
AcDbEntity
  8
DEFPOINTS
  6
Continuous
 62
     0
100
AcDbPoint
 10
32896.13821931106
 20
9680.78877010172
 30
0.0
  0
ENDBLK
  5
97D9
330
97CE
100
AcDbEntity
  8
0
100
AcDbBlockEnd
  0
BLOCK
  5
A158
330
A157
100
AcDbEntity
  8
0
100
AcDbBlockBegin
  2
_OPEN
 70
     0
 10
0.0
 20
0.0
 30
0.0
  3
_OPEN
  1

  0
LINE
  5
A159
330
A157
100
AcDbEntity
  8
0
  6
ByBlock
 62
     0
100
AcDbLine
 10
-1.0
 20
0.1666666666666666
 30
0.0
 11
0.0
 21
0.0
 31
0.0
  0
LINE
  5
A15A
330
A157
100
AcDbEntity
  8
0
  6
ByBlock
 62
     0
100
AcDbLine
 10
0.0
 20
0.0
 30
0.0
 11
-1.0
 21
-0.1666666666666666
 31
0.0
  0
LINE
  5
A15B
330
A157
100
AcDbEntity
  8
0
  6
ByBlock
 62
     0
100
AcDbLine
 10
0.0
 20
0.0
 30
0.0
 11
-1.0
 21
0.0
 31
0.0
  0
ENDBLK
  5
A15C
330
A157
100
AcDbEntity
  8
0
100
AcDbBlockEnd
  0
BLOCK
  5
AB9A
330
AB99
100
AcDbEntity
  8
0
100
AcDbBlockBegin
  2
*D16
 70
     1
 10
0.0
 20
0.0
 30
0.0
  3
*D16
  1

  0
LINE
  5
B5BB
330
AB99
100
AcDbEntity
  8
2
  6
Continuous
370
    -2
100
AcDbLine
 10
27121.71947002355
 20
3225.163509395014
 30
0.0
 11
27164.21020802774
 21
3466.140459340298
 31
0.0
  0
LINE
  5
B5BC
330
AB99
100
AcDbEntity
  8
2
  6
Continuous
370
    -2
100
AcDbLine
 10
27948.95798293763
 20
3079.299040087107
 30
0.0
 11
27991.44872094182
 21
3320.275990032391
 31
0.0
  0
LINE
  5
B5BD
330
AB99
100
AcDbEntity
  8
2
  6
Continuous
370
    -2
100
AcDbLine
 10
27216.35274610179
 20
3416.329258559794
 30
0.0
 11
27925.41432865442
 21
3291.302570571918
 31
0.0
  0
MTEXT
  5
B5BE
330
AB99
100
AcDbEntity
  8
2
  6
Continuous
 62
     7
100
AcDbMText
 10
27708.21984934649
 20
3391.910680001934
 30
0.0
 40
60.0
 41
0.0
 71
     5
 72
     1
  1
\A1;\U+03C6210
  7
JF3
 11
0.9848077530122067
 21
-0.173648177666938
 31
0.0
 73
     1
 44
1.0
1001
ACAD
1000
MTEXTBEGIN
1070
    73
1070
     1
1070
    44
1040
1.0
1070
    74
1070
     0
1000
MTEXTEND
  0
SOLID
  5
B5BF
330
AB99
100
AcDbEntity
  8
2
  6
Continuous
100
AcDbTrace
 10
27218.08922787846
 20
3426.177336089916
 30
0.0
 11
27214.61626432512
 21
3406.481181029672
 31
0.0
 12
27157.26428092106
 22
3426.74814921981
 32
0.0
 13
27157.26428092106
 23
3426.74814921981
 33
0.0
  0
SOLID
  5
B5C0
330
AB99
100
AcDbEntity
  8
2
  6
Continuous
100
AcDbTrace
 10
27927.15081043108
 20
3301.150648102041
 30
0.0
 11
27923.67784687774
 21
3281.454493041796
 31
0.0
 12
27984.50279383514
 22
3280.883679911903
 32
0.0
 13
27984.50279383514
 23
3280.883679911903
 33
0.0
  0
POINT
  5
B5C1
330
AB99
100
AcDbEntity
  8
DEFPOINTS
  6
Continuous
 62
     0
100
AcDbPoint
 10
27111.30057936353
 20
3166.075044214282
 30
0.0
  0
POINT
  5
B5C2
330
AB99
100
AcDbEntity
  8
DEFPOINTS
  6
Continuous
 62
     0
100
AcDbPoint
 10
27938.53909227762
 20
3020.210574906374
 30
0.0
  0
POINT
  5
B5C3
330
AB99
100
AcDbEntity
  8
DEFPOINTS
  6
Continuous
 62
     0
100
AcDbPoint
 10
27984.50279383514
 20
3280.883679911903
 30
0.0
  0
ENDBLK
  5
AB9B
330
AB99
100
AcDbEntity
  8
0
100
AcDbBlockEnd
  0
BLOCK
  5
ABA6
330
ABA5
100
AcDbEntity
  8
0
100
AcDbBlockBegin
  2
*D17
 70
     1
 10
0.0
 20
0.0
 30
0.0
  3
*D17
  1

  0
LINE
  5
B345
330
ABA5
100
AcDbEntity
  8
2
  6
Continuous
370
    -2
100
AcDbLine
 10
27035.1424271901
 20
8675.12636082055
 30
0.0
 11
27035.1424271901
 21
8890.757654463788
 31
0.0
  0
LINE
  5
B346
330
ABA5
100
AcDbEntity
  8
2
  6
Continuous
370
    -2
100
AcDbLine
 10
27875.14242757985
 20
8675.12636082054
 30
0.0
 11
27875.14242757985
 21
8890.757654463788
 31
0.0
  0
LINE
  5
B347
330
ABA5
100
AcDbEntity
  8
2
  6
Continuous
370
    -2
100
AcDbLine
 10
27095.14242719011
 20
8850.757654463789
 30
0.0
 11
27815.14242757985
 21
8850.757654463789
 31
0.0
  0
MTEXT
  5
B348
330
ABA5
100
AcDbEntity
  8
2
  6
Continuous
 62
     7
100
AcDbMText
 10
27586.44884202241
 20
8919.640771694638
 30
0.0
 40
60.0
 41
0.0
 71
     5
 72
     1
  1
\A1;\U+03C6210
  7
JF3
 73
     1
 44
1.0
1001
ACAD
1000
MTEXTBEGIN
1070
    73
1070
     1
1070
    44
1040
1.0
1070
    74
1070
     0
1000
MTEXTEND
  0
SOLID
  5
B349
330
ABA5
100
AcDbEntity
  8
2
  6
Continuous
100
AcDbTrace
 10
27095.14242719011
 20
8860.757654463789
 30
0.0
 11
27095.14242719011
 21
8840.757654463789
 31
0.0
 12
27035.1424271901
 22
8850.757654463789
 32
0.0
 13
27035.1424271901
 23
8850.757654463789
 33
0.0
  0
SOLID
  5
B34A
330
ABA5
100
AcDbEntity
  8
2
  6
Continuous
100
AcDbTrace
 10
27815.14242757985
 20
8860.757654463789
 30
0.0
 11
27815.14242757985
 21
8840.757654463789
 31
0.0
 12
27875.14242757985
 22
8850.757654463789
 32
0.0
 13
27875.14242757985
 23
8850.757654463789
 33
0.0
  0
POINT
  5
B34B
330
ABA5
100
AcDbEntity
  8
DEFPOINTS
  6
Continuous
 62
     0
100
AcDbPoint
 10
27035.1424271901
 20
8615.12636082055
 30
0.0
  0
POINT
  5
B34C
330
ABA5
100
AcDbEntity
  8
DEFPOINTS
  6
Continuous
 62
     0
100
AcDbPoint
 10
27875.14242757985
 20
8615.126360820541
 30
0.0
  0
POINT
  5
B34D
330
ABA5
100
AcDbEntity
  8
DEFPOINTS
  6
Continuous
 62
     0
100
AcDbPoint
 10
27875.14242757985
 20
8850.757654463789
 30
0.0
  0
ENDBLK
  5
ABA7
330
ABA5
100
AcDbEntity
  8
0
100
AcDbBlockEnd
  0
BLOCK
  5
ABB2
330
ABB1
100
AcDbEntity
  8
0
100
AcDbBlockBegin
  2
*D18
 70
     1
 10
0.0
 20
0.0
 30
0.0
  3
*D18
  1

  0
LINE
  5
B562
330
ABB1
100
AcDbEntity
  8
2
  6
Continuous
370
    -2
100
AcDbLine
 10
27076.40999489247
 20
5977.354760082952
 30
0.0
 11
27097.7365177527
 21
6221.11803181142
 31
0.0
  0
LINE
  5
B563
330
ABB1
100
AcDbEntity
  8
2
  6
Continuous
370
    -2
100
AcDbLine
 10
27913.2135416778
 20
5904.143936140941
 30
0.0
 11
27934.54006453803
 21
6147.90720786941
 31
0.0
  0
LINE
  5
B564
330
ABB1
100
AcDbEntity
  8
2
  6
Continuous
370
    -2
100
AcDbLine
 10
27154.0219699283
 20
6176.040899322889
 30
0.0
 11
27871.28215294262
 21
6113.288764510599
 31
0.0
  0
MTEXT
  5
B565
330
ABB1
100
AcDbEntity
  8
2
  6
Continuous
 62
     7
100
AcDbMText
 10
27624.5714683929
 20
6194.664120628144
 30
0.0
 40
60.0
 41
0.0
 71
     5
 72
     1
  1
\A1;\U+03C6210
  7
JF3
 11
0.9961946980917446
 21
-0.0871557427476687
 31
0.0
 73
     1
 44
1.0
1001
ACAD
1000
MTEXTBEGIN
1070
    73
1070
     1
1070
    44
1040
1.0
1070
    74
1070
     0
1000
MTEXTEND
  0
SOLID
  5
B566
330
ABB1
100
AcDbEntity
  8
2
  6
Continuous
100
AcDbTrace
 10
27154.89352735577
 20
6186.002846303808
 30
0.0
 11
27153.15041250082
 21
6166.078952341973
 31
0.0
 12
27094.25028804279
 22
6181.270243887749
 32
0.0
 13
27094.25028804279
 23
6181.270243887749
 33
0.0
  0
SOLID
  5
B567
330
ABB1
100
AcDbEntity
  8
2
  6
Continuous
100
AcDbTrace
 10
27872.1537103701
 20
6123.250711491517
 30
0.0
 11
27870.41059551515
 21
6103.326817529682
 31
0.0
 12
27931.05383482813
 22
6108.059419945739
 32
0.0
 13
27931.05383482813
 23
6108.059419945739
 33
0.0
  0
POINT
  5
B568
330
ABB1
100
AcDbEntity
  8
DEFPOINTS
  6
Continuous
 62
     0
100
AcDbPoint
 10
27071.18065032761
 20
5917.583078197448
 30
0.0
  0
POINT
  5
B569
330
ABB1
100
AcDbEntity
  8
DEFPOINTS
  6
Continuous
 62
     0
100
AcDbPoint
 10
27907.98419711294
 20
5844.372254255437
 30
0.0
  0
POINT
  5
B56A
330
ABB1
100
AcDbEntity
  8
DEFPOINTS
  6
Continuous
 62
     0
100
AcDbPoint
 10
27931.05383482813
 20
6108.059419945739
 30
0.0
  0
ENDBLK
  5
ABB3
330
ABB1
100
AcDbEntity
  8
0
100
AcDbBlockEnd
  0
BLOCK
  5
AC2A
330
AC29
100
AcDbEntity
  8
0
100
AcDbBlockBegin
  2
*D19
 70
     1
 10
0.0
 20
0.0
 30
0.0
  3
*D19
  1

  0
LINE
  5
B56B
330
AC29
100
AcDbEntity
  8
2
  6
Continuous
370
    -2
100
AcDbLine
 10
27564.56073767558
 20
6738.684701833026
 30
0.0
 11
27591.09267592525
 21
7041.945569703648
 31
0.0
  0
LINE
  5
B56C
330
AC29
100
AcDbEntity
  8
2
  6
Continuous
370
    -2
100
AcDbLine
 10
27455.14248654808
 20
6748.028368999597
 30
0.0
 11
27455.1425358265
 21
7047.881303393807
 31
0.0
  0
ARC
  5
B56D
330
AC29
100
AcDbEntity
  8
2
  6
Continuous
370
    -2
100
AcDbCircle
 10
27455.14227947723
 20
5488.0283689996
 30
0.0
 40
1529.852934394228
100
AcDbArc
 50
86.49810613200237
 51
88.50187503579784
  0
SOLID
  5
B56E
330
AC29
100
AcDbEntity
  8
2
  6
Continuous
100
AcDbTrace
 10
27549.08220759375
 20
7021.673057703075
 30
0.0
 11
27548.09387354309
 21
7008.376404982103
 31
0.0
 12
27588.47799873133
 22
7012.059729190596
 32
0.0
 13
27588.47799873133
 23
7012.059729190596
 33
0.0
  0
SOLID
  5
B56F
330
AC29
100
AcDbEntity
  8
2
  6
Continuous
100
AcDbTrace
 10
27495.05195707576
 20
7010.692273802368
 30
0.0
 11
27495.22626796057
 21
7024.024467676344
 31
0.0
 12
27455.14253089624
 22
7017.881303393806
 32
0.0
 13
27455.14253089624
 23
7017.881303393806
 33
0.0
  0
MTEXT
  5
B570
330
AC29
100
AcDbEntity
  8
2
  6
Continuous
 62
     7
100
AcDbMText
 10
27524.05475599182
 20
7066.377622141844
 30
0.0
 40
60.0
 41
0.0
 71
     5
 72
     1
  1
\A1;5\U+00B0
  7
JF3
 11
0.9990482144133492
 21
-0.0436195515508634
 31
0.0
 73
     1
 44
1.0
1001
ACAD
1000
MTEXTBEGIN
1070
    73
1070
     1
1070
    44
1040
1.0
1070
    74
1070
     0
1000
MTEXTEND
  0
POINT
  5
B571
330
AC29
100
AcDbEntity
  8
DEFPOINTS
  6
Continuous
 62
     0
100
AcDbPoint
 10
27544.09556759942
 20
7015.293019741861
 30
0.0
  0
POINT
  5
B572
330
AC29
100
AcDbEntity
  8
DEFPOINTS
  6
Continuous
 62
     0
100
AcDbPoint
 10
27455.14218087206
 20
4888.028368999598
 30
0.0
  0
POINT
  5
B573
330
AC29
100
AcDbEntity
  8
DEFPOINTS
  6
Continuous
 62
     0
100
AcDbPoint
 10
27403.04772757198
 20
4892.586043095935
 30
0.0
  0
POINT
  5
B574
330
AC29
100
AcDbEntity
  8
DEFPOINTS
  6
Continuous
 62
     0
100
AcDbPoint
 10
27559.33138328773
 20
6678.913020806922
 30
0.0
  0
POINT
  5
B575
330
AC29
100
AcDbEntity
  8
DEFPOINTS
  6
Continuous
 62
     0
100
AcDbPoint
 10
27455.14247668757
 20
6688.028368999599
 30
0.0
  0
ENDBLK
  5
AC2B
330
AC29
100
AcDbEntity
  8
0
100
AcDbBlockEnd
  0
BLOCK
  5
AC38
330
AC37
100
AcDbEntity
  8
0
100
AcDbBlockBegin
  2
*D20
 70
     1
 10
0.0
 20
0.0
 30
0.0
  3
*D20
  1

  0
LINE
  5
B5C4
330
AC37
100
AcDbEntity
  8
2
  6
Continuous
370
    -2
100
AcDbLine
 10
26970.20917795415
 20
3190.953288915391
 30
0.0
 11
26587.81791910111
 21
3258.379249835921
 31
0.0
  0
LINE
  5
B5C5
330
AC37
100
AcDbEntity
  8
2
  6
Continuous
370
    -2
100
AcDbLine
 10
26796.43961116474
 20
3668.381247322208
 30
0.0
 11
26664.22317886519
 21
3691.694594034213
 31
0.0
  0
LINE
  5
B5C6
330
AC37
100
AcDbEntity
  8
2
  6
Continuous
370
    -2
100
AcDbLine
 10
26637.62912845093
 20
3310.521779723796
 30
0.0
 11
26693.19658747329
 21
3625.660196985193
 31
0.0
  0
SOLID
  5
B5C7
330
AC37
100
AcDbEntity
  8
2
  6
Continuous
100
AcDbTrace
 10
26627.78105120619
 20
3312.258263118939
 30
0.0
 11
26647.47720569567
 21
3308.785296328653
 31
0.0
 12
26627.21022808007
 22
3251.433316255348
 32
0.0
 13
26627.21022808007
 23
3251.433316255348
 33
0.0
  0
SOLID
  5
B5C8
330
AC37
100
AcDbEntity
  8
2
  6
Continuous
100
AcDbTrace
 10
26683.34851022855
 20
3627.396680380336
 30
0.0
 11
26703.04466471803
 21
3623.92371359005
 31
0.0
 12
26703.61548784415
 22
3684.74866045364
 32
0.0
 13
26703.61548784415
 23
3684.74866045364
 33
0.0
  0
MTEXT
  5
B5C9
330
AC37
100
AcDbEntity
  8
2
  6
Continuous
 62
     7
100
AcDbMText
 10
26616.1724717384
 20
3476.773405330206
 30
0.0
 40
60.0
 41
0.0
 71
     5
 72
     1
  1
\A1;110
  7
JF3
 11
0.173648339514335
 21
0.98480772447413
 31
0.0
 73
     1
 44
1.0
1001
ACAD
1000
MTEXTBEGIN
1070
    73
1070
     1
1070
    44
1040
1.0
1070
    74
1070
     0
1000
MTEXTEND
  0
POINT
  5
B5CA
330
AC37
100
AcDbEntity
  8
DEFPOINTS
  6
Continuous
 62
     0
100
AcDbPoint
 10
27029.2976414226
 20
3180.534388544531
 30
0.0
  0
POINT
  5
B5CB
330
AC37
100
AcDbEntity
  8
DEFPOINTS
  6
Continuous
 62
     0
100
AcDbPoint
 10
26855.52807463318
 20
3657.962346951347
 30
0.0
  0
POINT
  5
B5CC
330
AC37
100
AcDbEntity
  8
DEFPOINTS
  6
Continuous
 62
     0
100
AcDbPoint
 10
26703.61548784415
 20
3684.74866045364
 30
0.0
  0
ENDBLK
  5
AC39
330
AC37
100
AcDbEntity
  8
0
100
AcDbBlockEnd
  0
BLOCK
  5
AC44
330
AC43
100
AcDbEntity
  8
0
100
AcDbBlockBegin
  2
*D21
 70
     1
 10
0.0
 20
0.0
 30
0.0
  3
*D21
  1

  0
LINE
  5
B5CD
330
AC43
100
AcDbEntity
  8
2
  6
Continuous
370
    -2
100
AcDbLine
 10
27670.7734630537
 20
3920.671524897949
 30
0.0
 11
27729.47997587245
 21
4253.612383781421
 31
0.0
  0
LINE
  5
B5CE
330
AC43
100
AcDbEntity
  8
2
  6
Continuous
370
    -2
100
AcDbLine
 10
27455.14248654808
 20
3957.767488957935
 30
0.0
 11
27455.14253911225
 21
4277.61384490894
 31
0.0
  0
ARC
  5
B5CF
330
AC43
100
AcDbEntity
  8
2
  6
Continuous
370
    -2
100
AcDbCircle
 10
27455.14227947723
 20
2697.767488957928
 30
0.0
 40
1549.846355951034
100
AcDbArc
 50
81.47877897142745
 51
88.52120219637292
  0
SOLID
  5
B5D0
330
AC43
100
AcDbEntity
  8
2
  6
Continuous
100
AcDbTrace
 10
27685.86469909854
 20
4237.08494614156
 30
0.0
 11
27683.71902677543
 21
4223.925391891525
 31
0.0
 12
27724.27052568708
 22
4224.068152047186
 32
0.0
 13
27724.27052568708
 23
4224.068152047186
 33
0.0
  0
SOLID
  5
B5D1
330
AC43
100
AcDbEntity
  8
2
  6
Continuous
100
AcDbTrace
 10
27495.05317230489
 20
4240.43154659517
 30
0.0
 11
27495.22523456217
 21
4253.763769679014
 31
0.0
 12
27455.142534182
 22
4247.613844908941
 32
0.0
 13
27455.142534182
 23
4247.613844908941
 33
0.0
  0
MTEXT
  5
B5D2
330
AC43
100
AcDbEntity
  8
2
  6
Continuous
 62
     7
100
AcDbMText
 10
27594.57833883363
 20
4291.525923602576
 30
0.0
 40
60.0
 41
0.0
 71
     5
 72
     1
  1
\A1;10\U+00B0
  7
JF3
 11
0.9961946837683877
 21
-0.087155906464232
 31
0.0
 73
     1
 44
1.0
1001
ACAD
1000
MTEXTBEGIN
1070
    73
1070
     1
1070
    44
1040
1.0
1070
    74
1070
     0
1000
MTEXTEND
  0
POINT
  5
B5D3
330
AC43
100
AcDbEntity
  8
DEFPOINTS
  6
Continuous
 62
     0
100
AcDbPoint
 10
27635.0687123685
 20
4237.134308725629
 30
0.0
  0
POINT
  5
B5D4
330
AC43
100
AcDbEntity
  8
DEFPOINTS
  6
Continuous
 62
     0
100
AcDbPoint
 10
27455.14218087206
 20
2097.767488957936
 30
0.0
  0
POINT
  5
B5D5
330
AC43
100
AcDbEntity
  8
DEFPOINTS
  6
Continuous
 62
     0
100
AcDbPoint
 10
27352.53613787436
 20
2115.859702722162
 30
0.0
  0
POINT
  5
B5D6
330
AC43
100
AcDbEntity
  8
DEFPOINTS
  6
Continuous
 62
     0
100
AcDbPoint
 10
27660.35456268297
 20
3861.583061429477
 30
0.0
  0
POINT
  5
B5D7
330
AC43
100
AcDbEntity
  8
DEFPOINTS
  6
Continuous
 62
     0
100
AcDbPoint
 10
27455.14247668757
 20
3897.767488957935
 30
0.0
  0
ENDBLK
  5
AC45
330
AC43
100
AcDbEntity
  8
0
100
AcDbBlockEnd
  0
BLOCK
  5
AC5E
330
AC5D
100
AcDbEntity
  8
0
100
AcDbBlockBegin
  2
*D22
 70
     1
 10
0.0
 20
0.0
 30
0.0
  3
*D22
  1

  0
LINE
  5
B5D8
330
AC5D
100
AcDbEntity
  8
2
  6
Continuous
370
    -2
100
AcDbLine
 10
27004.96309778723
 20
3095.467679443591
 30
0.0
 11
26572.53686430214
 21
3171.71616484943
 31
0.0
  0
LINE
  5
B5D9
330
AC5D
100
AcDbEntity
  8
2
  6
Continuous
370
    -2
100
AcDbLine
 10
26970.20917795415
 20
3190.953288915391
 30
0.0
 11
26587.81791910206
 21
3258.379249835753
 31
0.0
  0
LINE
  5
B5DA
330
AC5D
100
AcDbEntity
  8
2
  6
Continuous
370
    -2
100
AcDbLine
 10
26601.51027291025
 20
3105.681767800409
 30
0.0
 11
26591.09137253939
 21
3046.59330433196
 31
0.0
  0
LINE
  5
B5DB
330
AC5D
100
AcDbEntity
  8
2
  6
Continuous
370
    -2
100
AcDbLine
 10
26637.62912845188
 20
3310.521779723629
 30
0.0
 11
26648.04802882274
 21
3369.610243192076
 31
0.0
  0
LINE
  5
B5DC
330
AC5D
100
AcDbEntity
  8
2
  6
Continuous
370
    -2
100
AcDbLine
 10
26611.92917328111
 20
3164.770231268856
 30
0.0
 11
26627.21022808102
 21
3251.43331625518
 31
0.0
  0
SOLID
  5
B5DD
330
AC5D
100
AcDbEntity
  8
2
  6
Continuous
100
AcDbTrace
 10
26591.66219566551
 20
3107.418251195552
 30
0.0
 11
26611.35835015499
 21
3103.945284405264
 31
0.0
 12
26611.92917328111
 22
3164.770231268856
 32
0.0
 13
26611.92917328111
 23
3164.770231268856
 33
0.0
  0
SOLID
  5
B5DE
330
AC5D
100
AcDbEntity
  8
2
  6
Continuous
100
AcDbTrace
 10
26627.78105120714
 20
3312.258263118772
 30
0.0
 11
26647.47720569662
 21
3308.785296328484
 31
0.0
 12
26627.21022808102
 22
3251.43331625518
 32
0.0
 13
26627.21022808102
 23
3251.43331625518
 33
0.0
  0
MTEXT
  5
B5DF
330
AC5D
100
AcDbEntity
  8
2
  6
Continuous
 62
     7
100
AcDbMText
 10
26570.32931445736
 20
3216.784190737731
 30
0.0
 40
60.0
 41
0.0
 71
     5
 72
     1
  1
\A1;22
  7
JF3
 11
0.173648339514335
 21
0.98480772447413
 31
0.0
 73
     1
 44
1.0
1001
ACAD
1000
MTEXTBEGIN
1070
    73
1070
     1
1070
    44
1040
1.0
1070
    74
1070
     0
1000
MTEXTEND
  0
POINT
  5
B5E0
330
AC5D
100
AcDbEntity
  8
DEFPOINTS
  6
Continuous
 62
     0
100
AcDbPoint
 10
27064.05156125567
 20
3085.048779072731
 30
0.0
  0
POINT
  5
B5E1
330
AC5D
100
AcDbEntity
  8
DEFPOINTS
  6
Continuous
 62
     0
100
AcDbPoint
 10
27029.2976414226
 20
3180.534388544531
 30
0.0
  0
POINT
  5
B5E2
330
AC5D
100
AcDbEntity
  8
DEFPOINTS
  6
Continuous
 62
     0
100
AcDbPoint
 10
26627.21022808102
 20
3251.43331625518
 30
0.0
  0
ENDBLK
  5
AC5F
330
AC5D
100
AcDbEntity
  8
0
100
AcDbBlockEnd
  0
BLOCK
  5
AC6C
330
AC6B
100
AcDbEntity
  8
0
100
AcDbBlockBegin
  2
*D23
 70
     1
 10
0.0
 20
0.0
 30
0.0
  3
*D23
  1

  0
LINE
  5
B595
330
AC6B
100
AcDbEntity
  8
2
  6
Continuous
370
    -2
100
AcDbLine
 10
26971.40165143347
 20
5837.976463754687
 30
0.0
 11
26520.88093466623
 21
5877.391919154355
 31
0.0
  0
LINE
  5
B596
330
AC6B
100
AcDbEntity
  8
2
  6
Continuous
370
    -2
100
AcDbLine
 10
26928.45786969993
 20
5930.069703529114
 30
0.0
 11
26528.55064002783
 21
5965.05705258656
 31
0.0
  0
LINE
  5
B597
330
AC6B
100
AcDbEntity
  8
2
  6
Continuous
370
    -2
100
AcDbLine
 10
26555.49937802518
 20
5814.134007559023
 30
0.0
 11
26550.27003346046
 21
5754.362325673507
 31
0.0
  0
LINE
  5
B598
330
AC6B
100
AcDbEntity
  8
2
  6
Continuous
370
    -2
100
AcDbLine
 10
26573.62777251623
 20
6021.342504762262
 30
0.0
 11
26578.85711708095
 21
6081.114186647779
 31
0.0
  0
LINE
  5
B599
330
AC6B
100
AcDbEntity
  8
2
  6
Continuous
370
    -2
100
AcDbLine
 10
26560.72872258991
 20
5873.905689444541
 30
0.0
 11
26568.39842795151
 21
5961.570822876745
 31
0.0
  0
SOLID
  5
B59A
330
AC6B
100
AcDbEntity
  8
2
  6
Continuous
100
AcDbTrace
 10
26545.53743104426
 20
5815.005564986478
 30
0.0
 11
26565.4613250061
 21
5813.26245013157
 31
0.0
 12
26560.72872258991
 22
5873.905689444541
 32
0.0
 13
26560.72872258991
 23
5873.905689444541
 33
0.0
  0
SOLID
  5
B59B
330
AC6B
100
AcDbEntity
  8
2
  6
Continuous
100
AcDbTrace
 10
26563.66582553531
 20
6022.214062189716
 30
0.0
 11
26583.58971949715
 21
6020.470947334809
 31
0.0
 12
26568.39842795151
 22
5961.570822876745
 32
0.0
 13
26568.39842795151
 23
5961.570822876745
 33
0.0
  0
MTEXT
  5
B59C
330
AC6B
100
AcDbEntity
  8
2
  6
Continuous
 62
     7
100
AcDbMText
 10
26514.75384036611
 20
5922.096043297916
 30
0.0
 40
60.0
 41
0.0
 71
     5
 72
     1
  1
\A1;22
  7
JF3
 11
0.0871557427453816
 21
0.9961946980919446
 31
0.0
 73
     1
 44
1.0
1001
ACAD
1000
MTEXTBEGIN
1070
    73
1070
     1
1070
    44
1040
1.0
1070
    74
1070
     0
1000
MTEXTEND
  0
POINT
  5
B59D
330
AC6B
100
AcDbEntity
  8
DEFPOINTS
  6
Continuous
 62
     0
100
AcDbPoint
 10
27031.17333331898
 20
5832.747119189964
 30
0.0
  0
POINT
  5
B59E
330
AC6B
100
AcDbEntity
  8
DEFPOINTS
  6
Continuous
 62
     0
100
AcDbPoint
 10
26988.22955158545
 20
5924.840358964392
 30
0.0
  0
POINT
  5
B59F
330
AC6B
100
AcDbEntity
  8
DEFPOINTS
  6
Continuous
 62
     0
100
AcDbPoint
 10
26568.39842795151
 20
5961.570822876745
 30
0.0
  0
ENDBLK
  5
AC6D
330
AC6B
100
AcDbEntity
  8
0
100
AcDbBlockEnd
  0
BLOCK
  5
AC7A
330
AC79
100
AcDbEntity
  8
0
100
AcDbBlockBegin
  2
*D24
 70
     1
 10
0.0
 20
0.0
 30
0.0
  3
*D24
  1

  0
LINE
  5
B5A0
330
AC79
100
AcDbEntity
  8
2
  6
Continuous
370
    -2
100
AcDbLine
 10
26928.45786969993
 20
5930.069703529114
 30
0.0
 11
26528.55064002897
 21
5965.057052586461
 31
0.0
  0
LINE
  5
B5A1
330
AC79
100
AcDbEntity
  8
2
  6
Continuous
370
    -2
100
AcDbLine
 10
26684.45910138591
 20
6453.326748442551
 30
0.0
 11
26572.12851140172
 21
6463.154401633087
 31
0.0
  0
LINE
  5
B5A2
330
AC79
100
AcDbEntity
  8
2
  6
Continuous
370
    -2
100
AcDbLine
 10
26573.62777251737
 20
6021.342504762163
 30
0.0
 11
26606.74695476068
 21
6399.896490037757
 31
0.0
  0
SOLID
  5
B5A3
330
AC79
100
AcDbEntity
  8
2
  6
Continuous
100
AcDbTrace
 10
26563.66582553645
 20
6022.214062189616
 30
0.0
 11
26583.58971949829
 21
6020.470947334708
 31
0.0
 12
26568.39842795265
 22
5961.570822876645
 32
0.0
 13
26568.39842795265
 23
5961.570822876645
 33
0.0
  0
SOLID
  5
B5A4
330
AC79
100
AcDbEntity
  8
2
  6
Continuous
100
AcDbTrace
 10
26596.78500777975
 20
6400.768047465212
 30
0.0
 11
26616.70890174159
 21
6399.024932610304
 31
0.0
 12
26611.9762993254
 22
6459.668171923273
 32
0.0
 13
26611.9762993254
 23
6459.668171923273
 33
0.0
  0
MTEXT
  5
B5A5
330
AC79
100
AcDbEntity
  8
2
  6
Continuous
 62
     7
100
AcDbMText
 10
26540.37762873443
 20
6214.977284537232
 30
0.0
 40
60.0
 41
0.0
 71
     5
 72
     1
  1
\A1;125
  7
JF3
 11
0.0871557427453816
 21
0.9961946980919446
 31
0.0
 73
     1
 44
1.0
1001
ACAD
1000
MTEXTBEGIN
1070
    73
1070
     1
1070
    44
1040
1.0
1070
    74
1070
     0
1000
MTEXTEND
  0
POINT
  5
B5A6
330
AC79
100
AcDbEntity
  8
DEFPOINTS
  6
Continuous
 62
     0
100
AcDbPoint
 10
26988.22955158545
 20
5924.840358964392
 30
0.0
  0
POINT
  5
B5A7
330
AC79
100
AcDbEntity
  8
DEFPOINTS
  6
Continuous
 62
     0
100
AcDbPoint
 10
26744.23078327143
 20
6448.097403877827
 30
0.0
  0
POINT
  5
B5A8
330
AC79
100
AcDbEntity
  8
DEFPOINTS
  6
Continuous
 62
     0
100
AcDbPoint
 10
26611.9762993254
 20
6459.668171923273
 30
0.0
  0
ENDBLK
  5
AC7B
330
AC79
100
AcDbEntity
  8
0
100
AcDbBlockEnd
  0
BLOCK
  5
AC9E
330
AC9D
100
AcDbEntity
  8
0
100
AcDbBlockBegin
  2
*D25
 70
     1
 10
0.0
 20
0.0
 30
0.0
  3
*D25
  1

  0
LINE
  5
B395
330
AC9D
100
AcDbEntity
  8
2
  6
Continuous
370
    -2
100
AcDbLine
 10
26633.32885297516
 20
9167.087884996403
 30
0.0
 11
26548.4378212865
 21
9314.123464408455
 31
0.0
  0
LINE
  5
B396
330
AC9D
100
AcDbEntity
  8
2
  6
Continuous
370
    -2
100
AcDbLine
 10
26716.46729286941
 20
9167.087884996403
 30
0.0
 11
26610.79165108428
 21
9350.123464969128
 31
0.0
  0
LINE
  5
B397
330
AC9D
100
AcDbEntity
  8
2
  6
Continuous
370
    -2
100
AcDbLine
 10
26516.47629716978
 20
9249.482448202519
 30
0.0
 11
26464.51477299392
 21
9219.482448113817
 31
0.0
  0
LINE
  5
B398
330
AC9D
100
AcDbEntity
  8
2
  6
Continuous
370
    -2
100
AcDbLine
 10
26682.75317531927
 20
9345.482448940591
 30
0.0
 11
26734.71469949512
 21
9375.482449029291
 31
0.0
  0
LINE
  5
B399
330
AC9D
100
AcDbEntity
  8
2
  6
Continuous
370
    -2
100
AcDbLine
 10
26568.43782134563
 20
9279.482448291219
 30
0.0
 11
26630.79165114341
 21
9315.482448851893
 31
0.0
  0
SOLID
  5
B39A
330
AC9D
100
AcDbEntity
  8
2
  6
Continuous
100
AcDbTrace
 10
26511.476297155
 20
9258.142702231827
 30
0.0
 11
26521.47629718456
 21
9240.822194173208
 31
0.0
 12
26568.43782134563
 22
9279.482448291219
 32
0.0
 13
26568.43782134563
 23
9279.482448291219
 33
0.0
  0
SOLID
  5
B39B
330
AC9D
100
AcDbEntity
  8
2
  6
Continuous
100
AcDbTrace
 10
26677.75317530448
 20
9354.1427029699
 30
0.0
 11
26687.75317533405
 21
9336.822194911283
 31
0.0
 12
26630.79165114341
 22
9315.482448851893
 32
0.0
 13
26630.79165114341
 23
9315.482448851893
 33
0.0
  0
MTEXT
  5
B39C
330
AC9D
100
AcDbEntity
  8
2
  6
Continuous
 62
     7
100
AcDbMText
 10
26574.6147361706
 20
9340.7837187181
 30
0.0
 40
60.0
 41
0.0
 71
     5
 72
     1
  1
\A1;18
  7
JF3
 11
0.8660254029309133
 21
0.5000000014783494
 31
0.0
 73
     1
 44
1.0
1001
ACAD
1000
MTEXTBEGIN
1070
    73
1070
     1
1070
    44
1040
1.0
1070
    74
1070
     0
1000
MTEXTEND
  0
POINT
  5
B39D
330
AC9D
100
AcDbEntity
  8
DEFPOINTS
  6
Continuous
 62
     0
100
AcDbPoint
 10
26663.32885306386
 20
9115.126360820548
 30
0.0
  0
POINT
  5
B39E
330
AC9D
100
AcDbEntity
  8
DEFPOINTS
  6
Continuous
 62
     0
100
AcDbPoint
 10
26746.46729295811
 20
9115.126360820548
 30
0.0
  0
POINT
  5
B39F
330
AC9D
100
AcDbEntity
  8
DEFPOINTS
  6
Continuous
 62
     0
100
AcDbPoint
 10
26630.79165114341
 20
9315.482448851893
 30
0.0
  0
ENDBLK
  5
AC9F
330
AC9D
100
AcDbEntity
  8
0
100
AcDbBlockEnd
  0
BLOCK
  5
ACAC
330
ACAB
100
AcDbEntity
  8
0
100
AcDbBlockBegin
  2
*D26
 70
     1
 10
0.0
 20
0.0
 30
0.0
  3
*D26
  1

  0
LINE
  5
B5E3
330
ACAB
100
AcDbEntity
  8
2
  6
Continuous
370
    -2
100
AcDbLine
 10
28715.1424438192
 20
3697.767488957937
 30
0.0
 11
29202.12515135392
 21
3697.767488957937
 31
0.0
  0
LINE
  5
B5E4
330
ACAB
100
AcDbEntity
  8
2
  6
Continuous
370
    -2
100
AcDbLine
 10
28715.1424438192
 20
2297.767488957937
 30
0.0
 11
29202.12515135392
 21
2297.767488957937
 31
0.0
  0
LINE
  5
B5E5
330
ACAB
100
AcDbEntity
  8
2
  6
Continuous
370
    -2
100
AcDbLine
 10
29172.12515135392
 20
3657.767488957937
 30
0.0
 11
29172.12515135392
 21
2337.767488957937
 31
0.0
  0
SOLID
  5
B5E6
330
ACAB
100
AcDbEntity
  8
2
  6
Continuous
100
AcDbTrace
 10
29165.45848468725
 20
3657.767488957937
 30
0.0
 11
29178.79181802059
 21
3657.767488957937
 31
0.0
 12
29172.12515135392
 22
3697.767488957937
 32
0.0
 13
29172.12515135392
 23
3697.767488957937
 33
0.0
  0
SOLID
  5
B5E7
330
ACAB
100
AcDbEntity
  8
2
  6
Continuous
100
AcDbTrace
 10
29165.45848468725
 20
2337.767488957937
 30
0.0
 11
29178.79181802059
 21
2337.767488957937
 31
0.0
 12
29172.12515135392
 22
2297.767488957937
 32
0.0
 13
29172.12515135392
 23
2297.767488957937
 33
0.0
  0
MTEXT
  5
B5E8
330
ACAB
100
AcDbEntity
  8
2
  6
Continuous
 62
     7
100
AcDbMText
 10
29122.12515135392
 20
2997.767488957941
 30
0.0
 40
60.0
 41
0.0
 71
     5
 72
     1
  1
\A1;350
  7
JF3
 11
0.0000000000000001
 21
1.0
 31
0.0
 73
     1
 44
1.0
1001
ACAD
1000
MTEXTBEGIN
1070
    73
1070
     1
1070
    44
1040
1.0
1070
    74
1070
     0
1000
MTEXTEND
  0
POINT
  5
B5E9
330
ACAB
100
AcDbEntity
  8
DEFPOINTS
  6
Continuous
 62
     0
100
AcDbPoint
 10
28655.1424438192
 20
3697.767488957937
 30
0.0
  0
POINT
  5
B5EA
330
ACAB
100
AcDbEntity
  8
DEFPOINTS
  6
Continuous
 62
     0
100
AcDbPoint
 10
28655.1424438192
 20
2297.767488957937
 30
0.0
  0
POINT
  5
B5EB
330
ACAB
100
AcDbEntity
  8
DEFPOINTS
  6
Continuous
 62
     0
100
AcDbPoint
 10
29172.12515135392
 20
2297.767488957937
 30
0.0
  0
ENDBLK
  5
ACAD
330
ACAB
100
AcDbEntity
  8
0
100
AcDbBlockEnd
  0
BLOCK
  5
ACD0
330
ACCF
100
AcDbEntity
  8
0
100
AcDbBlockBegin
  2
*D27
 70
     1
 10
0.0
 20
0.0
 30
0.0
  3
*D27
  1

  0
LINE
  5
B5B2
330
ACCF
100
AcDbEntity
  8
2
  6
Continuous
370
    -2
100
AcDbLine
 10
28715.14244381919
 20
6488.0283689996
 30
0.0
 11
29202.12515135391
 21
6488.0283689996
 31
0.0
  0
LINE
  5
B5B3
330
ACCF
100
AcDbEntity
  8
2
  6
Continuous
370
    -2
100
AcDbLine
 10
28715.14244381919
 20
5088.028368999601
 30
0.0
 11
29202.12515135391
 21
5088.028368999601
 31
0.0
  0
LINE
  5
B5B4
330
ACCF
100
AcDbEntity
  8
2
  6
Continuous
370
    -2
100
AcDbLine
 10
29172.12515135391
 20
6448.0283689996
 30
0.0
 11
29172.12515135391
 21
5128.028368999601
 31
0.0
  0
SOLID
  5
B5B5
330
ACCF
100
AcDbEntity
  8
2
  6
Continuous
100
AcDbTrace
 10
29165.45848468724
 20
6448.0283689996
 30
0.0
 11
29178.79181802058
 21
6448.0283689996
 31
0.0
 12
29172.12515135391
 22
6488.0283689996
 32
0.0
 13
29172.12515135391
 23
6488.0283689996
 33
0.0
  0
SOLID
  5
B5B6
330
ACCF
100
AcDbEntity
  8
2
  6
Continuous
100
AcDbTrace
 10
29165.45848468724
 20
5128.028368999601
 30
0.0
 11
29178.79181802058
 21
5128.028368999601
 31
0.0
 12
29172.12515135391
 22
5088.028368999601
 32
0.0
 13
29172.12515135391
 23
5088.028368999601
 33
0.0
  0
MTEXT
  5
B5B7
330
ACCF
100
AcDbEntity
  8
2
  6
Continuous
 62
     7
100
AcDbMText
 10
29122.12515135391
 20
5788.028368999604
 30
0.0
 40
60.0
 41
0.0
 71
     5
 72
     1
  1
\A1;350
  7
JF3
 11
0.0000000000000001
 21
1.0
 31
0.0
 73
     1
 44
1.0
1001
ACAD
1000
MTEXTBEGIN
1070
    73
1070
     1
1070
    44
1040
1.0
1070
    74
1070
     0
1000
MTEXTEND
  0
POINT
  5
B5B8
330
ACCF
100
AcDbEntity
  8
DEFPOINTS
  6
Continuous
 62
     0
100
AcDbPoint
 10
28655.14244381919
 20
6488.0283689996
 30
0.0
  0
POINT
  5
B5B9
330
ACCF
100
AcDbEntity
  8
DEFPOINTS
  6
Continuous
 62
     0
100
AcDbPoint
 10
28655.14244381919
 20
5088.028368999601
 30
0.0
  0
POINT
  5
B5BA
330
ACCF
100
AcDbEntity
  8
DEFPOINTS
  6
Continuous
 62
     0
100
AcDbPoint
 10
29172.12515135391
 20
5088.028368999601
 30
0.0
  0
ENDBLK
  5
ACD1
330
ACCF
100
AcDbEntity
  8
0
100
AcDbBlockEnd
  0
BLOCK
  5
ACDC
330
ACDB
100
AcDbEntity
  8
0
100
AcDbBlockBegin
  2
*D28
 70
     1
 10
0.0
 20
0.0
 30
0.0
  3
*D28
  1

  0
LINE
  5
B3B2
330
ACDB
100
AcDbEntity
  8
2
  6
Continuous
370
    -2
100
AcDbLine
 10
28715.14244381918
 20
9215.126360820544
 30
0.0
 11
29202.12515135391
 21
9215.126360820544
 31
0.0
  0
LINE
  5
B3B3
330
ACDB
100
AcDbEntity
  8
2
  6
Continuous
370
    -2
100
AcDbLine
 10
28715.14244381919
 20
7815.126360820548
 30
0.0
 11
29202.12515135391
 21
7815.126360820548
 31
0.0
  0
LINE
  5
B3B4
330
ACDB
100
AcDbEntity
  8
2
  6
Continuous
370
    -2
100
AcDbLine
 10
29172.12515135391
 20
9175.126360820545
 30
0.0
 11
29172.12515135391
 21
7855.126360820548
 31
0.0
  0
SOLID
  5
B3B5
330
ACDB
100
AcDbEntity
  8
2
  6
Continuous
100
AcDbTrace
 10
29165.45848468725
 20
9175.126360820545
 30
0.0
 11
29178.79181802058
 21
9175.126360820545
 31
0.0
 12
29172.12515135391
 22
9215.126360820544
 32
0.0
 13
29172.12515135391
 23
9215.126360820544
 33
0.0
  0
SOLID
  5
B3B6
330
ACDB
100
AcDbEntity
  8
2
  6
Continuous
100
AcDbTrace
 10
29165.45848468724
 20
7855.126360820548
 30
0.0
 11
29178.79181802058
 21
7855.126360820548
 31
0.0
 12
29172.12515135391
 22
7815.126360820548
 32
0.0
 13
29172.12515135391
 23
7815.126360820548
 33
0.0
  0
MTEXT
  5
B3B7
330
ACDB
100
AcDbEntity
  8
2
  6
Continuous
 62
     7
100
AcDbMText
 10
29122.12515135391
 20
8515.126360820552
 30
0.0
 40
60.0
 41
0.0
 71
     5
 72
     1
  1
\A1;350
  7
JF3
 11
0.0000000000000001
 21
1.0
 31
0.0
 73
     1
 44
1.0
1001
ACAD
1000
MTEXTBEGIN
1070
    73
1070
     1
1070
    44
1040
1.0
1070
    74
1070
     0
1000
MTEXTEND
  0
POINT
  5
B3B8
330
ACDB
100
AcDbEntity
  8
DEFPOINTS
  6
Continuous
 62
     0
100
AcDbPoint
 10
28655.14244381918
 20
9215.126360820546
 30
0.0
  0
POINT
  5
B3B9
330
ACDB
100
AcDbEntity
  8
DEFPOINTS
  6
Continuous
 62
     0
100
AcDbPoint
 10
28655.14244381919
 20
7815.126360820548
 30
0.0
  0
POINT
  5
B3BA
330
ACDB
100
AcDbEntity
  8
DEFPOINTS
  6
Continuous
 62
     0
100
AcDbPoint
 10
29172.12515135391
 20
7815.126360820548
 30
0.0
  0
ENDBLK
  5
ACDD
330
ACDB
100
AcDbEntity
  8
0
100
AcDbBlockEnd
  0
BLOCK
  5
ACF4
330
ACF3
100
AcDbEntity
  8
0
100
AcDbBlockBegin
  2
*D29
 70
     1
 10
0.0
 20
0.0
 30
0.0
  3
*D29
  1

  0
LINE
  5
B3BB
330
ACF3
100
AcDbEntity
  8
2
  6
Continuous
370
    -2
100
AcDbLine
 10
28715.14244381918
 20
9215.126360820544
 30
0.0
 11
29054.27985128408
 21
9215.126360820544
 31
0.0
  0
LINE
  5
B3BC
330
ACF3
100
AcDbEntity
  8
2
  6
Continuous
370
    -2
100
AcDbLine
 10
28306.95562720005
 20
9115.126360820546
 30
0.0
 11
29054.27985128408
 21
9115.126360820545
 31
0.0
  0
LINE
  5
B3BD
330
ACF3
100
AcDbEntity
  8
2
  6
Continuous
370
    -2
100
AcDbLine
 10
29024.27985128408
 20
9255.126360820545
 30
0.0
 11
29024.27985128408
 21
9295.126360820544
 31
0.0
  0
LINE
  5
B3BE
330
ACF3
100
AcDbEntity
  8
2
  6
Continuous
370
    -2
100
AcDbLine
 10
29024.27985128408
 20
9075.126360820545
 30
0.0
 11
29024.27985128408
 21
9035.126360820544
 31
0.0
  0
LINE
  5
B3BF
330
ACF3
100
AcDbEntity
  8
2
  6
Continuous
370
    -2
100
AcDbLine
 10
29024.27985128408
 20
9215.126360820544
 30
0.0
 11
29024.27985128408
 21
9115.126360820545
 31
0.0
  0
SOLID
  5
B3C0
330
ACF3
100
AcDbEntity
  8
2
  6
Continuous
100
AcDbTrace
 10
29017.61318461741
 20
9255.126360820545
 30
0.0
 11
29030.94651795074
 21
9255.126360820545
 31
0.0
 12
29024.27985128408
 22
9215.126360820544
 32
0.0
 13
29024.27985128408
 23
9215.126360820544
 33
0.0
  0
SOLID
  5
B3C1
330
ACF3
100
AcDbEntity
  8
2
  6
Continuous
100
AcDbTrace
 10
29017.61318461741
 20
9075.126360820545
 30
0.0
 11
29030.94651795074
 21
9075.126360820545
 31
0.0
 12
29024.27985128408
 22
9115.126360820545
 32
0.0
 13
29024.27985128408
 23
9115.126360820545
 33
0.0
  0
MTEXT
  5
B3C2
330
ACF3
100
AcDbEntity
  8
2
  6
Continuous
 62
     7
100
AcDbMText
 10
28974.27985128407
 20
9165.126360820549
 30
0.0
 40
60.0
 41
0.0
 71
     5
 72
     1
  1
\A1;25
  7
JF3
 11
0.0000000000000001
 21
1.0
 31
0.0
 73
     1
 44
1.0
1001
ACAD
1000
MTEXTBEGIN
1070
    73
1070
     1
1070
    44
1040
1.0
1070
    74
1070
     0
1000
MTEXTEND
  0
POINT
  5
B3C3
330
ACF3
100
AcDbEntity
  8
DEFPOINTS
  6
Continuous
 62
     0
100
AcDbPoint
 10
28655.14244381918
 20
9215.126360820546
 30
0.0
  0
POINT
  5
B3C4
330
ACF3
100
AcDbEntity
  8
DEFPOINTS
  6
Continuous
 62
     0
100
AcDbPoint
 10
28246.95562720005
 20
9115.126360820546
 30
0.0
  0
POINT
  5
B3C5
330
ACF3
100
AcDbEntity
  8
DEFPOINTS
  6
Continuous
 62
     0
100
AcDbPoint
 10
29024.27985128408
 20
9115.126360820545
 30
0.0
  0
ENDBLK
  5
ACF5
330
ACF3
100
AcDbEntity
  8
0
100
AcDbBlockEnd
  0
BLOCK
  5
AD02
330
AD01
100
AcDbEntity
  8
0
100
AcDbBlockBegin
  2
*D30
 70
     1
 10
0.0
 20
0.0
 30
0.0
  3
*D30
  1

  0
LINE
  5
B3C6
330
AD01
100
AcDbEntity
  8
2
  6
Continuous
370
    -2
100
AcDbLine
 10
28306.95562720005
 20
9115.126360820546
 30
0.0
 11
29054.27985128408
 21
9115.126360820545
 31
0.0
  0
LINE
  5
B3C7
330
AD01
100
AcDbEntity
  8
2
  6
Continuous
370
    -2
100
AcDbLine
 10
28018.28049439532
 20
8615.126360820536
 30
0.0
 11
29054.27985128408
 21
8615.126360820534
 31
0.0
  0
LINE
  5
B3C8
330
AD01
100
AcDbEntity
  8
2
  6
Continuous
370
    -2
100
AcDbLine
 10
29024.27985128408
 20
9075.126360820545
 30
0.0
 11
29024.27985128408
 21
8655.126360820533
 31
0.0
  0
SOLID
  5
B3C9
330
AD01
100
AcDbEntity
  8
2
  6
Continuous
100
AcDbTrace
 10
29017.61318461741
 20
9075.126360820545
 30
0.0
 11
29030.94651795074
 21
9075.126360820545
 31
0.0
 12
29024.27985128408
 22
9115.126360820545
 32
0.0
 13
29024.27985128408
 23
9115.126360820545
 33
0.0
  0
SOLID
  5
B3CA
330
AD01
100
AcDbEntity
  8
2
  6
Continuous
100
AcDbTrace
 10
29017.61318461741
 20
8655.126360820533
 30
0.0
 11
29030.94651795074
 21
8655.126360820533
 31
0.0
 12
29024.27985128408
 22
8615.126360820534
 32
0.0
 13
29024.27985128408
 23
8615.126360820534
 33
0.0
  0
MTEXT
  5
B3CB
330
AD01
100
AcDbEntity
  8
2
  6
Continuous
 62
     7
100
AcDbMText
 10
28974.27985128407
 20
8865.126360820545
 30
0.0
 40
60.0
 41
0.0
 71
     5
 72
     1
  1
\A1;125
  7
JF3
 11
0.0000000000000001
 21
1.0
 31
0.0
 73
     1
 44
1.0
1001
ACAD
1000
MTEXTBEGIN
1070
    73
1070
     1
1070
    44
1040
1.0
1070
    74
1070
     0
1000
MTEXTEND
  0
POINT
  5
B3CC
330
AD01
100
AcDbEntity
  8
DEFPOINTS
  6
Continuous
 62
     0
100
AcDbPoint
 10
28246.95562720005
 20
9115.126360820546
 30
0.0
  0
POINT
  5
B3CD
330
AD01
100
AcDbEntity
  8
DEFPOINTS
  6
Continuous
 62
     0
100
AcDbPoint
 10
27958.28049439532
 20
8615.126360820536
 30
0.0
  0
POINT
  5
B3CE
330
AD01
100
AcDbEntity
  8
DEFPOINTS
  6
Continuous
 62
     0
100
AcDbPoint
 10
29024.27985128408
 20
8615.126360820534
 30
0.0
  0
ENDBLK
  5
AD03
330
AD01
100
AcDbEntity
  8
0
100
AcDbBlockEnd
  0
BLOCK
  5
AD0E
330
AD0D
100
AcDbEntity
  8
0
100
AcDbBlockBegin
  2
*D31
 70
     1
 10
0.0
 20
0.0
 30
0.0
  3
*D31
  1

  0
LINE
  5
B3CF
330
AD0D
100
AcDbEntity
  8
2
  6
Continuous
370
    -2
100
AcDbLine
 10
28018.28049439532
 20
8615.126360820536
 30
0.0
 11
29054.27985128408
 21
8615.126360820534
 31
0.0
  0
LINE
  5
B3D0
330
AD0D
100
AcDbEntity
  8
2
  6
Continuous
370
    -2
100
AcDbLine
 10
27967.47367102169
 20
8527.126360820536
 30
0.0
 11
29054.27985128408
 21
8527.126360820533
 31
0.0
  0
LINE
  5
B3D1
330
AD0D
100
AcDbEntity
  8
2
  6
Continuous
370
    -2
100
AcDbLine
 10
29024.27985128408
 20
8655.126360820533
 30
0.0
 11
29024.27985128408
 21
8695.126360820534
 31
0.0
  0
LINE
  5
B3D2
330
AD0D
100
AcDbEntity
  8
2
  6
Continuous
370
    -2
100
AcDbLine
 10
29024.27985128408
 20
8487.126360820534
 30
0.0
 11
29024.27985128408
 21
8447.126360820533
 31
0.0
  0
LINE
  5
B3D3
330
AD0D
100
AcDbEntity
  8
2
  6
Continuous
370
    -2
100
AcDbLine
 10
29024.27985128408
 20
8615.126360820534
 30
0.0
 11
29024.27985128408
 21
8527.126360820533
 31
0.0
  0
SOLID
  5
B3D4
330
AD0D
100
AcDbEntity
  8
2
  6
Continuous
100
AcDbTrace
 10
29017.61318461741
 20
8655.126360820533
 30
0.0
 11
29030.94651795074
 21
8655.126360820533
 31
0.0
 12
29024.27985128408
 22
8615.126360820534
 32
0.0
 13
29024.27985128408
 23
8615.126360820534
 33
0.0
  0
SOLID
  5
B3D5
330
AD0D
100
AcDbEntity
  8
2
  6
Continuous
100
AcDbTrace
 10
29017.61318461741
 20
8487.126360820534
 30
0.0
 11
29030.94651795074
 21
8487.126360820534
 31
0.0
 12
29024.27985128408
 22
8527.126360820533
 32
0.0
 13
29024.27985128408
 23
8527.126360820533
 33
0.0
  0
MTEXT
  5
B3D6
330
AD0D
100
AcDbEntity
  8
2
  6
Continuous
 62
     7
100
AcDbMText
 10
28974.27985128407
 20
8571.126360820539
 30
0.0
 40
60.0
 41
0.0
 71
     5
 72
     1
  1
\A1;22
  7
JF3
 11
0.0000000000000001
 21
1.0
 31
0.0
 73
     1
 44
1.0
1001
ACAD
1000
MTEXTBEGIN
1070
    73
1070
     1
1070
    44
1040
1.0
1070
    74
1070
     0
1000
MTEXTEND
  0
POINT
  5
B3D7
330
AD0D
100
AcDbEntity
  8
DEFPOINTS
  6
Continuous
 62
     0
100
AcDbPoint
 10
27958.28049439532
 20
8615.126360820536
 30
0.0
  0
POINT
  5
B3D8
330
AD0D
100
AcDbEntity
  8
DEFPOINTS
  6
Continuous
 62
     0
100
AcDbPoint
 10
27907.47367102169
 20
8527.126360820536
 30
0.0
  0
POINT
  5
B3D9
330
AD0D
100
AcDbEntity
  8
DEFPOINTS
  6
Continuous
 62
     0
100
AcDbPoint
 10
29024.27985128408
 20
8527.126360820533
 30
0.0
  0
ENDBLK
  5
AD0F
330
AD0D
100
AcDbEntity
  8
0
100
AcDbBlockEnd
  0
BLOCK
  5
AD76
330
AD75
100
AcDbEntity
  8
0
100
AcDbBlockBegin
  2
*D32
 70
     1
 10
0.0
 20
0.0
 30
0.0
  3
*D32
  1

  0
LINE
  5
B23A
330
AD75
100
AcDbEntity
  8
2
  6
Continuous
370
    -2
100
AcDbLine
 10
21225.82216910916
 20
3560.428300316232
 30
0.0
 11
21225.82216910916
 21
4120.053360653264
 31
0.0
  0
LINE
  5
B23B
330
AD75
100
AcDbEntity
  8
2
  6
Continuous
370
    -2
100
AcDbLine
 10
23125.82216910917
 20
3560.428300316236
 30
0.0
 11
23125.82216910917
 21
4120.053360653264
 31
0.0
  0
LINE
  5
B23C
330
AD75
100
AcDbEntity
  8
2
  6
Continuous
370
    -2
100
AcDbLine
 10
21265.82216910916
 20
4080.053360653265
 30
0.0
 11
23085.82216910917
 21
4080.053360653265
 31
0.0
  0
SOLID
  5
B23D
330
AD75
100
AcDbEntity
  8
2
  6
Continuous
100
AcDbTrace
 10
21265.82216910916
 20
4086.720027319932
 30
0.0
 11
21265.82216910916
 21
4073.386693986599
 31
0.0
 12
21225.82216910916
 22
4080.053360653265
 32
0.0
 13
21225.82216910916
 23
4080.053360653265
 33
0.0
  0
SOLID
  5
B23E
330
AD75
100
AcDbEntity
  8
2
  6
Continuous
100
AcDbTrace
 10
23085.82216910917
 20
4086.720027319932
 30
0.0
 11
23085.82216910917
 21
4073.386693986599
 31
0.0
 12
23125.82216910917
 22
4080.053360653265
 32
0.0
 13
23125.82216910917
 23
4080.053360653265
 33
0.0
  0
MTEXT
  5
B23F
330
AD75
100
AcDbEntity
  8
2
  6
Continuous
 62
     7
100
AcDbMText
 10
22175.82216910916
 20
4130.053360653265
 30
0.0
 40
60.0
 41
0.0
 71
     5
 72
     1
  1
\A1;1900
  7
JF3
 73
     1
 44
1.0
1001
ACAD
1000
MTEXTBEGIN
1070
    73
1070
     1
1070
    44
1040
1.0
1070
    74
1070
     0
1000
MTEXTEND
  0
POINT
  5
B240
330
AD75
100
AcDbEntity
  8
DEFPOINTS
  6
Continuous
 62
     0
100
AcDbPoint
 10
21225.82216910916
 20
3520.428300316232
 30
0.0
  0
POINT
  5
B241
330
AD75
100
AcDbEntity
  8
DEFPOINTS
  6
Continuous
 62
     0
100
AcDbPoint
 10
23125.82216910917
 20
3520.428300316235
 30
0.0
  0
POINT
  5
B242
330
AD75
100
AcDbEntity
  8
DEFPOINTS
  6
Continuous
 62
     0
100
AcDbPoint
 10
23125.82216910917
 20
4080.053360653265
 30
0.0
  0
ENDBLK
  5
AD77
330
AD75
100
AcDbEntity
  8
0
100
AcDbBlockEnd
  0
BLOCK
  5
AD82
330
AD81
100
AcDbEntity
  8
0
100
AcDbBlockBegin
  2
*D33
 70
     1
 10
0.0
 20
0.0
 30
0.0
  3
*D33
  1

  0
LINE
  5
B243
330
AD81
100
AcDbEntity
  8
2
  6
Continuous
370
    -2
100
AcDbLine
 10
21875.82216910918
 20
3674.797265833465
 30
0.0
 11
21875.82216910918
 21
3995.867562965467
 31
0.0
  0
LINE
  5
B244
330
AD81
100
AcDbEntity
  8
2
  6
Continuous
370
    -2
100
AcDbLine
 10
22475.82216910916
 20
3672.497265833476
 30
0.0
 11
22475.82216910916
 21
3995.867562965467
 31
0.0
  0
LINE
  5
B245
330
AD81
100
AcDbEntity
  8
2
  6
Continuous
370
    -2
100
AcDbLine
 10
21915.82216910918
 20
3955.867562965467
 30
0.0
 11
22435.82216910916
 21
3955.867562965467
 31
0.0
  0
SOLID
  5
B246
330
AD81
100
AcDbEntity
  8
2
  6
Continuous
100
AcDbTrace
 10
21915.82216910918
 20
3962.534229632133
 30
0.0
 11
21915.82216910918
 21
3949.200896298801
 31
0.0
 12
21875.82216910918
 22
3955.867562965467
 32
0.0
 13
21875.82216910918
 23
3955.867562965467
 33
0.0
  0
SOLID
  5
B247
330
AD81
100
AcDbEntity
  8
2
  6
Continuous
100
AcDbTrace
 10
22435.82216910916
 20
3962.534229632133
 30
0.0
 11
22435.82216910916
 21
3949.200896298801
 31
0.0
 12
22475.82216910916
 22
3955.867562965467
 32
0.0
 13
22475.82216910916
 23
3955.867562965467
 33
0.0
  0
MTEXT
  5
B248
330
AD81
100
AcDbEntity
  8
2
  6
Continuous
 62
     7
100
AcDbMText
 10
22175.82216910917
 20
4005.867562965467
 30
0.0
 40
60.0
 41
0.0
 71
     5
 72
     1
  1
\A1;600
  7
JF3
 73
     1
 44
1.0
1001
ACAD
1000
MTEXTBEGIN
1070
    73
1070
     1
1070
    44
1040
1.0
1070
    74
1070
     0
1000
MTEXTEND
  0
POINT
  5
B249
330
AD81
100
AcDbEntity
  8
DEFPOINTS
  6
Continuous
 62
     0
100
AcDbPoint
 10
21875.82216910918
 20
3634.797265833465
 30
0.0
  0
POINT
  5
B24A
330
AD81
100
AcDbEntity
  8
DEFPOINTS
  6
Continuous
 62
     0
100
AcDbPoint
 10
22475.82216910916
 20
3632.497265833477
 30
0.0
  0
POINT
  5
B24B
330
AD81
100
AcDbEntity
  8
DEFPOINTS
  6
Continuous
 62
     0
100
AcDbPoint
 10
22475.82216910916
 20
3955.867562965467
 30
0.0
  0
ENDBLK
  5
AD83
330
AD81
100
AcDbEntity
  8
0
100
AcDbBlockEnd
  0
BLOCK
  5
ADDE
330
ADDD
100
AcDbEntity
  8
0
100
AcDbBlockBegin
  2
*D34
 70
     1
 10
0.0
 20
0.0
 30
0.0
  3
*D34
  1

  0
LINE
  5
B24C
330
ADDD
100
AcDbEntity
  8
2
  6
Continuous
370
    -2
100
AcDbLine
 10
21225.82216910916
 20
3560.428300316234
 30
0.0
 11
21225.82216910916
 21
3995.867562965467
 31
0.0
  0
LINE
  5
B24D
330
ADDD
100
AcDbEntity
  8
2
  6
Continuous
370
    -2
100
AcDbLine
 10
21875.82216910918
 20
3674.797265833465
 30
0.0
 11
21875.82216910918
 21
3995.867562965467
 31
0.0
  0
LINE
  5
B24E
330
ADDD
100
AcDbEntity
  8
2
  6
Continuous
370
    -2
100
AcDbLine
 10
21265.82216910916
 20
3955.867562965467
 30
0.0
 11
21835.82216910918
 21
3955.867562965467
 31
0.0
  0
SOLID
  5
B24F
330
ADDD
100
AcDbEntity
  8
2
  6
Continuous
100
AcDbTrace
 10
21265.82216910916
 20
3962.534229632133
 30
0.0
 11
21265.82216910916
 21
3949.200896298801
 31
0.0
 12
21225.82216910916
 22
3955.867562965467
 32
0.0
 13
21225.82216910916
 23
3955.867562965467
 33
0.0
  0
SOLID
  5
B250
330
ADDD
100
AcDbEntity
  8
2
  6
Continuous
100
AcDbTrace
 10
21835.82216910918
 20
3962.534229632133
 30
0.0
 11
21835.82216910918
 21
3949.200896298801
 31
0.0
 12
21875.82216910918
 22
3955.867562965467
 32
0.0
 13
21875.82216910918
 23
3955.867562965467
 33
0.0
  0
MTEXT
  5
B251
330
ADDD
100
AcDbEntity
  8
2
  6
Continuous
 62
     7
100
AcDbMText
 10
21550.82216910917
 20
4005.867562965467
 30
0.0
 40
60.0
 41
0.0
 71
     5
 72
     1
  1
\A1;650
  7
JF3
 73
     1
 44
1.0
1001
ACAD
1000
MTEXTBEGIN
1070
    73
1070
     1
1070
    44
1040
1.0
1070
    74
1070
     0
1000
MTEXTEND
  0
POINT
  5
B252
330
ADDD
100
AcDbEntity
  8
DEFPOINTS
  6
Continuous
 62
     0
100
AcDbPoint
 10
21225.82216910916
 20
3520.428300316234
 30
0.0
  0
POINT
  5
B253
330
ADDD
100
AcDbEntity
  8
DEFPOINTS
  6
Continuous
 62
     0
100
AcDbPoint
 10
21875.82216910918
 20
3634.797265833465
 30
0.0
  0
POINT
  5
B254
330
ADDD
100
AcDbEntity
  8
DEFPOINTS
  6
Continuous
 62
     0
100
AcDbPoint
 10
21875.82216910918
 20
3955.867562965467
 30
0.0
  0
ENDBLK
  5
ADDF
330
ADDD
100
AcDbEntity
  8
0
100
AcDbBlockEnd
  0
BLOCK
  5
AE1C
330
AE1B
100
AcDbEntity
  8
0
100
AcDbBlockBegin
  2
*D35
 70
     1
 10
0.0
 20
0.0
 30
0.0
  3
*D35
  1

  0
LINE
  5
B255
330
AE1B
100
AcDbEntity
  8
2
  6
Continuous
370
    -2
100
AcDbLine
 10
22515.82216910916
 20
3632.497265833477
 30
0.0
 11
23843.33807147
 21
3632.497265833476
 31
0.0
  0
LINE
  5
B256
330
AE1B
100
AcDbEntity
  8
2
  6
Continuous
370
    -2
100
AcDbLine
 10
23165.82216910917
 20
3282.497265833477
 30
0.0
 11
23843.33807147
 21
3282.497265833476
 31
0.0
  0
LINE
  5
B257
330
AE1B
100
AcDbEntity
  8
2
  6
Continuous
370
    -2
100
AcDbLine
 10
23803.33807147
 20
3592.497265833476
 30
0.0
 11
23803.33807147
 21
3322.497265833476
 31
0.0
  0
SOLID
  5
B258
330
AE1B
100
AcDbEntity
  8
2
  6
Continuous
100
AcDbTrace
 10
23796.67140480333
 20
3592.497265833476
 30
0.0
 11
23810.00473813667
 21
3592.497265833476
 31
0.0
 12
23803.33807147
 22
3632.497265833476
 32
0.0
 13
23803.33807147
 23
3632.497265833476
 33
0.0
  0
SOLID
  5
B259
330
AE1B
100
AcDbEntity
  8
2
  6
Continuous
100
AcDbTrace
 10
23796.67140480333
 20
3322.497265833476
 30
0.0
 11
23810.00473813667
 21
3322.497265833476
 31
0.0
 12
23803.33807147
 22
3282.497265833476
 32
0.0
 13
23803.33807147
 23
3282.497265833476
 33
0.0
  0
MTEXT
  5
B25A
330
AE1B
100
AcDbEntity
  8
2
  6
Continuous
 62
     7
100
AcDbMText
 10
23753.33807147
 20
3457.49726583348
 30
0.0
 40
60.0
 41
0.0
 71
     5
 72
     1
  1
\A1;350
  7
JF3
 11
0.0000000000000001
 21
1.0
 31
0.0
 73
     1
 44
1.0
1001
ACAD
1000
MTEXTBEGIN
1070
    73
1070
     1
1070
    44
1040
1.0
1070
    74
1070
     0
1000
MTEXTEND
  0
POINT
  5
B25B
330
AE1B
100
AcDbEntity
  8
DEFPOINTS
  6
Continuous
 62
     0
100
AcDbPoint
 10
22475.82216910916
 20
3632.497265833477
 30
0.0
  0
POINT
  5
B25C
330
AE1B
100
AcDbEntity
  8
DEFPOINTS
  6
Continuous
 62
     0
100
AcDbPoint
 10
23125.82216910917
 20
3282.497265833477
 30
0.0
  0
POINT
  5
B25D
330
AE1B
100
AcDbEntity
  8
DEFPOINTS
  6
Continuous
 62
     0
100
AcDbPoint
 10
23803.33807147
 20
3282.497265833476
 30
0.0
  0
ENDBLK
  5
AE1D
330
AE1B
100
AcDbEntity
  8
0
100
AcDbBlockEnd
  0
BLOCK
  5
AE28
330
AE27
100
AcDbEntity
  8
0
100
AcDbBlockBegin
  2
*D36
 70
     1
 10
0.0
 20
0.0
 30
0.0
  3
*D36
  1

  0
LINE
  5
B25E
330
AE27
100
AcDbEntity
  8
2
  6
Continuous
370
    -2
100
AcDbLine
 10
22475.82216910916
 20
3672.497265833476
 30
0.0
 11
22475.82216910916
 21
3995.867562965467
 31
0.0
  0
LINE
  5
B25F
330
AE27
100
AcDbEntity
  8
2
  6
Continuous
370
    -2
100
AcDbLine
 10
23125.82216910917
 20
3560.428300316236
 30
0.0
 11
23125.82216910917
 21
3995.867562965467
 31
0.0
  0
LINE
  5
B260
330
AE27
100
AcDbEntity
  8
2
  6
Continuous
370
    -2
100
AcDbLine
 10
22515.82216910916
 20
3955.867562965467
 30
0.0
 11
23085.82216910917
 21
3955.867562965467
 31
0.0
  0
SOLID
  5
B261
330
AE27
100
AcDbEntity
  8
2
  6
Continuous
100
AcDbTrace
 10
22515.82216910916
 20
3962.534229632133
 30
0.0
 11
22515.82216910916
 21
3949.200896298801
 31
0.0
 12
22475.82216910916
 22
3955.867562965467
 32
0.0
 13
22475.82216910916
 23
3955.867562965467
 33
0.0
  0
SOLID
  5
B262
330
AE27
100
AcDbEntity
  8
2
  6
Continuous
100
AcDbTrace
 10
23085.82216910917
 20
3962.534229632133
 30
0.0
 11
23085.82216910917
 21
3949.200896298801
 31
0.0
 12
23125.82216910917
 22
3955.867562965467
 32
0.0
 13
23125.82216910917
 23
3955.867562965467
 33
0.0
  0
MTEXT
  5
B263
330
AE27
100
AcDbEntity
  8
2
  6
Continuous
 62
     7
100
AcDbMText
 10
22800.82216910916
 20
4005.867562965467
 30
0.0
 40
60.0
 41
0.0
 71
     5
 72
     1
  1
\A1;650
  7
JF3
 73
     1
 44
1.0
1001
ACAD
1000
MTEXTBEGIN
1070
    73
1070
     1
1070
    44
1040
1.0
1070
    74
1070
     0
1000
MTEXTEND
  0
POINT
  5
B264
330
AE27
100
AcDbEntity
  8
DEFPOINTS
  6
Continuous
 62
     0
100
AcDbPoint
 10
22475.82216910916
 20
3632.497265833477
 30
0.0
  0
POINT
  5
B265
330
AE27
100
AcDbEntity
  8
DEFPOINTS
  6
Continuous
 62
     0
100
AcDbPoint
 10
23125.82216910917
 20
3520.428300316235
 30
0.0
  0
POINT
  5
B266
330
AE27
100
AcDbEntity
  8
DEFPOINTS
  6
Continuous
 62
     0
100
AcDbPoint
 10
23125.82216910917
 20
3955.867562965467
 30
0.0
  0
ENDBLK
  5
AE29
330
AE27
100
AcDbEntity
  8
0
100
AcDbBlockEnd
  0
BLOCK
  5
AE34
330
AE33
100
AcDbEntity
  8
0
100
AcDbBlockBegin
  2
*D37
 70
     1
 10
0.0
 20
0.0
 30
0.0
  3
*D37
  1

  0
LINE
  5
B267
330
AE33
100
AcDbEntity
  8
2
  6
Continuous
370
    -2
100
AcDbLine
 10
22515.82216910916
 20
3632.497265833477
 30
0.0
 11
23690.89009577851
 21
3632.497265833476
 31
0.0
  0
LINE
  5
B268
330
AE33
100
AcDbEntity
  8
2
  6
Continuous
370
    -2
100
AcDbLine
 10
23165.82216910917
 20
3520.428300316235
 30
0.0
 11
23690.89009577851
 21
3520.428300316235
 31
0.0
  0
LINE
  5
B269
330
AE33
100
AcDbEntity
  8
2
  6
Continuous
370
    -2
100
AcDbLine
 10
23650.89009577851
 20
3672.497265833476
 30
0.0
 11
23650.89009577851
 21
3712.497265833476
 31
0.0
  0
LINE
  5
B26A
330
AE33
100
AcDbEntity
  8
2
  6
Continuous
370
    -2
100
AcDbLine
 10
23650.89009577851
 20
3480.428300316236
 30
0.0
 11
23650.89009577851
 21
3440.428300316235
 31
0.0
  0
MTEXT
  5
B26B
330
AE33
100
AcDbEntity
  8
2
  6
Continuous
 62
     7
100
AcDbMText
 10
23586.96026486903
 20
3707.871362113364
 30
0.0
 40
60.0
 41
0.0
 71
     5
 72
     1
  1
\A1;112
  7
JF3
 11
0.0000000000000001
 21
1.0
 31
0.0
 73
     1
 44
1.0
1001
ACAD
1000
MTEXTBEGIN
1070
    73
1070
     1
1070
    44
1040
1.0
1070
    74
1070
     0
1000
MTEXTEND
  0
LINE
  5
B26C
330
AE33
100
AcDbEntity
  8
2
  6
Continuous
370
    -2
100
AcDbLine
 10
23650.89009577851
 20
3632.497265833476
 30
0.0
 11
23650.89009577851
 21
3520.428300316235
 31
0.0
  0
SOLID
  5
B26D
330
AE33
100
AcDbEntity
  8
2
  6
Continuous
100
AcDbTrace
 10
23644.22342911184
 20
3672.497265833476
 30
0.0
 11
23657.55676244517
 21
3672.497265833476
 31
0.0
 12
23650.89009577851
 22
3632.497265833476
 32
0.0
 13
23650.89009577851
 23
3632.497265833476
 33
0.0
  0
SOLID
  5
B26E
330
AE33
100
AcDbEntity
  8
2
  6
Continuous
100
AcDbTrace
 10
23644.22342911184
 20
3480.428300316236
 30
0.0
 11
23657.55676244517
 21
3480.428300316236
 31
0.0
 12
23650.89009577851
 22
3520.428300316235
 32
0.0
 13
23650.89009577851
 23
3520.428300316235
 33
0.0
  0
POINT
  5
B26F
330
AE33
100
AcDbEntity
  8
DEFPOINTS
  6
Continuous
 62
     0
100
AcDbPoint
 10
22475.82216910916
 20
3632.497265833477
 30
0.0
  0
POINT
  5
B270
330
AE33
100
AcDbEntity
  8
DEFPOINTS
  6
Continuous
 62
     0
100
AcDbPoint
 10
23125.82216910917
 20
3520.428300316235
 30
0.0
  0
POINT
  5
B271
330
AE33
100
AcDbEntity
  8
DEFPOINTS
  6
Continuous
 62
     0
100
AcDbPoint
 10
23650.89009577851
 20
3520.428300316235
 30
0.0
  0
ENDBLK
  5
AE35
330
AE33
100
AcDbEntity
  8
0
100
AcDbBlockEnd
  0
BLOCK
  5
AE42
330
AE41
100
AcDbEntity
  8
0
100
AcDbBlockBegin
  2
*D38
 70
     1
 10
0.0
 20
0.0
 30
0.0
  3
*D38
  1

  0
LINE
  5
B272
330
AE41
100
AcDbEntity
  8
2
  6
Continuous
370
    -2
100
AcDbLine
 10
23165.82216910917
 20
3520.428300316235
 30
0.0
 11
23690.8900957785
 21
3520.428300316235
 31
0.0
  0
LINE
  5
B273
330
AE41
100
AcDbEntity
  8
2
  6
Continuous
370
    -2
100
AcDbLine
 10
23165.82216910917
 20
3282.497265833477
 30
0.0
 11
23690.8900957785
 21
3282.497265833476
 31
0.0
  0
LINE
  5
B274
330
AE41
100
AcDbEntity
  8
2
  6
Continuous
370
    -2
100
AcDbLine
 10
23650.8900957785
 20
3480.428300316236
 30
0.0
 11
23650.8900957785
 21
3322.497265833476
 31
0.0
  0
SOLID
  5
B275
330
AE41
100
AcDbEntity
  8
2
  6
Continuous
100
AcDbTrace
 10
23644.22342911183
 20
3480.428300316236
 30
0.0
 11
23657.55676244516
 21
3480.428300316236
 31
0.0
 12
23650.8900957785
 22
3520.428300316235
 32
0.0
 13
23650.8900957785
 23
3520.428300316235
 33
0.0
  0
SOLID
  5
B276
330
AE41
100
AcDbEntity
  8
2
  6
Continuous
100
AcDbTrace
 10
23644.22342911183
 20
3322.497265833476
 30
0.0
 11
23657.55676244516
 21
3322.497265833476
 31
0.0
 12
23650.8900957785
 22
3282.497265833476
 32
0.0
 13
23650.8900957785
 23
3282.497265833476
 33
0.0
  0
MTEXT
  5
B277
330
AE41
100
AcDbEntity
  8
2
  6
Continuous
 62
     7
100
AcDbMText
 10
23600.8900957785
 20
3401.46278307486
 30
0.0
 40
60.0
 41
0.0
 71
     5
 72
     1
  1
\A1;238
  7
JF3
 11
0.0000000000000001
 21
1.0
 31
0.0
 73
     1
 44
1.0
1001
ACAD
1000
MTEXTBEGIN
1070
    73
1070
     1
1070
    44
1040
1.0
1070
    74
1070
     0
1000
MTEXTEND
  0
POINT
  5
B278
330
AE41
100
AcDbEntity
  8
DEFPOINTS
  6
Continuous
 62
     0
100
AcDbPoint
 10
23125.82216910917
 20
3520.428300316235
 30
0.0
  0
POINT
  5
B279
330
AE41
100
AcDbEntity
  8
DEFPOINTS
  6
Continuous
 62
     0
100
AcDbPoint
 10
23125.82216910917
 20
3282.497265833477
 30
0.0
  0
POINT
  5
B27A
330
AE41
100
AcDbEntity
  8
DEFPOINTS
  6
Continuous
 62
     0
100
AcDbPoint
 10
23650.8900957785
 20
3282.497265833476
 30
0.0
  0
ENDBLK
  5
AE43
330
AE41
100
AcDbEntity
  8
0
100
AcDbBlockEnd
  0
BLOCK
  5
B298
330
B297
100
AcDbEntity
  8
0
100
AcDbBlockBegin
  2
*D39
 70
     1
 10
0.0
 20
0.0
 30
0.0
  3
*D39
  1

  0
LINE
  5
B2ED
330
B297
100
AcDbEntity
  8
2
  6
Continuous
370
    -2
100
AcDbLine
 10
21225.82216910918
 20
1980.588338021112
 30
0.0
 11
21225.82216910918
 21
2540.213398358146
 31
0.0
  0
LINE
  5
B2EE
330
B297
100
AcDbEntity
  8
2
  6
Continuous
370
    -2
100
AcDbLine
 10
23125.82216910918
 20
1980.588338021116
 30
0.0
 11
23125.82216910918
 21
2540.213398358146
 31
0.0
  0
LINE
  5
B2EF
330
B297
100
AcDbEntity
  8
2
  6
Continuous
370
    -2
100
AcDbLine
 10
21265.82216910918
 20
2500.213398358146
 30
0.0
 11
23085.82216910918
 21
2500.213398358146
 31
0.0
  0
SOLID
  5
B2F0
330
B297
100
AcDbEntity
  8
2
  6
Continuous
100
AcDbTrace
 10
21265.82216910918
 20
2506.880065024813
 30
0.0
 11
21265.82216910918
 21
2493.54673169148
 31
0.0
 12
21225.82216910918
 22
2500.213398358146
 32
0.0
 13
21225.82216910918
 23
2500.213398358146
 33
0.0
  0
SOLID
  5
B2F1
330
B297
100
AcDbEntity
  8
2
  6
Continuous
100
AcDbTrace
 10
23085.82216910918
 20
2506.880065024813
 30
0.0
 11
23085.82216910918
 21
2493.54673169148
 31
0.0
 12
23125.82216910918
 22
2500.213398358146
 32
0.0
 13
23125.82216910918
 23
2500.213398358146
 33
0.0
  0
MTEXT
  5
B2F2
330
B297
100
AcDbEntity
  8
2
  6
Continuous
 62
     7
100
AcDbMText
 10
22175.82216910917
 20
2550.213398358146
 30
0.0
 40
60.0
 41
0.0
 71
     5
 72
     1
  1
\A1;1900
  7
JF3
 73
     1
 44
1.0
1001
ACAD
1000
MTEXTBEGIN
1070
    73
1070
     1
1070
    44
1040
1.0
1070
    74
1070
     0
1000
MTEXTEND
  0
POINT
  5
B2F3
330
B297
100
AcDbEntity
  8
DEFPOINTS
  6
Continuous
 62
     0
100
AcDbPoint
 10
21225.82216910918
 20
1940.588338021112
 30
0.0
  0
POINT
  5
B2F4
330
B297
100
AcDbEntity
  8
DEFPOINTS
  6
Continuous
 62
     0
100
AcDbPoint
 10
23125.82216910918
 20
1940.588338021116
 30
0.0
  0
POINT
  5
B2F5
330
B297
100
AcDbEntity
  8
DEFPOINTS
  6
Continuous
 62
     0
100
AcDbPoint
 10
23125.82216910918
 20
2500.213398358146
 30
0.0
  0
ENDBLK
  5
B299
330
B297
100
AcDbEntity
  8
0
100
AcDbBlockEnd
  0
BLOCK
  5
B2A4
330
B2A3
100
AcDbEntity
  8
0
100
AcDbBlockBegin
  2
*D40
 70
     1
 10
0.0
 20
0.0
 30
0.0
  3
*D40
  1

  0
LINE
  5
B2F6
330
B2A3
100
AcDbEntity
  8
2
  6
Continuous
370
    -2
100
AcDbLine
 10
21875.82216910919
 20
2094.957303538345
 30
0.0
 11
21875.82216910919
 21
2416.027600670348
 31
0.0
  0
LINE
  5
B2F7
330
B2A3
100
AcDbEntity
  8
2
  6
Continuous
370
    -2
100
AcDbLine
 10
22475.82216910918
 20
2092.657303538357
 30
0.0
 11
22475.82216910918
 21
2416.027600670348
 31
0.0
  0
LINE
  5
B2F8
330
B2A3
100
AcDbEntity
  8
2
  6
Continuous
370
    -2
100
AcDbLine
 10
21915.82216910919
 20
2376.027600670348
 30
0.0
 11
22435.82216910918
 21
2376.027600670348
 31
0.0
  0
SOLID
  5
B2F9
330
B2A3
100
AcDbEntity
  8
2
  6
Continuous
100
AcDbTrace
 10
21915.82216910919
 20
2382.694267337015
 30
0.0
 11
21915.82216910919
 21
2369.360934003681
 31
0.0
 12
21875.82216910919
 22
2376.027600670348
 32
0.0
 13
21875.82216910919
 23
2376.027600670348
 33
0.0
  0
SOLID
  5
B2FA
330
B2A3
100
AcDbEntity
  8
2
  6
Continuous
100
AcDbTrace
 10
22435.82216910918
 20
2382.694267337015
 30
0.0
 11
22435.82216910918
 21
2369.360934003681
 31
0.0
 12
22475.82216910918
 22
2376.027600670348
 32
0.0
 13
22475.82216910918
 23
2376.027600670348
 33
0.0
  0
MTEXT
  5
B2FB
330
B2A3
100
AcDbEntity
  8
2
  6
Continuous
 62
     7
100
AcDbMText
 10
22175.82216910918
 20
2426.027600670348
 30
0.0
 40
60.0
 41
0.0
 71
     5
 72
     1
  1
\A1;600
  7
JF3
 73
     1
 44
1.0
1001
ACAD
1000
MTEXTBEGIN
1070
    73
1070
     1
1070
    44
1040
1.0
1070
    74
1070
     0
1000
MTEXTEND
  0
POINT
  5
B2FC
330
B2A3
100
AcDbEntity
  8
DEFPOINTS
  6
Continuous
 62
     0
100
AcDbPoint
 10
21875.82216910919
 20
2054.957303538346
 30
0.0
  0
POINT
  5
B2FD
330
B2A3
100
AcDbEntity
  8
DEFPOINTS
  6
Continuous
 62
     0
100
AcDbPoint
 10
22475.82216910918
 20
2052.657303538357
 30
0.0
  0
POINT
  5
B2FE
330
B2A3
100
AcDbEntity
  8
DEFPOINTS
  6
Continuous
 62
     0
100
AcDbPoint
 10
22475.82216910918
 20
2376.027600670348
 30
0.0
  0
ENDBLK
  5
B2A5
330
B2A3
100
AcDbEntity
  8
0
100
AcDbBlockEnd
  0
BLOCK
  5
B2B0
330
B2AF
100
AcDbEntity
  8
0
100
AcDbBlockBegin
  2
*D41
 70
     1
 10
0.0
 20
0.0
 30
0.0
  3
*D41
  1

  0
LINE
  5
B2FF
330
B2AF
100
AcDbEntity
  8
2
  6
Continuous
370
    -2
100
AcDbLine
 10
21225.82216910918
 20
1980.588338021114
 30
0.0
 11
21225.82216910918
 21
2416.027600670348
 31
0.0
  0
LINE
  5
B300
330
B2AF
100
AcDbEntity
  8
2
  6
Continuous
370
    -2
100
AcDbLine
 10
21875.82216910919
 20
2094.957303538345
 30
0.0
 11
21875.82216910919
 21
2416.027600670348
 31
0.0
  0
LINE
  5
B301
330
B2AF
100
AcDbEntity
  8
2
  6
Continuous
370
    -2
100
AcDbLine
 10
21265.82216910918
 20
2376.027600670348
 30
0.0
 11
21835.82216910919
 21
2376.027600670348
 31
0.0
  0
SOLID
  5
B302
330
B2AF
100
AcDbEntity
  8
2
  6
Continuous
100
AcDbTrace
 10
21265.82216910918
 20
2382.694267337015
 30
0.0
 11
21265.82216910918
 21
2369.360934003681
 31
0.0
 12
21225.82216910918
 22
2376.027600670348
 32
0.0
 13
21225.82216910918
 23
2376.027600670348
 33
0.0
  0
SOLID
  5
B303
330
B2AF
100
AcDbEntity
  8
2
  6
Continuous
100
AcDbTrace
 10
21835.82216910919
 20
2382.694267337015
 30
0.0
 11
21835.82216910919
 21
2369.360934003681
 31
0.0
 12
21875.82216910919
 22
2376.027600670348
 32
0.0
 13
21875.82216910919
 23
2376.027600670348
 33
0.0
  0
MTEXT
  5
B304
330
B2AF
100
AcDbEntity
  8
2
  6
Continuous
 62
     7
100
AcDbMText
 10
21550.82216910918
 20
2426.027600670348
 30
0.0
 40
60.0
 41
0.0
 71
     5
 72
     1
  1
\A1;650
  7
JF3
 73
     1
 44
1.0
1001
ACAD
1000
MTEXTBEGIN
1070
    73
1070
     1
1070
    44
1040
1.0
1070
    74
1070
     0
1000
MTEXTEND
  0
POINT
  5
B305
330
B2AF
100
AcDbEntity
  8
DEFPOINTS
  6
Continuous
 62
     0
100
AcDbPoint
 10
21225.82216910918
 20
1940.588338021114
 30
0.0
  0
POINT
  5
B306
330
B2AF
100
AcDbEntity
  8
DEFPOINTS
  6
Continuous
 62
     0
100
AcDbPoint
 10
21875.82216910919
 20
2054.957303538346
 30
0.0
  0
POINT
  5
B307
330
B2AF
100
AcDbEntity
  8
DEFPOINTS
  6
Continuous
 62
     0
100
AcDbPoint
 10
21875.82216910919
 20
2376.027600670348
 30
0.0
  0
ENDBLK
  5
B2B1
330
B2AF
100
AcDbEntity
  8
0
100
AcDbBlockEnd
  0
BLOCK
  5
B2BC
330
B2BB
100
AcDbEntity
  8
0
100
AcDbBlockBegin
  2
*D42
 70
     1
 10
0.0
 20
0.0
 30
0.0
  3
*D42
  1

  0
LINE
  5
B308
330
B2BB
100
AcDbEntity
  8
2
  6
Continuous
370
    -2
100
AcDbLine
 10
22515.82216910918
 20
2052.657303538357
 30
0.0
 11
23843.33807147001
 21
2052.657303538357
 31
0.0
  0
LINE
  5
B309
330
B2BB
100
AcDbEntity
  8
2
  6
Continuous
370
    -2
100
AcDbLine
 10
23165.82216910918
 20
1702.657303538357
 30
0.0
 11
23843.33807147001
 21
1702.657303538357
 31
0.0
  0
LINE
  5
B30A
330
B2BB
100
AcDbEntity
  8
2
  6
Continuous
370
    -2
100
AcDbLine
 10
23803.33807147001
 20
2012.657303538357
 30
0.0
 11
23803.33807147001
 21
1742.657303538357
 31
0.0
  0
SOLID
  5
B30B
330
B2BB
100
AcDbEntity
  8
2
  6
Continuous
100
AcDbTrace
 10
23796.67140480334
 20
2012.657303538357
 30
0.0
 11
23810.00473813668
 21
2012.657303538357
 31
0.0
 12
23803.33807147001
 22
2052.657303538357
 32
0.0
 13
23803.33807147001
 23
2052.657303538357
 33
0.0
  0
SOLID
  5
B30C
330
B2BB
100
AcDbEntity
  8
2
  6
Continuous
100
AcDbTrace
 10
23796.67140480334
 20
1742.657303538357
 30
0.0
 11
23810.00473813668
 21
1742.657303538357
 31
0.0
 12
23803.33807147001
 22
1702.657303538357
 32
0.0
 13
23803.33807147001
 23
1702.657303538357
 33
0.0
  0
MTEXT
  5
B30D
330
B2BB
100
AcDbEntity
  8
2
  6
Continuous
 62
     7
100
AcDbMText
 10
23753.33807147001
 20
1877.657303538361
 30
0.0
 40
60.0
 41
0.0
 71
     5
 72
     1
  1
\A1;350
  7
JF3
 11
0.0000000000000001
 21
1.0
 31
0.0
 73
     1
 44
1.0
1001
ACAD
1000
MTEXTBEGIN
1070
    73
1070
     1
1070
    44
1040
1.0
1070
    74
1070
     0
1000
MTEXTEND
  0
POINT
  5
B30E
330
B2BB
100
AcDbEntity
  8
DEFPOINTS
  6
Continuous
 62
     0
100
AcDbPoint
 10
22475.82216910918
 20
2052.657303538357
 30
0.0
  0
POINT
  5
B30F
330
B2BB
100
AcDbEntity
  8
DEFPOINTS
  6
Continuous
 62
     0
100
AcDbPoint
 10
23125.82216910918
 20
1702.657303538357
 30
0.0
  0
POINT
  5
B310
330
B2BB
100
AcDbEntity
  8
DEFPOINTS
  6
Continuous
 62
     0
100
AcDbPoint
 10
23803.33807147001
 20
1702.657303538357
 30
0.0
  0
ENDBLK
  5
B2BD
330
B2BB
100
AcDbEntity
  8
0
100
AcDbBlockEnd
  0
BLOCK
  5
B2C8
330
B2C7
100
AcDbEntity
  8
0
100
AcDbBlockBegin
  2
*D43
 70
     1
 10
0.0
 20
0.0
 30
0.0
  3
*D43
  1

  0
LINE
  5
B311
330
B2C7
100
AcDbEntity
  8
2
  6
Continuous
370
    -2
100
AcDbLine
 10
22475.82216910918
 20
2092.657303538357
 30
0.0
 11
22475.82216910918
 21
2416.027600670348
 31
0.0
  0
LINE
  5
B312
330
B2C7
100
AcDbEntity
  8
2
  6
Continuous
370
    -2
100
AcDbLine
 10
23125.82216910918
 20
1980.588338021116
 30
0.0
 11
23125.82216910918
 21
2416.027600670348
 31
0.0
  0
LINE
  5
B313
330
B2C7
100
AcDbEntity
  8
2
  6
Continuous
370
    -2
100
AcDbLine
 10
22515.82216910918
 20
2376.027600670348
 30
0.0
 11
23085.82216910918
 21
2376.027600670348
 31
0.0
  0
SOLID
  5
B314
330
B2C7
100
AcDbEntity
  8
2
  6
Continuous
100
AcDbTrace
 10
22515.82216910918
 20
2382.694267337015
 30
0.0
 11
22515.82216910918
 21
2369.360934003681
 31
0.0
 12
22475.82216910918
 22
2376.027600670348
 32
0.0
 13
22475.82216910918
 23
2376.027600670348
 33
0.0
  0
SOLID
  5
B315
330
B2C7
100
AcDbEntity
  8
2
  6
Continuous
100
AcDbTrace
 10
23085.82216910918
 20
2382.694267337015
 30
0.0
 11
23085.82216910918
 21
2369.360934003681
 31
0.0
 12
23125.82216910918
 22
2376.027600670348
 32
0.0
 13
23125.82216910918
 23
2376.027600670348
 33
0.0
  0
MTEXT
  5
B316
330
B2C7
100
AcDbEntity
  8
2
  6
Continuous
 62
     7
100
AcDbMText
 10
22800.82216910917
 20
2426.027600670348
 30
0.0
 40
60.0
 41
0.0
 71
     5
 72
     1
  1
\A1;650
  7
JF3
 73
     1
 44
1.0
1001
ACAD
1000
MTEXTBEGIN
1070
    73
1070
     1
1070
    44
1040
1.0
1070
    74
1070
     0
1000
MTEXTEND
  0
POINT
  5
B317
330
B2C7
100
AcDbEntity
  8
DEFPOINTS
  6
Continuous
 62
     0
100
AcDbPoint
 10
22475.82216910918
 20
2052.657303538357
 30
0.0
  0
POINT
  5
B318
330
B2C7
100
AcDbEntity
  8
DEFPOINTS
  6
Continuous
 62
     0
100
AcDbPoint
 10
23125.82216910918
 20
1940.588338021116
 30
0.0
  0
POINT
  5
B319
330
B2C7
100
AcDbEntity
  8
DEFPOINTS
  6
Continuous
 62
     0
100
AcDbPoint
 10
23125.82216910918
 20
2376.027600670348
 30
0.0
  0
ENDBLK
  5
B2C9
330
B2C7
100
AcDbEntity
  8
0
100
AcDbBlockEnd
  0
BLOCK
  5
B2D4
330
B2D3
100
AcDbEntity
  8
0
100
AcDbBlockBegin
  2
*D44
 70
     1
 10
0.0
 20
0.0
 30
0.0
  3
*D44
  1

  0
LINE
  5
B31A
330
B2D3
100
AcDbEntity
  8
2
  6
Continuous
370
    -2
100
AcDbLine
 10
22515.82216910918
 20
2052.657303538357
 30
0.0
 11
23690.89009577852
 21
2052.657303538357
 31
0.0
  0
LINE
  5
B31B
330
B2D3
100
AcDbEntity
  8
2
  6
Continuous
370
    -2
100
AcDbLine
 10
23165.82216910918
 20
1940.588338021116
 30
0.0
 11
23690.89009577852
 21
1940.588338021116
 31
0.0
  0
LINE
  5
B31C
330
B2D3
100
AcDbEntity
  8
2
  6
Continuous
370
    -2
100
AcDbLine
 10
23650.89009577852
 20
2092.657303538357
 30
0.0
 11
23650.89009577852
 21
2132.657303538357
 31
0.0
  0
LINE
  5
B31D
330
B2D3
100
AcDbEntity
  8
2
  6
Continuous
370
    -2
100
AcDbLine
 10
23650.89009577852
 20
1900.588338021116
 30
0.0
 11
23650.89009577852
 21
1860.588338021116
 31
0.0
  0
MTEXT
  5
B31E
330
B2D3
100
AcDbEntity
  8
2
  6
Continuous
 62
     7
100
AcDbMText
 10
23586.96026486904
 20
2128.031399818245
 30
0.0
 40
60.0
 41
0.0
 71
     5
 72
     1
  1
\A1;112
  7
JF3
 11
0.0000000000000001
 21
1.0
 31
0.0
 73
     1
 44
1.0
1001
ACAD
1000
MTEXTBEGIN
1070
    73
1070
     1
1070
    44
1040
1.0
1070
    74
1070
     0
1000
MTEXTEND
  0
LINE
  5
B31F
330
B2D3
100
AcDbEntity
  8
2
  6
Continuous
370
    -2
100
AcDbLine
 10
23650.89009577852
 20
2052.657303538357
 30
0.0
 11
23650.89009577852
 21
1940.588338021116
 31
0.0
  0
SOLID
  5
B320
330
B2D3
100
AcDbEntity
  8
2
  6
Continuous
100
AcDbTrace
 10
23644.22342911185
 20
2092.657303538357
 30
0.0
 11
23657.55676244519
 21
2092.657303538357
 31
0.0
 12
23650.89009577852
 22
2052.657303538357
 32
0.0
 13
23650.89009577852
 23
2052.657303538357
 33
0.0
  0
SOLID
  5
B321
330
B2D3
100
AcDbEntity
  8
2
  6
Continuous
100
AcDbTrace
 10
23644.22342911185
 20
1900.588338021116
 30
0.0
 11
23657.55676244519
 21
1900.588338021116
 31
0.0
 12
23650.89009577852
 22
1940.588338021116
 32
0.0
 13
23650.89009577852
 23
1940.588338021116
 33
0.0
  0
POINT
  5
B322
330
B2D3
100
AcDbEntity
  8
DEFPOINTS
  6
Continuous
 62
     0
100
AcDbPoint
 10
22475.82216910918
 20
2052.657303538357
 30
0.0
  0
POINT
  5
B323
330
B2D3
100
AcDbEntity
  8
DEFPOINTS
  6
Continuous
 62
     0
100
AcDbPoint
 10
23125.82216910918
 20
1940.588338021116
 30
0.0
  0
POINT
  5
B324
330
B2D3
100
AcDbEntity
  8
DEFPOINTS
  6
Continuous
 62
     0
100
AcDbPoint
 10
23650.89009577852
 20
1940.588338021116
 30
0.0
  0
ENDBLK
  5
B2D5
330
B2D3
100
AcDbEntity
  8
0
100
AcDbBlockEnd
  0
BLOCK
  5
B2E2
330
B2E1
100
AcDbEntity
  8
0
100
AcDbBlockBegin
  2
*D45
 70
     1
 10
0.0
 20
0.0
 30
0.0
  3
*D45
  1

  0
LINE
  5
B325
330
B2E1
100
AcDbEntity
  8
2
  6
Continuous
370
    -2
100
AcDbLine
 10
23165.82216910918
 20
1940.588338021116
 30
0.0
 11
23690.89009577851
 21
1940.588338021116
 31
0.0
  0
LINE
  5
B326
330
B2E1
100
AcDbEntity
  8
2
  6
Continuous
370
    -2
100
AcDbLine
 10
23165.82216910918
 20
1702.657303538357
 30
0.0
 11
23690.89009577851
 21
1702.657303538357
 31
0.0
  0
LINE
  5
B327
330
B2E1
100
AcDbEntity
  8
2
  6
Continuous
370
    -2
100
AcDbLine
 10
23650.89009577851
 20
1900.588338021116
 30
0.0
 11
23650.89009577851
 21
1742.657303538357
 31
0.0
  0
SOLID
  5
B328
330
B2E1
100
AcDbEntity
  8
2
  6
Continuous
100
AcDbTrace
 10
23644.22342911184
 20
1900.588338021116
 30
0.0
 11
23657.55676244518
 21
1900.588338021116
 31
0.0
 12
23650.89009577851
 22
1940.588338021116
 32
0.0
 13
23650.89009577851
 23
1940.588338021116
 33
0.0
  0
SOLID
  5
B329
330
B2E1
100
AcDbEntity
  8
2
  6
Continuous
100
AcDbTrace
 10
23644.22342911184
 20
1742.657303538357
 30
0.0
 11
23657.55676244518
 21
1742.657303538357
 31
0.0
 12
23650.89009577851
 22
1702.657303538357
 32
0.0
 13
23650.89009577851
 23
1702.657303538357
 33
0.0
  0
MTEXT
  5
B32A
330
B2E1
100
AcDbEntity
  8
2
  6
Continuous
 62
     7
100
AcDbMText
 10
23600.89009577851
 20
1821.62282077974
 30
0.0
 40
60.0
 41
0.0
 71
     5
 72
     1
  1
\A1;238
  7
JF3
 11
0.0000000000000001
 21
1.0
 31
0.0
 73
     1
 44
1.0
1001
ACAD
1000
MTEXTBEGIN
1070
    73
1070
     1
1070
    44
1040
1.0
1070
    74
1070
     0
1000
MTEXTEND
  0
POINT
  5
B32B
330
B2E1
100
AcDbEntity
  8
DEFPOINTS
  6
Continuous
 62
     0
100
AcDbPoint
 10
23125.82216910918
 20
1940.588338021116
 30
0.0
  0
POINT
  5
B32C
330
B2E1
100
AcDbEntity
  8
DEFPOINTS
  6
Continuous
 62
     0
100
AcDbPoint
 10
23125.82216910918
 20
1702.657303538357
 30
0.0
  0
POINT
  5
B32D
330
B2E1
100
AcDbEntity
  8
DEFPOINTS
  6
Continuous
 62
     0
100
AcDbPoint
 10
23650.89009577851
 20
1702.657303538357
 30
0.0
  0
ENDBLK
  5
B2E3
330
B2E1
100
AcDbEntity
  8
0
100
AcDbBlockEnd
  0
BLOCK
  5
B330
330
B32F
100
AcDbEntity
  8
0
100
AcDbBlockBegin
  2
*D46
 70
     1
 10
0.0
 20
0.0
 30
0.0
  3
*D46
  1

  0
LINE
  5
B3DA
330
B32F
100
AcDbEntity
  8
2
370
    -2
100
AcDbLine
 10
27967.54244381914
 20
8527.126360820581
 30
0.0
 11
29064.27985128405
 21
8527.126360820583
 31
0.0
  0
LINE
  5
B3DB
330
B32F
100
AcDbEntity
  8
2
370
    -2
100
AcDbLine
 10
28715.14244381917
 20
7815.126360820586
 30
0.0
 11
29064.27985128405
 21
7815.126360820586
 31
0.0
  0
LINE
  5
B3DC
330
B32F
100
AcDbEntity
  8
2
370
    -2
100
AcDbLine
 10
29024.27985128405
 20
8467.126360820584
 30
0.0
 11
29024.27985128405
 21
7875.126360820586
 31
0.0
  0
SOLID
  5
B3DD
330
B32F
100
AcDbEntity
  8
2
100
AcDbTrace
 10
29014.27985128405
 20
8467.126360820584
 30
0.0
 11
29034.27985128405
 21
8467.126360820584
 31
0.0
 12
29024.27985128405
 22
8527.126360820583
 32
0.0
 13
29024.27985128405
 23
8527.126360820583
 33
0.0
  0
SOLID
  5
B3DE
330
B32F
100
AcDbEntity
  8
2
100
AcDbTrace
 10
29014.27985128405
 20
7875.126360820586
 30
0.0
 11
29034.27985128405
 21
7875.126360820586
 31
0.0
 12
29024.27985128405
 22
7815.126360820586
 32
0.0
 13
29024.27985128405
 23
7815.126360820586
 33
0.0
  0
MTEXT
  5
B3DF
330
B32F
100
AcDbEntity
  8
2
 62
     7
100
AcDbMText
 10
28974.27985128405
 20
8171.126360820583
 30
0.0
 40
60.0
 41
0.0
 71
     5
 72
     1
  1
\A1;178
  7
JF3
 11
-0.0000000000000011
 21
1.0
 31
0.0
 73
     1
 44
1.0
1001
ACAD
1000
MTEXTBEGIN
1070
    73
1070
     1
1070
    44
1040
1.0
1070
    74
1070
     0
1000
MTEXTEND
  0
POINT
  5
B3E0
330
B32F
100
AcDbEntity
  8
DEFPOINTS
 62
     0
100
AcDbPoint
 10
27907.54244381916
 20
8527.126360820544
 30
0.0
  0
POINT
  5
B3E1
330
B32F
100
AcDbEntity
  8
DEFPOINTS
 62
     0
100
AcDbPoint
 10
28655.14244381918
 20
7815.126360820548
 30
0.0
  0
POINT
  5
B3E2
330
B32F
100
AcDbEntity
  8
DEFPOINTS
 62
     0
100
AcDbPoint
 10
29024.27985128406
 20
7815.126360820548
 30
0.0
  0
ENDBLK
  5
B331
330
B32F
100
AcDbEntity
  8
0
100
AcDbBlockEnd
  0
BLOCK
  5
B3F1
330
B3F0
100
AcDbEntity
  8
0
100
AcDbBlockBegin
  2
*D47
 70
     1
 10
0.0
 20
0.0
 30
0.0
  3
*D47
  1

  0
LINE
  5
B452
330
B3F0
100
AcDbEntity
  8
2
370
    -2
100
AcDbLine
 10
32756.39485070729
 20
9202.410170794271
 30
0.0
 11
33545.51495092084
 21
9202.410170794271
 31
0.0
  0
LINE
  5
B453
330
B3F0
100
AcDbEntity
  8
2
370
    -2
100
AcDbLine
 10
33009.10034435398
 20
8250.410170794269
 30
0.0
 11
33545.51495092084
 21
8250.410170794269
 31
0.0
  0
LINE
  5
B454
330
B3F0
100
AcDbEntity
  8
2
370
    -2
100
AcDbLine
 10
33515.51495092084
 20
9142.410170794269
 30
0.0
 11
33515.51495092084
 21
8310.41017079427
 31
0.0
  0
SOLID
  5
B455
330
B3F0
100
AcDbEntity
  8
2
100
AcDbTrace
 10
33505.51495092084
 20
9142.410170794269
 30
0.0
 11
33525.51495092084
 21
9142.410170794269
 31
0.0
 12
33515.51495092084
 22
9202.410170794271
 32
0.0
 13
33515.51495092084
 23
9202.410170794271
 33
0.0
  0
SOLID
  5
B456
330
B3F0
100
AcDbEntity
  8
2
100
AcDbTrace
 10
33505.51495092084
 20
8310.41017079427
 30
0.0
 11
33525.51495092084
 21
8310.41017079427
 31
0.0
 12
33515.51495092084
 22
8250.410170794269
 32
0.0
 13
33515.51495092084
 23
8250.410170794269
 33
0.0
  0
MTEXT
  5
B457
330
B3F0
100
AcDbEntity
  8
2
 62
     7
100
AcDbMText
 10
33465.51495092084
 20
8726.41017079427
 30
0.0
 40
60.0
 41
0.0
 71
     5
 72
     1
  1
\A1;238
  7
JF3
 11
-0.0000000000000011
 21
1.0
 31
0.0
 73
     1
 44
1.0
1001
ACAD
1000
MTEXTBEGIN
1070
    73
1070
     1
1070
    44
1040
1.0
1070
    74
1070
     0
1000
MTEXTEND
  0
POINT
  5
B458
330
B3F0
100
AcDbEntity
  8
DEFPOINTS
 62
     0
100
AcDbPoint
 10
32696.39485070731
 20
9202.410170794227
 30
0.0
  0
POINT
  5
B459
330
B3F0
100
AcDbEntity
  8
DEFPOINTS
 62
     0
100
AcDbPoint
 10
32949.10034435399
 20
8250.410170794227
 30
0.0
  0
POINT
  5
B45A
330
B3F0
100
AcDbEntity
  8
DEFPOINTS
 62
     0
100
AcDbPoint
 10
33515.51495092085
 20
8250.410170794227
 30
0.0
  0
ENDBLK
  5
B3F2
330
B3F0
100
AcDbEntity
  8
0
100
AcDbBlockEnd
  0
BLOCK
  5
B409
330
B408
100
AcDbEntity
  8
0
100
AcDbBlockBegin
  2
*D48
 70
     1
 10
0.0
 20
0.0
 30
0.0
  3
*D48
  1

  0
LINE
  5
B5FF
330
B408
100
AcDbEntity
  8
2
370
    -2
100
AcDbLine
 10
32629.952753991
 20
6227.855439108814
 30
0.0
 11
33348.0013607525
 21
6227.855439108815
 31
0.0
  0
LINE
  5
B600
330
B408
100
AcDbEntity
  8
2
370
    -2
100
AcDbLine
 10
33061.66335599099
 20
5787.855439108814
 30
0.0
 11
33348.0013607525
 21
5787.855439108816
 31
0.0
  0
LINE
  5
B601
330
B408
100
AcDbEntity
  8
2
370
    -2
100
AcDbLine
 10
33308.0013607525
 20
6167.855439108815
 30
0.0
 11
33308.0013607525
 21
5847.855439108816
 31
0.0
  0
SOLID
  5
B602
330
B408
100
AcDbEntity
  8
2
100
AcDbTrace
 10
33298.0013607525
 20
6167.855439108815
 30
0.0
 11
33318.0013607525
 21
6167.855439108815
 31
0.0
 12
33308.0013607525
 22
6227.855439108815
 32
0.0
 13
33308.0013607525
 23
6227.855439108815
 33
0.0
  0
SOLID
  5
B603
330
B408
100
AcDbEntity
  8
2
100
AcDbTrace
 10
33298.0013607525
 20
5847.855439108816
 30
0.0
 11
33318.0013607525
 21
5847.855439108816
 31
0.0
 12
33308.0013607525
 22
5787.855439108816
 32
0.0
 13
33308.0013607525
 23
5787.855439108816
 33
0.0
  0
MTEXT
  5
B604
330
B408
100
AcDbEntity
  8
2
 62
     7
100
AcDbMText
 10
33258.0013607525
 20
6007.855439108814
 30
0.0
 40
60.0
 41
0.0
 71
     5
 72
     1
  1
\A1;220
  7
JF3
 11
-0.0000000000000011
 21
1.0
 31
0.0
 73
     1
 44
1.0
1001
ACAD
1000
MTEXTBEGIN
1070
    73
1070
     1
1070
    44
1040
1.0
1070
    74
1070
     0
1000
MTEXTEND
  0
POINT
  5
B605
330
B408
100
AcDbEntity
  8
DEFPOINTS
 62
     0
100
AcDbPoint
 10
32569.95275399101
 20
6227.85543910877
 30
0.0
  0
POINT
  5
B606
330
B408
100
AcDbEntity
  8
DEFPOINTS
 62
     0
100
AcDbPoint
 10
33001.663355991
 20
5787.855439108771
 30
0.0
  0
POINT
  5
B607
330
B408
100
AcDbEntity
  8
DEFPOINTS
 62
     0
100
AcDbPoint
 10
33308.00136075251
 20
5787.855439108771
 30
0.0
  0
ENDBLK
  5
B40A
330
B408
100
AcDbEntity
  8
0
100
AcDbBlockEnd
  0
BLOCK
  5
B416
330
B415
100
AcDbEntity
  8
0
100
AcDbBlockBegin
  2
*D49
 70
     1
 10
0.0
 20
0.0
 30
0.0
  3
*D49
  1

  0
LINE
  5
B608
330
B415
100
AcDbEntity
  8
2
370
    -2
100
AcDbLine
 10
33061.66335599099
 20
5787.855439108814
 30
0.0
 11
33348.0013607525
 21
5787.855439108816
 31
0.0
  0
LINE
  5
B609
330
B415
100
AcDbEntity
  8
2
370
    -2
100
AcDbLine
 10
33096.60453246156
 20
5527.855439108815
 30
0.0
 11
33348.0013607525
 21
5527.855439108815
 31
0.0
  0
LINE
  5
B60A
330
B415
100
AcDbEntity
  8
2
370
    -2
100
AcDbLine
 10
33308.0013607525
 20
5727.855439108815
 30
0.0
 11
33308.0013607525
 21
5587.855439108816
 31
0.0
  0
SOLID
  5
B60B
330
B415
100
AcDbEntity
  8
2
100
AcDbTrace
 10
33298.0013607525
 20
5727.855439108815
 30
0.0
 11
33318.0013607525
 21
5727.855439108815
 31
0.0
 12
33308.0013607525
 22
5787.855439108816
 32
0.0
 13
33308.0013607525
 23
5787.855439108816
 33
0.0
  0
SOLID
  5
B60C
330
B415
100
AcDbEntity
  8
2
100
AcDbTrace
 10
33298.0013607525
 20
5587.855439108816
 30
0.0
 11
33318.0013607525
 21
5587.855439108816
 31
0.0
 12
33308.0013607525
 22
5527.855439108815
 32
0.0
 13
33308.0013607525
 23
5527.855439108815
 33
0.0
  0
MTEXT
  5
B60D
330
B415
100
AcDbEntity
  8
2
 62
     7
100
AcDbMText
 10
33258.0013607525
 20
5657.855439108814
 30
0.0
 40
60.0
 41
0.0
 71
     5
 72
     1
  1
\A1;130
  7
JF3
 11
-0.0000000000000011
 21
1.0
 31
0.0
 73
     1
 44
1.0
1001
ACAD
1000
MTEXTBEGIN
1070
    73
1070
     1
1070
    44
1040
1.0
1070
    74
1070
     0
1000
MTEXTEND
  0
POINT
  5
B60E
330
B415
100
AcDbEntity
  8
DEFPOINTS
 62
     0
100
AcDbPoint
 10
33001.663355991
 20
5787.855439108771
 30
0.0
  0
POINT
  5
B60F
330
B415
100
AcDbEntity
  8
DEFPOINTS
 62
     0
100
AcDbPoint
 10
33036.60453246157
 20
5527.855439108771
 30
0.0
  0
POINT
  5
B610
330
B415
100
AcDbEntity
  8
DEFPOINTS
 62
     0
100
AcDbPoint
 10
33308.00136075251
 20
5527.855439108771
 30
0.0
  0
ENDBLK
  5
B417
330
B415
100
AcDbEntity
  8
0
100
AcDbBlockEnd
  0
BLOCK
  5
B423
330
B422
100
AcDbEntity
  8
0
100
AcDbBlockBegin
  2
*D50
 70
     1
 10
0.0
 20
0.0
 30
0.0
  3
*D50
  1

  0
LINE
  5
B611
330
B422
100
AcDbEntity
  8
2
370
    -2
100
AcDbLine
 10
33408.00136075249
 20
6227.855439108859
 30
0.0
 11
33555.51495092084
 21
6227.855439108859
 31
0.0
  0
LINE
  5
B612
330
B422
100
AcDbEntity
  8
2
370
    -2
100
AcDbLine
 10
33408.00136075249
 20
5527.855439108861
 30
0.0
 11
33555.51495092084
 21
5527.855439108861
 31
0.0
  0
LINE
  5
B613
330
B422
100
AcDbEntity
  8
2
370
    -2
100
AcDbLine
 10
33515.51495092084
 20
6167.855439108859
 30
0.0
 11
33515.51495092084
 21
5587.85543910886
 31
0.0
  0
SOLID
  5
B614
330
B422
100
AcDbEntity
  8
2
100
AcDbTrace
 10
33505.51495092084
 20
6167.855439108859
 30
0.0
 11
33525.51495092084
 21
6167.855439108859
 31
0.0
 12
33515.51495092084
 22
6227.855439108859
 32
0.0
 13
33515.51495092084
 23
6227.855439108859
 33
0.0
  0
SOLID
  5
B615
330
B422
100
AcDbEntity
  8
2
100
AcDbTrace
 10
33505.51495092084
 20
5587.85543910886
 30
0.0
 11
33525.51495092084
 21
5587.85543910886
 31
0.0
 12
33515.51495092084
 22
5527.855439108861
 32
0.0
 13
33515.51495092084
 23
5527.855439108861
 33
0.0
  0
MTEXT
  5
B616
330
B422
100
AcDbEntity
  8
2
 62
     7
100
AcDbMText
 10
33465.51495092084
 20
5877.855439108858
 30
0.0
 40
60.0
 41
0.0
 71
     5
 72
     1
  1
\A1;350
  7
JF3
 11
-0.0000000000000011
 21
1.0
 31
0.0
 73
     1
 44
1.0
1001
ACAD
1000
MTEXTBEGIN
1070
    73
1070
     1
1070
    44
1040
1.0
1070
    74
1070
     0
1000
MTEXTEND
  0
POINT
  5
B617
330
B422
100
AcDbEntity
  8
DEFPOINTS
 62
     0
100
AcDbPoint
 10
33348.0013607525
 20
6227.855439108815
 30
0.0
  0
POINT
  5
B618
330
B422
100
AcDbEntity
  8
DEFPOINTS
 62
     0
100
AcDbPoint
 10
33348.0013607525
 20
5527.855439108815
 30
0.0
  0
POINT
  5
B619
330
B422
100
AcDbEntity
  8
DEFPOINTS
 62
     0
100
AcDbPoint
 10
33515.51495092085
 20
5527.855439108815
 30
0.0
  0
ENDBLK
  5
B424
330
B422
100
AcDbEntity
  8
0
100
AcDbBlockEnd
  0
ENDSEC
  0
SECTION
  2
ENTITIES
  0
LWPOLYLINE
  5
59F2
330
18
100
AcDbEntity
  8
0
 62
     6
100
AcDbPolyline
 90
        4
 70
     1
 43
0.0
 10
19298.40245222889
 20
11600.37210327784
 10
34972.39819502674
 20
11600.37210327785
 10
34972.39819502675
 20
400.3619180361545
 10
19298.40245222889
 20
400.3619180361458
  0
LWPOLYLINE
  5
59F3
330
18
100
AcDbEntity
  8
0
 62
     6
100
AcDbPolyline
 90
        4
 70
     1
 43
0.0
 10
19308.4024522289
 20
11590.37210327784
 10
34962.39819502673
 20
11590.37210327785
 10
34962.39819502675
 20
410.3619180361527
 10
19308.40245222889
 20
410.3619180361459
  0
LINE
  5
59FE
330
18
100
AcDbEntity
  8
2
  6
Continuous
 62
     4
100
AcDbLine
 10
25810.6735501286
 20
10860.40565884888
 30
0.0
 11
28472.52266499692
 21
10860.40565884889
 31
0.0
  0
LINE
  5
59FF
330
18
100
AcDbEntity
  8
2
  6
Continuous
 62
     4
100
AcDbLine
 10
25810.6735501286
 20
10837.19084264592
 30
0.0
 11
28472.52266499692
 21
10837.19084264592
 31
0.0
  0
LINE
  5
5A00
330
18
100
AcDbEntity
  8
2
  6
Continuous
 62
     4
100
AcDbLine
 10
26011.41336586283
 20
10142.90311253845
 30
0.0
 11
28332.83088574942
 21
10142.90311253845
 31
0.0
  0
TEXT
  5
5A01
330
18
100
AcDbEntity
  8
2
  6
Continuous
 62
     7
100
AcDbText
 10
26064.86437362048
 20
10162.89665427241
 30
0.0
 40
180.0
  1
テーパーコーン配置図
 41
0.8
  7
JF3
100
AcDbText
  0
TEXT
  5
5A02
330
18
100
AcDbEntity
  8
2
  6
Continuous
 62
     7
100
AcDbText
 10
25816.97268513091
 20
10902.11165087557
 30
0.0
 40
230.0
  1
NRC200-36　構造図
 41
0.8
  7
JF3
100
AcDbText
  0
TEXT
  5
5A31
330
18
100
AcDbEntity
  8
2
  6
Continuous
 62
     7
100
AcDbText
 10
22100.96103728043
 20
6187.519801558647
 30
0.0
 40
110.0
  1
B'
 41
0.8
  7
JF3
100
AcDbText
  0
TEXT
  5
5A48
330
18
100
AcDbEntity
  8
2
  6
Continuous
 62
     7
100
AcDbText
 10
22077.91238364456
 20
4281.917953084377
 30
0.0
 40
90.0
  1
A-A'
 41
0.8
  7
JF3
100
AcDbText
  0
LINE
  5
5A4A
330
18
100
AcDbEntity
  8
2
  6
Continuous
 62
     4
100
AcDbLine
 10
22036.63236226335
 20
4262.745445721433
 30
0.0
 11
22331.31136014845
 21
4262.745445721431
 31
0.0
  0
TEXT
  5
5A4E
330
18
100
AcDbEntity
  8
2
  6
Continuous
 62
     7
100
AcDbText
 10
22077.91238364455
 20
2710.761071021918
 30
0.0
 40
90.0
  1
B-B'
 41
0.8
  7
JF3
100
AcDbText
  0
LINE
  5
5A4F
330
18
100
AcDbEntity
  8
2
  6
Continuous
 62
     4
100
AcDbLine
 10
22036.63236226335
 20
2691.588563658973
 30
0.0
 11
22331.31136014845
 21
2691.588563658973
 31
0.0
  0
LINE
  5
5A54
330
18
100
AcDbEntity
  8
2
  6
Continuous
 62
     4
100
AcDbLine
 10
21512.94620715678
 20
4851.167391589072
 30
0.0
 11
22769.6858498557
 21
4851.167391589073
 31
0.0
  0
TEXT
  5
5A82
330
18
100
AcDbEntity
  8
2
  6
Continuous
 62
     7
100
AcDbText
 10
21545.6739050668
 20
4871.167209538974
 30
0.0
 40
180.0
  1
側断面図
 41
0.8
  7
JF3
100
AcDbText
  0
TEXT
  5
5AAD
330
18
100
AcDbEntity
  8
2
  6
Continuous
 62
     7
100
AcDbText
 10
22293.0748071599
 20
4876.041677868737
 30
0.0
 40
90.0
  1
S=1/20
 41
0.8
  7
JF3
100
AcDbText
  0
LINE
  5
5AC0
330
18
100
AcDbEntity
  8
2
  6
Continuous
 62
     4
100
AcDbLine
 10
22377.27544483978
 20
9619.325896793421
 30
0.0
 11
22231.16078883904
 21
9659.930099785432
 31
0.0
  0
LINE
  5
5AC1
330
18
100
AcDbEntity
  8
2
  6
Continuous
 62
     4
100
AcDbLine
 10
22175.82216910916
 20
9619.325896793421
 30
0.0
 11
22377.27544483978
 21
9619.325896793421
 31
0.0
  0
TEXT
  5
5AC3
330
18
100
AcDbEntity
  8
2
  6
Continuous
 62
     7
100
AcDbText
 10
21342.10141324854
 20
10162.90303065667
 30
0.0
 40
180.0
  1
構造一般平面図
 41
0.8
  7
JF3
100
AcDbText
  0
LINE
  5
5AC4
330
18
100
AcDbEntity
  8
3
  6
HIDDEN
 62
     9
100
AcDbLine
 10
21875.82216910917
 20
8492.90311253846
 30
0.0
 11
22475.82216910917
 21
8492.90311253846
 31
0.0
  0
LINE
  5
5AC5
330
18
100
AcDbEntity
  8
3
  6
HIDDEN
 62
     9
100
AcDbLine
 10
22475.82216910917
 20
7892.903112538457
 30
0.0
 11
21875.82216910917
 21
7892.903112538458
 31
0.0
  0
CIRCLE
  5
5AC6
330
18
100
AcDbEntity
  8
3
 62
     9
100
AcDbCircle
 10
22175.82216910917
 20
8192.903112538457
 30
0.0
 40
65.4
  0
CIRCLE
  5
5AC7
330
18
100
AcDbEntity
  8
3
 62
     9
100
AcDbCircle
 10
22175.82216910917
 20
8192.903112538457
 30
0.0
 40
105.0
  0
CIRCLE
  5
5AC8
330
18
100
AcDbEntity
  8
3
 62
     9
100
AcDbCircle
 10
22175.82216910917
 20
8192.903112538457
 30
0.0
 40
177.15
  0
CIRCLE
  5
5AC9
330
18
100
AcDbEntity
  8
3
 62
     9
100
AcDbCircle
 10
22175.82216910917
 20
8192.903112538457
 30
0.0
 40
197.95
  0
LINE
  5
5ACC
330
18
100
AcDbEntity
  8
2
  6
Continuous
 62
     4
100
AcDbLine
 10
22175.82216910916
 20
6373.870134208781
 30
0.0
 11
22377.27544483977
 21
6373.870134208779
 31
0.0
  0
LINE
  5
5ACD
330
18
100
AcDbEntity
  8
2
  6
Continuous
 62
     4
100
AcDbLine
 10
22377.27544483977
 20
6373.870134208779
 30
0.0
 11
22231.16078883903
 21
6333.265931216771
 31
0.0
  0
LINE
  5
5ACF
330
18
100
AcDbEntity
  8
1
  6
CENTER
 62
     3
100
AcDbLine
 10
23475.82216910917
 20
8192.903112538459
 30
0.0
 11
20875.82216910917
 21
8192.903112538457
 31
0.0
  0
LINE
  5
5AD0
330
18
100
AcDbEntity
  8
2
  6
Continuous
 62
     4
100
AcDbLine
 10
21293.16274508408
 20
10142.90311253845
 30
0.0
 11
23109.76909671547
 21
10142.90311253845
 31
0.0
  0
LINE
  5
5AD7
330
18
100
AcDbEntity
  8
1
  6
CENTER
 62
     3
100
AcDbLine
 10
22175.82216910916
 20
6892.903112538459
 30
0.0
 11
22175.82216910916
 21
9492.90311253846
 31
0.0
  0
ARC
  5
5AD9
330
18
100
AcDbEntity
  8
3
 62
     7
100
AcDbCircle
 10
21522.48186310916
 20
7539.562805538456
 30
0.0
 40
400.0
100
AcDbArc
 50
8.176196999964346
 51
81.82380300014992
  0
LINE
  5
5ADA
330
18
100
AcDbEntity
  8
3
 62
     7
100
AcDbLine
 10
21969.21297370686
 20
7242.90311253846
 30
0.0
 11
21875.82216910917
 21
7892.903112538457
 31
0.0
  0
LINE
  5
5ADB
330
18
100
AcDbEntity
  8
3
  6
HIDDEN
 62
     9
100
AcDbLine
 10
22019.72642275574
 20
7242.90311253846
 30
0.0
 11
21926.37878538323
 21
7892.602668651069
 31
0.0
  0
LINE
  5
5AE3
330
18
100
AcDbEntity
  8
2
  6
Continuous
 62
     4
100
AcDbLine
 10
22231.16078883903
 20
6333.265931216771
 30
0.0
 11
22231.16078883903
 21
6393.16214232231
 31
0.0
  0
LINE
  5
5AE4
330
18
100
AcDbEntity
  8
2
  6
Continuous
 62
     4
100
AcDbLine
 10
22175.82216910916
 20
6449.645229321472
 30
0.0
 11
22175.82216910916
 21
6373.870134208781
 31
0.0
  0
LINE
  5
5AEF
330
18
100
AcDbEntity
  8
3
 62
     7
100
AcDbLine
 10
21225.82216910916
 20
8399.512307940756
 30
0.0
 11
21875.82216910917
 21
8492.90311253846
 31
0.0
  0
LINE
  5
5AF0
330
18
100
AcDbEntity
  8
3
 62
     7
100
AcDbLine
 10
21225.82216910916
 20
7986.293917136157
 30
0.0
 11
21875.82216910917
 21
7892.903112538457
 31
0.0
  0
LINE
  5
5AF1
330
18
100
AcDbEntity
  8
3
  6
HIDDEN
 62
     9
100
AcDbLine
 10
21225.82216910916
 20
8348.998858891885
 30
0.0
 11
21875.52172522178
 21
8442.34649626439
 31
0.0
  0
LINE
  5
5AF2
330
18
100
AcDbEntity
  8
3
  6
HIDDEN
 62
     9
100
AcDbLine
 10
21225.82216910916
 20
8036.807366185032
 30
0.0
 11
21875.52172522178
 21
7943.459728812531
 31
0.0
  0
TEXT
  5
5AF3
330
18
100
AcDbEntity
  8
2
  6
Continuous
 62
     7
100
AcDbText
 10
20624.78888486131
 20
8350.972602293301
 30
0.0
 40
110.0
  1
A
 41
0.8
  7
JF3
100
AcDbText
  0
LINE
  5
5AFE
330
18
100
AcDbEntity
  8
2
  6
Continuous
 62
     4
100
AcDbLine
 10
20827.62147004204
 20
8192.903112538459
 30
0.0
 11
20751.84637492935
 21
8192.903112538459
 31
0.0
  0
LINE
  5
5AFF
330
18
100
AcDbEntity
  8
2
  6
Continuous
 62
     4
100
AcDbLine
 10
20711.24217193735
 20
8248.241732268335
 30
0.0
 11
20771.13838304288
 21
8248.241732268335
 31
0.0
  0
LINE
  5
5B00
330
18
100
AcDbEntity
  8
2
  6
Continuous
 62
     4
100
AcDbLine
 10
20751.84637492935
 20
8192.903112538459
 30
0.0
 11
20751.84637492935
 21
8394.356388269072
 31
0.0
  0
LINE
  5
5B01
330
18
100
AcDbEntity
  8
2
  6
Continuous
 62
     4
100
AcDbLine
 10
20751.84637492935
 20
8394.356388269072
 30
0.0
 11
20711.24217193735
 21
8248.241732268335
 31
0.0
  0
ARC
  5
5B08
330
18
100
AcDbEntity
  8
3
 62
     7
100
AcDbCircle
 10
21522.48186310916
 20
8846.243419538458
 30
0.0
 40
400.0
100
AcDbArc
 50
278.1761969998501
 51
351.8238030000357
  0
LINE
  5
5B09
330
18
100
AcDbEntity
  8
3
 62
     7
100
AcDbLine
 10
21969.21297370686
 20
9142.903112538455
 30
0.0
 11
21875.82216910917
 21
8492.90311253846
 31
0.0
  0
LINE
  5
5B0A
330
18
100
AcDbEntity
  8
3
  6
HIDDEN
 62
     9
100
AcDbLine
 10
22019.72642275574
 20
9142.903112538455
 30
0.0
 11
21926.37878538324
 21
8493.203556425848
 31
0.0
  0
LINE
  5
5B13
330
18
100
AcDbEntity
  8
3
  6
HIDDEN
 62
     9
100
AcDbLine
 10
21875.82216910917
 20
7892.903112538458
 30
0.0
 11
21875.82216910917
 21
8492.90311253846
 31
0.0
  0
ARC
  5
5B14
330
18
100
AcDbEntity
  8
3
  6
HIDDEN
 62
     9
100
AcDbCircle
 10
21866.9886614363
 20
7884.069604865591
 30
0.0
 40
60.0
100
AcDbArc
 50
8.176197098454437
 51
81.82380290159807
  0
ARC
  5
5B15
330
18
100
AcDbEntity
  8
3
  6
HIDDEN
 62
     9
100
AcDbCircle
 10
21866.9886614363
 20
8501.736620211328
 30
0.0
 40
60.0
100
AcDbArc
 50
278.1761970984019
 51
351.8238029015456
  0
MTEXT
  5
5B16
330
18
100
AcDbEntity
  8
2
  6
Continuous
 62
     7
100
AcDbMText
 10
21718.4752096585
 20
9148.440017517101
 30
0.0
 40
60.0
 41
0.0
 71
     6
 72
     1
  1
吊りインサートM16
  7
JF3
 73
     1
 44
1.0
1001
ACAD
1000
MTEXTBEGIN
1070
    73
1070
     1
1070
    44
1040
1.0
1070
    74
1070
     0
1000
MTEXTEND
  0
TEXT
  5
5B1B
330
18
100
AcDbEntity
  8
2
  6
Continuous
 62
     7
100
AcDbText
 10
22100.96103728043
 20
9679.235636324834
 30
0.0
 40
110.0
  1
B
 41
0.8
  7
JF3
100
AcDbText
  0
LINE
  5
5B22
330
18
100
AcDbEntity
  8
2
  6
Continuous
 62
     4
100
AcDbLine
 10
22231.16078883904
 20
9659.930099785432
 30
0.0
 11
22231.16078883904
 21
9600.033888679893
 31
0.0
  0
LINE
  5
5B23
330
18
100
AcDbEntity
  8
2
  6
Continuous
 62
     4
100
AcDbLine
 10
22175.82216910916
 20
9543.55080168073
 30
0.0
 11
22175.82216910916
 21
9619.325896793421
 31
0.0
  0
LINE
  5
5B2A
330
18
100
AcDbEntity
  8
3
 62
     7
100
AcDbLine
 10
22382.43136451146
 20
7242.90311253846
 30
0.0
 11
22475.82216910917
 21
7892.903112538457
 31
0.0
  0
LINE
  5
5B2B
330
18
100
AcDbEntity
  8
3
  6
HIDDEN
 62
     9
100
AcDbLine
 10
22331.91791546258
 20
7242.90311253846
 30
0.0
 11
22425.2655528351
 21
7892.602668651071
 31
0.0
  0
ARC
  5
5B2C
330
18
100
AcDbEntity
  8
3
 62
     7
100
AcDbCircle
 10
22829.16247610917
 20
7539.562805538456
 30
0.0
 40
400.0
100
AcDbArc
 50
98.17619699985009
 51
171.8238030000356
  0
LINE
  5
5B40
330
18
100
AcDbEntity
  8
3
 62
     7
100
AcDbLine
 10
22382.43136451146
 20
9142.903112538455
 30
0.0
 11
22475.82216910917
 21
8492.90311253846
 31
0.0
  0
LINE
  5
5B41
330
18
100
AcDbEntity
  8
3
  6
HIDDEN
 62
     9
100
AcDbLine
 10
22331.91791546259
 20
9142.903112538455
 30
0.0
 11
22425.2655528351
 21
8493.203556425848
 31
0.0
  0
ARC
  5
5B42
330
18
100
AcDbEntity
  8
3
 62
     7
100
AcDbCircle
 10
22829.16247610916
 20
8846.243419538458
 30
0.0
 40
400.0
100
AcDbArc
 50
188.1761969999644
 51
261.8238030001499
  0
LINE
  5
5B43
330
18
100
AcDbEntity
  8
3
 62
     7
100
AcDbLine
 10
23125.82216910916
 20
7986.293917136157
 30
0.0
 11
22475.82216910917
 21
7892.903112538457
 31
0.0
  0
LINE
  5
5B44
330
18
100
AcDbEntity
  8
3
 62
     7
100
AcDbLine
 10
23125.82216910916
 20
8399.512307940756
 30
0.0
 11
22475.82216910917
 21
8492.90311253846
 31
0.0
  0
LINE
  5
5B45
330
18
100
AcDbEntity
  8
3
  6
HIDDEN
 62
     9
100
AcDbLine
 10
23125.82216910917
 20
8348.998858891887
 30
0.0
 11
22476.12261299655
 21
8442.34649626439
 31
0.0
  0
LINE
  5
5B46
330
18
100
AcDbEntity
  8
3
  6
HIDDEN
 62
     9
100
AcDbLine
 10
23125.82216910916
 20
8036.807366185028
 30
0.0
 11
22476.12261299655
 21
7943.459728812531
 31
0.0
  0
LINE
  5
5B47
330
18
100
AcDbEntity
  8
3
  6
HIDDEN
 62
     9
100
AcDbLine
 10
22475.82216910917
 20
8492.90311253846
 30
0.0
 11
22475.82216910917
 21
7892.903112538457
 31
0.0
  0
ARC
  5
5B48
330
18
100
AcDbEntity
  8
3
 62
     9
100
AcDbCircle
 10
22484.65567678203
 20
7884.06960486559
 30
0.0
 40
60.0
100
AcDbArc
 50
98.17619709840194
 51
171.8238029015456
  0
ARC
  5
5B49
330
18
100
AcDbEntity
  8
3
  6
HIDDEN
 62
     9
100
AcDbCircle
 10
22484.65567678203
 20
8501.736620211328
 30
0.0
 40
60.0
100
AcDbArc
 50
188.1761970984544
 51
261.8238029015981
  0
TEXT
  5
5B61
330
18
100
AcDbEntity
  8
2
  6
Continuous
 62
     7
100
AcDbText
 10
24032.14514711659
 20
8350.972602293301
 30
0.0
 40
110.0
  1
A'
 41
0.8
  7
JF3
100
AcDbText
  0
LINE
  5
5B62
330
18
100
AcDbEntity
  8
2
  6
Continuous
 62
     4
100
AcDbLine
 10
24008.39446392121
 20
8248.241732268331
 30
0.0
 11
23948.49825281567
 21
8248.241732268335
 31
0.0
  0
LINE
  5
5B63
330
18
100
AcDbEntity
  8
2
  6
Continuous
 62
     4
100
AcDbLine
 10
23967.7902609292
 20
8394.356388269072
 30
0.0
 11
24008.39446392121
 21
8248.241732268331
 31
0.0
  0
LINE
  5
5B64
330
18
100
AcDbEntity
  8
2
  6
Continuous
 62
     4
100
AcDbLine
 10
23892.01516581651
 20
8192.903112538459
 30
0.0
 11
23967.7902609292
 21
8192.903112538459
 31
0.0
  0
LINE
  5
5B65
330
18
100
AcDbEntity
  8
2
  6
Continuous
 62
     4
100
AcDbLine
 10
23967.7902609292
 20
8192.903112538459
 30
0.0
 11
23967.7902609292
 21
8394.356388269072
 31
0.0
  0
TEXT
  5
5B6E
330
18
100
AcDbEntity
  8
2
  6
Continuous
 62
     7
100
AcDbText
 10
22668.08200664172
 20
10172.90303065667
 30
0.0
 40
90.0
  1
S=1/20
 41
0.8
  7
JF3
100
AcDbText
  0
LINE
  5
5B77
330
18
100
AcDbEntity
  8
1
  6
CENTER
 62
     3
100
AcDbLine
 10
32069.952753991
 20
5462.489321779671
 30
0.0
 11
32069.952753991
 21
6297.123453438679
 31
0.0
  0
LWPOLYLINE
  5
5B7C
330
18
100
AcDbEntity
  8
2
 62
     4
100
AcDbPolyline
 90
        4
 70
     1
 43
0.0
 10
31842.39819502675
 20
1110.361918036151
 10
34962.39819502675
 20
1110.361918036151
 10
34962.39819502675
 20
410.3619180361527
 10
31842.39819502675
 20
410.361918036151
  0
LINE
  5
5B8A
330
18
100
AcDbEntity
  8
2
 62
     4
100
AcDbLine
 10
31842.39819502675
 20
910.361918036151
 30
0.0
 11
33282.39819502675
 21
910.3619180361508
 31
0.0
  0
LINE
  5
5B8B
330
18
100
AcDbEntity
  8
2
 62
     4
100
AcDbLine
 10
33282.39819502675
 20
610.3619180361508
 30
0.0
 11
31842.39819502675
 21
610.3619180361511
 31
0.0
  0
TEXT
  5
5B8C
330
18
100
AcDbEntity
  8
2
 62
     7
100
AcDbText
 10
31955.56992742873
 20
431.5382183240036
 30
0.0
 40
140.0
  1
斜面受圧板協会
 41
1.076703676915292
  7
JF
 72
     5
 11
33181.57651420961
 21
431.5382183240031
 31
0.0
100
AcDbText
  0
TEXT
  5
5B8E
330
18
100
AcDbEntity
  8
2
  6
Continuous
 62
     7
100
AcDbText
 10
29072.19051441826
 20
1538.351475803169
 30
0.0
 40
90.0
  1
コンクリート設計基準強度 　50 N/mm
 41
0.8
  7
JF3
100
AcDbText
  0
TEXT
  5
5B8F
330
18
100
AcDbEntity
  8
2
  6
Continuous
 62
     7
100
AcDbText
 10
29072.19051441826
 20
1398.35147580317
 30
0.0
 40
90.0
  1
許容最大設計アンカー力　　360 kN
 41
0.8
  7
JF3
100
AcDbText
  0
TEXT
  5
5B90
330
18
100
AcDbEntity
  8
2
  6
Continuous
 62
     7
100
AcDbText
 10
29072.19246741826
 20
1274.821344731478
 30
0.0
 40
90.0
  1
支圧面積　　　　　　　 　1.74m
 41
0.8
  7
JF3
100
AcDbText
  0
TEXT
  5
5B91
330
18
100
AcDbEntity
  8
2
  6
Continuous
 62
     7
100
AcDbText
 10
29072.19246741826
 20
1134.820978731478
 30
0.0
 40
90.0
  1
参考製品重量　　　　 　　1.37t
 41
0.8
  7
JF3
100
AcDbText
  0
LINE
  5
5B93
330
18
100
AcDbEntity
  8
2
  6
HIDDEN
 62
     4
100
AcDbLine
 10
29676.79966090269
 20
1760.78890589906
 30
0.0
 11
31074.38383109839
 21
1760.788905899059
 31
0.0
  0
LINE
  5
5B94
330
18
100
AcDbEntity
  8
2
  6
HIDDEN
 62
     4
100
AcDbLine
 10
29676.79966090269
 20
1780.78890589906
 30
0.0
 11
31074.38383109839
 21
1780.78890589906
 31
0.0
  0
LINE
  5
5B95
330
18
100
AcDbEntity
  8
2
  6
HIDDEN
 62
     4
100
AcDbLine
 10
29072.20486098547
 20
1081.455171980108
 30
0.0
 11
31074.38523118902
 21
1081.455171980108
 31
0.0
  0
LINE
  5
5B96
330
18
100
AcDbEntity
  8
2
  6
HIDDEN
 62
     4
100
AcDbLine
 10
29072.20486098547
 20
1061.455171980108
 30
0.0
 11
31074.38523118902
 21
1061.455171980108
 31
0.0
  0
TEXT
  5
5B97
330
18
100
AcDbEntity
  8
2
  6
Continuous
 62
     7
100
AcDbText
 10
29072.19051441826
 20
1738.35147580317
 30
0.0
 40
100.0
  1
設 計 条 件
 41
0.8
  7
JF3
100
AcDbText
  0
TEXT
  5
5B98
330
18
100
AcDbEntity
  8
2
 62
     7
100
AcDbText
 10
31900.41808429118
 20
851.1975206247443
 30
0.0
 40
70.0
  1
承認
  7
JF2
100
AcDbText
  0
LINE
  5
5B99
330
18
100
AcDbEntity
  8
2
 62
     4
100
AcDbLine
 10
31962.39819502675
 20
610.3619180361512
 30
0.0
 11
31962.39819502675
 21
1110.361918036151
 31
0.0
  0
TEXT
  5
5B9A
330
18
100
AcDbEntity
  8
2
  6
Continuous
 62
     7
100
AcDbText
 10
30779.75809251687
 20
1592.308027683635
 30
0.0
 40
45.0
  1
2
 41
0.8
  7
JF3
100
AcDbText
  0
TEXT
  5
5B9B
330
18
100
AcDbEntity
  8
2
  6
Continuous
 62
     7
100
AcDbText
 10
30511.56462467891
 20
1328.777652611944
 30
0.0
 40
45.0
  1
2
 41
0.8
  7
JF3
100
AcDbText
  0
TEXT
  5
5B9C
330
18
100
AcDbEntity
  8
2
 62
     7
100
AcDbText
 10
31900.41808429118
 20
1084.70754776322
 30
0.0
 40
70.0
  1
形式
  7
JF2
100
AcDbText
  0
LINE
  5
5BBA
330
18
100
AcDbEntity
  8
2
 62
     4
100
AcDbLine
 10
33482.39819502675
 20
870.3619180361512
 30
0.0
 11
34962.39819502675
 21
870.3619180361526
 31
0.0
  0
LINE
  5
5BBB
330
18
100
AcDbEntity
  8
2
 62
     4
100
AcDbLine
 10
34962.39819502675
 20
650.3619180361527
 30
0.0
 11
33482.39819502675
 21
650.3619180361511
 31
0.0
  0
TEXT
  5
5BBC
330
18
100
AcDbEntity
  8
2
 62
     7
100
AcDbText
 10
33724.11965893448
 20
692.7125885408461
 30
0.0
 40
100.0
  1
平成　　年　　月　　日
 50
360.0
 41
0.8587330618616022
  7
JF
 72
     5
 11
34823.29797811733
 21
692.7125885408456
 31
0.0
100
AcDbText
  0
TEXT
  5
5BBD
330
18
100
AcDbEntity
  8
2
 62
     7
100
AcDbText
 10
33535.57355169936
 20
834.2765041654329
 30
0.0
 40
70.0
  1
日付
  7
JF2
100
AcDbText
  0
LINE
  5
5BBE
330
18
100
AcDbEntity
  8
2
 62
     4
100
AcDbLine
 10
33042.39819502675
 20
610.3619180361524
 30
0.0
 11
33042.39819502675
 21
910.3619180361524
 31
0.0
  0
LINE
  5
5BBF
330
18
100
AcDbEntity
  8
2
 62
     4
100
AcDbLine
 10
32922.39819502675
 20
610.3619180361522
 30
0.0
 11
32922.39819502675
 21
910.3619180361523
 31
0.0
  0
TEXT
  5
5BC0
330
18
100
AcDbEntity
  8
2
 62
     7
100
AcDbText
 10
32978.13418781021
 20
844.4291140410198
 30
0.0
 40
70.0
  1
写図
  7
JF2
100
AcDbText
  0
LINE
  5
5BC1
330
18
100
AcDbEntity
  8
2
 62
     4
100
AcDbLine
 10
32562.39819502675
 20
610.3619180361519
 30
0.0
 11
32562.39819502675
 21
910.3619180361517
 31
0.0
  0
LINE
  5
5BC2
330
18
100
AcDbEntity
  8
2
 62
     4
100
AcDbLine
 10
32682.39819502675
 20
610.361918036152
 30
0.0
 11
32682.39819502675
 21
910.3619180361519
 31
0.0
  0
TEXT
  5
5BC3
330
18
100
AcDbEntity
  8
2
 62
     7
100
AcDbText
 10
32620.02162676627
 20
841.0449107491576
 30
0.0
 40
70.0
  1
設計
  7
JF2
100
AcDbText
  0
LINE
  5
5BC4
330
18
100
AcDbEntity
  8
2
 62
     4
100
AcDbLine
 10
32202.39819502675
 20
610.3619180361514
 30
0.0
 11
32202.39819502675
 21
910.3619180361514
 31
0.0
  0
LINE
  5
5BC5
330
18
100
AcDbEntity
  8
2
 62
     4
100
AcDbLine
 10
32322.39819502675
 20
610.3619180361516
 30
0.0
 11
32322.39819502675
 21
910.3619180361516
 31
0.0
  0
TEXT
  5
5BC6
330
18
100
AcDbEntity
  8
2
 62
     7
100
AcDbText
 10
32255.15222494792
 20
847.813317332881
 30
0.0
 40
70.0
  1
査図
  7
JF2
100
AcDbText
  0
LINE
  5
5BC7
330
18
100
AcDbEntity
  8
2
 62
     4
100
AcDbLine
 10
33282.39819502675
 20
410.3619180361508
 30
0.0
 11
33282.39819502675
 21
1110.361918036151
 31
0.0
  0
LINE
  5
5BC8
330
18
100
AcDbEntity
  8
2
 62
     4
100
AcDbLine
 10
33482.39819502675
 20
410.361918036151
 30
0.0
 11
33482.39819502675
 21
1110.361918036151
 31
0.0
  0
LINE
  5
5BC9
330
18
100
AcDbEntity
  8
2
 62
     4
100
AcDbLine
 10
33602.39819502675
 20
410.3619180361512
 30
0.0
 11
33602.39819502675
 21
1110.361918036151
 31
0.0
  0
TEXT
  5
5BCA
330
18
100
AcDbEntity
  8
2
 62
     7
100
AcDbText
 10
33535.57355169936
 20
614.3032901944043
 30
0.0
 40
70.0
  1
図番
  7
JF2
100
AcDbText
  0
LINE
  5
5BCB
330
18
100
AcDbEntity
  8
2
 62
     4
100
AcDbLine
 10
33282.39819502675
 20
710.3619180361508
 30
0.0
 11
33482.39819502675
 21
710.3619180361511
 31
0.0
  0
LINE
  5
5BCC
330
18
100
AcDbEntity
  8
2
 62
     4
100
AcDbLine
 10
33482.39819502675
 20
690.3619180361511
 30
0.0
 11
33282.39819502675
 21
690.3619180361508
 31
0.0
  0
TEXT
  5
5BCD
330
18
100
AcDbEntity
  8
2
  6
Continuous
 62
     7
100
AcDbText
 10
33913.14213930705
 20
483.7934310512844
 30
0.0
 40
80.0
  1
260417-KD
 41
0.8
  7
JF3
100
AcDbText
  0
TEXT
  5
5BCE
330
18
100
AcDbEntity
  8
2
  6
Continuous
 62
     7
100
AcDbText
 10
32118.61994267682
 20
951.7345733493701
 30
0.0
 40
100.0
  1
NRC200-36
 41
0.8
  7
JF3
100
AcDbText
  0
TEXT
  5
5BCF
330
18
100
AcDbEntity
  8
2
  6
Continuous
 62
     7
100
AcDbText
 10
33673.97332363946
 20
936.5037848290233
 30
0.0
 40
110.0
  1
構造図
 41
0.8
  7
JF3
100
AcDbText
  0
TEXT
  5
5BD0
330
18
100
AcDbEntity
  8
2
 62
     7
100
AcDbText
 10
33535.57355169936
 20
1084.70754776322
 30
0.0
 40
70.0
  1
名称
  7
JF2
100
AcDbText
  0
TEXT
  5
5BD1
330
18
100
AcDbEntity
  8
2
 62
     7
100
AcDbText
 10
33315.9762265309
 20
1003.486668758532
 30
0.0
 40
70.0
  1
尺度
 50
0.0000000000000964
 41
0.9049340322875909
  7
JF
 72
     5
 11
33451.11304201918
 21
1003.486668758532
 31
0.0
100
AcDbText
  0
LINE
  5
5BD2
330
18
100
AcDbEntity
  8
2
 62
     4
100
AcDbLine
 10
33282.39819502675
 20
990.3619180361509
 30
0.0
 11
33482.39819502675
 21
990.3619180361511
 31
0.0
  0
TEXT
  5
5BE0
330
18
100
AcDbEntity
  8
2
  6
Continuous
 62
     7
100
AcDbText
 10
31361.35464967331
 20
10162.90056227241
 30
0.0
 40
180.0
  1
先端部断面図
 41
0.8
  7
JF3
100
AcDbText
  0
TEXT
  5
5BE3
330
18
100
AcDbEntity
  8
2
  6
Continuous
 62
     7
100
AcDbText
 10
31333.20530423759
 20
7094.271707065401
 30
0.0
 40
180.0
  1
付根部断面図
 41
0.8
  7
JF3
100
AcDbText
  0
LINE
  5
5BE4
330
18
100
AcDbEntity
  8
2
  6
Continuous
 62
     4
100
AcDbLine
 10
31294.4243557827
 20
10142.90311253845
 30
0.0
 11
32929.58553169342
 21
10142.90311253845
 31
0.0
  0
LINE
  5
5BE5
330
18
100
AcDbEntity
  8
2
  6
Continuous
 62
     4
100
AcDbLine
 10
31288.2507378519
 20
7074.266683203461
 30
0.0
 11
32957.67683112579
 21
7074.266683203461
 31
0.0
  0
DIMENSION
  5
5BED
330
18
100
AcDbEntity
  8
2
  6
Continuous
 62
     4
100
AcDbDimension
  2
*D0
 10
32669.952753991
 20
6467.792481307149
 30
0.0
 11
32069.952753991
 21
6517.79248130715
 31
0.0
 70
    32
 71
     5
 42
600.0
  3
ST20-10
100
AcDbAlignedDimension
 13
31469.952753991
 23
6127.855439108764
 33
0.0
 14
32669.952753991
 24
6127.855439108764
 34
0.0
100
AcDbRotatedDimension
  0
DIMENSION
  5
5BEE
330
18
100
AcDbEntity
  8
2
  6
Continuous
 62
     4
100
AcDbDimension
  2
*D1
 10
33001.663355991
 20
6645.845728131246
 30
0.0
 11
32069.952753991
 21
6695.845728131246
 31
0.0
 70
    32
 71
     5
 42
931.7106019999991
  3
ST20-10
100
AcDbAlignedDimension
 13
31138.242151991
 23
5887.855439108767
 33
0.0
 14
33001.663355991
 24
5887.855439108767
 34
0.0
100
AcDbRotatedDimension
  0
TEXT
  5
5C0C
330
18
100
AcDbEntity
  8
2
  6
Continuous
 62
     7
100
AcDbText
 10
27911.53962879118
 20
10162.89665427241
 30
0.0
 40
90.0
  1
S=1/5
 41
0.8
  7
JF3
100
AcDbText
  0
LINE
  5
5C0F
330
18
100
AcDbEntity
  8
1
  6
CENTER
 62
     3
100
AcDbLine
 10
32069.952753991
 20
8102.134308725263
 30
0.0
 11
32069.952753991
 21
9302.410170794225
 31
0.0
  0
TEXT
  5
5C15
330
18
100
AcDbEntity
  8
2
  6
Continuous
 62
     7
100
AcDbText
 10
32487.83952961944
 20
7094.271707065401
 30
0.0
 40
90.0
  1
S=1/10
 41
0.8
  7
JF3
100
AcDbText
  0
TEXT
  5
5C24
330
18
100
AcDbEntity
  8
2
  6
Continuous
 62
     7
100
AcDbText
 10
32525.24630995799
 20
10162.90056227241
 30
0.0
 40
90.0
  1
S=1/5
 41
0.8
  7
JF3
100
AcDbText
  0
DIMENSION
  5
9281
330
18
100
AcDbEntity
  8
2
  6
Continuous
 62
     4
100
AcDbDimension
  2
*D2
 10
23614.7529036918
 20
8492.903112538456
 30
0.0
 11
23564.75290369179
 21
8817.903112538461
 31
0.0
 70
    32
 71
     5
 42
650.0
  3
ST20（詳細）
100
AcDbAlignedDimension
 13
22382.43136451147
 23
9142.903112538457
 33
0.0
 14
22475.82216910917
 24
8492.903112538456
 34
0.0
 50
90.0
100
AcDbRotatedDimension
  0
DIMENSION
  5
9282
330
18
100
AcDbEntity
  8
2
  6
Continuous
 62
     4
100
AcDbDimension
  2
*D3
 10
23614.7529036918
 20
7242.90311253846
 30
0.0
 11
23564.7529036918
 21
7567.903112538461
 31
0.0
 70
    32
 71
     5
 42
649.9999999999972
  3
ST20（詳細）
100
AcDbAlignedDimension
 13
22475.82216910917
 23
7892.903112538457
 33
0.0
 14
22382.43136451147
 24
7242.90311253846
 34
0.0
 50
90.0
100
AcDbRotatedDimension
  0
DIMENSION
  5
9283
330
18
100
AcDbEntity
  8
2
  6
Continuous
 62
     4
100
AcDbDimension
  2
*D4
 10
23614.7529036918
 20
8399.512307940756
 30
0.0
 11
23564.75290369179
 21
8446.20771023961
 31
0.0
 70
    32
 71
     5
 42
93.39080459770048
  3
ST20
100
AcDbAlignedDimension
 13
22475.82216910917
 23
8492.903112538456
 33
0.0
 14
23125.82216910917
 24
8399.512307940756
 34
0.0
 50
90.0
100
AcDbRotatedDimension
  0
DIMENSION
  5
9284
330
18
100
AcDbEntity
  8
2
  6
Continuous
 62
     4
100
AcDbDimension
  2
*D5
 10
23614.7529036918
 20
7986.293917136156
 30
0.0
 11
23564.7529036918
 21
7939.59851483731
 31
0.0
 70
    32
 71
     5
 42
93.39080459769958
  3
ST20
100
AcDbAlignedDimension
 13
22475.82216910917
 23
7892.903112538457
 33
0.0
 14
23125.82216910917
 24
7986.293917136156
 34
0.0
 50
90.0
100
AcDbRotatedDimension
  0
DIMENSION
  5
9285
330
18
100
AcDbEntity
  8
2
  6
Continuous
 62
     4
100
AcDbDimension
  2
*D6
 10
23614.7529036918
 20
7986.29391713616
 30
0.0
 11
23564.7529036918
 21
8192.903112538461
 31
0.0
 70
    32
 71
     5
 42
413.2183908045954
  3
ST20
100
AcDbAlignedDimension
 13
23125.82216910917
 23
8399.512307940755
 33
0.0
 14
23125.82216910917
 24
7986.29391713616
 34
0.0
 50
90.0
100
AcDbRotatedDimension
  0
DIMENSION
  5
9286
330
18
100
AcDbEntity
  8
2
  6
Continuous
 62
     4
100
AcDbDimension
  2
*D7
 10
23759.71857982839
 20
7242.90311253846
 30
0.0
 11
23709.71857982839
 21
8192.903112538461
 31
0.0
 70
    32
 71
     5
 42
1899.999999999996
  3
ST20（詳細）
100
AcDbAlignedDimension
 13
22382.43136451147
 23
9142.903112538455
 33
0.0
 14
22382.43136451147
 24
7242.90311253846
 34
0.0
 50
90.0
100
AcDbRotatedDimension
  0
DIMENSION
  5
9291
330
18
100
AcDbEntity
  8
2
  6
Continuous
 62
     4
100
AcDbDimension
  2
*D8
 10
22475.82216910917
 20
6783.343554996979
 30
0.0
 11
22429.12676681032
 21
6833.343554996979
 31
0.0
 70
    32
 71
     5
 42
93.39080459770048
  3
ST20
100
AcDbAlignedDimension
 13
22382.43136451147
 23
7242.90311253846
 33
0.0
 14
22475.82216910917
 24
7892.903112538457
 34
0.0
100
AcDbRotatedDimension
  0
DIMENSION
  5
9292
330
18
100
AcDbEntity
  8
2
  6
Continuous
 62
     4
100
AcDbDimension
  2
*D9
 10
21969.21297370687
 20
6783.343554996978
 30
0.0
 11
21922.51757140801
 21
6833.343554996978
 31
0.0
 70
    32
 71
     5
 42
93.39080459771503
  3
ST20
100
AcDbAlignedDimension
 13
21875.82216910915
 23
7892.903112538457
 33
0.0
 14
21969.21297370687
 24
7242.90311253846
 34
0.0
100
AcDbRotatedDimension
  0
DIMENSION
  5
9299
330
18
100
AcDbEntity
  8
2
  6
Continuous
 62
     4
100
AcDbDimension
  2
*D10
 10
21875.82216910915
 20
6783.343554996978
 30
0.0
 11
21550.82216910916
 21
6833.343554996978
 31
0.0
 70
    32
 71
     5
 42
649.9999999999854
  3
ST20（詳細）
100
AcDbAlignedDimension
 13
21225.82216910917
 23
7986.293917136157
 33
0.0
 14
21875.82216910915
 24
7892.903112538457
 34
0.0
100
AcDbRotatedDimension
  0
DIMENSION
  5
929A
330
18
100
AcDbEntity
  8
2
  6
Continuous
 62
     4
100
AcDbDimension
  2
*D11
 10
23125.82216910917
 20
6783.343554996979
 30
0.0
 11
22800.82216910917
 21
6833.343554996979
 31
0.0
 70
    32
 71
     5
 42
650.0
  3
ST20（詳細）
100
AcDbAlignedDimension
 13
22475.82216910917
 23
7892.903112538457
 33
0.0
 14
23125.82216910917
 24
7986.293917136156
 34
0.0
100
AcDbRotatedDimension
  0
DIMENSION
  5
929B
330
18
100
AcDbEntity
  8
2
  6
Continuous
 62
     4
100
AcDbDimension
  2
*D12
 10
23125.82216910917
 20
6645.845728131236
 30
0.0
 11
22175.82216910917
 21
6695.845728131236
 31
0.0
 70
    32
 71
     5
 42
1900.0
  3
ST20（詳細）
100
AcDbAlignedDimension
 13
21225.82216910917
 23
7986.29391713616
 33
0.0
 14
23125.82216910917
 24
7986.29391713616
 34
0.0
100
AcDbRotatedDimension
  0
DIMENSION
  5
929C
330
18
100
AcDbEntity
  8
2
  6
Continuous
 62
     4
100
AcDbDimension
  2
*D13
 10
22382.43136451147
 20
6783.343554996979
 30
0.0
 11
22175.82216910917
 21
6833.343554996979
 31
0.0
 70
    32
 71
     5
 42
413.218390804599
  3
ST20
100
AcDbAlignedDimension
 13
21969.21297370687
 23
7242.90311253846
 33
0.0
 14
22382.43136451147
 24
7242.90311253846
 34
0.0
100
AcDbRotatedDimension
  0
LINE
  5
929D
330
18
100
AcDbEntity
  8
3
 62
     7
100
AcDbLine
 10
21969.21297370686
 20
7242.90311253846
 30
0.0
 11
22382.43136451147
 21
7242.90311253846
 31
0.0
  0
LINE
  5
92B4
330
18
100
AcDbEntity
  8
3
  6
HIDDEN
 62
     9
100
AcDbLine
 10
21933.9798361229
 20
8897.680474954105
 30
0.0
 11
22032.96337603447
 21
8883.458701978307
 31
0.0
  0
LINE
  5
92B5
330
18
100
AcDbEntity
  8
3
  6
HIDDEN
 62
     9
100
AcDbLine
 10
21939.66854531322
 20
8937.273890918731
 30
0.0
 11
22038.65208522479
 21
8923.052117942933
 31
0.0
  0
LINE
  5
92B6
330
18
100
AcDbEntity
  8
3
  6
HIDDEN
 62
     9
100
AcDbLine
 10
21939.66854531322
 20
7448.532334158183
 30
0.0
 11
22038.65208522479
 21
7462.754107133982
 31
0.0
  0
LINE
  5
92B7
330
18
100
AcDbEntity
  8
3
  6
HIDDEN
 62
     9
100
AcDbLine
 10
21933.9798361229
 20
7488.125750122809
 30
0.0
 11
22032.96337603447
 21
7502.347523098608
 31
0.0
  0
LINE
  5
92BF
330
18
100
AcDbEntity
  8
3
 62
     7
100
AcDbLine
 10
21225.82216910916
 20
8399.512307940755
 30
0.0
 11
21225.82216910916
 21
7986.29391713616
 31
0.0
  0
LINE
  5
92CC
330
18
100
AcDbEntity
  8
3
  6
HIDDEN
 62
     9
100
AcDbLine
 10
21431.45139072889
 20
7956.749488742518
 30
0.0
 11
21445.67316370469
 21
8055.733028654083
 31
0.0
  0
LINE
  5
92CD
330
18
100
AcDbEntity
  8
3
  6
HIDDEN
 62
     9
100
AcDbLine
 10
21471.04480669352
 20
7951.060779552199
 30
0.0
 11
21485.26657966932
 21
8050.044319463765
 31
0.0
  0
LINE
  5
92CE
330
18
100
AcDbEntity
  8
3
  6
HIDDEN
 62
     9
100
AcDbLine
 10
21445.67316370469
 20
8055.733028654083
 30
0.0
 11
21485.26657966932
 21
8050.044319463765
 31
0.0
  0
LINE
  5
92D7
330
18
100
AcDbEntity
  8
3
  6
HIDDEN
 62
     9
100
AcDbLine
 10
21445.67316370469
 20
8330.073196422828
 30
0.0
 11
21485.26657966931
 21
8335.76190561315
 31
0.0
  0
LINE
  5
92D8
330
18
100
AcDbEntity
  8
3
  6
HIDDEN
 62
     9
100
AcDbLine
 10
21471.04480669352
 20
8434.745445524717
 30
0.0
 11
21485.26657966931
 21
8335.76190561315
 31
0.0
  0
LINE
  5
92D9
330
18
100
AcDbEntity
  8
3
  6
HIDDEN
 62
     9
100
AcDbLine
 10
21431.45139072889
 20
8429.056736334397
 30
0.0
 11
21445.67316370469
 21
8330.073196422828
 31
0.0
  0
LINE
  5
92DD
330
18
100
AcDbEntity
  8
3
 62
     7
100
AcDbLine
 10
23125.82216910916
 20
8399.512307940755
 30
0.0
 11
23125.82216910916
 21
7986.29391713616
 31
0.0
  0
LINE
  5
92E7
330
18
100
AcDbEntity
  8
3
  6
HIDDEN
 62
     9
100
AcDbLine
 10
22038.65208522479
 20
7462.754107133982
 30
0.0
 11
22032.96337603447
 21
7502.347523098608
 31
0.0
  0
LINE
  5
92E8
330
18
100
AcDbEntity
  8
3
  6
HIDDEN
 62
     9
100
AcDbLine
 10
22312.99225299354
 20
7462.754107133985
 30
0.0
 11
22318.68096218386
 21
7502.34752309861
 31
0.0
  0
LINE
  5
92E9
330
18
100
AcDbEntity
  8
3
  6
HIDDEN
 62
     9
100
AcDbLine
 10
22411.97579290511
 20
7448.532334158186
 30
0.0
 11
22312.99225299354
 21
7462.754107133985
 31
0.0
  0
LINE
  5
92EA
330
18
100
AcDbEntity
  8
3
  6
HIDDEN
 62
     9
100
AcDbLine
 10
22417.66450209543
 20
7488.125750122811
 30
0.0
 11
22318.68096218386
 21
7502.34752309861
 31
0.0
  0
LINE
  5
92EC
330
18
100
AcDbEntity
  8
3
  6
HIDDEN
 62
     9
100
AcDbLine
 10
22905.97117451364
 20
8055.733028654087
 30
0.0
 11
22866.37775854901
 21
8050.044319463767
 31
0.0
  0
LINE
  5
92ED
330
18
100
AcDbEntity
  8
3
  6
HIDDEN
 62
     9
100
AcDbLine
 10
22880.59953152481
 20
7951.0607795522
 30
0.0
 11
22866.37775854901
 21
8050.044319463767
 31
0.0
  0
LINE
  5
92EE
330
18
100
AcDbEntity
  8
3
  6
HIDDEN
 62
     9
100
AcDbLine
 10
22920.19294748944
 20
7956.74948874252
 30
0.0
 11
22905.97117451364
 21
8055.733028654087
 31
0.0
  0
LINE
  5
92FF
330
18
100
AcDbEntity
  8
3
  6
HIDDEN
 62
     9
100
AcDbLine
 10
22038.65208522479
 20
8923.052117942933
 30
0.0
 11
22032.96337603447
 21
8883.458701978307
 31
0.0
  0
LINE
  5
9305
330
18
100
AcDbEntity
  8
3
  6
HIDDEN
 62
     9
100
AcDbLine
 10
22312.99225299353
 20
8923.05211794293
 30
0.0
 11
22318.68096218386
 21
8883.458701978304
 31
0.0
  0
LINE
  5
9306
330
18
100
AcDbEntity
  8
3
  6
HIDDEN
 62
     9
100
AcDbLine
 10
22417.66450209542
 20
8897.680474954105
 30
0.0
 11
22318.68096218386
 21
8883.458701978304
 31
0.0
  0
LINE
  5
9307
330
18
100
AcDbEntity
  8
3
  6
HIDDEN
 62
     9
100
AcDbLine
 10
22411.9757929051
 20
8937.27389091873
 30
0.0
 11
22312.99225299353
 21
8923.05211794293
 31
0.0
  0
LINE
  5
9308
330
18
100
AcDbEntity
  8
3
  6
HIDDEN
 62
     9
100
AcDbLine
 10
22905.97117451364
 20
8330.07319642283
 30
0.0
 11
22866.37775854901
 21
8335.761905613152
 31
0.0
  0
LINE
  5
9309
330
18
100
AcDbEntity
  8
3
  6
HIDDEN
 62
     9
100
AcDbLine
 10
22880.59953152481
 20
8434.745445524718
 30
0.0
 11
22866.37775854901
 21
8335.761905613152
 31
0.0
  0
LINE
  5
930A
330
18
100
AcDbEntity
  8
3
  6
HIDDEN
 62
     9
100
AcDbLine
 10
22920.19294748944
 20
8429.056736334398
 30
0.0
 11
22905.97117451364
 21
8330.07319642283
 31
0.0
  0
LINE
  5
9311
330
18
100
AcDbEntity
  8
3
 62
     7
100
AcDbLine
 10
21969.21297370686
 20
9142.903112538455
 30
0.0
 11
22382.43136451146
 21
9142.903112538455
 31
0.0
  0
DIMENSION
  5
93A4
330
18
100
AcDbEntity
  8
2
  6
Continuous
100
AcDbDimension
  2
*D14
 10
32896.13821931106
 20
9680.78877010172
 30
0.0
 11
32070.19739303324
 21
9730.788770101721
 31
0.0
 70
    32
 71
     5
 42
412.9704131389098
  3
ST20-5
100
AcDbAlignedDimension
 13
31244.25656675542
 23
9017.372241727315
 33
0.0
 14
32896.13821931106
 24
8998.110645937911
 34
0.0
100
AcDbRotatedDimension
  0
LINE
  5
93B8
330
18
100
AcDbEntity
  8
2
  6
Continuous
100
AcDbLine
 10
31244.13821931105
 20
9002.410170794226
 30
0.0
 11
31244.13821931105
 21
8998.110645937911
 31
0.0
  0
LINE
  5
93CF
330
18
100
AcDbEntity
  8
2
  6
Continuous
100
AcDbLine
 10
32896.13821931106
 20
9002.410170794226
 30
0.0
 11
32896.13821931106
 21
8998.110645937911
 31
0.0
  0
SOLID
  5
9E34
330
18
100
AcDbEntity
  8
2
  6
Continuous
 62
     4
100
AcDbTrace
 10
21915.53976668244
 20
8953.062860932419
 30
0.0
 11
21936.99276507916
 21
8918.650460489628
 31
0.0
 12
21905.53860969541
 22
8944.24500196901
 32
0.0
 13
21905.53860969541
 23
8944.24500196901
 33
0.0
1001
ACAD
1000
DSTYLE
1002
{
1070
     5
1000

1070
    77
1070
     1
1070
   147
1040
1.0
1002
}
  0
LWPOLYLINE
  5
9E35
330
18
100
AcDbEntity
  8
2
  6
Continuous
 62
     4
100
AcDbPolyline
 90
        3
 70
     0
 43
0.0
 10
21910.53918818893
 20
8948.653931450715
 10
21778.4752096585
 20
9098.440017517102
 10
21159.00089619688
 20
9098.440017517102
1001
ACAD
1000
DSTYLE
1002
{
1070
     5
1000

1070
    77
1070
     1
1070
   147
1040
1.0
1002
}
  0
LINE
  5
9E54
330
18
100
AcDbEntity
  8
3
  6
CENTER
 62
     9
100
AcDbLine
 10
22349.06333049987
 20
8366.144273929158
 30
0.0
 11
22377.34760174733
 21
8394.428545176621
 31
0.0
  0
LINE
  5
9E55
330
18
100
AcDbEntity
  8
3
  6
CENTER
 62
     9
100
AcDbLine
 10
22002.58100771845
 20
8366.144273929158
 30
0.0
 11
21974.29673647099
 21
8394.428545176619
 31
0.0
  0
LINE
  5
9E56
330
18
100
AcDbEntity
  8
3
  6
CENTER
 62
     9
100
AcDbLine
 10
22349.06333049987
 20
8019.66195114775
 30
0.0
 11
22377.34760174732
 21
7991.377679900288
 31
0.0
  0
LINE
  5
9E57
330
18
100
AcDbEntity
  8
3
  6
CENTER
 62
     9
100
AcDbLine
 10
22002.58100771845
 20
8019.66195114775
 30
0.0
 11
21974.29673647099
 21
7991.377679900288
 31
0.0
  0
CIRCLE
  5
9E58
330
18
100
AcDbEntity
  8
3
  6
CENTER
 62
     9
100
AcDbCircle
 10
22363.2054661236
 20
8380.286409552889
 30
0.0
 40
8.0
  0
CIRCLE
  5
9E59
330
18
100
AcDbEntity
  8
3
  6
CENTER
 62
     9
100
AcDbCircle
 10
21988.43887209473
 20
8380.286409552889
 30
0.0
 40
8.0
  0
CIRCLE
  5
9E5A
330
18
100
AcDbEntity
  8
3
  6
CENTER
 62
     9
100
AcDbCircle
 10
21988.43887209473
 20
8005.519815524019
 30
0.0
 40
8.0
  0
CIRCLE
  5
9E5B
330
18
100
AcDbEntity
  8
3
  6
CENTER
 62
     9
100
AcDbCircle
 10
22363.2054661236
 20
8005.519815524023
 30
0.0
 40
8.0
  0
MTEXT
  5
9E5C
102
{ACAD_REACTORS
330
9E5D
102
}
330
18
100
AcDbEntity
  8
2
  6
Continuous
 62
     7
100
AcDbMText
 10
21769.92131667407
 20
8610.075966580367
 30
0.0
 40
60.0
 41
0.0
 71
     6
 72
     1
  1
Ｍ１２　ｽﾃﾝﾚｽｲﾝｻｰﾄ
  7
JF3
 73
     1
 44
1.0
1001
ACAD
1000
MTEXTBEGIN
1070
    73
1070
     1
1070
    44
1040
1.0
1070
    74
1070
     0
1000
MTEXTEND
  0
LEADER
  5
9E5D
330
18
100
AcDbEntity
  8
2
  6
Continuous
 62
     4
100
AcDbLeader
  3
ST20$7
 73
     0
 75
     1
 76
     3
 10
21988.43887209472
 20
8380.286409552892
 30
0.0
 10
21829.92131667406
 20
8560.075966580368
 30
0.0
 10
21789.92131667406
 20
8560.075966580368
 30
0.0
1001
ACAD
1000
DSTYLE
1002
{
1070
     5
1000

1070
    77
1070
     1
1070
   147
1040
1.0
1002
}
  0
LINE
  5
9E5E
330
18
100
AcDbEntity
  8
2
100
AcDbLine
 10
21829.92131667407
 20
8560.075966580368
 30
0.0
 11
21219.54652702489
 21
8560.075966580368
 31
0.0
  0
DIMENSION
  5
A819
330
18
100
AcDbEntity
  8
2
  6
Continuous
 62
     4
100
AcDbDimension
  2
*D32
 10
23125.82216910917
 20
4080.053360653265
 30
0.0
 11
22175.82216910916
 21
4130.053360653265
 31
0.0
 70
    32
 71
     5
 42
1900.0
  3
ST20
100
AcDbAlignedDimension
 13
21225.82216910916
 23
3520.428300316232
 33
0.0
 14
23125.82216910917
 24
3520.428300316235
 34
0.0
100
AcDbRotatedDimension
  0
DIMENSION
  5
A81A
330
18
100
AcDbEntity
  8
2
  6
Continuous
 62
     4
100
AcDbDimension
  2
*D33
 10
22475.82216910916
 20
3955.867562965467
 30
0.0
 11
22175.82216910917
 21
4005.867562965467
 31
0.0
 70
    32
 71
     5
 42
599.9999999999854
  3
ST20
100
AcDbAlignedDimension
 13
21875.82216910918
 23
3634.797265833465
 33
0.0
 14
22475.82216910916
 24
3632.497265833477
 34
0.0
100
AcDbRotatedDimension
  0
LINE
  5
A824
330
18
100
AcDbEntity
  8
3
100
AcDbLine
 10
21875.82216910917
 20
3632.497265833477
 30
0.0
 11
22475.82216910916
 21
3632.497265833477
 31
0.0
  0
LINE
  5
A825
330
18
100
AcDbEntity
  8
3
 62
     7
100
AcDbLine
 10
21225.82216910916
 20
3282.497265833476
 30
0.0
 11
23125.82216910917
 21
3282.497265833477
 31
0.0
  0
DIMENSION
  5
A830
330
18
100
AcDbEntity
  8
2
  6
Continuous
 62
     4
100
AcDbDimension
  2
*D34
 10
21875.82216910918
 20
3955.867562965467
 30
0.0
 11
21550.82216910917
 21
4005.867562965467
 31
0.0
 70
    32
 71
     5
 42
650.0000000000145
  3
ST20
100
AcDbAlignedDimension
 13
21225.82216910916
 23
3520.428300316234
 33
0.0
 14
21875.82216910918
 24
3634.797265833465
 34
0.0
100
AcDbRotatedDimension
  0
LINE
  5
A831
330
18
100
AcDbEntity
  8
1
  6
CENTER
 62
     3
 48
0.5
100
AcDbLine
 10
22175.82216910916
 20
3783.773817473433
 30
0.0
 11
22175.82216910916
 21
3182.497265833477
 31
0.0
  0
LINE
  5
A832
330
18
100
AcDbEntity
  8
3
 62
     7
100
AcDbLine
 10
21225.82216910916
 20
3520.428300316234
 30
0.0
 11
21875.82216910917
 21
3632.497265833477
 31
0.0
  0
LINE
  5
A833
330
18
100
AcDbEntity
  8
3
 62
     7
100
AcDbLine
 10
21225.82216910916
 20
3282.497265833476
 30
0.0
 11
21225.82216910916
 21
3520.428300316232
 31
0.0
  0
DIMENSION
  5
A83D
330
18
100
AcDbEntity
  8
2
  6
Continuous
 62
     4
100
AcDbDimension
  2
*D35
 10
23803.33807147
 20
3282.497265833476
 30
0.0
 11
23753.33807147
 21
3457.49726583348
 31
0.0
 70
    32
 71
     5
 42
350.0
  3
ST20
100
AcDbAlignedDimension
 13
22475.82216910916
 23
3632.497265833477
 33
0.0
 14
23125.82216910917
 24
3282.497265833477
 34
0.0
 50
90.0
100
AcDbRotatedDimension
  0
DIMENSION
  5
A83E
330
18
100
AcDbEntity
  8
2
  6
Continuous
 62
     4
100
AcDbDimension
  2
*D36
 10
23125.82216910917
 20
3955.867562965467
 30
0.0
 11
22800.82216910916
 21
4005.867562965467
 31
0.0
 70
    32
 71
     5
 42
650.0
  3
ST20
100
AcDbAlignedDimension
 13
22475.82216910916
 23
3632.497265833477
 33
0.0
 14
23125.82216910917
 24
3520.428300316235
 34
0.0
100
AcDbRotatedDimension
  0
DIMENSION
  5
A83F
330
18
100
AcDbEntity
  8
2
  6
Continuous
 62
     4
100
AcDbDimension
  2
*D37
 10
23650.89009577851
 20
3520.428300316235
 30
0.0
 11
23586.96026486903
 21
3707.871362113364
 31
0.0
 70
   160
 71
     5
 42
112.0689655172409
  3
ST20
100
AcDbAlignedDimension
 13
22475.82216910916
 23
3632.497265833477
 33
0.0
 14
23125.82216910917
 24
3520.428300316235
 34
0.0
 50
90.0
100
AcDbRotatedDimension
  0
LINE
  5
A840
330
18
100
AcDbEntity
  8
3
 62
     7
100
AcDbLine
 10
22475.82216910916
 20
3632.497265833477
 30
0.0
 11
23125.82216910917
 21
3520.428300316235
 31
0.0
  0
DIMENSION
  5
A841
330
18
100
AcDbEntity
  8
2
  6
Continuous
 62
     4
100
AcDbDimension
  2
*D38
 10
23650.8900957785
 20
3282.497265833476
 30
0.0
 11
23600.8900957785
 21
3401.46278307486
 31
0.0
 70
    32
 71
     5
 42
237.9310344827591
  3
ST20
100
AcDbAlignedDimension
 13
23125.82216910917
 23
3520.428300316235
 33
0.0
 14
23125.82216910917
 24
3282.497265833477
 34
0.0
 50
90.0
100
AcDbRotatedDimension
  0
LINE
  5
A842
330
18
100
AcDbEntity
  8
3
 62
     7
100
AcDbLine
 10
23125.82216910917
 20
3282.497265833477
 30
0.0
 11
23125.82216910917
 21
3520.428300316235
 31
0.0
  0
LWPOLYLINE
  5
A97A
330
18
100
AcDbEntity
  8
3
  6
Continuous
 62
     7
100
AcDbPolyline
 90
        4
 70
     0
 43
0.0
 10
21875.82216910917
 20
3634.797265833475
 10
21875.82216910917
 20
3632.497265833477
 10
22475.82216910916
 20
3632.497265833477
 10
22475.82216910916
 20
3634.797265833475
  0
LWPOLYLINE
  5
A97B
330
18
100
AcDbEntity
  8
3
  6
Continuous
 62
     9
100
AcDbPolyline
 90
        6
 70
     0
 43
0.0
 10
21875.82216910917
 20
3634.797265833475
 10
21924.80471837109
 20
3634.797265833478
 10
22024.80471837109
 20
3744.797265833476
 10
22326.83961984724
 20
3744.797265833478
 10
22426.83961984724
 20
3634.797265833475
 10
22475.82216910916
 20
3634.797265833475
  0
LWPOLYLINE
  5
A97C
330
18
100
AcDbEntity
  8
3
  6
Continuous
 62
     9
100
AcDbPolyline
 90
        6
 70
     0
 43
0.0
 10
21875.82216910917
 20
3632.497265833477
 10
21925.82216910917
 20
3632.497265833477
 10
22025.82216910916
 20
3742.497265833477
 10
22325.82216910917
 20
3742.497265833477
 10
22425.82216910916
 20
3632.497265833477
 10
22475.82216910916
 20
3632.497265833477
  0
LWPOLYLINE
  5
A980
330
18
100
AcDbEntity
  8
3
  6
Continuous
 62
     9
100
AcDbPolyline
 90
        4
 70
     1
 43
0.0
 10
21975.82216910916
 20
3632.497265833475
 10
22375.82216910916
 20
3632.497265833477
 10
22360.82216910916
 20
3607.497265833476
 10
21990.82216910916
 20
3607.497265833475
  0
LWPOLYLINE
  5
A981
330
18
100
AcDbEntity
  8
3
  6
Continuous
 62
     9
100
AcDbPolyline
 90
        4
 70
     1
 43
0.0
 10
21998.65552445005
 20
3607.497265833475
 10
22352.98881376828
 20
3607.497265833478
 10
22280.83745322407
 20
3482.497265833476
 10
22070.80688499426
 20
3482.497265833478
  0
LWPOLYLINE
  5
A982
330
18
100
AcDbEntity
  8
3
  6
Continuous
 62
     9
100
AcDbPolyline
 90
        4
 70
     1
 43
0.0
 10
21977.87216910917
 20
3607.497265833475
 10
22373.77216910916
 20
3607.497265833476
 10
22288.92216910916
 20
3460.497265833477
 10
22062.72216910917
 20
3460.497265833474
  0
LWPOLYLINE
  5
A983
330
18
100
AcDbEntity
  8
3
  6
Continuous
 62
     9
100
AcDbPolyline
 90
        4
 70
     1
 43
0.0
 10
22105.92216910916
 20
3460.497265833477
 10
22245.72216910916
 20
3460.497265833477
 10
22245.72216910916
 20
3291.497265833476
 10
22105.92216910916
 20
3291.497265833476
  0
LWPOLYLINE
  5
A984
330
18
100
AcDbEntity
  8
3
  6
Continuous
 62
     9
100
AcDbPolyline
 90
        4
 70
     1
 43
0.0
 10
22110.42216910916
 20
3460.497265833477
 10
22241.22216910917
 20
3460.497265833477
 10
22241.22216910917
 20
3291.497265833476
 10
22110.42216910916
 20
3291.497265833476
  0
LWPOLYLINE
  5
A985
330
18
100
AcDbEntity
  8
3
  6
Continuous
 62
     9
100
AcDbPolyline
 90
        4
 70
     1
 43
0.0
 10
22110.42216910916
 20
3482.49726583348
 10
22241.22216910917
 20
3482.49726583348
 10
22241.22216910917
 20
3460.497265833477
 10
22110.42216910916
 20
3460.497265833477
  0
LWPOLYLINE
  5
A986
330
18
100
AcDbEntity
  8
3
  6
Continuous
 62
     9
100
AcDbPolyline
 90
        4
 70
     1
 43
0.0
 10
22096.82216910917
 20
3282.497265833476
 10
22105.82216910916
 20
3291.497265833476
 10
22245.82216910917
 20
3291.497265833476
 10
22254.82216910916
 20
3282.497265833476
  0
INSERT
  5
A99A
330
18
100
AcDbEntity
  8
2
  6
Continuous
 62
     4
100
AcDbBlockReference
  2
_OPEN
 10
22038.85984643184
 20
3744.797265833478
 30
0.0
 41
60.0
 42
60.0
 43
60.0
 50
229.2646330635798
1001
ACAD
1000
DSTYLE
1002
{
1070
     5
1000

1070
   342
1005
0
1002
}
  0
LWPOLYLINE
  5
A99B
330
18
100
AcDbEntity
  8
2
  6
Continuous
 62
     4
100
AcDbPolyline
 90
        3
 70
     0
 43
0.0
 10
22078.01382159753
 20
3790.261166114075
 10
22117.18842752487
 20
3835.749021941617
 10
22431.44543587581
 20
3835.749021941617
1001
ACAD
1000
DSTYLE
1002
{
1070
     5
1000

1070
   342
1005
0
1002
}
  0
MTEXT
  5
A99C
330
18
100
AcDbEntity
  8
2
  6
Continuous
 62
     7
100
AcDbMText
 10
22159.73379704287
 20
3875.971870213219
 30
0.0
 40
70.0
 41
0.0
 71
     4
 72
     5
  1
ｾｰﾌﾃｨｷｬｯﾌﾟ
  7
JF3
 73
     1
 44
1.0
1001
ACAD
1000
MTEXTBEGIN
1070
    73
1070
     1
1070
    44
1040
1.0
1070
    74
1070
     0
1000
MTEXTEND
  0
DIMENSION
  5
A99D
330
18
100
AcDbEntity
  8
2
  6
Continuous
 62
     4
100
AcDbDimension
  2
*D16
 10
27984.50279383514
 20
3280.883679911903
 30
0.0
 11
27708.21984934649
 21
3391.910680001934
 31
0.0
 70
   161
  1
\U+03C6<>
 71
     5
 42
210.0000000974387
  3
ST20-5
100
AcDbAlignedDimension
 13
27111.30057936353
 23
3166.075044214283
 33
0.0
 14
27938.53909227762
 24
3020.210574906374
 34
0.0
  0
LWPOLYLINE
  5
A99E
330
18
100
AcDbEntity
  8
3
  6
Continuous
 62
     9
100
AcDbPolyline
 90
        6
 70
     0
 43
0.0
 10
28265.05866222629
 20
3409.424074224827
 10
28346.92910011952
 20
3394.988107101836
 10
27955.10561618112
 20
2927.93190791969
 10
27064.05156125567
 20
3085.04877907273
 10
26855.60055293353
 20
3657.949567071477
 10
26937.47099082676
 20
3643.513599948484
  0
LWPOLYLINE
  5
A99F
330
18
100
AcDbEntity
  8
3
  6
Continuous
 62
     9
100
AcDbPolyline
 90
        4
 70
     0
 43
0.0
 10
28265.05866222629
 20
3409.424074224826
 10
27938.53909227762
 20
3020.210574906374
 10
27111.18016442854
 20
3166.096276616193
 10
26937.47099082676
 20
3643.513599948488
  0
LWPOLYLINE
  5
A9A0
330
18
100
AcDbEntity
  8
3
  6
Continuous
 62
     9
100
AcDbPolyline
 90
        4
 70
     1
 43
0.0
 10
27267.23392016507
 20
3138.579789038955
 10
27782.48533654106
 20
3047.727062483617
 10
27767.20429690637
 20
2961.063980218543
 10
27251.95288053038
 20
3051.916706773881
  0
LWPOLYLINE
  5
A9A1
330
18
100
AcDbEntity
  8
3
  6
Continuous
 62
     9
100
AcDbPolyline
 90
        4
 70
     0
 43
0.0
 10
27124.23987659985
 20
2431.345261252581
 10
27234.21486224968
 20
3055.044397981091
 10
27784.91935773411
 20
2957.94033702974
 10
27675.28177791751
 20
2333.849633444595
  0
LWPOLYLINE
  5
A9A2
330
18
100
AcDbEntity
  8
3
  6
Continuous
 62
     9
100
AcDbPolyline
 90
        4
 70
     0
 43
0.0
 10
27141.96641615408
 20
2428.219594054573
 10
27251.9414018039
 20
3051.918730783083
 10
27767.19281817988
 20
2961.066004227708
 10
27657.21783253007
 20
2337.366867499198
  0
LWPOLYLINE
  5
A9A3
330
18
100
AcDbEntity
  8
3
  6
Continuous
 62
     9
100
AcDbPolyline
 90
        6
 70
     0
 43
0.0
 10
26937.47099082676
 20
3643.513599948486
 10
26912.30422518447
 20
3647.951179748389
 10
26903.52026579152
 20
3697.767488957935
 10
28341.85061664343
 20
3697.767488957936
 10
28290.22542786861
 20
3404.986494424917
 10
28265.05866222629
 20
3409.424074224824
  0
LWPOLYLINE
  5
A9A4
330
18
100
AcDbEntity
  8
3
  6
Continuous
 62
     9
100
AcDbPolyline
 90
        4
 70
     0
 43
0.0
 10
27147.53610179045
 20
5180.122000064478
 10
27203.31577714896
 20
5817.686606843196
 10
27760.38785232186
 20
5768.949115498705
 10
27704.60817696336
 20
5131.384508719988
  0
LWPOLYLINE
  5
A9A5
330
18
100
AcDbEntity
  8
3
  6
Continuous
 62
     9
100
AcDbPolyline
 90
        4
 70
     0
 43
0.0
 10
27165.4676063561
 20
5178.55319669502
 10
27221.2472817146
 20
5816.117803473613
 10
27742.45634775622
 20
5770.517918868286
 10
27686.67667239771
 20
5132.953312089446
  0
DIMENSION
  5
A9A6
330
18
100
AcDbEntity
  8
2
  6
Continuous
 62
     4
100
AcDbDimension
  2
*D17
 10
27875.14242757985
 20
8850.757654463789
 30
0.0
 11
27586.44884202241
 21
8919.640771694638
 31
0.0
 70
   160
  1
\U+03C6<>
 71
     5
 42
210.000000097436
  3
ST20-5
100
AcDbAlignedDimension
 13
27035.1424271901
 23
8615.12636082055
 33
0.0
 14
27875.14242757985
 24
8615.126360820541
 34
0.0
100
AcDbRotatedDimension
  0
DIMENSION
  5
A9A7
330
18
100
AcDbEntity
  8
2
  6
Continuous
 62
     4
100
AcDbDimension
  2
*D18
 10
27931.05383482813
 20
6108.059419945739
 30
0.0
 11
27624.5714683929
 21
6194.664120628144
 31
0.0
 70
   161
  1
\U+03C6<>
 71
     5
 42
210.0000000974378
  3
ST20-5
100
AcDbAlignedDimension
 13
27071.1806503276
 23
5917.583078197447
 33
0.0
 14
27907.98419711294
 24
5844.372254255436
 34
0.0
  0
LWPOLYLINE
  5
A9A8
330
18
100
AcDbEntity
  8
3
  6
Continuous
 62
     9
100
AcDbPolyline
 90
        4
 70
     0
 43
0.0
 10
28163.80902245564
 20
9115.126360820553
 10
27875.20358027877
 20
8615.126360820546
 10
27035.08130735956
 20
8615.126360820561
 10
26746.47586518269
 20
9115.126360820545
  0
LWPOLYLINE
  5
A9A9
330
18
100
AcDbEntity
  8
3
  6
Continuous
 62
     9
100
AcDbPolyline
 90
        6
 70
     0
 43
0.0
 10
28163.80902245564
 20
9115.126360820546
 10
28246.94244381916
 20
9115.126360820546
 10
27907.54244381917
 20
8527.126360820545
 10
27002.74244381917
 20
8527.126360820545
 10
26663.34244381916
 20
9115.126360820545
 10
26746.47586518269
 20
9115.126360820545
  0
LWPOLYLINE
  5
A9AA
330
18
100
AcDbEntity
  8
3
  6
Continuous
 62
     9
100
AcDbPolyline
 90
        6
 70
     0
 43
0.0
 10
26746.47586518269
 20
9115.126360820545
 10
26715.14244381917
 20
9115.126360820545
 10
26655.14244381917
 20
9215.126360820544
 10
28255.14244381917
 20
9215.126360820546
 10
28195.14244381917
 20
9115.126360820546
 10
28163.80902245564
 20
9115.126360820546
  0
LWPOLYLINE
  5
A9AB
330
18
100
AcDbEntity
  8
3
  6
Continuous
 62
     9
100
AcDbPolyline
 90
        4
 70
     1
 43
0.0
 10
27139.14244381917
 20
7815.126360820547
 10
27175.14244381917
 20
7851.126360820547
 10
27735.14244381917
 20
7851.126360820547
 10
27771.14244381917
 20
7815.126360820547
  0
LWPOLYLINE
  5
A9AC
330
18
100
AcDbEntity
  8
3
  6
Continuous
 62
     9
100
AcDbPolyline
 90
        4
 70
     0
 43
0.0
 10
28239.06927982379
 20
6317.315981627377
 10
27907.98419711294
 20
5844.372254255436
 10
27071.05884308203
 20
5917.593734950574
 10
26827.12950311884
 20
6440.844705670375
  0
LWPOLYLINE
  5
A9AD
330
18
100
AcDbEntity
  8
3
  6
Continuous
 62
     9
100
AcDbPolyline
 90
        4
 70
     1
 43
0.0
 10
27228.91698707668
 20
5903.782936905798
 10
27750.12605311828
 20
5858.183052300225
 10
27742.45634775649
 20
5770.517918868137
 10
27221.24728171489
 20
5816.11780347371
  0
LWPOLYLINE
  5
A9AE
330
18
100
AcDbEntity
  8
3
  6
Continuous
 62
     9
100
AcDbPolyline
 90
        6
 70
     0
 43
0.0
 10
28239.06927982378
 20
6317.315981627368
 10
28321.88635342036
 20
6310.070426541278
 10
27932.5302961524
 20
5753.888603151882
 10
27031.17333331899
 20
5832.747119189964
 10
26744.31242952227
 20
6448.090260756469
 10
26827.12950311884
 20
6440.844705670376
  0
LWPOLYLINE
  5
A9AF
330
18
100
AcDbEntity
  8
3
  6
Continuous
 62
     9
100
AcDbPolyline
 90
        4
 70
     1
 43
0.0
 10
27037.3431609668
 20
5088.028368999611
 10
27147.13762391122
 20
5180.156862361576
 10
27705.00665484259
 20
5131.349646422889
 10
27741.35752275059
 20
5088.028368999611
  0
LWPOLYLINE
  5
A9B0
330
18
100
AcDbEntity
  8
3
  6
Continuous
 62
     9
100
AcDbPolyline
 90
        6
 70
     0
 43
0.0
 10
26827.12950311901
 20
6440.84470567002
 10
26795.91531488339
 20
6443.575593281785
 10
26775.39538134215
 20
6488.028368999225
 10
28390.73369294172
 20
6488.028369000005
 10
28270.28346805924
 20
6314.585094015959
 10
28239.06927982401
 20
6317.31598162769
  0
LEADER
  5
A9BA
330
18
100
AcDbEntity
  8
2
  6
Continuous
100
AcDbLeader
  3
ST20-5（詳細）
 73
     0
 74
     0
 75
     1
 40
60.00000000000001
 41
248.2285714285714
 76
     3
 10
27734.74224384142
 20
7996.987436020879
 30
0.0
 10
28017.19366155634
 20
7621.593558669831
 30
0.0
 10
28057.19366155634
 20
7621.593558669831
 30
0.0
340
A9BB
211
1.0
221
0.0000000000000011
231
0.0
1001
ACAD
1000
DSTYLE
1002
{
1070
   147
1040
1.0
1070
    77
1070
     1
1002
}
  0
MTEXT
  5
A9BB
102
{ACAD_REACTORS
330
A9BA
102
}
330
18
100
AcDbEntity
  8
2
  6
Continuous
 62
     7
100
AcDbMText
 10
28077.19366155634
 20
7671.59355866983
 30
0.0
 40
60.0
 41
0.0
 71
     4
 72
     1
  1
VU 125
  7
JF3
 73
     1
 44
1.0
1001
ACAD
1000
MTEXTBEGIN
1070
    73
1070
     1
1070
    44
1040
1.0
1070
    74
1070
     0
1000
MTEXTEND
  0
LINE
  5
A9BF
330
18
100
AcDbEntity
  8
3
 62
     7
100
AcDbLine
 10
26255.14244381916
 20
2297.767488957934
 30
0.0
 11
28655.1424438192
 21
2297.767488957937
 31
0.0
  0
LINE
  5
A9C0
330
18
100
AcDbEntity
  8
3
 62
     7
100
AcDbLine
 10
26255.14244381916
 20
3697.767488957934
 30
0.0
 11
28655.1424438192
 21
3697.767488957937
 31
0.0
  0
LINE
  5
A9C3
330
18
100
AcDbEntity
  8
3
 62
     7
100
AcDbLine
 10
26255.14244381915
 20
9215.126360820544
 30
0.0
 11
28655.14244381918
 21
9215.126360820546
 31
0.0
  0
LINE
  5
A9C4
330
18
100
AcDbEntity
  8
3
 62
     7
100
AcDbLine
 10
26255.14244381915
 20
7815.126360820544
 30
0.0
 11
28655.14244381919
 21
7815.126360820548
 31
0.0
  0
LINE
  5
A9C8
330
18
100
AcDbEntity
  8
3
 62
     7
100
AcDbLine
 10
26255.14244381916
 20
5088.028368999597
 30
0.0
 11
28655.14244381919
 21
5088.028368999601
 31
0.0
  0
LINE
  5
A9C9
330
18
100
AcDbEntity
  8
3
 62
     7
100
AcDbLine
 10
26255.14244381916
 20
6488.028368999597
 30
0.0
 11
28655.14244381919
 21
6488.0283689996
 31
0.0
  0
LINE
  5
A9CC
330
18
100
AcDbEntity
  8
1
  6
CENTER
 62
     3
100
AcDbLine
 10
27455.14218087206
 20
4888.028368999599
 30
0.0
 11
27455.14247668757
 21
6688.028368999599
 31
0.0
  0
LINE
  5
A9CD
330
18
100
AcDbEntity
  8
1
  6
CENTER
 62
     3
100
AcDbLine
 10
27403.04772757198
 20
4892.586043095935
 30
0.0
 11
27559.33138328773
 21
6678.913020806922
 31
0.0
  0
DIMENSION
  5
A9CE
330
18
100
AcDbEntity
  8
2
  6
Continuous
 62
     4
100
AcDbDimension
  2
*D19
 10
27455.14247668757
 20
6688.028368999599
 30
0.0
 11
27524.05475599183
 21
7066.377622141846
 31
0.0
 70
    34
 71
     5
 42
0.0872664625997177
  3
ST20-5（詳細）
100
AcDb2LineAngularDimension
 13
27403.04772757198
 23
4892.586043095935
 33
0.0
 14
27559.33138328773
 24
6678.913020806922
 34
0.0
 15
27455.14218087206
 25
4888.028368999599
 35
0.0
 16
27544.09556759942
 26
7015.293019741861
 36
0.0
  0
DIMENSION
  5
A9CF
330
18
100
AcDbEntity
  8
2
  6
Continuous
 62
     4
100
AcDbDimension
  2
*D20
 10
26703.61548784415
 20
3684.74866045364
 30
0.0
 11
26616.1724717384
 21
3476.773405330206
 31
0.0
 70
    32
 71
     5
 42
109.9999861469596
  3
ST20-5
100
AcDbAlignedDimension
 13
27029.2976414226
 23
3180.534388544532
 33
0.0
 14
26855.52807463318
 24
3657.962346951349
 34
0.0
 50
79.99999058377301
100
AcDbRotatedDimension
  0
DIMENSION
  5
A9D0
330
18
100
AcDbEntity
  8
2
  6
Continuous
 62
     4
100
AcDbDimension
  2
*D21
 10
27455.14247668757
 20
3897.767488957935
 30
0.0
 11
27594.57833883363
 21
4291.525923602574
 31
0.0
 70
    34
 71
     5
 42
0.1745329251994323
  3
ST20-5（詳細）
100
AcDb2LineAngularDimension
 13
27352.53613787436
 23
2115.859702722162
 33
0.0
 14
27660.35456268297
 24
3861.583061429477
 34
0.0
 15
27455.14218087206
 25
2097.767488957936
 35
0.0
 16
27635.0687123685
 26
4237.134308725629
 36
0.0
  0
LINE
  5
A9D1
330
18
100
AcDbEntity
  8
1
  6
CENTER
 62
     3
100
AcDbLine
 10
27352.53613787436
 20
2115.859702722162
 30
0.0
 11
27660.35456268297
 21
3861.583061429477
 31
0.0
  0
LINE
  5
A9D2
330
18
100
AcDbEntity
  8
1
  6
CENTER
 62
     3
100
AcDbLine
 10
27455.14218087206
 20
2097.767488957936
 30
0.0
 11
27455.14247668757
 21
3897.767488957935
 31
0.0
  0
LWPOLYLINE
  5
A9D6
330
18
100
AcDbEntity
  8
3
  6
Continuous
 62
     9
100
AcDbPolyline
 90
        4
 70
     1
 43
0.0
 10
27123.66028272036
 20
2431.44745929139
 10
27011.48946891777
 20
2297.767488957961
 10
27688.41460449914
 20
2297.767488957914
 10
27675.15262440718
 20
2334.204479797871
  0
DIMENSION
  5
A9DB
330
18
100
AcDbEntity
  8
2
  6
Continuous
 62
     4
100
AcDbDimension
  2
*D22
 10
26627.21022808102
 20
3251.43331625518
 30
0.0
 11
26570.32931445736
 21
3216.784190737731
 31
0.0
 70
    32
 71
     5
 42
22.00000132833066
  3
ST20-5
100
AcDbAlignedDimension
 13
27064.05156125567
 23
3085.04877907273
 33
0.0
 14
27029.2976414226
 24
3180.534388544532
 34
0.0
 50
79.99999058377301
100
AcDbRotatedDimension
  0
TEXT
  5
A9DC
330
18
100
AcDbEntity
  8
2
  6
Continuous
 62
     7
100
AcDbText
 10
26120.59640158934
 20
4143.113792081354
 30
0.0
 40
180.0
  1
10゜
 41
0.8
  7
JF3
100
AcDbText
  0
DIMENSION
  5
A9DD
330
18
100
AcDbEntity
  8
2
  6
Continuous
 62
     4
100
AcDbDimension
  2
*D23
 10
26568.39842795151
 20
5961.570822876745
 30
0.0
 11
26514.75384036611
 21
5922.096043297916
 31
0.0
 70
    32
 71
     5
 42
22.00000000002842
  3
ST20-5
100
AcDbAlignedDimension
 13
27031.17333331899
 23
5832.747119189964
 33
0.0
 14
26988.22955158546
 24
5924.840358964392
 34
0.0
 50
85.00000000013093
100
AcDbRotatedDimension
  0
DIMENSION
  5
A9DE
330
18
100
AcDbEntity
  8
2
  6
Continuous
 62
     4
100
AcDbDimension
  2
*D24
 10
26611.9762993254
 20
6459.668171923273
 30
0.0
 11
26540.37762873443
 21
6214.977284537232
 31
0.0
 70
    32
 71
     5
 42
125.0000000001646
  3
ST20-5
100
AcDbAlignedDimension
 13
26988.22955158546
 23
5924.840358964392
 33
0.0
 14
26744.23078327144
 24
6448.09740387783
 34
0.0
 50
85.00000000013093
100
AcDbRotatedDimension
  0
TEXT
  5
A9E6
330
18
100
AcDbEntity
  8
2
  6
Continuous
 62
     7
100
AcDbText
 10
26120.59640158933
 20
9660.472663943965
 30
0.0
 40
180.0
  1
0゜
 41
0.8
  7
JF3
100
AcDbText
  0
LINE
  5
A9E9
330
18
100
AcDbEntity
  8
1
  6
CENTER
 62
     3
100
AcDbLine
 10
27455.14218087206
 20
7615.126360820546
 30
0.0
 11
27455.14247668756
 21
9415.126360820547
 31
0.0
  0
TEXT
  5
A9EB
330
18
100
AcDbEntity
  8
2
  6
Continuous
 62
     7
100
AcDbText
 10
26120.59640158933
 20
6933.374672123017
 30
0.0
 40
180.0
  1
5゜
 41
0.8
  7
JF3
100
AcDbText
  0
DIMENSION
  5
A9EC
330
18
100
AcDbEntity
  8
2
  6
Continuous
 62
     4
100
AcDbDimension
  2
*D25
 10
26630.79165114341
 20
9315.482448851893
 30
0.0
 11
26574.6147361706
 21
9340.7837187181
 31
0.0
 70
    32
 71
     5
 42
18.00000022711629
  3
ST20-5
100
AcDbAlignedDimension
 13
26663.32885306386
 23
9115.126360820548
 33
0.0
 14
26746.46729295811
 24
9115.126360820546
 34
0.0
 50
30.00000009780681
100
AcDbRotatedDimension
  0
LWPOLYLINE
  5
A9F1
330
18
100
AcDbEntity
  8
3
  6
Continuous
 62
     9
100
AcDbPolyline
 90
        4
 70
     0
 43
0.0
 10
27175.54244381916
 20
7851.126360820547
 10
27175.54244381916
 20
8527.126360820545
 10
27734.74244381917
 20
8527.126360820545
 10
27734.74244381917
 20
7851.126360820547
  0
LWPOLYLINE
  5
A9F2
330
18
100
AcDbEntity
  8
3
  6
Continuous
 62
     9
100
AcDbPolyline
 90
        4
 70
     0
 43
0.0
 10
27193.54244381916
 20
7851.126360820547
 10
27193.54244381916
 20
8527.126360820545
 10
27716.74244381917
 20
8527.126360820545
 10
27716.74244381917
 20
7851.126360820547
  0
LWPOLYLINE
  5
A9F3
330
18
100
AcDbEntity
  8
3
  6
Continuous
 62
     9
100
AcDbPolyline
 90
        4
 70
     1
 43
0.0
 10
27193.54244381916
 20
8615.126360820561
 10
27716.74244381916
 20
8615.126360820561
 10
27716.74244381916
 20
8527.126360820545
 10
27193.54244381916
 20
8527.126360820545
  0
DIMENSION
  5
A9F4
330
18
100
AcDbEntity
  8
2
  6
Continuous
 62
     4
100
AcDbDimension
  2
*D26
 10
29172.12515135392
 20
2297.767488957937
 30
0.0
 11
29122.12515135392
 21
2997.767488957941
 31
0.0
 70
    32
 71
     5
 42
350.0
  3
ST20-5（詳細）
100
AcDbAlignedDimension
 13
28655.1424438192
 23
3697.767488957937
 33
0.0
 14
28655.1424438192
 24
2297.767488957937
 34
0.0
 50
90.0
100
AcDbRotatedDimension
  0
DIMENSION
  5
A9FB
330
18
100
AcDbEntity
  8
2
  6
Continuous
 62
     4
100
AcDbDimension
  2
*D27
 10
29172.12515135391
 20
5088.028368999601
 30
0.0
 11
29122.12515135391
 21
5788.028368999604
 31
0.0
 70
    32
 71
     5
 42
350.0
  3
ST20-5（詳細）
100
AcDbAlignedDimension
 13
28655.14244381919
 23
6488.0283689996
 33
0.0
 14
28655.14244381919
 24
5088.028368999601
 34
0.0
 50
90.0
100
AcDbRotatedDimension
  0
DIMENSION
  5
AA01
330
18
100
AcDbEntity
  8
2
  6
Continuous
 62
     4
100
AcDbDimension
  2
*D28
 10
29172.12515135391
 20
7815.126360820548
 30
0.0
 11
29122.12515135391
 21
8515.126360820552
 31
0.0
 70
    32
 71
     5
 42
349.9999999999993
  3
ST20-5（詳細）
100
AcDbAlignedDimension
 13
28655.14244381918
 23
9215.126360820546
 33
0.0
 14
28655.14244381919
 24
7815.126360820548
 34
0.0
 50
90.0
100
AcDbRotatedDimension
  0
DIMENSION
  5
AA03
330
18
100
AcDbEntity
  8
2
  6
Continuous
 62
     4
100
AcDbDimension
  2
*D29
 10
29024.27985128408
 20
9115.126360820545
 30
0.0
 11
28974.27985128407
 21
9165.126360820549
 31
0.0
 70
    32
 71
     5
 42
25.0
  3
ST20-5（詳細）
100
AcDbAlignedDimension
 13
28655.14244381918
 23
9215.126360820546
 33
0.0
 14
28246.95562720005
 24
9115.126360820546
 34
0.0
 50
90.0
100
AcDbRotatedDimension
  0
DIMENSION
  5
AA04
330
18
100
AcDbEntity
  8
2
  6
Continuous
 62
     4
100
AcDbDimension
  2
*D30
 10
29024.27985128408
 20
8615.126360820534
 30
0.0
 11
28974.27985128407
 21
8865.126360820545
 31
0.0
 70
    32
 71
     5
 42
125.0000000000027
  3
ST20-5（詳細）
100
AcDbAlignedDimension
 13
28246.95562720005
 23
9115.126360820546
 33
0.0
 14
27958.28049439532
 24
8615.126360820536
 34
0.0
 50
90.0
100
AcDbRotatedDimension
  0
DIMENSION
  5
AA05
330
18
100
AcDbEntity
  8
2
  6
Continuous
 62
     4
100
AcDbDimension
  2
*D31
 10
29024.27985128408
 20
8527.126360820533
 30
0.0
 11
28974.27985128407
 21
8571.126360820539
 31
0.0
 70
    32
 71
     5
 42
22.0
  3
ST20-5（詳細）
100
AcDbAlignedDimension
 13
27958.28049439532
 23
8615.126360820536
 33
0.0
 14
27907.47367102169
 24
8527.126360820536
 34
0.0
 50
90.0
100
AcDbRotatedDimension
  0
LEADER
  5
AA09
330
18
100
AcDbEntity
  8
2
  6
Continuous
100
AcDbLeader
  3
ST20-5（詳細）
 73
     0
 74
     0
 75
     1
 40
60.00000000000001
 41
248.2285714285714
 76
     3
 10
27712.0840956299
 20
5277.210721623223
 30
0.0
 10
27994.53551334482
 20
4901.816844272174
 30
0.0
 10
28034.53551334482
 20
4901.816844272174
 30
0.0
340
AA0A
211
1.0
221
0.0000000000000011
231
0.0
1001
ACAD
1000
DSTYLE
1002
{
1070
   147
1040
1.0
1070
    77
1070
     1
1002
}
  0
MTEXT
  5
AA0A
102
{ACAD_REACTORS
330
AA09
102
}
330
18
100
AcDbEntity
  8
2
  6
Continuous
 62
     7
100
AcDbMText
 10
28054.53551334482
 20
4951.816844272173
 30
0.0
 40
60.0
 41
0.0
 71
     4
 72
     1
  1
VU 125
  7
JF3
 73
     1
 44
1.0
1001
ACAD
1000
MTEXTBEGIN
1070
    73
1070
     1
1070
    44
1040
1.0
1070
    74
1070
     0
1000
MTEXTEND
  0
LEADER
  5
AA0B
330
18
100
AcDbEntity
  8
2
  6
Continuous
100
AcDbLeader
  3
ST20-5（詳細）
 73
     0
 74
     0
 75
     1
 40
60.00000000000001
 41
248.2285714285714
 76
     3
 10
27695.30561887299
 20
2480.065554998204
 30
0.0
 10
27977.75703658791
 20
2104.671677647156
 30
0.0
 10
28017.75703658791
 20
2104.671677647156
 30
0.0
340
AA0C
211
1.0
221
0.0000000000000011
231
0.0
1001
ACAD
1000
DSTYLE
1002
{
1070
   147
1040
1.0
1070
    77
1070
     1
1002
}
  0
MTEXT
  5
AA0C
102
{ACAD_REACTORS
330
AA0B
102
}
330
18
100
AcDbEntity
  8
2
  6
Continuous
 62
     7
100
AcDbMText
 10
28037.75703658791
 20
2154.671677647156
 30
0.0
 40
60.0
 41
0.0
 71
     4
 72
     1
  1
VU 125
  7
JF3
 73
     1
 44
1.0
1001
ACAD
1000
MTEXTBEGIN
1070
    73
1070
     1
1070
    44
1040
1.0
1070
    74
1070
     0
1000
MTEXTEND
  0
DIMENSION
  5
B27C
330
18
100
AcDbEntity
  8
2
  6
Continuous
 62
     4
100
AcDbDimension
  2
*D39
 10
23125.82216910918
 20
2500.213398358146
 30
0.0
 11
22175.82216910917
 21
2550.213398358146
 31
0.0
 70
    32
 71
     5
 42
1900.0
  3
ST20
100
AcDbAlignedDimension
 13
21225.82216910918
 23
1940.588338021112
 33
0.0
 14
23125.82216910918
 24
1940.588338021116
 34
0.0
100
AcDbRotatedDimension
  0
DIMENSION
  5
B27D
330
18
100
AcDbEntity
  8
2
  6
Continuous
 62
     4
100
AcDbDimension
  2
*D40
 10
22475.82216910918
 20
2376.027600670348
 30
0.0
 11
22175.82216910918
 21
2426.027600670348
 31
0.0
 70
    32
 71
     5
 42
599.9999999999854
  3
ST20
100
AcDbAlignedDimension
 13
21875.82216910919
 23
2054.957303538346
 33
0.0
 14
22475.82216910918
 24
2052.657303538357
 34
0.0
100
AcDbRotatedDimension
  0
LINE
  5
B27E
330
18
100
AcDbEntity
  8
3
100
AcDbLine
 10
21875.82216910918
 20
2052.657303538357
 30
0.0
 11
22475.82216910918
 21
2052.657303538357
 31
0.0
  0
LINE
  5
B27F
330
18
100
AcDbEntity
  8
3
 62
     7
100
AcDbLine
 10
21225.82216910918
 20
1702.657303538356
 30
0.0
 11
23125.82216910918
 21
1702.657303538357
 31
0.0
  0
DIMENSION
  5
B280
330
18
100
AcDbEntity
  8
2
  6
Continuous
 62
     4
100
AcDbDimension
  2
*D41
 10
21875.82216910919
 20
2376.027600670348
 30
0.0
 11
21550.82216910918
 21
2426.027600670348
 31
0.0
 70
    32
 71
     5
 42
650.0000000000145
  3
ST20
100
AcDbAlignedDimension
 13
21225.82216910918
 23
1940.588338021114
 33
0.0
 14
21875.82216910919
 24
2054.957303538346
 34
0.0
100
AcDbRotatedDimension
  0
LINE
  5
B281
330
18
100
AcDbEntity
  8
1
  6
CENTER
 62
     3
 48
0.5
100
AcDbLine
 10
22175.82216910917
 20
2203.933855178313
 30
0.0
 11
22175.82216910917
 21
1602.657303538357
 31
0.0
  0
LINE
  5
B282
330
18
100
AcDbEntity
  8
3
 62
     7
100
AcDbLine
 10
21225.82216910918
 20
1940.588338021114
 30
0.0
 11
21875.82216910918
 21
2052.657303538357
 31
0.0
  0
LINE
  5
B283
330
18
100
AcDbEntity
  8
3
 62
     7
100
AcDbLine
 10
21225.82216910918
 20
1702.657303538356
 30
0.0
 11
21225.82216910918
 21
1940.588338021112
 31
0.0
  0
DIMENSION
  5
B284
330
18
100
AcDbEntity
  8
2
  6
Continuous
 62
     4
100
AcDbDimension
  2
*D42
 10
23803.33807147001
 20
1702.657303538357
 30
0.0
 11
23753.33807147001
 21
1877.657303538361
 31
0.0
 70
    32
 71
     5
 42
349.9999999999998
  3
ST20
100
AcDbAlignedDimension
 13
22475.82216910918
 23
2052.657303538357
 33
0.0
 14
23125.82216910918
 24
1702.657303538357
 34
0.0
 50
90.0
100
AcDbRotatedDimension
  0
DIMENSION
  5
B285
330
18
100
AcDbEntity
  8
2
  6
Continuous
 62
     4
100
AcDbDimension
  2
*D43
 10
23125.82216910918
 20
2376.027600670348
 30
0.0
 11
22800.82216910917
 21
2426.027600670348
 31
0.0
 70
    32
 71
     5
 42
650.0
  3
ST20
100
AcDbAlignedDimension
 13
22475.82216910918
 23
2052.657303538357
 33
0.0
 14
23125.82216910918
 24
1940.588338021116
 34
0.0
100
AcDbRotatedDimension
  0
DIMENSION
  5
B286
330
18
100
AcDbEntity
  8
2
  6
Continuous
 62
     4
100
AcDbDimension
  2
*D44
 10
23650.89009577852
 20
1940.588338021116
 30
0.0
 11
23586.96026486904
 21
2128.031399818245
 31
0.0
 70
   160
 71
     5
 42
112.0689655172407
  3
ST20
100
AcDbAlignedDimension
 13
22475.82216910918
 23
2052.657303538357
 33
0.0
 14
23125.82216910918
 24
1940.588338021116
 34
0.0
 50
90.0
100
AcDbRotatedDimension
  0
LINE
  5
B287
330
18
100
AcDbEntity
  8
3
 62
     7
100
AcDbLine
 10
22475.82216910918
 20
2052.657303538357
 30
0.0
 11
23125.82216910918
 21
1940.588338021116
 31
0.0
  0
DIMENSION
  5
B288
330
18
100
AcDbEntity
  8
2
  6
Continuous
 62
     4
100
AcDbDimension
  2
*D45
 10
23650.89009577851
 20
1702.657303538357
 30
0.0
 11
23600.89009577851
 21
1821.62282077974
 31
0.0
 70
    32
 71
     5
 42
237.9310344827591
  3
ST20
100
AcDbAlignedDimension
 13
23125.82216910918
 23
1940.588338021116
 33
0.0
 14
23125.82216910918
 24
1702.657303538357
 34
0.0
 50
90.0
100
AcDbRotatedDimension
  0
LINE
  5
B289
330
18
100
AcDbEntity
  8
3
 62
     7
100
AcDbLine
 10
23125.82216910918
 20
1702.657303538357
 30
0.0
 11
23125.82216910918
 21
1940.588338021116
 31
0.0
  0
LWPOLYLINE
  5
B28A
330
18
100
AcDbEntity
  8
3
  6
Continuous
 62
     7
100
AcDbPolyline
 90
        4
 70
     0
 43
0.0
 10
21875.82216910918
 20
2054.957303538357
 10
21875.82216910918
 20
2052.657303538357
 10
22475.82216910918
 20
2052.657303538357
 10
22475.82216910918
 20
2054.957303538357
  0
LWPOLYLINE
  5
B28B
330
18
100
AcDbEntity
  8
3
  6
Continuous
 62
     9
100
AcDbPolyline
 90
        6
 70
     0
 43
0.0
 10
21875.82216910918
 20
2054.957303538357
 10
21924.8047183711
 20
2054.957303538358
 10
22024.8047183711
 20
2164.957303538356
 10
22326.83961984725
 20
2164.957303538358
 10
22426.83961984726
 20
2054.957303538357
 10
22475.82216910918
 20
2054.957303538357
  0
LWPOLYLINE
  5
B28C
330
18
100
AcDbEntity
  8
3
  6
Continuous
 62
     9
100
AcDbPolyline
 90
        6
 70
     0
 43
0.0
 10
21875.82216910918
 20
2052.657303538357
 10
21925.82216910917
 20
2052.657303538357
 10
22025.82216910918
 20
2162.657303538357
 10
22325.82216910917
 20
2162.657303538357
 10
22425.82216910918
 20
2052.657303538357
 10
22475.82216910918
 20
2052.657303538357
  0
LWPOLYLINE
  5
B28D
330
18
100
AcDbEntity
  8
3
  6
Continuous
 62
     9
100
AcDbPolyline
 90
        4
 70
     1
 43
0.0
 10
21975.82216910917
 20
2052.657303538355
 10
22375.82216910917
 20
2052.657303538357
 10
22360.82216910918
 20
2027.657303538357
 10
21990.82216910917
 20
2027.657303538355
  0
LWPOLYLINE
  5
B28E
330
18
100
AcDbEntity
  8
3
  6
Continuous
 62
     9
100
AcDbPolyline
 90
        4
 70
     1
 43
0.0
 10
21998.65552445006
 20
2027.657303538355
 10
22352.98881376829
 20
2027.657303538359
 10
22280.83745322408
 20
1902.657303538357
 10
22070.80688499427
 20
1902.657303538359
  0
LWPOLYLINE
  5
B28F
330
18
100
AcDbEntity
  8
3
  6
Continuous
 62
     9
100
AcDbPolyline
 90
        4
 70
     1
 43
0.0
 10
21977.87216910918
 20
2027.657303538355
 10
22373.77216910917
 20
2027.657303538357
 10
22288.92216910917
 20
1880.657303538357
 10
22062.72216910918
 20
1880.657303538355
  0
LWPOLYLINE
  5
B290
330
18
100
AcDbEntity
  8
3
  6
Continuous
 62
     9
100
AcDbPolyline
 90
        4
 70
     1
 43
0.0
 10
22105.92216910917
 20
1880.657303538357
 10
22245.72216910918
 20
1880.657303538357
 10
22245.72216910918
 20
1711.657303538356
 10
22105.92216910917
 20
1711.657303538356
  0
LWPOLYLINE
  5
B291
330
18
100
AcDbEntity
  8
3
  6
Continuous
 62
     9
100
AcDbPolyline
 90
        4
 70
     1
 43
0.0
 10
22110.42216910918
 20
1880.657303538357
 10
22241.22216910918
 20
1880.657303538357
 10
22241.22216910918
 20
1711.657303538356
 10
22110.42216910918
 20
1711.657303538356
  0
LWPOLYLINE
  5
B292
330
18
100
AcDbEntity
  8
3
  6
Continuous
 62
     9
100
AcDbPolyline
 90
        4
 70
     1
 43
0.0
 10
22110.42216910918
 20
1902.657303538361
 10
22241.22216910918
 20
1902.657303538361
 10
22241.22216910918
 20
1880.657303538357
 10
22110.42216910918
 20
1880.657303538357
  0
LWPOLYLINE
  5
B293
330
18
100
AcDbEntity
  8
3
  6
Continuous
 62
     9
100
AcDbPolyline
 90
        4
 70
     1
 43
0.0
 10
22096.82216910918
 20
1702.657303538356
 10
22105.82216910918
 20
1711.657303538356
 10
22245.82216910917
 20
1711.657303538356
 10
22254.82216910918
 20
1702.657303538356
  0
INSERT
  5
B294
330
18
100
AcDbEntity
  8
2
  6
Continuous
 62
     4
100
AcDbBlockReference
  2
_OPEN
 10
22038.85984643185
 20
2164.957303538358
 30
0.0
 41
60.0
 42
60.0
 43
60.0
 50
229.2646330635798
1001
ACAD
1000
DSTYLE
1002
{
1070
     5
1000

1070
   342
1005
0
1002
}
  0
LWPOLYLINE
  5
B295
330
18
100
AcDbEntity
  8
2
  6
Continuous
 62
     4
100
AcDbPolyline
 90
        3
 70
     0
 43
0.0
 10
22078.01382159755
 20
2210.421203818956
 10
22117.18842752488
 20
2255.909059646498
 10
22431.44543587582
 20
2255.909059646498
1001
ACAD
1000
DSTYLE
1002
{
1070
     5
1000

1070
   342
1005
0
1002
}
  0
MTEXT
  5
B296
330
18
100
AcDbEntity
  8
2
  6
Continuous
 62
     7
100
AcDbMText
 10
22159.73379704288
 20
2296.1319079181
 30
0.0
 40
70.0
 41
0.0
 71
     4
 72
     5
  1
ｾｰﾌﾃｨｷｬｯﾌﾟ
  7
JF3
 73
     1
 44
1.0
1001
ACAD
1000
MTEXTBEGIN
1070
    73
1070
     1
1070
    44
1040
1.0
1070
    74
1070
     0
1000
MTEXTEND
  0
DIMENSION
  5
B32E
330
18
100
AcDbEntity
  8
2
100
AcDbDimension
  2
*D46
 10
29024.27985128406
 20
7815.126360820548
 30
0.0
 11
28974.27985128406
 21
8171.126360820549
 31
0.0
 70
    32
 71
     5
 42
177.9999999999988
 51
360.0
  3
ST20-5
100
AcDbAlignedDimension
 13
27907.54244381916
 23
8527.126360820544
 33
0.0
 14
28655.14244381918
 24
7815.126360820548
 34
0.0
 50
90.0
100
AcDbRotatedDimension
  0
LWPOLYLINE
  5
B3ED
330
18
100
AcDbEntity
  8
3
 62
     7
100
AcDbPolyline
 90
        6
 70
     1
 43
0.0
 10
31190.43423298794
 20
8250.410170794227
 10
32949.10034435399
 20
8250.410170794227
 10
32895.83440654665
 20
9017.372241727231
 42
0.3924478579986832
 10
32696.39485070731
 20
9202.410170794221
 10
31443.51065727472
 20
9202.410170794225
 42
0.3924478579986832
 10
31244.07110143538
 20
9017.372241727233
  0
DIMENSION
  5
B3EF
330
18
100
AcDbEntity
  8
2
100
AcDbDimension
  2
*D47
 10
33515.51495092085
 20
8250.410170794227
 30
0.0
 11
33465.51495092085
 21
8726.410170794231
 31
0.0
 70
    32
 71
     5
 42
238.0
 51
360.0
  3
ST20-5（詳細）
100
AcDbAlignedDimension
 13
32696.39485070731
 23
9202.410170794227
 33
0.0
 14
32949.10034435399
 24
8250.410170794227
 34
0.0
 50
90.00000000000005
100
AcDbRotatedDimension
1001
ACAD
1000
DSTYLE
1002
{
1070
    41
1040
3.0
1002
}
  0
LWPOLYLINE
  5
B406
330
18
100
AcDbEntity
  8
3
 62
     7
100
AcDbPolyline
 90
       11
 70
     0
 43
0.0
 10
31110.84109939781
 20
5527.85543910877
 10
33036.60453246157
 20
5527.85543910877
 10
33001.663355991
 20
5787.855439108771
 10
32698.25253511867
 20
5788.281936581285
 10
32669.952753991
 20
6127.855439108767
 42
0.4142135623730951
 10
32569.95275399101
 20
6227.85543910877
 10
31569.95275399101
 20
6227.855439108767
 42
0.4142135623730951
 10
31469.95275399101
 20
6127.855439108767
 10
31441.65297286333
 20
5788.281936581285
 10
31138.24215199101
 20
5787.855439108771
 10
31103.30097552044
 20
5527.85543910877
  0
DIMENSION
  5
B407
330
18
100
AcDbEntity
  8
2
100
AcDbDimension
  2
*D48
 10
33308.00136075251
 20
5787.855439108771
 30
0.0
 11
33258.00136075251
 21
6007.855439108777
 31
0.0
 70
    32
 71
     5
 42
219.9999999999995
 51
360.0
  3
ST20-10
100
AcDbAlignedDimension
 13
32569.95275399101
 23
6227.85543910877
 33
0.0
 14
33001.663355991
 24
5787.855439108771
 34
0.0
 50
90.00000000000005
100
AcDbRotatedDimension
  0
DIMENSION
  5
B414
330
18
100
AcDbEntity
  8
2
100
AcDbDimension
  2
*D49
 10
33308.00136075251
 20
5527.855439108771
 30
0.0
 11
33258.00136075251
 21
5657.855439108776
 31
0.0
 70
    32
 71
     5
 42
130.0
 51
360.0
  3
ST20-10
100
AcDbAlignedDimension
 13
33001.663355991
 23
5787.855439108771
 33
0.0
 14
33036.60453246157
 24
5527.855439108771
 34
0.0
 50
90.00000000000005
100
AcDbRotatedDimension
  0
DIMENSION
  5
B421
330
18
100
AcDbEntity
  8
2
100
AcDbDimension
  2
*D50
 10
33515.51495092085
 20
5527.855439108815
 30
0.0
 11
33465.51495092085
 21
5877.85543910882
 31
0.0
 70
    32
 71
     5
 42
349.9999999999996
 51
360.0
  3
ST20-10
100
AcDbAlignedDimension
 13
33348.0013607525
 23
6227.855439108815
 33
0.0
 14
33348.0013607525
 24
5527.855439108815
 34
0.0
 50
90.00000000000005
100
AcDbRotatedDimension
  0
ENDSEC
  0
SECTION
  2
OBJECTS
  0
DICTIONARY
  5
C
330
0
100
AcDbDictionary
281
     1
  3
ACAD_CIP_PREVIOUS_PRODUCT_INFO
350
9E31
  3
ACAD_COLOR
350
9E15
  3
ACAD_GROUP
350
D
  3
ACAD_LAYOUT
350
7CA
  3
ACAD_MATERIAL
350
9DE3
  3
ACAD_MLEADERSTYLE
350
9E2A
  3
ACAD_MLINESTYLE
350
1B
  3
ACAD_PLOTSETTINGS
350
7CB
  3
ACAD_PLOTSTYLENAME
350
7C8
  3
ACAD_SCALELIST
350
9E18
  3
ACAD_TABLESTYLE
350
9E16
  3
ACAD_VISUALSTYLE
350
9DFC
  3
AcadDim
350
1E45
  3
ACDB_RECOMPOSE_DATA
350
B75E
  3
AcDbVariableDictionary
350
24A5
  3
DWGPROPS
350
B75F
  0
DICTIONARY
  5
B628
330
8
100
AcDbDictionary
280
     1
281
     1
  0
DICTIONARY
  5
39AC
330
2
100
AcDbDictionary
280
     1
281
     1
  3
ACAD_LAYERFILTERS
360
39AD
  3
ACAD_LAYERSTATES
360
3A5F
  0
DICTIONARY
  5
A056
330
E
100
AcDbDictionary
280
     1
281
     1
  3
ADSK_XREC_LAYER_RECONCILED
360
A057
  0
DICTIONARY
  5
A058
330
57B5
100
AcDbDictionary
280
     1
281
     1
  3
ADSK_XREC_LAYER_RECONCILED
360
A059
  0
DICTIONARY
  5
A05A
330
57B6
100
AcDbDictionary
280
     1
281
     1
  3
ADSK_XREC_LAYER_RECONCILED
360
A05B
  0
DICTIONARY
  5
A05C
330
57B7
100
AcDbDictionary
280
     1
281
     1
  3
ADSK_XREC_LAYER_RECONCILED
360
A05D
  0
DICTIONARY
  5
7F6
330
18
100
AcDbDictionary
280
     1
281
     1
  3
ACAD_LAYOUTSELFREF
360
2472
  3
ACAD_SORTENTS
360
9E36
  0
DICTIONARY
  5
7F4
330
15
100
AcDbDictionary
280
     1
281
     1
  3
ACAD_LAYOUTSELFREF
360
2471
  0
XRECORD
  5
9E31
102
{ACAD_REACTORS
330
C
102
}
330
C
100
AcDbXrecord
280
     1
300
ACDLT
300
2012
300
ACDLT_F_S
  0
DICTIONARY
  5
9E15
102
{ACAD_REACTORS
330
C
102
}
330
C
100
AcDbDictionary
281
     1
  0
DICTIONARY
  5
D
102
{ACAD_REACTORS
330
C
102
}
330
C
100
AcDbDictionary
281
     1
  0
DICTIONARY
  5
7CA
102
{ACAD_REACTORS
330
C
102
}
330
C
100
AcDbDictionary
281
     1
  3
Model
350
7CC
  3
ﾚｲｱｳﾄ1
350
7CD
  0
DICTIONARY
  5
9DE3
102
{ACAD_REACTORS
330
C
102
}
330
C
100
AcDbDictionary
281
     1
  3
ByBlock
350
9DEC
  3
ByLayer
350
9DE4
  3
Global
350
9DF4
  0
DICTIONARY
  5
9E2A
102
{ACAD_REACTORS
330
C
102
}
330
C
100
AcDbDictionary
281
     1
  3
Standard
350
9E2B
  0
DICTIONARY
  5
1B
102
{ACAD_REACTORS
330
C
102
}
330
C
100
AcDbDictionary
281
     1
  3
STANDARD
350
1C
  0
DICTIONARY
  5
7CB
102
{ACAD_REACTORS
330
C
102
}
330
C
100
AcDbDictionary
281
     1
  3
PrinterEPSON
350
838
  3
ProterHP
350
839
  0
ACDBDICTIONARYWDFLT
  5
7C8
102
{ACAD_REACTORS
330
C
102
}
330
C
100
AcDbDictionary
281
     1
  3
Normal
350
7C9
100
AcDbDictionaryWithDefault
340
7C9
  0
DICTIONARY
  5
9E18
102
{ACAD_REACTORS
330
C
102
}
330
C
100
AcDbDictionary
281
     1
  3
A0
350
9E19
  3
A1
350
9E1A
  3
A2
350
9E1B
  3
A3
350
9E1C
  3
A4
350
9E1D
  3
A5
350
9E1E
  3
A6
350
9E1F
  3
A7
350
9E20
  3
A8
350
9E21
  3
A9
350
9E22
  3
B0
350
9E23
  3
B1
350
9E24
  3
B2
350
9E25
  3
B3
350
9E26
  3
B4
350
9E27
  3
B5
350
9E28
  3
B6
350
9E29
  0
DICTIONARY
  5
9E16
102
{ACAD_REACTORS
330
C
102
}
330
C
100
AcDbDictionary
281
     1
  3
Standard
350
9E17
  0
DICTIONARY
  5
9DFC
102
{ACAD_REACTORS
330
C
102
}
330
C
100
AcDbDictionary
281
     1
  3
2dWireframe
350
9E02
  3
Basic
350
9E01
  3
Brighten
350
9E08
  3
ColorChange
350
9E0C
  3
Conceptual
350
9E05
  3
Dim
350
9E07
  3
EdgeColorOff
350
9E14
  3
Facepattern
350
9E0B
  3
Flat
350
9DFD
  3
FlatWithEdges
350
9DFE
  3
Gouraud
350
9DFF
  3
GouraudWithEdges
350
9E00
  3
Hidden
350
9E04
  3
JitterOff
350
9E12
  3
Linepattern
350
9E0A
  3
OverhangOff
350
9E13
  3
Realistic
350
9E06
  3
Shaded
350
9E11
  3
Shaded with edges
350
9E10
  3
Shades of Gray
350
9E0D
  3
Sketchy
350
9E0E
  3
Thicken
350
9E09
  3
Wireframe
350
9E03
  3
X-Ray
350
9E0F
  0
XRECORD
  5
1E45
102
{ACAD_REACTORS
330
C
102
}
330
C
100
AcDbXrecord
280
     1
 90
   990106
  3

 60
     1
 61
     0
 62
     4
 63
     4
 64
     1
 65
     0
 66
     0
 67
     3
 68
     1
 69
     0
 70
     0
 71
     0
 72
     0
 40
0.0
170
     0
  0
XRECORD
  5
B75E
102
{ACAD_REACTORS
330
C
102
}
330
C
100
AcDbXrecord
280
     1
 90
        1
330
9E17
  0
DICTIONARY
  5
24A5
102
{ACAD_REACTORS
330
C
102
}
330
C
100
AcDbDictionary
281
     1
  3
CANNOSCALE
350
B669
  3
CMLEADERSTYLE
350
B668
  3
CTABLESTYLE
350
B667
  3
DIMASSOC
350
24A6
  3
INDEXCTL
350
B66B
  3
LAYEREVAL
350
B675
  3
LAYERNOTIFY
350
B676
  3
LIGHTINGUNITS
350
B674
  3
MSLTSCALE
350
B673
  3
SORTENTS
350
B66A
  3
XCLIPFRAME
350
B75A
  0
XRECORD
  5
B75F
102
{ACAD_REACTORS
330
C
102
}
330
C
100
AcDbXrecord
280
     1
  1
DWGPROPS COOKIE
  2

  3

  4

  6

  7

  8
demizu
  9

300
=
301
=
302
=
303
=
304
=
305
=
306
=
307
=
308
=
309
=
 40
0.7808696412037037
 41
2451227.813129282
 42
2456765.515027199
  1

 90
        0
  0
DICTIONARY
  5
39AD
102
{ACAD_REACTORS
330
39AC
102
}
330
39AC
100
AcDbDictionary
280
     1
281
     1
  3
-c
360
39AE
  3
-C2
360
39AF
  3
-cc
360
39B0
  3
-ccc
360
39B1
  3
-cccC
360
39B2
  3
-図面
360
39B3
  3
0
360
5267
  3
01-teitai
360
39B4
  3
02-zentai
360
39B5
  3
03-zentai+kussaku
360
39B6
  3
04-chikei
360
39B7
  3
05-chikei-5m
360
39B8
  3
06-kussaku
360
39B9
  3
1
360
39BA
  3
1-交差点処理図（最新1案）
360
5268
  3
100
360
39BB
  3
100ban
360
39BC
  3
160ban
360
39BD
  3
180
360
39BE
  3
180-240
360
39BF
  3
181
360
39C0
  3
1mtoukousenn
360
39C1
  3
2
360
39C2
  3
2-線形図1
360
5269
  3
2100
360
39C3
  3
240ban
360
39C4
  3
25-C
360
39C5
  3
252
360
39C6
  3
2600
360
39C7
  3
3
360
39C8
  3
3-線形図2
360
526A
  3
3dC
360
526B
  3
3dC5
360
526C
  3
44
360
39C9
  3
5-C
360
39CA
  3
5-C2
360
39CB
  3
50
360
39CC
  3
5m
360
39CD
  3
60
360
39CE
  3
7-専用部北行
360
39CF
  3
8-ONﾗﾝﾌﾟ
360
39D0
  3
9-OFFﾗﾝﾌﾟ
360
39D1
  3
_図面
360
39D2
  3
a
360
39D3
  3
a-
360
39D4
  3
a-（埋設）
360
39D5
  3
aaa
360
39D6
  3
all-DIM -TXT -MTXT OFF
360
526D
  3
all-DIM -TXT OFF
360
526E
  3
all-DIM OFF
360
526F
  3
all-MTXT OFF
360
5270
  3
all-TXT OFF
360
5271
  3
all_tikei
360
39D7
  3
all_tikei2
360
39D8
  3
a、シビ
360
39D9
  3
BASIC
360
39DA
  3
BGD
360
39DB
  3
blue
360
39DC
  3
B北
360
5272
  3
c
360
39DD
  3
chihyou
360
39DE
  3
chihyou-cc
360
39DF
  3
chikei
360
39E0
  3
chikei 5 0
360
39E1
  3
chikei-5m
360
39E2
  3
chikei2
360
39E3
  3
chikei5m
360
39E4
  3
chishitsu
360
39E5
  3
chishitu
360
39E6
  3
ckeiall
360
39E7
  3
cl
360
39E8
  3
cl-konta
360
39E9
  3
cld
360
39EA
  3
cld^ konta
360
39EB
  3
cm
360
39EC
  3
cm-konta
360
39ED
  3
CONTER1m
360
39EE
  3
CONTER5m
360
39EF
  3
cyan
360
5273
  3
D-BAR-treeOFF
360
5274
  3
D-BGD-treeOFF
360
5275
  3
D-BGM-treeOFF
360
5276
  3
D-BMK-treeOFF
360
5277
  3
D-BYP-treeOFF
360
5278
  3
D-MTR-ｔｒｅｅOFF
360
5279
  3
D-OTRS-treeOFF
360
527A
  3
D-PC-treeOFF
360
527B
  3
D-STR-treeOFF
360
527C
  3
D-STRC-treeOFF
360
527D
  3
D-TTL-treeOFF
360
527E
  3
dh-konta
360
39F0
  3
DIM
360
527F
  3
doro
360
5280
  3
douro
360
5281
  3
douro-r
360
39F1
  3
EL30
360
39F2
  3
EL35
360
39F3
  3
EL40
360
39F4
  3
EL45
360
39F5
  3
EL50
360
39F6
  3
EL55
360
39F7
  3
EL60
360
39F8
  3
EL65
360
39F9
  3
EL70
360
39FA
  3
EL75
360
39FB
  3
EL80
360
39FC
  3
E南
360
5282
  3
fault
360
39FD
  3
frize
360
39FE
  3
gankyu
360
39FF
  3
gannkyu-ch
360
3A00
  3
gannkyu-cl
360
3A01
  3
gannkyu-cm
360
3A02
  3
gannkyu-cmh
360
3A03
  3
gound
360
3A04
  3
green
360
3A05
  3
gutter
360
3A06
  3
hidden
360
3A07
  3
hihyouji
360
3A08
  3
hyouji
360
3A09
  3
katen
360
3A0A
  3
KF
360
5283
  3
kfl
360
3A0B
  3
kfl2
360
3A0C
  3
konta
360
3A0D
  3
kouzuibaki
360
3A0E
  3
KU
360
5284
  3
kussaku
360
3A0F
  3
kussaku-k
360
3A10
  3
Live
360
5285
  3
m
360
5286
  3
mage
360
3A11
  3
mennseki-ak
360
3A12
  3
mennseki-at
360
3A13
  3
mｺﾝﾀ
360
3A14
  3
new
360
3A15
  3
new1
360
3A16
  3
new2
360
3A17
  3
new4
360
3A18
  3
NO_Xref
360
5287
  3
norisen
360
3A19
  3
off
360
3A1A
  3
on
360
3A1B
  3
oudan-cl
360
3A1C
  3
oudan-cld
360
3A1D
  3
oudan-cm
360
3A1E
  3
oudan-f
360
3A1F
  3
oudanzu
360
3A20
  3
red
360
3A21
  3
S
360
3A22
  3
sed
360
3A23
  3
sokuti
360
3A24
  3
south
360
3A25
  3
ST
360
5288
  3
STR
360
3A26
  3
syuturyokusurumono_11_1
360
3A27
  3
sｺﾝﾀ
360
3A28
  3
T
360
3A29
  3
teitai
360
3A2A
  3
teitai-t
360
3A2B
  3
text
360
5289
  3
Thaw
360
3A2C
  3
tsuurou
360
3A2D
  3
tt
360
3A2E
  3
TTL
360
3A2F
  3
TU
360
3A30
  3
tyakugan
360
3A31
  3
vec2
360
3A32
  3
waku
360
3A33
  3
White
360
528A
  3
yana
360
3A34
  3
yellow
360
3A35
  3
YM
360
528B
  3
シビ
360
3A37
  3
デッキレイヤ
360
5290
  3
ハッチ
360
5291
  3
フリーズ
360
3A38
  3
ペーパー空間
360
5292
  3
ランプ
360
5293
  3
ロック
360
3A39
  3
ロックされていない画層を表示
360
3A3A
  3
ロック以外
360
3A3B
  3
一般
360
5294
  3
上田坂城BP
360
3A44
  3
両方
360
3A5D
  3
丸森横断
360
5299
  3
作業用
360
52A8
  3
使用中の画層
360
52A9
  3
側面
360
52B5
  3
元図面レイヤ
360
52A5
  3
先行１
360
3A45
  3
先行２
360
3A46
  3
先行３
360
3A47
  3
先行４
360
3A48
  3
全帯
360
3A49
  3
共通
360
529C
  3
副道
360
52C0
  3
協議用添付図形レイヤ
360
529D
  3
和の画層のみ
360
3A5E
  3
圏央道排水計画縦断図
360
3A3E
  3
圏央道縦断図
360
3A3D
  3
土留板
360
52BB
  3
土留板取付詳細図
360
52BC
  3
地形レイヤ
360
52B8
  3
地形以外
360
52B9
  3
地形線等
360
3A4B
  3
埋設
360
3A5C
  3
塗り
360
3A4C
  3
壁
360
3A5B
  3
外部
360
5297
  3
外部参照
360
3A3C
  3
外部参照の非表示画層
360
5298
  3
寸法
360
52B0
  3
対策工
360
3A4A
  3
専北
360
52B2
  3
専用
360
52B3
  3
平面
360
52C1
  3
平面図
360
3A5A
  3
床止工
360
3A43
  3
後ろ
360
3A40
  3
支柱取付部
360
52AA
  3
数量
360
52AF
  3
断面
360
52B6
  3
断面図
360
52B7
  3
新規作成
360
52AD
  3
新規書き込み
360
52AE
  3
旗
360
529A
  3
旗上
360
529B
  3
杭頭詳細図
360
52A7
  3
枠
360
52C2
  3
枠Or文字
360
52C3
  3
桟橋
360
3A42
  3
横断
360
5295
  3
横断図
360
5296
  3
正面図
360
52B1
  3
現況
360
3A3F
  3
現況平面図-
360
52A6
  3
白
360
3A4F
  3
線形
360
52B4
  3
縦断
360
52AB
  3
背面図
360
52BD
  3
色
360
52AC
  3
表枠
360
3A59
  3
表示
360
52BF
  3
表示-日技作成画層のみ
360
3A56
  3
表示-東電作成画層のみ
360
3A55
  3
表示-福山作成画層のみ
360
3A57
  3
表示-近代作成画層のみ
360
3A54
  3
表示-ﾊﾟｼｺﾝ作成画層のみ
360
3A53
  3
表示層のみ表示
360
3A58
  3
見える
360
52A4
  3
計画
360
529F
  3
計画１レイヤ
360
52A0
  3
計画２レイヤ
360
52A1
  3
計画３レイヤ
360
52A2
  3
計画４レイヤ
360
52A3
  3
読み込み時表示層
360
3A4E
  3
護岸
360
3A41
  3
躯体
360
529E
  3
道路
360
3A4D
  3
配筋図
360
52BE
  3
鉄筋
360
52BA
  3
非表示
360
3A50
  3
非表示の画層
360
3A51
  3
非表示層のみ表示
360
3A52
  3
２－
360
3A36
  3
Ａ断面
360
528D
  3
Ｂ断面
360
528E
  3
Ｃ断面
360
528F
  3
ﾊｯﾁ
360
528C
  0
DICTIONARY
  5
3A5F
102
{ACAD_REACTORS
330
39AC
102
}
330
39AC
100
AcDbDictionary
281
     1
  0
XRECORD
  5
A057
102
{ACAD_REACTORS
330
A056
102
}
330
A056
100
AcDbXrecord
280
     1
290
     1
  0
XRECORD
  5
A059
102
{ACAD_REACTORS
330
A058
102
}
330
A058
100
AcDbXrecord
280
     1
290
     1
  0
XRECORD
  5
A05B
102
{ACAD_REACTORS
330
A05A
102
}
330
A05A
100
AcDbXrecord
280
     1
290
     1
  0
XRECORD
  5
A05D
102
{ACAD_REACTORS
330
A05C
102
}
330
A05C
100
AcDbXrecord
280
     1
290
     1
  0
XRECORD
  5
2472
102
{ACAD_REACTORS
330
7F6
102
}
330
7F6
100
AcDbXrecord
280
     1
340
18
  0
SORTENTSTABLE
  5
9E36
102
{ACAD_REACTORS
330
7F6
102
}
330
7F6
100
AcDbSortentsTable
330
18
331
5AE3
  5
5AE3
331
5A48
  5
5A48
331
5ADB
  5
5ADB
331
5BD0
  5
5BD2
331
A9FB
  5
AA03
331
A841
  5
A841
331
9311
  5
93B4
331
A83D
  5
A83D
331
A9F3
  5
A9FB
331
B27E
  5
B280
331
5AD7
  5
5AD7
331
5B16
  5
5B16
331
5ACF
  5
5ACF
331
92CE
  5
92DD
331
5BCC
  5
5BCE
331
5A00
  5
5A00
331
5B0A
  5
5B0A
331
5BC8
  5
5BCA
331
5BC4
  5
5BC6
331
9309
  5
93A3
331
5B65
  5
5B74
331
5BC0
  5
5BC2
331
9305
  5
9309
331
5B61
  5
5B63
331
A9B0
  5
A9BB
331
A9EB
  5
A9F1
331
A831
  5
A831
331
9E5C
  5
A04A
331
A825
  5
A825
331
A9AC
  5
A9AE
331
9E58
  5
9E5E
331
A9A8
  5
A9AA
331
5AC7
  5
5AC7
331
5AC3
  5
5AC3
331
5AFE
  5
5AFE
331
92B6
  5
92CD
331
5BBC
  5
5BBE
331
5B49
  5
5B62
331
5B9C
  5
5BBB
331
5B45
  5
5B47
331
9E54
  5
9E5A
331
5C0F
  5
5C11
331
5B98
  5
5B9A
331
A9A4
  5
A9A6
331
92ED
  5
9306
331
929A
  5
92B4
331
5B41
  5
5B43
331
A819
  5
A819
331
A9DB
  5
A9DD
331
A9A0
  5
A9A2
331
92E9
  5
92EE
331
A99C
  5
A99E
331
B3ED
  5
A90C
331
B295
  5
B32E
331
B291
  5
B293
331
5AF2
  5
5AF2
331
5B94
  5
5B96
331
9292
  5
929C
331
5B90
  5
5B93
331
5B8C
  5
5B8F
331
9E34
  5
5B1B
331
9286
  5
929A
331
9282
  5
9286
331
A9CF
  5
A9D1
331
A984
  5
A986
331
92DD
  5
92EA
331
5BE3
  5
5BE5
331
93B8
  5
93D0
331
A980
  5
A982
331
AA0A
  5
AA0C
331
92D9
  5
92E9
331
A97C
  5
A97E
331
B28D
  5
B28F
331
A9C3
  5
A9C8
331
B289
  5
B28B
331
B285
  5
B287
331
B281
  5
B283
331
5A4F
  5
5A4F
331
5B7C
  5
5B8A
331
93A4
  5
93CA
331
5ADA
  5
5ADA
331
A9BF
  5
A9C3
331
A840
  5
A840
331
A9BB
  5
A9C0
331
A9F2
  5
A9F4
331
B27D
  5
B27F
331
5B15
  5
5B15
331
5BCF
  5
5BD1
331
92CD
  5
92D9
331
5BCB
  5
5BCD
331
5BC7
  5
5BC9
331
5B09
  5
5B09
331
5BC3
  5
5BC5
331
9308
  5
939F
331
5B64
  5
5B6E
331
A9AF
  5
A9BA
331
A830
  5
A830
331
9E5B
  5
A049
331
A824
  5
A824
331
A9E6
  5
A9EB
331
A9AB
  5
A9AD
331
B32E
  5
B3EF
331
59FF
  5
59FF
331
5AC6
  5
5AC6
331
5BBF
  5
5BC1
331
5B01
  5
5B01
331
92B5
  5
92CC
331
5BBB
  5
5BBD
331
59F3
  5
59F3
331
9E57
  5
9E5D
331
5B48
  5
5B61
331
5B9B
  5
5BBA
331
5B44
  5
5B46
331
A9A7
  5
A9A9
331
929D
  5
92B7
331
A9A3
  5
A9A5
331
A9DE
  5
A9E9
331
92EC
  5
9305
331
9299
  5
929D
331
5B40
  5
5B42
331
A99F
  5
A9A1
331
92E8
  5
92ED
331
A9D6
  5
A9DC
331
A99B
  5
A99D
331
A9D2
  5
A9DB
331
B294
  5
B296
331
B290
  5
B292
331
5AF1
  5
5AF1
331
5B97
  5
5B99
331
5A82
  5
5A82
331
5B93
  5
5B95
331
93CF
  5
9CCF
331
5BEE
  5
5BFC
331
5B2C
  5
5B41
331
5B8F
  5
5B91
331
9291
  5
929B
331
5B8B
  5
5B8E
331
9285
  5
9299
331
A9CE
  5
A9D0
331
A983
  5
A985
331
9281
  5
9285
331
AA09
  5
AA0B
331
92D8
  5
92E8
331
A97B
  5
A97D
331
AA05
  5
AA0A
331
B28C
  5
B28E
331
AA01
  5
AA04
331
B288
  5
B28A
331
B284
  5
B286
331
B280
  5
B282
331
5A4E
  5
5A4E
331
5A4A
  5
5A4A
331
5B77
  5
5B7C
331
5AD9
  5
5AD9
331
5BD2
  5
5BE3
331
A83F
  5
A83F
331
A9BA
  5
A9BF
331
A9F1
  5
A9F3
331
B27C
  5
B27E
331
5B14
  5
5B14
331
5BCE
  5
5BD0
331
5A02
  5
5A02
331
92CC
  5
92D8
331
5BCA
  5
5BCC
331
5ACD
  5
5ACD
331
5B08
  5
5B08
331
5BC6
  5
5BC8
331
5AC9
  5
5AC9
331
5BC2
  5
5BC4
331
9307
  5
9311
331
5B63
  5
5B65
331
A833
  5
A833
331
9E5E
  5
A04C
331
A9AE
  5
A9B0
331
A9E9
  5
A9EC
331
9E5A
  5
A048
331
A9AA
  5
A9AC
331
59FE
  5
59FE
331
5AC5
  5
5AC5
331
5B00
  5
5B00
331
5BBE
  5
5BC0
331
5AC1
  5
5AC1
331
59F2
  5
59F2
331
92FF
  5
9308
331
5C15
  5
64D6
331
92B4
  5
92BF
331
5BBA
  5
5BBC
331
5AAD
  5
5AAD
331
9E56
  5
9E5C
331
5B47
  5
5B49
331
5B9A
  5
5B9C
331
A9A6
  5
A9A8
331
929C
  5
92B6
331
5B43
  5
5B45
331
A9A2
  5
A9A4
331
A9DD
  5
A9E6
331
A99E
  5
A9A0
331
A99A
  5
A99C
331
B3EF
  5
B405
331
A9D1
  5
A9D6
331
B293
  5
B295
331
5B96
  5
5B98
331
5AF0
  5
5AF0
331
92E7
  5
92EC
331
5BED
  5
5BF1
331
5B2B
  5
5B40
331
5B8E
  5
5B90
331
5B23
  5
5B2B
331
A986
  5
A988
331
5BE5
  5
5BED
331
9284
  5
9292
331
5B8A
  5
5B8C
331
A982
  5
A984
331
AA0C
  5
AA0E
331
A9CD
  5
A9CF
331
A9C9
  5
A9CD
331
A97A
  5
A97C
331
B28F
  5
B291
331
AA04
  5
AA09
331
B28B
  5
B28D
331
B287
  5
B289
331
B283
  5
B285
331
5AE4
  5
5AE4
331
5B1B
  5
5B23
331
92D7
  5
92E7
331
5BD1
  5
5BE0
331
A842
  5
A842
331
A83E
  5
A83E
331
A9F4
  5
AA01
331
B27F
  5
B281
331
5B13
  5
5B13
331
5A31
  5
5A31
331
5BCD
  5
5BCF
331
5B6E
  5
5B75
331
5AD0
  5
5AD0
331
5A01
  5
5A01
331
5BC9
  5
5BCB
331
5ACC
  5
5ACC
331
5BC5
  5
5BC7
331
930A
  5
93A4
331
92BF
  5
92D7
331
5AC8
  5
5AC8
331
5BC1
  5
5BC3
331
5B62
  5
5B64
331
9306
  5
930A
331
5C24
  5
6A34
331
A9EC
  5
A9F2
331
A832
  5
A832
331
9E5D
  5
A04B
331
A9AD
  5
A9AF
331
9E59
  5
A047
331
A9A9
  5
A9AB
331
B406
  5
A905
331
5AC4
  5
5AC4
331
5AFF
  5
5AFF
331
92B7
  5
92CE
331
5BBD
  5
5BBF
331
5AC0
  5
5AC0
331
9E55
  5
9E5B
331
5B46
  5
5B48
331
5B99
  5
5B9B
331
929B
  5
92B5
331
A9A5
  5
A9A7
331
92EE
  5
9307
331
5C0C
  5
5C10
331
5B42
  5
5B44
331
A81A
  5
A81A
331
A9DC
  5
A9DE
331
A9A1
  5
A9A3
331
92EA
  5
92FF
331
A99D
  5
A99F
331
A9D0
  5
A9D2
331
B296
  5
B3EC
331
B292
  5
B294
331
5AF3
  5
5AF3
331
5B95
  5
5B97
331
5AEF
  5
5AEF
331
5B91
  5
5B94
331
5B2A
  5
5B2C
331
5A54
  5
5A54
331
9E35
  5
5B22
331
9283
  5
9291
331
A985
  5
A987
331
5BE4
  5
5BEB
331
5B22
  5
5B2A
331
A981
  5
A983
331
AA0B
  5
AA0D
331
A9CC
  5
A9CE
331
5BE0
  5
5BE4
331
A9C8
  5
A9CC
331
AA03
  5
AA05
331
B28E
  5
B290
331
A9C4
  5
A9C9
331
B28A
  5
B28C
331
A9C0
  5
A9C4
331
B286
  5
B288
331
B282
  5
B284
  0
XRECORD
  5
2471
102
{ACAD_REACTORS
330
7F4
102
}
330
7F4
100
AcDbXrecord
280
     1
340
15
  0
LAYOUT
  5
7CC
102
{ACAD_XDICTIONARY
360
B760
102
}
102
{ACAD_REACTORS
330
7CA
102
}
330
7CA
100
AcDbPlotSettings
  1

  2
RICOH IPSiO SP C720 RPCS
  4
A3
  6

 40
5.873749732971191
 41
5.873748779296875
 42
5.873748779296875
 43
5.873748779296875
 44
296.9259948730469
 45
419.9466552734374
 46
0.0
 47
5.76968760152306
 48
0.0
 49
0.0
140
0.0
141
0.0
142
1.0
143
39.76057125304694
 70
 11956
 72
     1
 73
     1
 74
     2
  7
描画.ctb
 75
     0
147
0.0251505440813647
148
-19226.82194673353
149
-296.0967856342831
100
AcDbLayout
  1
Model
 70
     1
 71
     0
 10
0.0
 20
0.0
 11
12.0
 21
9.0
 12
0.0
 22
0.0
 32
0.0
 14
0.0
 24
0.0
 34
0.0
 15
0.0
 25
0.0
 35
0.0
146
0.0
 13
0.0
 23
0.0
 33
0.0
 16
1.0
 26
0.0
 36
0.0
 17
0.0
 27
1.0
 37
0.0
 76
     0
330
18
331
9DE1
1001
ACAD_PSEXT
1000
RICOH IPSiO SP C720 RPCS
1000
RICOH IPSiO SP C720 RPCS
1000
192.168.19.239_1
1000
RPCS Driver (Windows XP/2003/2008/Vista/7 64-bit)
1070
     0
  0
LAYOUT
  5
7CD
102
{ACAD_XDICTIONARY
360
B762
102
}
102
{ACAD_REACTORS
330
7CA
102
}
330
7CA
100
AcDbPlotSettings
  1

  2
EPSON LASER LP-9200S
  4

  6

 40
0.0
 41
0.0
 42
0.0
 43
0.0
 44
0.0
 45
0.0
 46
0.0
 47
0.0
 48
0.0
 49
0.0
140
0.0
141
0.0
142
1.0
143
1.0
 70
   688
 72
     0
 73
     0
 74
     5
  7
描画.ctb
 75
    16
147
1.0
148
0.0
149
0.0
100
AcDbLayout
  1
ﾚｲｱｳﾄ1
 70
     1
 71
     1
 10
0.0
 20
0.0
 11
12.0
 21
9.0
 12
0.0
 22
0.0
 32
0.0
 14
1.000000000000000E+20
 24
1.000000000000000E+20
 34
1.000000000000000E+20
 15
-1.000000000000000E+20
 25
-1.000000000000000E+20
 35
-1.000000000000000E+20
146
0.0
 13
0.0
 23
0.0
 33
0.0
 16
1.0
 26
0.0
 36
0.0
 17
0.0
 27
1.0
 37
0.0
 76
     0
330
15
  0
MATERIAL
  5
9DEC
102
{ACAD_XDICTIONARY
360
9DED
102
}
102
{ACAD_REACTORS
330
9DE3
102
}
330
9DE3
100
AcDbMaterial
  1
ByBlock
 72
     0
 43
0.0208333333333333
 43
0.0
 43
0.0
 43
0.0
 43
0.0
 43
0.0208333333333333
 43
0.0
 43
0.0
 43
0.0
 43
0.0
 43
1.0
 43
0.0
 43
0.0
 43
0.0
 43
0.0
 43
1.0
 77
     0
 47
0.0208333333333333
 47
0.0
 47
0.0
 47
0.0
 47
0.0
 47
0.0208333333333333
 47
0.0
 47
0.0
 47
0.0
 47
0.0
 47
1.0
 47
0.0
 47
0.0
 47
0.0
 47
0.0
 47
1.0
171
     0
 49
0.0208333333333333
 49
0.0
 49
0.0
 49
0.0
 49
0.0
 49
0.0208333333333333
 49
0.0
 49
0.0
 49
0.0
 49
0.0
 49
1.0
 49
0.0
 49
0.0
 49
0.0
 49
0.0
 49
1.0
175
     0
142
0.0208333333333333
142
0.0
142
0.0
142
0.0
142
0.0
142
0.0208333333333333
142
0.0
142
0.0
142
0.0
142
0.0
142
1.0
142
0.0
142
0.0
142
0.0
142
0.0
142
1.0
179
     0
144
0.0208333333333333
144
0.0
144
0.0
144
0.0
144
0.0
144
0.0208333333333333
144
0.0
144
0.0
144
0.0
144
0.0
144
1.0
144
0.0
144
0.0
144
0.0
144
0.0
144
1.0
147
0.0208333333333333
147
0.0
147
0.0
147
0.0
147
0.0
147
0.0208333333333333
147
0.0
147
0.0
147
0.0
147
0.0
147
1.0
147
0.0
147
0.0
147
0.0
147
0.0
147
1.0
  0
MATERIAL
  5
9DE4
102
{ACAD_XDICTIONARY
360
9DE5
102
}
102
{ACAD_REACTORS
330
9DE3
102
}
330
9DE3
100
AcDbMaterial
  1
ByLayer
 72
     0
 43
0.0208333333333333
 43
0.0
 43
0.0
 43
0.0
 43
0.0
 43
0.0208333333333333
 43
0.0
 43
0.0
 43
0.0
 43
0.0
 43
1.0
 43
0.0
 43
0.0
 43
0.0
 43
0.0
 43
1.0
 77
     0
 47
0.0208333333333333
 47
0.0
 47
0.0
 47
0.0
 47
0.0
 47
0.0208333333333333
 47
0.0
 47
0.0
 47
0.0
 47
0.0
 47
1.0
 47
0.0
 47
0.0
 47
0.0
 47
0.0
 47
1.0
171
     0
 49
0.0208333333333333
 49
0.0
 49
0.0
 49
0.0
 49
0.0
 49
0.0208333333333333
 49
0.0
 49
0.0
 49
0.0
 49
0.0
 49
1.0
 49
0.0
 49
0.0
 49
0.0
 49
0.0
 49
1.0
175
     0
142
0.0208333333333333
142
0.0
142
0.0
142
0.0
142
0.0
142
0.0208333333333333
142
0.0
142
0.0
142
0.0
142
0.0
142
1.0
142
0.0
142
0.0
142
0.0
142
0.0
142
1.0
179
     0
144
0.0208333333333333
144
0.0
144
0.0
144
0.0
144
0.0
144
0.0208333333333333
144
0.0
144
0.0
144
0.0
144
0.0
144
1.0
144
0.0
144
0.0
144
0.0
144
0.0
144
1.0
147
0.0208333333333333
147
0.0
147
0.0
147
0.0
147
0.0
147
0.0208333333333333
147
0.0
147
0.0
147
0.0
147
0.0
147
1.0
147
0.0
147
0.0
147
0.0
147
0.0
147
1.0
  0
MATERIAL
  5
9DF4
102
{ACAD_XDICTIONARY
360
9DF5
102
}
102
{ACAD_REACTORS
330
9DE3
102
}
330
9DE3
100
AcDbMaterial
  1
Global
 72
     0
 43
0.0208333333333333
 43
0.0
 43
0.0
 43
0.0
 43
0.0
 43
0.0208333333333333
 43
0.0
 43
0.0
 43
0.0
 43
0.0
 43
1.0
 43
0.0
 43
0.0
 43
0.0
 43
0.0
 43
1.0
 77
     0
 47
0.0208333333333333
 47
0.0
 47
0.0
 47
0.0
 47
0.0
 47
0.0208333333333333
 47
0.0
 47
0.0
 47
0.0
 47
0.0
 47
1.0
 47
0.0
 47
0.0
 47
0.0
 47
0.0
 47
1.0
171
     0
 49
0.0208333333333333
 49
0.0
 49
0.0
 49
0.0
 49
0.0
 49
0.0208333333333333
 49
0.0
 49
0.0
 49
0.0
 49
0.0
 49
1.0
 49
0.0
 49
0.0
 49
0.0
 49
0.0
 49
1.0
175
     0
142
0.0208333333333333
142
0.0
142
0.0
142
0.0
142
0.0
142
0.0208333333333333
142
0.0
142
0.0
142
0.0
142
0.0
142
1.0
142
0.0
142
0.0
142
0.0
142
0.0
142
1.0
179
     0
144
0.0208333333333333
144
0.0
144
0.0
144
0.0
144
0.0
144
0.0208333333333333
144
0.0
144
0.0
144
0.0
144
0.0
144
1.0
144
0.0
144
0.0
144
0.0
144
0.0
144
1.0
147
0.0208333333333333
147
0.0
147
0.0
147
0.0
147
0.0
147
0.0208333333333333
147
0.0
147
0.0
147
0.0
147
0.0
147
1.0
147
0.0
147
0.0
147
0.0
147
0.0
147
1.0
  0
MLEADERSTYLE
  5
9E2B
102
{ACAD_XDICTIONARY
360
B75C
102
}
102
{ACAD_REACTORS
330
9E2A
102
}
330
9E2A
100
AcDbMLeaderStyle
170
     2
171
     1
172
     0
 90
        2
 40
0.0
 41
0.0
173
     1
 91
-1056964608
340
12
 92
       -2
290
     1
 42
0.09
291
     1
 43
0.36
  3
Standard
 44
0.18
300

342
F
174
     1
178
     6
175
     1
176
     0
 93
-1056964608
 45
0.18
292
     0
297
     0
 46
0.18
 94
-1056964608
 47
1.0
 49
1.0
140
1.0
293
     1
141
0.0
294
     1
177
     0
142
1.0
295
     0
296
     0
143
0.125
1001
ACAD_MLEADERVER
1070
     2
  0
MLINESTYLE
  5
1C
102
{ACAD_REACTORS
330
1B
102
}
330
1B
100
AcDbMlineStyle
  2
STANDARD
 70
     0
  3

 62
   256
 51
90.0
 52
90.0
 71
     2
 49
0.5
 62
   256
  6
BYLAYER
 49
-0.5
 62
   256
  6
BYLAYER
  0
PLOTSETTINGS
  5
838
102
{ACAD_XDICTIONARY
360
B764
102
}
102
{ACAD_REACTORS
330
7CB
102
}
330
7CB
100
AcDbPlotSettings
  1
PrinterEPSON
  2
EPSON LP-9200S
  4
A3
  6

 40
5.873749732971191
 41
5.873747825622558
 42
5.873748779296875
 43
5.873748779296875
 44
297.0106506347656
 45
419.9466552734374
 46
0.0
 47
0.63
 48
0.0
 49
0.0
140
0.0
141
0.0
142
1.0
143
1.907088125961155
 70
  1716
 72
     1
 73
     1
 74
     1
  7
ZenithPrinter.ctb
 75
     0
147
0.5243596173595854
148
-19.45759484557811
149
-6.493153191710916
  0
PLOTSETTINGS
  5
839
102
{ACAD_XDICTIONARY
360
B766
102
}
102
{ACAD_REACTORS
330
7CB
102
}
330
7CB
100
AcDbPlotSettings
  1
ProterHP
  2
HP DesignJet 430 (D/A1) by HP
  4
User621
  6

 40
0.0
 41
0.0
 42
0.0
 43
0.0
 44
594.0
 45
841.0
 46
2.229999999999999
 47
0.0
 48
0.0
 49
0.0
140
0.0
141
0.0
142
1.0
143
0.9227801962806559
 70
  1716
 72
     1
 73
     1
 74
     1
  7
ZenithPrinter.ctb
 75
     0
147
1.083681687178143
148
-19.45759484557811
149
-6.493153191710916
  0
ACDBPLACEHOLDER
  5
7C9
102
{ACAD_REACTORS
330
7C8
102
}
330
7C8
  0
SCALE
  5
9E19
102
{ACAD_REACTORS
330
9E18
102
}
330
9E18
100
AcDbScale
 70
     0
300
1:1
140
1.0
141
1.0
290
     1
  0
SCALE
  5
9E1A
102
{ACAD_REACTORS
330
9E18
102
}
330
9E18
100
AcDbScale
 70
     0
300
1/128" = 1'-0"
140
0.0078125
141
12.0
290
     0
  0
SCALE
  5
9E1B
102
{ACAD_REACTORS
330
9E18
102
}
330
9E18
100
AcDbScale
 70
     0
300
1/64" = 1'-0"
140
0.015625
141
12.0
290
     0
  0
SCALE
  5
9E1C
102
{ACAD_REACTORS
330
9E18
102
}
330
9E18
100
AcDbScale
 70
     0
300
1/32" = 1'-0"
140
0.03125
141
12.0
290
     0
  0
SCALE
  5
9E1D
102
{ACAD_REACTORS
330
9E18
102
}
330
9E18
100
AcDbScale
 70
     0
300
1/16" = 1'-0"
140
0.0625
141
12.0
290
     0
  0
SCALE
  5
9E1E
102
{ACAD_REACTORS
330
9E18
102
}
330
9E18
100
AcDbScale
 70
     0
300
3/32" = 1'-0"
140
0.09375
141
12.0
290
     0
  0
SCALE
  5
9E1F
102
{ACAD_REACTORS
330
9E18
102
}
330
9E18
100
AcDbScale
 70
     0
300
1/8" = 1'-0"
140
0.125
141
12.0
290
     0
  0
SCALE
  5
9E20
102
{ACAD_REACTORS
330
9E18
102
}
330
9E18
100
AcDbScale
 70
     0
300
3/16" = 1'-0"
140
0.1875
141
12.0
290
     0
  0
SCALE
  5
9E21
102
{ACAD_REACTORS
330
9E18
102
}
330
9E18
100
AcDbScale
 70
     0
300
1/4" = 1'-0"
140
0.25
141
12.0
290
     0
  0
SCALE
  5
9E22
102
{ACAD_REACTORS
330
9E18
102
}
330
9E18
100
AcDbScale
 70
     0
300
3/8" = 1'-0"
140
0.375
141
12.0
290
     0
  0
SCALE
  5
9E23
102
{ACAD_REACTORS
330
9E18
102
}
330
9E18
100
AcDbScale
 70
     0
300
1/2" = 1'-0"
140
0.5
141
12.0
290
     0
  0
SCALE
  5
9E24
102
{ACAD_REACTORS
330
9E18
102
}
330
9E18
100
AcDbScale
 70
     0
300
3/4" = 1'-0"
140
0.75
141
12.0
290
     0
  0
SCALE
  5
9E25
102
{ACAD_REACTORS
330
9E18
102
}
330
9E18
100
AcDbScale
 70
     0
300
1" = 1'-0"
140
1.0
141
12.0
290
     0
  0
SCALE
  5
9E26
102
{ACAD_REACTORS
330
9E18
102
}
330
9E18
100
AcDbScale
 70
     0
300
1-1/2" = 1'-0"
140
1.5
141
12.0
290
     0
  0
SCALE
  5
9E27
102
{ACAD_REACTORS
330
9E18
102
}
330
9E18
100
AcDbScale
 70
     0
300
3" = 1'-0"
140
3.0
141
12.0
290
     0
  0
SCALE
  5
9E28
102
{ACAD_REACTORS
330
9E18
102
}
330
9E18
100
AcDbScale
 70
     0
300
6" = 1'-0"
140
6.0
141
12.0
290
     0
  0
SCALE
  5
9E29
102
{ACAD_REACTORS
330
9E18
102
}
330
9E18
100
AcDbScale
 70
     0
300
1'-0" = 1'-0"
140
12.0
141
12.0
290
     0
  0
TABLESTYLE
  5
9E17
102
{ACAD_XDICTIONARY
360
B622
102
}
102
{ACAD_REACTORS
330
9E16
102
}
330
9E16
100
AcDbTableStyle
  3
Standard
 70
     0
 71
     0
 40
0.06
 41
0.06
280
     0
281
     0
  7
STANDARD
140
0.18
170
     2
 62
     0
 63
     7
283
     0
274
    -2
284
     1
 64
     0
275
    -2
285
     1
 65
     0
276
    -2
286
     1
 66
     0
277
    -2
287
     1
 67
     0
278
    -2
288
     1
 68
     0
279
    -2
289
     1
 69
     0
  7
STANDARD
140
0.25
170
     5
 62
     0
 63
     7
283
     0
274
    -2
284
     1
 64
     0
275
    -2
285
     1
 65
     0
276
    -2
286
     1
 66
     0
277
    -2
287
     1
 67
     0
278
    -2
288
     1
 68
     0
279
    -2
289
     1
 69
     0
  7
STANDARD
140
0.18
170
     5
 62
     0
 63
     7
283
     0
274
    -2
284
     1
 64
     0
275
    -2
285
     1
 65
     0
276
    -2
286
     1
 66
     0
277
    -2
287
     1
 67
     0
278
    -2
288
     1
 68
     0
279
    -2
289
     1
 69
     0
  0
VISUALSTYLE
  5
9E02
102
{ACAD_XDICTIONARY
360
B775
102
}
102
{ACAD_REACTORS
330
9DFC
102
}
330
9DFC
100
AcDbVisualStyle
  2
2dWireframe
 70
     4
 71
     0
 72
     2
 73
     0
 90
        0
 40
-0.6
 41
-30.0
 62
     5
 63
     7
 74
     1
 91
        4
 64
     7
 65
   257
 75
     1
175
     1
 42
1.0
 92
        0
 66
   257
 43
1.0
 76
     1
 77
     6
 78
     2
 67
     7
 79
     5
170
     0
171
     0
290
     0
174
     0
 93
        1
 44
0.0
173
     0
291
     0
 45
0.0
1001
ACAD
1000
AcDbSavedByObjectVersion
1070
     0
  0
VISUALSTYLE
  5
9E01
102
{ACAD_XDICTIONARY
360
B773
102
}
102
{ACAD_REACTORS
330
9DFC
102
}
330
9DFC
100
AcDbVisualStyle
  2
Basic
 70
     7
 71
     1
 72
     0
 73
     1
 90
        0
 40
-0.6
 41
-30.0
 62
     5
 63
     7
 74
     0
 91
        4
 64
     7
 65
   257
 75
     1
175
     1
 42
1.0
 92
        8
 66
     7
 43
1.0
 76
     1
 77
     6
 78
     2
 67
     7
 79
     5
170
     0
171
     0
290
     0
174
     0
 93
        1
 44
0.0
173
     0
291
     1
 45
0.0
1001
ACAD
1000
AcDbSavedByObjectVersion
1070
     0
  0
VISUALSTYLE
  5
9E08
102
{ACAD_XDICTIONARY
360
B781
102
}
102
{ACAD_REACTORS
330
9DFC
102
}
330
9DFC
100
AcDbVisualStyle
  2
Brighten
 70
    12
 71
     2
 72
     2
 73
     0
 90
        0
 40
-0.6
 41
-30.0
 62
     5
 63
     7
 74
     1
 91
        4
 64
     7
 65
   257
 75
     1
175
     1
 42
1.0
 92
        8
 66
     7
 43
1.0
 76
     1
 77
     6
 78
     2
 67
     7
 79
     5
170
     0
171
     0
290
     0
174
     0
 93
        1
 44
50.0
173
     0
291
     1
 45
0.0
1001
ACAD
1000
AcDbSavedByObjectVersion
1070
     0
  0
VISUALSTYLE
  5
9E0C
102
{ACAD_XDICTIONARY
360
B789
102
}
102
{ACAD_REACTORS
330
9DFC
102
}
330
9DFC
100
AcDbVisualStyle
  2
ColorChange
 70
    16
 71
     2
 72
     2
 73
     3
 90
        0
 40
-0.6
 41
-30.0
 62
     5
 63
     8
 74
     1
 91
        4
 64
     7
 65
   257
 75
     1
175
     1
 42
1.0
 92
        8
 66
     8
 43
1.0
 76
     1
 77
     6
 78
     2
 67
     7
 79
     5
170
     0
171
     0
290
     0
174
     0
 93
        1
 44
0.0
173
     0
291
     1
 45
0.0
1001
ACAD
1000
AcDbSavedByObjectVersion
1070
     0
  0
VISUALSTYLE
  5
9E05
102
{ACAD_XDICTIONARY
360
B77B
102
}
102
{ACAD_REACTORS
330
9DFC
102
}
330
9DFC
100
AcDbVisualStyle
  2
Conceptual
 70
     9
 71
     3
 72
     2
 73
     0
 90
        0
 40
-0.6
 41
-30.0
 62
     5
 63
     7
 74
     2
 91
        2
 64
     7
 65
   257
 75
     1
175
     1
 42
179.0
 92
        8
 66
     7
 43
1.0
 76
     1
 77
     6
 78
     2
 67
     7
 79
     3
170
     0
171
     0
290
     0
174
     0
 93
        1
 44
0.0
173
     0
291
     0
 45
0.0
1001
ACAD
1000
AcDbSavedByObjectVersion
1070
     0
  0
VISUALSTYLE
  5
9E07
102
{ACAD_XDICTIONARY
360
B77F
102
}
102
{ACAD_REACTORS
330
9DFC
102
}
330
9DFC
100
AcDbVisualStyle
  2
Dim
 70
    11
 71
     2
 72
     2
 73
     0
 90
        0
 40
-0.6
 41
-30.0
 62
     5
 63
     7
 74
     1
 91
        4
 64
     7
 65
   257
 75
     1
175
     1
 42
1.0
 92
        8
 66
     7
 43
1.0
 76
     1
 77
     6
 78
     2
 67
     7
 79
     5
170
     0
171
     0
290
     0
174
     0
 93
        1
 44
-50.0
173
     0
291
     1
 45
0.0
1001
ACAD
1000
AcDbSavedByObjectVersion
1070
     0
  0
VISUALSTYLE
  5
9E14
102
{ACAD_XDICTIONARY
360
B799
102
}
102
{ACAD_REACTORS
330
9DFC
102
}
330
9DFC
100
AcDbVisualStyle
  2
EdgeColorOff
 70
    22
 71
     2
 72
     2
 73
     0
 90
        0
 40
-0.6
 41
-30.0
 62
     5
 63
     7
 74
     1
 91
        4
 64
     7
 65
   257
 75
     1
175
     1
 42
1.0
 92
        8
 66
     7
 43
1.0
 76
     1
 77
     6
 78
     2
 67
     7
 79
     5
170
     0
171
     0
290
     0
174
     0
 93
        1
 44
0.0
173
     0
291
     1
 45
0.0
1001
ACAD
1000
AcDbSavedByObjectVersion
1070
     0
  0
VISUALSTYLE
  5
9E0B
102
{ACAD_XDICTIONARY
360
B787
102
}
102
{ACAD_REACTORS
330
9DFC
102
}
330
9DFC
100
AcDbVisualStyle
  2
Facepattern
 70
    15
 71
     2
 72
     2
 73
     0
 90
        0
 40
-0.6
 41
-30.0
 62
     5
 63
     7
 74
     1
 91
        4
 64
     7
 65
   257
 75
     1
175
     1
 42
1.0
 92
        8
 66
     7
 43
1.0
 76
     1
 77
     6
 78
     2
 67
     7
 79
     5
170
     0
171
     0
290
     0
174
     0
 93
        1
 44
0.0
173
     0
291
     1
 45
0.0
1001
ACAD
1000
AcDbSavedByObjectVersion
1070
     0
  0
VISUALSTYLE
  5
9DFD
102
{ACAD_XDICTIONARY
360
B76B
102
}
102
{ACAD_REACTORS
330
9DFC
102
}
330
9DFC
100
AcDbVisualStyle
  2
Flat
 70
     0
 71
     2
 72
     1
 73
     1
 90
        2
 40
-0.6
 41
30.0
 62
     5
 63
     7
 74
     0
 91
        0
 64
     7
 65
   257
 75
     1
175
     1
 42
1.0
 92
        8
 66
     7
 43
1.0
 76
     1
 77
     6
 78
     2
 67
     7
 79
     5
170
     0
171
     0
290
     0
174
     0
 93
       13
 44
0.0
173
     0
291
     1
 45
0.0
1001
ACAD
1000
AcDbSavedByObjectVersion
1070
     0
  0
VISUALSTYLE
  5
9DFE
102
{ACAD_XDICTIONARY
360
B76D
102
}
102
{ACAD_REACTORS
330
9DFC
102
}
330
9DFC
100
AcDbVisualStyle
  2
FlatWithEdges
 70
     1
 71
     2
 72
     1
 73
     1
 90
        2
 40
-0.6
 41
30.0
 62
     5
 63
     7
 74
     1
 91
        0
 64
     7
 65
   257
 75
     1
175
     1
 42
1.0
 92
        0
 66
   257
 43
1.0
 76
     1
 77
     6
 78
     2
 67
     7
 79
     5
170
     0
171
     0
290
     0
174
     0
 93
       13
 44
0.0
173
     0
291
     1
 45
0.0
1001
ACAD
1000
AcDbSavedByObjectVersion
1070
     0
  0
VISUALSTYLE
  5
9DFF
102
{ACAD_XDICTIONARY
360
B76F
102
}
102
{ACAD_REACTORS
330
9DFC
102
}
330
9DFC
100
AcDbVisualStyle
  2
Gouraud
 70
     2
 71
     2
 72
     2
 73
     1
 90
        2
 40
-0.6
 41
30.0
 62
     5
 63
     7
 74
     0
 91
        0
 64
     7
 65
   257
 75
     1
175
     1
 42
1.0
 92
        0
 66
     7
 43
1.0
 76
     1
 77
     6
 78
     2
 67
     7
 79
     5
170
     0
171
     0
290
     0
174
     0
 93
       13
 44
0.0
173
     0
291
     1
 45
0.0
1001
ACAD
1000
AcDbSavedByObjectVersion
1070
     0
  0
VISUALSTYLE
  5
9E00
102
{ACAD_XDICTIONARY
360
B771
102
}
102
{ACAD_REACTORS
330
9DFC
102
}
330
9DFC
100
AcDbVisualStyle
  2
GouraudWithEdges
 70
     3
 71
     2
 72
     2
 73
     1
 90
        2
 40
-0.6
 41
30.0
 62
     5
 63
     7
 74
     1
 91
        0
 64
     7
 65
   257
 75
     1
175
     1
 42
1.0
 92
        0
 66
   257
 43
1.0
 76
     1
 77
     6
 78
     2
 67
     7
 79
     5
170
     0
171
     0
290
     0
174
     0
 93
       13
 44
0.0
173
     0
291
     1
 45
0.0
1001
ACAD
1000
AcDbSavedByObjectVersion
1070
     0
  0
VISUALSTYLE
  5
9E04
102
{ACAD_XDICTIONARY
360
B779
102
}
102
{ACAD_REACTORS
330
9DFC
102
}
330
9DFC
100
AcDbVisualStyle
  2
Hidden
 70
     6
 71
     1
 72
     2
 73
     2
 90
        0
 40
-0.6
 41
-30.0
 62
     5
 63
     7
 74
     2
 91
        2
 64
     7
 65
   257
 75
     2
175
     1
 42
40.0
 92
        0
 66
   257
 43
1.0
 76
     1
 77
     6
 78
     2
 67
     7
 79
     3
170
     0
171
     0
290
     0
174
     0
 93
        1
 44
0.0
173
     0
291
     0
 45
0.0
1001
ACAD
1000
AcDbSavedByObjectVersion
1070
     0
  0
VISUALSTYLE
  5
9E12
102
{ACAD_XDICTIONARY
360
B795
102
}
102
{ACAD_REACTORS
330
9DFC
102
}
330
9DFC
100
AcDbVisualStyle
  2
JitterOff
 70
    20
 71
     2
 72
     2
 73
     0
 90
        0
 40
-0.6
 41
-30.0
 62
     5
 63
     7
 74
     1
 91
        4
 64
     7
 65
   257
 75
     1
175
     1
 42
1.0
 92
       10
 66
     7
 43
1.0
 76
     1
 77
     6
 78
     2
 67
     7
 79
     5
170
     0
171
     0
290
     0
174
     0
 93
        1
 44
0.0
173
     0
291
     1
 45
0.0
1001
ACAD
1000
AcDbSavedByObjectVersion
1070
     0
  0
VISUALSTYLE
  5
9E0A
102
{ACAD_XDICTIONARY
360
B785
102
}
102
{ACAD_REACTORS
330
9DFC
102
}
330
9DFC
100
AcDbVisualStyle
  2
Linepattern
 70
    14
 71
     2
 72
     2
 73
     0
 90
        0
 40
-0.6
 41
-30.0
 62
     5
 63
     7
 74
     1
 91
        4
 64
     7
 65
   257
 75
     7
175
     7
 42
1.0
 92
        8
 66
     7
 43
1.0
 76
     1
 77
     6
 78
     2
 67
     7
 79
     5
170
     0
171
     0
290
     0
174
     0
 93
        1
 44
0.0
173
     0
291
     1
 45
0.0
1001
ACAD
1000
AcDbSavedByObjectVersion
1070
     0
  0
VISUALSTYLE
  5
9E13
102
{ACAD_XDICTIONARY
360
B797
102
}
102
{ACAD_REACTORS
330
9DFC
102
}
330
9DFC
100
AcDbVisualStyle
  2
OverhangOff
 70
    21
 71
     2
 72
     2
 73
     0
 90
        0
 40
-0.6
 41
-30.0
 62
     5
 63
     7
 74
     1
 91
        4
 64
     7
 65
   257
 75
     1
175
     1
 42
1.0
 92
        9
 66
     7
 43
1.0
 76
     1
 77
     6
 78
     2
 67
     7
 79
     5
170
     0
171
     0
290
     0
174
     0
 93
        1
 44
0.0
173
     0
291
     1
 45
0.0
1001
ACAD
1000
AcDbSavedByObjectVersion
1070
     0
  0
VISUALSTYLE
  5
9E06
102
{ACAD_XDICTIONARY
360
B77D
102
}
102
{ACAD_REACTORS
330
9DFC
102
}
330
9DFC
100
AcDbVisualStyle
  2
Realistic
 70
     8
 71
     2
 72
     2
 73
     0
 90
        2
 40
-0.6
 41
30.0
 62
     5
 63
     7
 74
     0
 91
        0
 64
     7
 65
   257
 75
     1
175
     1
 42
1.0
 92
        8
 66
   257
 43
1.0
 76
     1
 77
     6
 78
     2
 67
     7
 79
     3
170
     0
171
     0
290
     0
174
     0
 93
       13
 44
0.0
173
     0
291
     0
 45
0.0
1001
ACAD
1000
AcDbSavedByObjectVersion
1070
     0
  0
VISUALSTYLE
  5
9E11
102
{ACAD_XDICTIONARY
360
B793
102
}
102
{ACAD_REACTORS
330
9DFC
102
}
330
9DFC
100
AcDbVisualStyle
  2
Shaded
 70
    27
 71
     2
 72
     2
 73
     1
 90
        2
 40
-0.6
 41
30.0
 62
     5
 63
     7
 74
     0
 91
        4
 64
     7
 65
   257
 75
     1
175
     1
 42
1.0
 92
        8
 66
   257
 43
1.0
 76
     1
 77
     6
 78
     2
 67
     8
 79
     3
170
     0
171
     0
290
     0
174
     0
 93
        5
 44
0.0
173
     0
291
     0
 45
0.0
1001
ACAD
1000
AcDbSavedByObjectVersion
1070
     0
  0
VISUALSTYLE
  5
9E10
102
{ACAD_XDICTIONARY
360
B791
102
}
102
{ACAD_REACTORS
330
9DFC
102
}
330
9DFC
100
AcDbVisualStyle
  2
Shaded with edges
 70
    26
 71
     2
 72
     2
 73
     1
 90
        2
 40
-0.6
 41
30.0
 62
     5
 63
     7
 74
     1
 91
       10
 64
     7
 65
   257
 75
     2
175
     1
 42
1.0
 92
        8
 66
   257
 43
1.0
 76
     1
 77
     6
 78
     2
 67
     7
 79
     3
170
     0
171
     0
290
     0
174
     0
 93
        5
 44
0.0
173
     0
291
     0
 45
0.0
1001
ACAD
1000
AcDbSavedByObjectVersion
1070
     0
  0
VISUALSTYLE
  5
9E0D
102
{ACAD_XDICTIONARY
360
B78B
102
}
102
{ACAD_REACTORS
330
9DFC
102
}
330
9DFC
100
AcDbVisualStyle
  2
Shades of Gray
 70
    23
 71
     2
 72
     2
 73
     3
 90
        0
 40
-0.6
 41
-30.0
 62
     5
 63
     7
 74
     2
 91
        2
 64
     7
 65
     7
 75
     1
175
     1
 42
40.0
 92
        8
 66
     7
 43
1.0
 76
     1
 77
     6
 78
     2
 67
     7
 79
     3
170
     0
171
     0
290
     0
174
     0
 93
        1
 44
0.0
173
     0
291
     0
 45
0.0
1001
ACAD
1000
AcDbSavedByObjectVersion
1070
     0
  0
VISUALSTYLE
  5
9E0E
102
{ACAD_XDICTIONARY
360
B78D
102
}
102
{ACAD_REACTORS
330
9DFC
102
}
330
9DFC
100
AcDbVisualStyle
  2
Sketchy
 70
    24
 71
     1
 72
     2
 73
     2
 90
        0
 40
-0.6
 41
-30.0
 62
     5
 63
     7
 74
     2
 91
        2
 64
     7
 65
     7
 75
     1
175
     1
 42
40.0
 92
       11
 66
     7
 43
1.0
 76
     1
 77
     6
 78
     2
 67
     7
 79
     6
170
     0
171
     0
290
     0
174
     0
 93
        1
 44
0.0
173
     0
291
     0
 45
0.0
1001
ACAD
1000
AcDbSavedByObjectVersion
1070
     0
  0
VISUALSTYLE
  5
9E09
102
{ACAD_XDICTIONARY
360
B783
102
}
102
{ACAD_REACTORS
330
9DFC
102
}
330
9DFC
100
AcDbVisualStyle
  2
Thicken
 70
    13
 71
     2
 72
     2
 73
     0
 90
        0
 40
-0.6
 41
-30.0
 62
     5
 63
     7
 74
     1
 91
        4
 64
     7
 65
   257
 75
     1
175
     1
 42
1.0
 92
       12
 66
     7
 43
1.0
 76
     1
 77
     6
 78
     2
 67
     7
 79
     5
170
     0
171
     0
290
     0
174
     0
 93
        1
 44
0.0
173
     0
291
     1
 45
0.0
1001
ACAD
1000
AcDbSavedByObjectVersion
1070
     0
  0
VISUALSTYLE
  5
9E03
102
{ACAD_XDICTIONARY
360
B777
102
}
102
{ACAD_REACTORS
330
9DFC
102
}
330
9DFC
100
AcDbVisualStyle
  2
Wireframe
 70
     5
 71
     0
 72
     2
 73
     0
 90
        0
 40
-0.6
 41
-30.0
 62
     5
 63
     7
 74
     1
 91
        4
 64
     7
 65
   257
 75
     1
175
     1
 42
1.0
 92
        0
 66
   257
 43
1.0
 76
     1
 77
     6
 78
     2
 67
     7
 79
     3
170
     0
171
     0
290
     0
174
     0
 93
        1
 44
0.0
173
     0
291
     0
 45
0.0
1001
ACAD
1000
AcDbSavedByObjectVersion
1070
     0
  0
VISUALSTYLE
  5
9E0F
102
{ACAD_XDICTIONARY
360
B78F
102
}
102
{ACAD_REACTORS
330
9DFC
102
}
330
9DFC
100
AcDbVisualStyle
  2
X-Ray
 70
    25
 71
     2
 72
     2
 73
     1
 90
        1
 40
0.5
 41
-30.0
 62
     5
 63
     7
 74
     1
 91
        0
 64
     7
 65
   257
 75
     1
175
     1
 42
1.0
 92
        8
 66
     7
 43
1.0
 76
     1
 77
     6
 78
     2
 67
     7
 79
     3
170
     0
171
     0
290
     0
174
     0
 93
       13
 44
0.0
173
     0
291
     0
 45
0.0
1001
ACAD
1000
AcDbSavedByObjectVersion
1070
     0
  0
DICTIONARYVAR
  5
B669
102
{ACAD_REACTORS
330
24A5
102
}
330
24A5
100
DictionaryVariables
280
     0
  1
1:1
  0
DICTIONARYVAR
  5
B668
102
{ACAD_REACTORS
330
24A5
102
}
330
24A5
100
DictionaryVariables
280
     0
  1
STANDARD
  0
DICTIONARYVAR
  5
B667
102
{ACAD_REACTORS
330
24A5
102
}
330
24A5
100
DictionaryVariables
280
     0
  1
STANDARD
  0
DICTIONARYVAR
  5
24A6
102
{ACAD_REACTORS
330
24A5
102
}
330
24A5
100
DictionaryVariables
280
     0
  1
1
  0
DICTIONARYVAR
  5
B66B
102
{ACAD_REACTORS
330
24A5
102
}
330
24A5
100
DictionaryVariables
280
     0
  1
0
  0
DICTIONARYVAR
  5
B675
102
{ACAD_REACTORS
330
24A5
102
}
330
24A5
100
DictionaryVariables
280
     0
  1
1
  0
DICTIONARYVAR
  5
B676
102
{ACAD_REACTORS
330
24A5
102
}
330
24A5
100
DictionaryVariables
280
     0
  1
15
  0
DICTIONARYVAR
  5
B674
102
{ACAD_REACTORS
330
24A5
102
}
330
24A5
100
DictionaryVariables
280
     0
  1
0
  0
DICTIONARYVAR
  5
B673
102
{ACAD_REACTORS
330
24A5
102
}
330
24A5
100
DictionaryVariables
280
     0
  1
0
  0
DICTIONARYVAR
  5
B66A
102
{ACAD_REACTORS
330
24A5
102
}
330
24A5
100
DictionaryVariables
280
     0
  1
127
  0
DICTIONARYVAR
  5
B75A
102
{ACAD_REACTORS
330
24A5
102
}
330
24A5
100
DictionaryVariables
280
     0
  1
2
  0
XRECORD
  5
39AE
102
{ACAD_REACTORS
330
39AD
102
}
330
39AD
100
AcDbXrecord
280
     1
  1
-c
  1
*-c
  1
*
  1
*
 70
     0
  1
*
  1
*
  0
XRECORD
  5
39AF
102
{ACAD_REACTORS
330
39AD
102
}
330
39AD
100
AcDbXrecord
280
     1
  1
-C2
  1
*-c,vec,kigou,touko25
  1
*
  1
*
 70
     0
  1
*
  1
*
  0
XRECORD
  5
39B0
102
{ACAD_REACTORS
330
39AD
102
}
330
39AD
100
AcDbXrecord
280
     1
  1
-cc
  1
*-cc
  1
*
  1
*
 70
     0
  1
*
  1
*
  0
XRECORD
  5
39B1
102
{ACAD_REACTORS
330
39AD
102
}
330
39AD
100
AcDbXrecord
280
     1
  1
-ccc
  1
*-c,*-cc
  1
*
  1
*
 70
     0
  1
*
  1
*
  0
XRECORD
  5
39B2
102
{ACAD_REACTORS
330
39AD
102
}
330
39AD
100
AcDbXrecord
280
     1
  1
-cccC
  1
*-c,*-cc,c_*
  1
*
  1
*
 70
     0
  1
*
  1
*
  0
XRECORD
  5
39B3
102
{ACAD_REACTORS
330
39AD
102
}
330
39AD
100
AcDbXrecord
280
     1
  1
-図面
  1
-*
  1
*
  1
*
 70
     0
  1
*
  1
*
  0
XRECORD
  5
5267
102
{ACAD_REACTORS
330
39AD
102
}
330
39AD
100
AcDbXrecord
280
     1
  1
0
  1
*0*
  1
*
  1
*
 70
     0
  1
*
  1
*
  0
XRECORD
  5
39B4
102
{ACAD_REACTORS
330
39AD
102
}
330
39AD
100
AcDbXrecord
280
     1
  1
01-teitai
  1
teitai-block,teitai-douryuu,teitai-genseiko,teitai-umemodoshi
  1
*
  1
*
 70
     0
  1
*
  1
*
  0
XRECORD
  5
39B5
102
{ACAD_REACTORS
330
39AD
102
}
330
39AD
100
AcDbXrecord
280
     1
  1
02-zentai
  1
teitai-block,teitai-douryuu,teitai-genseiko,teitai-umemodoshi,surface-kussaku,???-c,map-l3
  1
*
  1
*
 70
     0
  1
*
  1
*
  0
XRECORD
  5
39B6
102
{ACAD_REACTORS
330
39AD
102
}
330
39AD
100
AcDbXrecord
280
     1
  1
03-zentai+kussaku
  1
teitai-block,teitai-douryuu,teitai-genseiko,teitai-umemodoshi,surface-kussaku
  1
*
  1
*
 70
     0
  1
*
  1
*
  0
XRECORD
  5
39B7
102
{ACAD_REACTORS
330
39AD
102
}
330
39AD
100
AcDbXrecord
280
     1
  1
04-chikei
  1
*-c
  1
*
  1
*
 70
     0
  1
*
  1
*
  0
XRECORD
  5
39B8
102
{ACAD_REACTORS
330
39AD
102
}
330
39AD
100
AcDbXrecord
280
     1
  1
05-chikei-5m
  1
??5-c,??0-c
  1
*
  1
*
 70
     0
  1
*
  1
*
  0
XRECORD
  5
39B9
102
{ACAD_REACTORS
330
39AD
102
}
330
39AD
100
AcDbXrecord
280
     1
  1
06-kussaku
  1
*-k
  1
*
  1
*
 70
     0
  1
*
  1
*
  0
XRECORD
  5
39BA
102
{ACAD_REACTORS
330
39AD
102
}
330
39AD
100
AcDbXrecord
280
     1
  1
1
  1
*
  1
*
  1
*
 70
   256
  1
*
  1
*
  0
XRECORD
  5
5268
102
{ACAD_REACTORS
330
39AD
102
}
330
39AD
100
AcDbXrecord
280
     1
  1
1-交差点処理図（最新1案）
  1
*交差点処理図（最新1案）*
  1
*
  1
*
 70
     0
  1
*
  1
*
  0
XRECORD
  5
39BB
102
{ACAD_REACTORS
330
39AD
102
}
330
39AD
100
AcDbXrecord
280
     1
  1
100
  1
z1-*
  1
*
  1
*
 70
     0
  1
*
  1
*
  0
XRECORD
  5
39BC
102
{ACAD_REACTORS
330
39AD
102
}
330
39AD
100
AcDbXrecord
280
     1
  1
100ban
  1
*
  1
100
  1
*
 70
     0
  1
*
  1
*
  0
XRECORD
  5
39BD
102
{ACAD_REACTORS
330
39AD
102
}
330
39AD
100
AcDbXrecord
280
     1
  1
160ban
  1
*
  1
160
  1
*
 70
     0
  1
*
  1
*
  0
XRECORD
  5
39BE
102
{ACAD_REACTORS
330
39AD
102
}
330
39AD
100
AcDbXrecord
280
     1
  1
180
  1
*
  1
180
  1
*
 70
     0
  1
*
  1
*
  0
XRECORD
  5
39BF
102
{ACAD_REACTORS
330
39AD
102
}
330
39AD
100
AcDbXrecord
280
     1
  1
180-240
  1
180,240,190,200,210,220,230
  1
*
  1
*
 70
     0
  1
*
  1
*
  0
XRECORD
  5
39C0
102
{ACAD_REACTORS
330
39AD
102
}
330
39AD
100
AcDbXrecord
280
     1
  1
181
  1
*
  1
181
  1
*
 70
     0
  1
*
  1
*
  0
XRECORD
  5
39C1
102
{ACAD_REACTORS
330
39AD
102
}
330
39AD
100
AcDbXrecord
280
     1
  1
1mtoukousenn
  1
*-c
  1
6
  1
*
 70
     0
  1
*
  1
*
  0
XRECORD
  5
39C2
102
{ACAD_REACTORS
330
39AD
102
}
330
39AD
100
AcDbXrecord
280
     1
  1
2
  1
*-c
  1
*
  1
*
 70
     0
  1
*
  1
*
  0
XRECORD
  5
5269
102
{ACAD_REACTORS
330
39AD
102
}
330
39AD
100
AcDbXrecord
280
     1
  1
2-線形図1
  1
*線形図1*
  1
*
  1
*
 70
     0
  1
*
  1
*
  0
XRECORD
  5
39C3
102
{ACAD_REACTORS
330
39AD
102
}
330
39AD
100
AcDbXrecord
280
     1
  1
2100
  1
*2100*
  1
*
  1
*
 70
     0
  1
*
  1
*
  0
XRECORD
  5
39C4
102
{ACAD_REACTORS
330
39AD
102
}
330
39AD
100
AcDbXrecord
280
     1
  1
240ban
  1
*
  1
240
  1
*
 70
     0
  1
*
  1
*
  0
XRECORD
  5
39C5
102
{ACAD_REACTORS
330
39AD
102
}
330
39AD
100
AcDbXrecord
280
     1
  1
25-C
  1
**00-c,**25-c,**50-c,**75-c
  1
*
  1
*
 70
     0
  1
*
  1
*
  0
XRECORD
  5
39C6
102
{ACAD_REACTORS
330
39AD
102
}
330
39AD
100
AcDbXrecord
280
     1
  1
252
  1
*
  1
252
  1
*
 70
     0
  1
*
  1
*
  0
XRECORD
  5
39C7
102
{ACAD_REACTORS
330
39AD
102
}
330
39AD
100
AcDbXrecord
280
     1
  1
2600
  1
*2600*
  1
*
  1
*
 70
     0
  1
*
  1
*
  0
XRECORD
  5
39C8
102
{ACAD_REACTORS
330
39AD
102
}
330
39AD
100
AcDbXrecord
280
     1
  1
3
  1
*-c
  1
green
  1
*
 70
     0
  1
*
  1
*
  0
XRECORD
  5
526A
102
{ACAD_REACTORS
330
39AD
102
}
330
39AD
100
AcDbXrecord
280
     1
  1
3-線形図2
  1
*線形図2*
  1
*
  1
*
 70
     0
  1
*
  1
*
  0
XRECORD
  5
526B
102
{ACAD_REACTORS
330
39AD
102
}
330
39AD
100
AcDbXrecord
280
     1
  1
3dC
  1
***C
  1
*
  1
*
 70
     0
  1
*
  1
*
  0
XRECORD
  5
526C
102
{ACAD_REACTORS
330
39AD
102
}
330
39AD
100
AcDbXrecord
280
     1
  1
3dC5
  1
**5C
  1
*
  1
*
 70
     0
  1
*
  1
*
  0
XRECORD
  5
39C9
102
{ACAD_REACTORS
330
39AD
102
}
330
39AD
100
AcDbXrecord
280
     1
  1
44
  1
*-c
  1
6
  1
*
 70
     0
  1
*
  1
*
  0
XRECORD
  5
39CA
102
{ACAD_REACTORS
330
39AD
102
}
330
39AD
100
AcDbXrecord
280
     1
  1
5-C
  1
**5-c,**10-c,**15-c,**20-c,**30-c,**35-c,**40-c,**45-c,**55-c,**60-c,**65-c,**70-c,**80-c,**85-c,**90-c,**95-c
  1
*
  1
*
 70
     0
  1
*
  1
*
  0
XRECORD
  5
39CB
102
{ACAD_REACTORS
330
39AD
102
}
330
39AD
100
AcDbXrecord
280
     1
  1
5-C2
  1
**05-c,**10-c,**15-c,**20-c,**30-c,**35-c,**40-c,**45-c,**55-c,**60-c,**65-c,**70-c,**80-c,**85-c,**90-c,**95-c
  1
*
  1
*
 70
     0
  1
*
  1
*
  0
XRECORD
  5
39CC
102
{ACAD_REACTORS
330
39AD
102
}
330
39AD
100
AcDbXrecord
280
     1
  1
50
  1
*
  1
50
  1
*
 70
     0
  1
*
  1
*
  0
XRECORD
  5
39CD
102
{ACAD_REACTORS
330
39AD
102
}
330
39AD
100
AcDbXrecord
280
     1
  1
5m
  1
*5-c,*0-c
  1
*
  1
*
 70
     0
  1
*
  1
*
  0
XRECORD
  5
39CE
102
{ACAD_REACTORS
330
39AD
102
}
330
39AD
100
AcDbXrecord
280
     1
  1
60
  1
*
  1
60
  1
*
 70
     0
  1
*
  1
*
  0
XRECORD
  5
39CF
102
{ACAD_REACTORS
330
39AD
102
}
330
39AD
100
AcDbXrecord
280
     1
  1
7-専用部北行
  1
80*,90*,A0*,B0*,
  1
*
  1
*
 70
     0
  1
*
  1
*
  0
XRECORD
  5
39D0
102
{ACAD_REACTORS
330
39AD
102
}
330
39AD
100
AcDbXrecord
280
     1
  1
8-ONﾗﾝﾌﾟ
  1
70*,90*,A0*,B0*,
  1
*
  1
*
 70
     0
  1
*
  1
*
  0
XRECORD
  5
39D1
102
{ACAD_REACTORS
330
39AD
102
}
330
39AD
100
AcDbXrecord
280
     1
  1
9-OFFﾗﾝﾌﾟ
  1
70*,80*,A0*B0*,
  1
*
  1
*
 70
     0
  1
*
  1
*
  0
XRECORD
  5
39D2
102
{ACAD_REACTORS
330
39AD
102
}
330
39AD
100
AcDbXrecord
280
     1
  1
_図面
  1
_*
  1
*
  1
*
 70
     0
  1
*
  1
*
  0
XRECORD
  5
39D3
102
{ACAD_REACTORS
330
39AD
102
}
330
39AD
100
AcDbXrecord
280
     1
  1
a
  1
a-*
  1
*
  1
*
 70
     0
  1
*
  1
*
  0
XRECORD
  5
39D4
102
{ACAD_REACTORS
330
39AD
102
}
330
39AD
100
AcDbXrecord
280
     1
  1
a-
  1
a-*
  1
*
  1
*
 70
     0
  1
*
  1
*
  0
XRECORD
  5
39D5
102
{ACAD_REACTORS
330
39AD
102
}
330
39AD
100
AcDbXrecord
280
     1
  1
a-（埋設）
  1
a-（埋設）*
  1
*
  1
*
 70
     0
  1
*
  1
*
  0
XRECORD
  5
39D6
102
{ACAD_REACTORS
330
39AD
102
}
330
39AD
100
AcDbXrecord
280
     1
  1
aaa
  1
*-c
  1
*
  1
*
 70
     0
  1
*
  1
*
  0
XRECORD
  5
526D
102
{ACAD_REACTORS
330
39AD
102
}
330
39AD
100
AcDbXrecord
280
     1
  1
all-DIM -TXT -MTXT OFF
  1
*-DIM,*-TXT,*-MTXT
  1
*
  1
*
 70
     0
  1
*
  1
*
  0
XRECORD
  5
526E
102
{ACAD_REACTORS
330
39AD
102
}
330
39AD
100
AcDbXrecord
280
     1
  1
all-DIM -TXT OFF
  1
*-DIM,*-TXT
  1
*
  1
*
 70
     0
  1
*
  1
*
  0
XRECORD
  5
526F
102
{ACAD_REACTORS
330
39AD
102
}
330
39AD
100
AcDbXrecord
280
     1
  1
all-DIM OFF
  1
*-DIM
  1
*
  1
*
 70
     0
  1
*
  1
*
  0
XRECORD
  5
5270
102
{ACAD_REACTORS
330
39AD
102
}
330
39AD
100
AcDbXrecord
280
     1
  1
all-MTXT OFF
  1
*-MTXT
  1
*
  1
*
 70
     0
  1
*
  1
*
  0
XRECORD
  5
5271
102
{ACAD_REACTORS
330
39AD
102
}
330
39AD
100
AcDbXrecord
280
     1
  1
all-TXT OFF
  1
*-TXT
  1
*
  1
*
 70
     0
  1
*
  1
*
  0
XRECORD
  5
39D7
102
{ACAD_REACTORS
330
39AD
102
}
330
39AD
100
AcDbXrecord
280
     1
  1
all_tikei
  1
***-cc,c_*
  1
*
  1
*
 70
     0
  1
*
  1
*
  0
XRECORD
  5
39D8
102
{ACAD_REACTORS
330
39AD
102
}
330
39AD
100
AcDbXrecord
280
     1
  1
all_tikei2
  1
***-cc,c_*,***-c
  1
*
  1
*
 70
     0
  1
*
  1
*
  0
XRECORD
  5
39D9
102
{ACAD_REACTORS
330
39AD
102
}
330
39AD
100
AcDbXrecord
280
     1
  1
a、シビ
  1
a*,シビ*
  1
*
  1
*
 70
     0
  1
*
  1
*
  0
XRECORD
  5
39DA
102
{ACAD_REACTORS
330
39AD
102
}
330
39AD
100
AcDbXrecord
280
     1
  1
BASIC
  1
*
  1
*
  1
*
 70
    12
  1
*
  1
*
  0
XRECORD
  5
39DB
102
{ACAD_REACTORS
330
39AD
102
}
330
39AD
100
AcDbXrecord
280
     1
  1
BGD
  1
D-BGD*
  1
*
  1
*
 70
     0
  1
*
  1
*
  0
XRECORD
  5
39DC
102
{ACAD_REACTORS
330
39AD
102
}
330
39AD
100
AcDbXrecord
280
     1
  1
blue
  1
*
  1
blue
  1
*
 70
     0
  1
*
  1
*
  0
XRECORD
  5
5272
102
{ACAD_REACTORS
330
39AD
102
}
330
39AD
100
AcDbXrecord
280
     1
  1
B北
  1
*B北*
  1
*
  1
*
 70
     0
  1
*
  1
*
  0
XRECORD
  5
39DD
102
{ACAD_REACTORS
330
39AD
102
}
330
39AD
100
AcDbXrecord
280
     1
  1
c
  1
*c
  1
*
  1
*
 70
     0
  1
*
  1
*
  0
XRECORD
  5
39DE
102
{ACAD_REACTORS
330
39AD
102
}
330
39AD
100
AcDbXrecord
280
     1
  1
chihyou
  1
****-c
  1
*
  1
*
 70
     0
  1
*
  1
*
  0
XRECORD
  5
39DF
102
{ACAD_REACTORS
330
39AD
102
}
330
39AD
100
AcDbXrecord
280
     1
  1
chihyou-cc
  1
***-cc
  1
*
  1
*
 70
     0
  1
*
  1
*
  0
XRECORD
  5
39E0
102
{ACAD_REACTORS
330
39AD
102
}
330
39AD
100
AcDbXrecord
280
     1
  1
chikei
  1
*-c
  1
*
  1
*
 70
     0
  1
*
  1
*
  0
XRECORD
  5
39E1
102
{ACAD_REACTORS
330
39AD
102
}
330
39AD
100
AcDbXrecord
280
     1
  1
chikei 5 0
  1
*5-c,*0-c
  1
*
  1
*
 70
     0
  1
*
  1
*
  0
XRECORD
  5
39E2
102
{ACAD_REACTORS
330
39AD
102
}
330
39AD
100
AcDbXrecord
280
     1
  1
chikei-5m
  1
??5-c,??0-c
  1
*
  1
*
 70
     0
  1
*
  1
*
  0
XRECORD
  5
39E3
102
{ACAD_REACTORS
330
39AD
102
}
330
39AD
100
AcDbXrecord
280
     1
  1
chikei2
  1
*-c
  1
252
  1
*
 70
     0
  1
*
  1
*
  0
XRECORD
  5
39E4
102
{ACAD_REACTORS
330
39AD
102
}
330
39AD
100
AcDbXrecord
280
     1
  1
chikei5m
  1
*5-c,*0-c
  1
*
  1
*
 70
     0
  1
*
  1
*
  0
XRECORD
  5
39E5
102
{ACAD_REACTORS
330
39AD
102
}
330
39AD
100
AcDbXrecord
280
     1
  1
chishitsu
  1
*chishitsu*
  1
*
  1
*
 70
     0
  1
*
  1
*
  0
XRECORD
  5
39E6
102
{ACAD_REACTORS
330
39AD
102
}
330
39AD
100
AcDbXrecord
280
     1
  1
chishitu
  1
???-chishitsu,???-chishitsu-1,???-chishitsu-2
  1
*
  1
*
 70
     0
  1
*
  1
*
  0
XRECORD
  5
39E7
102
{ACAD_REACTORS
330
39AD
102
}
330
39AD
100
AcDbXrecord
280
     1
  1
ckeiall
  1
c_*,*-c,*-cc
  1
*
  1
*
 70
     0
  1
*
  1
*
  0
XRECORD
  5
39E8
102
{ACAD_REACTORS
330
39AD
102
}
330
39AD
100
AcDbXrecord
280
     1
  1
cl
  1
z1-??cl-l
  1
*
  1
*
 70
     0
  1
*
  1
*
  0
XRECORD
  5
39E9
102
{ACAD_REACTORS
330
39AD
102
}
330
39AD
100
AcDbXrecord
280
     1
  1
cl-konta
  1
*-cl
  1
*
  1
*
 70
     0
  1
*
  1
*
  0
XRECORD
  5
39EA
102
{ACAD_REACTORS
330
39AD
102
}
330
39AD
100
AcDbXrecord
280
     1
  1
cld
  1
z1-??cld-l
  1
*
  1
*
 70
     0
  1
*
  1
*
  0
XRECORD
  5
39EB
102
{ACAD_REACTORS
330
39AD
102
}
330
39AD
100
AcDbXrecord
280
     1
  1
cld^ konta
  1
*-cld
  1
*
  1
*
 70
     0
  1
*
  1
*
  0
XRECORD
  5
39EC
102
{ACAD_REACTORS
330
39AD
102
}
330
39AD
100
AcDbXrecord
280
     1
  1
cm
  1
z1-??cm-l
  1
*
  1
*
 70
     0
  1
*
  1
*
  0
XRECORD
  5
39ED
102
{ACAD_REACTORS
330
39AD
102
}
330
39AD
100
AcDbXrecord
280
     1
  1
cm-konta
  1
*-cm
  1
*
  1
*
 70
     0
  1
*
  1
*
  0
XRECORD
  5
39EE
102
{ACAD_REACTORS
330
39AD
102
}
330
39AD
100
AcDbXrecord
280
     1
  1
CONTER1m
  1
*
  1
8
  1
*
 70
     0
  1
*
  1
*
  0
XRECORD
  5
39EF
102
{ACAD_REACTORS
330
39AD
102
}
330
39AD
100
AcDbXrecord
280
     1
  1
CONTER5m
  1
*
  1
9
  1
*
 70
     0
  1
*
  1
*
  0
XRECORD
  5
5273
102
{ACAD_REACTORS
330
39AD
102
}
330
39AD
100
AcDbXrecord
280
     1
  1
cyan
  1
*
  1
cyan
  1
*
 70
     0
  1
*
  1
*
  0
XRECORD
  5
5274
102
{ACAD_REACTORS
330
39AD
102
}
330
39AD
100
AcDbXrecord
280
     1
  1
D-BAR-treeOFF
  1
D-BAR-*
  1
*
  1
*
 70
     0
  1
*
  1
*
  0
XRECORD
  5
5275
102
{ACAD_REACTORS
330
39AD
102
}
330
39AD
100
AcDbXrecord
280
     1
  1
D-BGD-treeOFF
  1
D-BGD-*
  1
*
  1
*
 70
     0
  1
*
  1
*
  0
XRECORD
  5
5276
102
{ACAD_REACTORS
330
39AD
102
}
330
39AD
100
AcDbXrecord
280
     1
  1
D-BGM-treeOFF
  1
D-BGM-*
  1
*
  1
*
 70
     0
  1
*
  1
*
  0
XRECORD
  5
5277
102
{ACAD_REACTORS
330
39AD
102
}
330
39AD
100
AcDbXrecord
280
     1
  1
D-BMK-treeOFF
  1
D-BMK-*
  1
*
  1
*
 70
     0
  1
*
  1
*
  0
XRECORD
  5
5278
102
{ACAD_REACTORS
330
39AD
102
}
330
39AD
100
AcDbXrecord
280
     1
  1
D-BYP-treeOFF
  1
D-BYP-*
  1
*
  1
*
 70
     0
  1
*
  1
*
  0
XRECORD
  5
5279
102
{ACAD_REACTORS
330
39AD
102
}
330
39AD
100
AcDbXrecord
280
     1
  1
D-MTR-ｔｒｅｅOFF
  1
D-MTR-*
  1
*
  1
*
 70
     0
  1
*
  1
*
  0
XRECORD
  5
527A
102
{ACAD_REACTORS
330
39AD
102
}
330
39AD
100
AcDbXrecord
280
     1
  1
D-OTRS-treeOFF
  1
D-OTRS-*
  1
*
  1
*
 70
     0
  1
*
  1
*
  0
XRECORD
  5
527B
102
{ACAD_REACTORS
330
39AD
102
}
330
39AD
100
AcDbXrecord
280
     1
  1
D-PC-treeOFF
  1
D-PC-*
  1
*
  1
*
 70
     0
  1
*
  1
*
  0
XRECORD
  5
527C
102
{ACAD_REACTORS
330
39AD
102
}
330
39AD
100
AcDbXrecord
280
     1
  1
D-STR-treeOFF
  1
D-STR-*
  1
*
  1
*
 70
     0
  1
*
  1
*
  0
XRECORD
  5
527D
102
{ACAD_REACTORS
330
39AD
102
}
330
39AD
100
AcDbXrecord
280
     1
  1
D-STRC-treeOFF
  1
D-STRC-*
  1
*
  1
*
 70
     0
  1
*
  1
*
  0
XRECORD
  5
527E
102
{ACAD_REACTORS
330
39AD
102
}
330
39AD
100
AcDbXrecord
280
     1
  1
D-TTL-treeOFF
  1
D-TTL-*
  1
*
  1
*
 70
     0
  1
*
  1
*
  0
XRECORD
  5
39F0
102
{ACAD_REACTORS
330
39AD
102
}
330
39AD
100
AcDbXrecord
280
     1
  1
dh-konta
  1
*-dh
  1
*
  1
*
 70
     0
  1
*
  1
*
  0
XRECORD
  5
527F
102
{ACAD_REACTORS
330
39AD
102
}
330
39AD
100
AcDbXrecord
280
     1
  1
DIM
  1
*DIM
  1
*
  1
*
 70
     0
  1
*
  1
*
  0
XRECORD
  5
5280
102
{ACAD_REACTORS
330
39AD
102
}
330
39AD
100
AcDbXrecord
280
     1
  1
doro
  1
doro***
  1
*
  1
*
 70
     0
  1
*
  1
*
  0
XRECORD
  5
5281
102
{ACAD_REACTORS
330
39AD
102
}
330
39AD
100
AcDbXrecord
280
     1
  1
douro
  1
douro***
  1
*
  1
*
 70
     0
  1
*
  1
*
  0
XRECORD
  5
39F1
102
{ACAD_REACTORS
330
39AD
102
}
330
39AD
100
AcDbXrecord
280
     1
  1
douro-r
  1
road*
  1
*
  1
*
 70
     0
  1
*
  1
*
  0
XRECORD
  5
39F2
102
{ACAD_REACTORS
330
39AD
102
}
330
39AD
100
AcDbXrecord
280
     1
  1
EL30
  1
30-*
  1
*
  1
*
 70
     0
  1
*
  1
*
  0
XRECORD
  5
39F3
102
{ACAD_REACTORS
330
39AD
102
}
330
39AD
100
AcDbXrecord
280
     1
  1
EL35
  1
35-*
  1
*
  1
*
 70
     0
  1
*
  1
*
  0
XRECORD
  5
39F4
102
{ACAD_REACTORS
330
39AD
102
}
330
39AD
100
AcDbXrecord
280
     1
  1
EL40
  1
40-*
  1
*
  1
*
 70
     0
  1
*
  1
*
  0
XRECORD
  5
39F5
102
{ACAD_REACTORS
330
39AD
102
}
330
39AD
100
AcDbXrecord
280
     1
  1
EL45
  1
45-*
  1
*
  1
*
 70
     0
  1
*
  1
*
  0
XRECORD
  5
39F6
102
{ACAD_REACTORS
330
39AD
102
}
330
39AD
100
AcDbXrecord
280
     1
  1
EL50
  1
50-*
  1
*
  1
*
 70
     0
  1
*
  1
*
  0
XRECORD
  5
39F7
102
{ACAD_REACTORS
330
39AD
102
}
330
39AD
100
AcDbXrecord
280
     1
  1
EL55
  1
55-*
  1
*
  1
*
 70
     0
  1
*
  1
*
  0
XRECORD
  5
39F8
102
{ACAD_REACTORS
330
39AD
102
}
330
39AD
100
AcDbXrecord
280
     1
  1
EL60
  1
60-*
  1
*
  1
*
 70
     0
  1
*
  1
*
  0
XRECORD
  5
39F9
102
{ACAD_REACTORS
330
39AD
102
}
330
39AD
100
AcDbXrecord
280
     1
  1
EL65
  1
65-*
  1
*
  1
*
 70
     0
  1
*
  1
*
  0
XRECORD
  5
39FA
102
{ACAD_REACTORS
330
39AD
102
}
330
39AD
100
AcDbXrecord
280
     1
  1
EL70
  1
70-*
  1
*
  1
*
 70
     0
  1
*
  1
*
  0
XRECORD
  5
39FB
102
{ACAD_REACTORS
330
39AD
102
}
330
39AD
100
AcDbXrecord
280
     1
  1
EL75
  1
75-*
  1
*
  1
*
 70
     0
  1
*
  1
*
  0
XRECORD
  5
39FC
102
{ACAD_REACTORS
330
39AD
102
}
330
39AD
100
AcDbXrecord
280
     1
  1
EL80
  1
80-*
  1
*
  1
*
 70
     0
  1
*
  1
*
  0
XRECORD
  5
5282
102
{ACAD_REACTORS
330
39AD
102
}
330
39AD
100
AcDbXrecord
280
     1
  1
E南
  1
*E*南*
  1
*
  1
*
 70
     0
  1
*
  1
*
  0
XRECORD
  5
39FD
102
{ACAD_REACTORS
330
39AD
102
}
330
39AD
100
AcDbXrecord
280
     1
  1
fault
  1
*-fault
  1
*
  1
*
 70
     0
  1
*
  1
*
  0
XRECORD
  5
39FE
102
{ACAD_REACTORS
330
39AD
102
}
330
39AD
100
AcDbXrecord
280
     1
  1
frize
  1
*
  1
*
  1
*
 70
     4
  1
*
  1
*
  0
XRECORD
  5
39FF
102
{ACAD_REACTORS
330
39AD
102
}
330
39AD
100
AcDbXrecord
280
     1
  1
gankyu
  1
*-d-cl,*-cl-cm,*-cm-ch
  1
*
  1
*
 70
     0
  1
*
  1
*
  0
XRECORD
  5
3A00
102
{ACAD_REACTORS
330
39AD
102
}
330
39AD
100
AcDbXrecord
280
     1
  1
gannkyu-ch
  1
***-ch
  1
*
  1
*
 70
     0
  1
*
  1
*
  0
XRECORD
  5
3A01
102
{ACAD_REACTORS
330
39AD
102
}
330
39AD
100
AcDbXrecord
280
     1
  1
gannkyu-cl
  1
****-cl
  1
*
  1
*
 70
     0
  1
*
  1
*
  0
XRECORD
  5
3A02
102
{ACAD_REACTORS
330
39AD
102
}
330
39AD
100
AcDbXrecord
280
     1
  1
gannkyu-cm
  1
****-cm
  1
*
  1
*
 70
     0
  1
*
  1
*
  0
XRECORD
  5
3A03
102
{ACAD_REACTORS
330
39AD
102
}
330
39AD
100
AcDbXrecord
280
     1
  1
gannkyu-cmh
  1
***-cmh
  1
*
  1
*
 70
     0
  1
*
  1
*
  0
XRECORD
  5
3A04
102
{ACAD_REACTORS
330
39AD
102
}
330
39AD
100
AcDbXrecord
280
     1
  1
gound
  1
g*
  1
*
  1
*
 70
     0
  1
*
  1
*
  0
XRECORD
  5
3A05
102
{ACAD_REACTORS
330
39AD
102
}
330
39AD
100
AcDbXrecord
280
     1
  1
green
  1
*
  1
green
  1
*
 70
     0
  1
*
  1
*
  0
XRECORD
  5
3A06
102
{ACAD_REACTORS
330
39AD
102
}
330
39AD
100
AcDbXrecord
280
     1
  1
gutter
  1
*gutter*
  1
*
  1
*
 70
     0
  1
*
  1
*
  0
XRECORD
  5
3A07
102
{ACAD_REACTORS
330
39AD
102
}
330
39AD
100
AcDbXrecord
280
     1
  1
hidden
  1
*
  1
*
  1
hidden
 70
     0
  1
*
  1
*
  0
XRECORD
  5
3A08
102
{ACAD_REACTORS
330
39AD
102
}
330
39AD
100
AcDbXrecord
280
     1
  1
hihyouji
  1
*
  1
*
  1
*
 70
     3
  1
*
  1
*
  0
XRECORD
  5
3A09
102
{ACAD_REACTORS
330
39AD
102
}
330
39AD
100
AcDbXrecord
280
     1
  1
hyouji
  1
*
  1
*
  1
*
 70
     1
  1
*
  1
*
  0
XRECORD
  5
3A0A
102
{ACAD_REACTORS
330
39AD
102
}
330
39AD
100
AcDbXrecord
280
     1
  1
katen
  1
katen*
  1
*
  1
*
 70
     0
  1
*
  1
*
  0
XRECORD
  5
5283
102
{ACAD_REACTORS
330
39AD
102
}
330
39AD
100
AcDbXrecord
280
     1
  1
KF
  1
KF*
  1
*
  1
*
 70
     0
  1
*
  1
*
  0
XRECORD
  5
3A0B
102
{ACAD_REACTORS
330
39AD
102
}
330
39AD
100
AcDbXrecord
280
     1
  1
kfl
  1
***-k
  1
*
  1
*
 70
     4
  1
*
  1
*
  0
XRECORD
  5
3A0C
102
{ACAD_REACTORS
330
39AD
102
}
330
39AD
100
AcDbXrecord
280
     1
  1
kfl2
  1
***-k
  1
*
  1
*
 70
     0
  1
*
  1
*
  0
XRECORD
  5
3A0D
102
{ACAD_REACTORS
330
39AD
102
}
330
39AD
100
AcDbXrecord
280
     1
  1
konta
  1
*-cl,*-cm,*-cld
  1
*
  1
*
 70
     0
  1
*
  1
*
  0
XRECORD
  5
3A0E
102
{ACAD_REACTORS
330
39AD
102
}
330
39AD
100
AcDbXrecord
280
     1
  1
kouzuibaki
  1
kouzui*
  1
*
  1
*
 70
     0
  1
*
  1
*
  0
XRECORD
  5
5284
102
{ACAD_REACTORS
330
39AD
102
}
330
39AD
100
AcDbXrecord
280
     1
  1
KU
  1
KU*
  1
*
  1
*
 70
     0
  1
*
  1
*
  0
XRECORD
  5
3A0F
102
{ACAD_REACTORS
330
39AD
102
}
330
39AD
100
AcDbXrecord
280
     1
  1
kussaku
  1
*-k
  1
*
  1
*
 70
     0
  1
*
  1
*
  0
XRECORD
  5
3A10
102
{ACAD_REACTORS
330
39AD
102
}
330
39AD
100
AcDbXrecord
280
     1
  1
kussaku-k
  1
****-k
  1
*
  1
*
 70
     0
  1
*
  1
*
  0
XRECORD
  5
5285
102
{ACAD_REACTORS
330
39AD
102
}
330
39AD
100
AcDbXrecord
280
     1
  1
Live
  1
*
  1
*
  1
*
 70
    12
  1
*
  1
*
  0
XRECORD
  5
5286
102
{ACAD_REACTORS
330
39AD
102
}
330
39AD
100
AcDbXrecord
280
     1
  1
m
  1
***m
  1
*
  1
*
 70
     0
  1
*
  1
*
  0
XRECORD
  5
3A11
102
{ACAD_REACTORS
330
39AD
102
}
330
39AD
100
AcDbXrecord
280
     1
  1
mage
  1
*
  1
magenta
  1
*
 70
     0
  1
*
  1
*
  0
XRECORD
  5
3A12
102
{ACAD_REACTORS
330
39AD
102
}
330
39AD
100
AcDbXrecord
280
     1
  1
mennseki-ak
  1
***-ak
  1
*
  1
*
 70
     0
  1
*
  1
*
  0
XRECORD
  5
3A13
102
{ACAD_REACTORS
330
39AD
102
}
330
39AD
100
AcDbXrecord
280
     1
  1
mennseki-at
  1
***-at
  1
*
  1
*
 70
     0
  1
*
  1
*
  0
XRECORD
  5
3A14
102
{ACAD_REACTORS
330
39AD
102
}
330
39AD
100
AcDbXrecord
280
     1
  1
mｺﾝﾀ
  1
*-cc
  1
*
  1
*
 70
     0
  1
*
  1
*
  0
XRECORD
  5
3A15
102
{ACAD_REACTORS
330
39AD
102
}
330
39AD
100
AcDbXrecord
280
     1
  1
new
  1
*
  1
*
  1
*
 70
    12
  1
*
  1
*
  0
XRECORD
  5
3A16
102
{ACAD_REACTORS
330
39AD
102
}
330
39AD
100
AcDbXrecord
280
     1
  1
new1
  1
*
  1
*
  1
*
 70
     1
  1
*
  1
*
  0
XRECORD
  5
3A17
102
{ACAD_REACTORS
330
39AD
102
}
330
39AD
100
AcDbXrecord
280
     1
  1
new2
  1
*
  1
*
  1
*
 70
     1
  1
*
  1
*
  0
XRECORD
  5
3A18
102
{ACAD_REACTORS
330
39AD
102
}
330
39AD
100
AcDbXrecord
280
     1
  1
new4
  1
*
  1
*
  1
*
 70
    12
  1
*
  1
*
  0
XRECORD
  5
5287
102
{ACAD_REACTORS
330
39AD
102
}
330
39AD
100
AcDbXrecord
280
     1
  1
NO_Xref
  1
*|
  1
*
  1
*
 70
     0
  1
*
  1
*
  0
XRECORD
  5
3A19
102
{ACAD_REACTORS
330
39AD
102
}
330
39AD
100
AcDbXrecord
280
     1
  1
norisen
  1
*-n
  1
*
  1
*
 70
     0
  1
*
  1
*
  0
XRECORD
  5
3A1A
102
{ACAD_REACTORS
330
39AD
102
}
330
39AD
100
AcDbXrecord
280
     1
  1
off
  1
*
  1
*
  1
*
 70
  3072
  1
*
  1
*
  0
XRECORD
  5
3A1B
102
{ACAD_REACTORS
330
39AD
102
}
330
39AD
100
AcDbXrecord
280
     1
  1
on
  1
*
  1
*
  1
*
 70
   256
  1
*
  1
*
  0
XRECORD
  5
3A1C
102
{ACAD_REACTORS
330
39AD
102
}
330
39AD
100
AcDbXrecord
280
     1
  1
oudan-cl
  1
oudan????cl-p
  1
*
  1
*
 70
     0
  1
*
  1
*
  0
XRECORD
  5
3A1D
102
{ACAD_REACTORS
330
39AD
102
}
330
39AD
100
AcDbXrecord
280
     1
  1
oudan-cld
  1
oudan????cld-p
  1
*
  1
*
 70
     0
  1
*
  1
*
  0
XRECORD
  5
3A1E
102
{ACAD_REACTORS
330
39AD
102
}
330
39AD
100
AcDbXrecord
280
     1
  1
oudan-cm
  1
oudan????cm-p
  1
*
  1
*
 70
     0
  1
*
  1
*
  0
XRECORD
  5
3A1F
102
{ACAD_REACTORS
330
39AD
102
}
330
39AD
100
AcDbXrecord
280
     1
  1
oudan-f
  1
oudan????f-p
  1
*
  1
*
 70
     0
  1
*
  1
*
  0
XRECORD
  5
3A20
102
{ACAD_REACTORS
330
39AD
102
}
330
39AD
100
AcDbXrecord
280
     1
  1
oudanzu
  1
oudan*
  1
*
  1
*
 70
     0
  1
*
  1
*
  0
XRECORD
  5
3A21
102
{ACAD_REACTORS
330
39AD
102
}
330
39AD
100
AcDbXrecord
280
     1
  1
red
  1
*
  1
red
  1
*
 70
     0
  1
*
  1
*
  0
XRECORD
  5
3A22
102
{ACAD_REACTORS
330
39AD
102
}
330
39AD
100
AcDbXrecord
280
     1
  1
S
  1
S*
  1
*
  1
*
 70
     0
  1
*
  1
*
  0
XRECORD
  5
3A23
102
{ACAD_REACTORS
330
39AD
102
}
330
39AD
100
AcDbXrecord
280
     1
  1
sed
  1
*-sed
  1
*
  1
*
 70
     0
  1
*
  1
*
  0
XRECORD
  5
3A24
102
{ACAD_REACTORS
330
39AD
102
}
330
39AD
100
AcDbXrecord
280
     1
  1
sokuti
  1
s*
  1
*
  1
*
 70
     0
  1
*
  1
*
  0
XRECORD
  5
3A25
102
{ACAD_REACTORS
330
39AD
102
}
330
39AD
100
AcDbXrecord
280
     1
  1
south
  1
*south
  1
*
  1
*
 70
     0
  1
*
  1
*
  0
XRECORD
  5
5288
102
{ACAD_REACTORS
330
39AD
102
}
330
39AD
100
AcDbXrecord
280
     1
  1
ST
  1
ST*
  1
*
  1
*
 70
     0
  1
*
  1
*
  0
XRECORD
  5
3A26
102
{ACAD_REACTORS
330
39AD
102
}
330
39AD
100
AcDbXrecord
280
     1
  1
STR
  1
D-STR*
  1
*
  1
*
 70
     0
  1
*
  1
*
  0
XRECORD
  5
3A27
102
{ACAD_REACTORS
330
39AD
102
}
330
39AD
100
AcDbXrecord
280
     1
  1
syuturyokusurumono_11_1
  1
*
  1
*
  1
*
 70
    13
  1
*
  1
*
  0
XRECORD
  5
3A28
102
{ACAD_REACTORS
330
39AD
102
}
330
39AD
100
AcDbXrecord
280
     1
  1
sｺﾝﾀ
  1
*-c
  1
red
  1
*
 70
     0
  1
*
  1
*
  0
XRECORD
  5
3A29
102
{ACAD_REACTORS
330
39AD
102
}
330
39AD
100
AcDbXrecord
280
     1
  1
T
  1
*
  1
*
  1
*
 70
     0
  1
*
  1
*
  0
XRECORD
  5
3A2A
102
{ACAD_REACTORS
330
39AD
102
}
330
39AD
100
AcDbXrecord
280
     1
  1
teitai
  1
*-t,hojo-1
  1
*
  1
*
 70
     0
  1
*
  1
*
  0
XRECORD
  5
3A2B
102
{ACAD_REACTORS
330
39AD
102
}
330
39AD
100
AcDbXrecord
280
     1
  1
teitai-t
  1
***-t
  1
*
  1
*
 70
     0
  1
*
  1
*
  0
XRECORD
  5
5289
102
{ACAD_REACTORS
330
39AD
102
}
330
39AD
100
AcDbXrecord
280
     1
  1
text
  1
*TEXT*(
  1
*
  1
*
 70
     0
  1
*
  1
*
  0
XRECORD
  5
3A2C
102
{ACAD_REACTORS
330
39AD
102
}
330
39AD
100
AcDbXrecord
280
     1
  1
Thaw
  1
*
  1
*
  1
*
 70
    12
  1
*
  1
*
  0
XRECORD
  5
3A2D
102
{ACAD_REACTORS
330
39AD
102
}
330
39AD
100
AcDbXrecord
280
     1
  1
tsuurou
  1
tsu*
  1
*
  1
*
 70
     0
  1
*
  1
*
  0
XRECORD
  5
3A2E
102
{ACAD_REACTORS
330
39AD
102
}
330
39AD
100
AcDbXrecord
280
     1
  1
tt
  1
*
  1
red
  1
*
 70
     0
  1
*
  1
*
  0
XRECORD
  5
3A2F
102
{ACAD_REACTORS
330
39AD
102
}
330
39AD
100
AcDbXrecord
280
     1
  1
TTL
  1
D-TTL*
  1
*
  1
*
 70
     0
  1
*
  1
*
  0
XRECORD
  5
3A30
102
{ACAD_REACTORS
330
39AD
102
}
330
39AD
100
AcDbXrecord
280
     1
  1
TU
  1
*TU*
  1
*
  1
*
 70
     0
  1
*
  1
*
  0
XRECORD
  5
3A31
102
{ACAD_REACTORS
330
39AD
102
}
330
39AD
100
AcDbXrecord
280
     1
  1
tyakugan
  1
*-tyakugan
  1
*
  1
*
 70
     0
  1
*
  1
*
  0
XRECORD
  5
3A32
102
{ACAD_REACTORS
330
39AD
102
}
330
39AD
100
AcDbXrecord
280
     1
  1
vec2
  1
*-c,vec,kigou,touko25
  1
*
  1
*
 70
     0
  1
*
  1
*
  0
XRECORD
  5
3A33
102
{ACAD_REACTORS
330
39AD
102
}
330
39AD
100
AcDbXrecord
280
     1
  1
waku
  1
*waku*
  1
*
  1
*
 70
     0
  1
*
  1
*
  0
XRECORD
  5
528A
102
{ACAD_REACTORS
330
39AD
102
}
330
39AD
100
AcDbXrecord
280
     1
  1
White
  1
*
  1
*White
  1
*
 70
     0
  1
*
  1
*
  0
XRECORD
  5
3A34
102
{ACAD_REACTORS
330
39AD
102
}
330
39AD
100
AcDbXrecord
280
     1
  1
yana
  1
*-kkn-ho*,*-t,000-kkn,ore*
  1
*
  1
*
 70
     0
  1
*
  1
*
  0
XRECORD
  5
3A35
102
{ACAD_REACTORS
330
39AD
102
}
330
39AD
100
AcDbXrecord
280
     1
  1
yellow
  1
*
  1
yellow
  1
*
 70
     0
  1
*
  1
*
  0
XRECORD
  5
528B
102
{ACAD_REACTORS
330
39AD
102
}
330
39AD
100
AcDbXrecord
280
     1
  1
YM
  1
YM*
  1
*
  1
*
 70
     0
  1
*
  1
*
  0
XRECORD
  5
3A37
102
{ACAD_REACTORS
330
39AD
102
}
330
39AD
100
AcDbXrecord
280
     1
  1
シビ
  1
シビ*
  1
*
  1
*
 70
     0
  1
*
  1
*
  0
XRECORD
  5
5290
102
{ACAD_REACTORS
330
39AD
102
}
330
39AD
100
AcDbXrecord
280
     1
  1
デッキレイヤ
  1
0,デッキ_*
  1
*
  1
*
 70
     0
  1
*
  1
*
  0
XRECORD
  5
5291
102
{ACAD_REACTORS
330
39AD
102
}
330
39AD
100
AcDbXrecord
280
     1
  1
ハッチ
  1
ﾊｯﾁ*
  1
*
  1
*
 70
     0
  1
*
  1
*
  0
XRECORD
  5
3A38
102
{ACAD_REACTORS
330
39AD
102
}
330
39AD
100
AcDbXrecord
280
     1
  1
フリーズ
  1
*
  1
*
  1
*
 70
     4
  1
*
  1
*
  0
XRECORD
  5
5292
102
{ACAD_REACTORS
330
39AD
102
}
330
39AD
100
AcDbXrecord
280
     1
  1
ペーパー空間
  1
DSTD_FRAME*
  1
*
  1
*
 70
     0
  1
*
  1
*
  0
XRECORD
  5
5293
102
{ACAD_REACTORS
330
39AD
102
}
330
39AD
100
AcDbXrecord
280
     1
  1
ランプ
  1
*ランプ*
  1
*
  1
*
 70
     0
  1
*
  1
*
  0
XRECORD
  5
3A39
102
{ACAD_REACTORS
330
39AD
102
}
330
39AD
100
AcDbXrecord
280
     1
  1
ロック
  1
*
  1
*
  1
*
 70
   256
  1
*
  1
*
  0
XRECORD
  5
3A3A
102
{ACAD_REACTORS
330
39AD
102
}
330
39AD
100
AcDbXrecord
280
     1
  1
ロックされていない画層を表示
  1
*
  1
*
  1
*
 70
   768
  1
*
  1
*
  0
XRECORD
  5
3A3B
102
{ACAD_REACTORS
330
39AD
102
}
330
39AD
100
AcDbXrecord
280
     1
  1
ロック以外
  1
*
  1
*
  1
*
 70
   768
  1
*
  1
*
  0
XRECORD
  5
5294
102
{ACAD_REACTORS
330
39AD
102
}
330
39AD
100
AcDbXrecord
280
     1
  1
一般
  1
*般*
  1
*
  1
*
 70
     0
  1
*
  1
*
  0
XRECORD
  5
3A44
102
{ACAD_REACTORS
330
39AD
102
}
330
39AD
100
AcDbXrecord
280
     1
  1
上田坂城BP
  1
*
  1
*
  1
*
 70
     0
  1
*
  1
*
  0
XRECORD
  5
3A5D
102
{ACAD_REACTORS
330
39AD
102
}
330
39AD
100
AcDbXrecord
280
     1
  1
両方
  1
_*,-*
  1
*
  1
*
 70
     0
  1
*
  1
*
  0
XRECORD
  5
5299
102
{ACAD_REACTORS
330
39AD
102
}
330
39AD
100
AcDbXrecord
280
     1
  1
丸森横断
  1
*
  1
*
  1
*
 70
     0
  1
*
  1
*
  0
XRECORD
  5
52A8
102
{ACAD_REACTORS
330
39AD
102
}
330
39AD
100
AcDbXrecord
280
     1
  1
作業用
  1
*
  1
*
  1
*
 70
  1024
  1
*
  1
*
  0
XRECORD
  5
52A9
102
{ACAD_REACTORS
330
39AD
102
}
330
39AD
100
AcDbXrecord
280
     1
  1
使用中の画層
  1
*
  1
*
  1
*
 70
    12
  1
*
  1
*
  0
XRECORD
  5
52B5
102
{ACAD_REACTORS
330
39AD
102
}
330
39AD
100
AcDbXrecord
280
     1
  1
側面
  1
側面*
  1
*
  1
*
 70
     0
  1
*
  1
*
  0
XRECORD
  5
52A5
102
{ACAD_REACTORS
330
39AD
102
}
330
39AD
100
AcDbXrecord
280
     1
  1
元図面レイヤ
  1
*
  1
*
  1
*
 70
   256
  1
*
  1
*
  0
XRECORD
  5
3A45
102
{ACAD_REACTORS
330
39AD
102
}
330
39AD
100
AcDbXrecord
280
     1
  1
先行１
  1
*
  1
*
  1
*
 70
     0
  1
*
  1
*
  0
XRECORD
  5
3A46
102
{ACAD_REACTORS
330
39AD
102
}
330
39AD
100
AcDbXrecord
280
     1
  1
先行２
  1
*
  1
*
  1
*
 70
     0
  1
*
  1
*
  0
XRECORD
  5
3A47
102
{ACAD_REACTORS
330
39AD
102
}
330
39AD
100
AcDbXrecord
280
     1
  1
先行３
  1
*
  1
*
  1
*
 70
     0
  1
*
  1
*
  0
XRECORD
  5
3A48
102
{ACAD_REACTORS
330
39AD
102
}
330
39AD
100
AcDbXrecord
280
     1
  1
先行４
  1
*
  1
*
  1
*
 70
     0
  1
*
  1
*
  0
XRECORD
  5
3A49
102
{ACAD_REACTORS
330
39AD
102
}
330
39AD
100
AcDbXrecord
280
     1
  1
全帯
  1
*帯*
  1
*
  1
*
 70
     0
  1
*
  1
*
  0
XRECORD
  5
529C
102
{ACAD_REACTORS
330
39AD
102
}
330
39AD
100
AcDbXrecord
280
     1
  1
共通
  1
全-*
  1
*
  1
*
 70
     0
  1
*
  1
*
  0
XRECORD
  5
52C0
102
{ACAD_REACTORS
330
39AD
102
}
330
39AD
100
AcDbXrecord
280
     1
  1
副道
  1
*副*
  1
*
  1
*
 70
     0
  1
*
  1
*
  0
XRECORD
  5
529D
102
{ACAD_REACTORS
330
39AD
102
}
330
39AD
100
AcDbXrecord
280
     1
  1
協議用添付図形レイヤ
  1
*_協議用添付図形*
  1
*
  1
*
 70
     0
  1
*
  1
*
  0
XRECORD
  5
3A5E
102
{ACAD_REACTORS
330
39AD
102
}
330
39AD
100
AcDbXrecord
280
     1
  1
和の画層のみ
  1
和*
  1
*
  1
*
 70
     0
  1
*
  1
*
  0
XRECORD
  5
3A3E
102
{ACAD_REACTORS
330
39AD
102
}
330
39AD
100
AcDbXrecord
280
     1
  1
圏央道排水計画縦断図
  1
*
  1
*
  1
*
 70
     0
  1
*
  1
*
  0
XRECORD
  5
3A3D
102
{ACAD_REACTORS
330
39AD
102
}
330
39AD
100
AcDbXrecord
280
     1
  1
圏央道縦断図
  1
*
  1
*
  1
*
 70
     0
  1
*
  1
*
  0
XRECORD
  5
52BB
102
{ACAD_REACTORS
330
39AD
102
}
330
39AD
100
AcDbXrecord
280
     1
  1
土留板
  1
*_CONC
  1
*
  1
*
 70
     0
  1
*
  1
*
  0
XRECORD
  5
52BC
102
{ACAD_REACTORS
330
39AD
102
}
330
39AD
100
AcDbXrecord
280
     1
  1
土留板取付詳細図
  1
DSTD_CONC*
  1
*
  1
*
 70
     0
  1
*
  1
*
  0
XRECORD
  5
52B8
102
{ACAD_REACTORS
330
39AD
102
}
330
39AD
100
AcDbXrecord
280
     1
  1
地形レイヤ
  1
0,0_*
  1
*
  1
*
 70
     0
  1
*
  1
*
  0
XRECORD
  5
52B9
102
{ACAD_REACTORS
330
39AD
102
}
330
39AD
100
AcDbXrecord
280
     1
  1
地形以外
  1
n_*
  1
*
  1
*
 70
     0
  1
*
  1
*
  0
XRECORD
  5
3A4B
102
{ACAD_REACTORS
330
39AD
102
}
330
39AD
100
AcDbXrecord
280
     1
  1
地形線等
  1
*-c,l3,l1,p0
  1
*
  1
*
 70
     0
  1
*
  1
*
  0
XRECORD
  5
3A5C
102
{ACAD_REACTORS
330
39AD
102
}
330
39AD
100
AcDbXrecord
280
     1
  1
埋設
  1
埋設*
  1
*
  1
*
 70
     0
  1
*
  1
*
  0
XRECORD
  5
3A4C
102
{ACAD_REACTORS
330
39AD
102
}
330
39AD
100
AcDbXrecord
280
     1
  1
塗り
  1
*塗り*
  1
*
  1
*
 70
     0
  1
*
  1
*
  0
XRECORD
  5
3A5B
102
{ACAD_REACTORS
330
39AD
102
}
330
39AD
100
AcDbXrecord
280
     1
  1
壁
  1
シビ-等*,シビ-ソイル*,シビ-RC*,シビ-カベ*
  1
*
  1
*
 70
     0
  1
*
  1
*
  0
XRECORD
  5
5297
102
{ACAD_REACTORS
330
39AD
102
}
330
39AD
100
AcDbXrecord
280
     1
  1
外部
  1
*$*
  1
*
  1
*
 70
     0
  1
*
  1
*
  0
XRECORD
  5
3A3C
102
{ACAD_REACTORS
330
39AD
102
}
330
39AD
100
AcDbXrecord
280
     1
  1
外部参照
  1
*図
  1
*
  1
*
 70
     0
  1
*
  1
*
  0
XRECORD
  5
5298
102
{ACAD_REACTORS
330
39AD
102
}
330
39AD
100
AcDbXrecord
280
     1
  1
外部参照の非表示画層
  1
*
  1
*
  1
*
 70
     0
  1
*
  1
*
  0
XRECORD
  5
52B0
102
{ACAD_REACTORS
330
39AD
102
}
330
39AD
100
AcDbXrecord
280
     1
  1
寸法
  1
寸法*
  1
*
  1
*
 70
     0
  1
*
  1
*
  0
XRECORD
  5
3A4A
102
{ACAD_REACTORS
330
39AD
102
}
330
39AD
100
AcDbXrecord
280
     1
  1
対策工
  1
T*
  1
*
  1
*
 70
     0
  1
*
  1
*
  0
XRECORD
  5
52B2
102
{ACAD_REACTORS
330
39AD
102
}
330
39AD
100
AcDbXrecord
280
     1
  1
専北
  1
*専北*
  1
*
  1
*
 70
     0
  1
*
  1
*
  0
XRECORD
  5
52B3
102
{ACAD_REACTORS
330
39AD
102
}
330
39AD
100
AcDbXrecord
280
     1
  1
専用
  1
*専*
  1
*
  1
*
 70
     0
  1
*
  1
*
  0
XRECORD
  5
52C1
102
{ACAD_REACTORS
330
39AD
102
}
330
39AD
100
AcDbXrecord
280
     1
  1
平面
  1
平*
  1
*
  1
*
 70
     0
  1
*
  1
*
  0
XRECORD
  5
3A5A
102
{ACAD_REACTORS
330
39AD
102
}
330
39AD
100
AcDbXrecord
280
     1
  1
平面図
  1
*平*
  1
*
  1
*
 70
     0
  1
*
  1
*
  0
XRECORD
  5
3A43
102
{ACAD_REACTORS
330
39AD
102
}
330
39AD
100
AcDbXrecord
280
     1
  1
床止工
  1
*
  1
*
  1
*
 70
     0
  1
*
  1
*
  0
XRECORD
  5
3A40
102
{ACAD_REACTORS
330
39AD
102
}
330
39AD
100
AcDbXrecord
280
     1
  1
後ろ
  1
1-車道*,1-歩道*,1-緑地帯*
  1
*
  1
*
 70
     0
  1
*
  1
*
  0
XRECORD
  5
52AA
102
{ACAD_REACTORS
330
39AD
102
}
330
39AD
100
AcDbXrecord
280
     1
  1
支柱取付部
  1
DSTD_COLMN-DET*
  1
*
  1
*
 70
     0
  1
*
  1
*
  0
XRECORD
  5
52AF
102
{ACAD_REACTORS
330
39AD
102
}
330
39AD
100
AcDbXrecord
280
     1
  1
数量
  1
数-*
  1
*
  1
*
 70
     0
  1
*
  1
*
  0
XRECORD
  5
52B6
102
{ACAD_REACTORS
330
39AD
102
}
330
39AD
100
AcDbXrecord
280
     1
  1
断面
  1
*断面*
  1
*
  1
*
 70
     0
  1
*
  1
*
  0
XRECORD
  5
52B7
102
{ACAD_REACTORS
330
39AD
102
}
330
39AD
100
AcDbXrecord
280
     1
  1
断面図
  1
DSTD_SECT*
  1
*
  1
*
 70
     0
  1
*
  1
*
  0
XRECORD
  5
52AD
102
{ACAD_REACTORS
330
39AD
102
}
330
39AD
100
AcDbXrecord
280
     1
  1
新規作成
  1
n_*
  1
*
  1
*
 70
     0
  1
*
  1
*
  0
XRECORD
  5
52AE
102
{ACAD_REACTORS
330
39AD
102
}
330
39AD
100
AcDbXrecord
280
     1
  1
新規書き込み
  1
*
  1
*
  1
*
 70
   768
  1
*
  1
*
  0
XRECORD
  5
529A
102
{ACAD_REACTORS
330
39AD
102
}
330
39AD
100
AcDbXrecord
280
     1
  1
旗
  1
占用物件平面図|*旗*
  1
*
  1
*
 70
     0
  1
*
  1
*
  0
XRECORD
  5
529B
102
{ACAD_REACTORS
330
39AD
102
}
330
39AD
100
AcDbXrecord
280
     1
  1
旗上
  1
*旗上*
  1
*
  1
*
 70
    12
  1
*
  1
*
  0
XRECORD
  5
52A7
102
{ACAD_REACTORS
330
39AD
102
}
330
39AD
100
AcDbXrecord
280
     1
  1
杭頭詳細図
  1
DSTD_PILE*
  1
*
  1
*
 70
     0
  1
*
  1
*
  0
XRECORD
  5
52C2
102
{ACAD_REACTORS
330
39AD
102
}
330
39AD
100
AcDbXrecord
280
     1
  1
枠
  1
*枠*
  1
*
  1
*
 70
     0
  1
*
  1
*
  0
XRECORD
  5
52C3
102
{ACAD_REACTORS
330
39AD
102
}
330
39AD
100
AcDbXrecord
280
     1
  1
枠Or文字
  1
*枠*,*文字*
  1
*
  1
*
 70
     0
  1
*
  1
*
  0
XRECORD
  5
3A42
102
{ACAD_REACTORS
330
39AD
102
}
330
39AD
100
AcDbXrecord
280
     1
  1
桟橋
  1
*桟橋*
  1
*
  1
*
 70
     0
  1
*
  1
*
  0
XRECORD
  5
5295
102
{ACAD_REACTORS
330
39AD
102
}
330
39AD
100
AcDbXrecord
280
     1
  1
横断
  1
o_*
  1
*
  1
*
 70
     0
  1
*
  1
*
  0
XRECORD
  5
5296
102
{ACAD_REACTORS
330
39AD
102
}
330
39AD
100
AcDbXrecord
280
     1
  1
横断図
  1
横*
  1
*
  1
*
 70
     0
  1
*
  1
*
  0
XRECORD
  5
52B1
102
{ACAD_REACTORS
330
39AD
102
}
330
39AD
100
AcDbXrecord
280
     1
  1
正面図
  1
DSTD_FRONT*
  1
*
  1
*
 70
     0
  1
*
  1
*
  0
XRECORD
  5
3A3F
102
{ACAD_REACTORS
330
39AD
102
}
330
39AD
100
AcDbXrecord
280
     1
  1
現況
  1
*現況*
  1
*
  1
*
 70
     0
  1
*
  1
*
  0
XRECORD
  5
52A6
102
{ACAD_REACTORS
330
39AD
102
}
330
39AD
100
AcDbXrecord
280
     1
  1
現況平面図-
  1
現況平面図-*
  1
*
  1
*
 70
     0
  1
*
  1
*
  0
XRECORD
  5
3A4F
102
{ACAD_REACTORS
330
39AD
102
}
330
39AD
100
AcDbXrecord
280
     1
  1
白
  1
*
  1
7
  1
*
 70
     0
  1
*
  1
*
  0
XRECORD
  5
52B4
102
{ACAD_REACTORS
330
39AD
102
}
330
39AD
100
AcDbXrecord
280
     1
  1
線形
  1
*線形*
  1
*
  1
*
 70
     0
  1
*
  1
*
  0
XRECORD
  5
52AB
102
{ACAD_REACTORS
330
39AD
102
}
330
39AD
100
AcDbXrecord
280
     1
  1
縦断
  1
j_*
  1
*
  1
*
 70
     0
  1
*
  1
*
  0
XRECORD
  5
52BD
102
{ACAD_REACTORS
330
39AD
102
}
330
39AD
100
AcDbXrecord
280
     1
  1
背面図
  1
DSTD_BACK*
  1
*
  1
*
 70
     0
  1
*
  1
*
  0
XRECORD
  5
52AC
102
{ACAD_REACTORS
330
39AD
102
}
330
39AD
100
AcDbXrecord
280
     1
  1
色
  1
色-*
  1
*
  1
*
 70
     0
  1
*
  1
*
  0
XRECORD
  5
3A59
102
{ACAD_REACTORS
330
39AD
102
}
330
39AD
100
AcDbXrecord
280
     1
  1
表枠
  1
表*,枠*
  1
*
  1
*
 70
     0
  1
*
  1
*
  0
XRECORD
  5
52BF
102
{ACAD_REACTORS
330
39AD
102
}
330
39AD
100
AcDbXrecord
280
     1
  1
表示
  1
*
  1
*
  1
*
 70
    12
  1
*
  1
*
  0
XRECORD
  5
3A56
102
{ACAD_REACTORS
330
39AD
102
}
330
39AD
100
AcDbXrecord
280
     1
  1
表示-日技作成画層のみ
  1
日*
  1
*
  1
*
 70
     0
  1
*
  1
*
  0
XRECORD
  5
3A55
102
{ACAD_REACTORS
330
39AD
102
}
330
39AD
100
AcDbXrecord
280
     1
  1
表示-東電作成画層のみ
  1
東*
  1
*
  1
*
 70
     0
  1
*
  1
*
  0
XRECORD
  5
3A57
102
{ACAD_REACTORS
330
39AD
102
}
330
39AD
100
AcDbXrecord
280
     1
  1
表示-福山作成画層のみ
  1
福*
  1
*
  1
*
 70
     0
  1
*
  1
*
  0
XRECORD
  5
3A54
102
{ACAD_REACTORS
330
39AD
102
}
330
39AD
100
AcDbXrecord
280
     1
  1
表示-近代作成画層のみ
  1
近*
  1
*
  1
*
 70
     0
  1
*
  1
*
  0
XRECORD
  5
3A53
102
{ACAD_REACTORS
330
39AD
102
}
330
39AD
100
AcDbXrecord
280
     1
  1
表示-ﾊﾟｼｺﾝ作成画層のみ
  1
ﾊﾟｼｺﾝ*
  1
*
  1
*
 70
     0
  1
*
  1
*
  0
XRECORD
  5
3A58
102
{ACAD_REACTORS
330
39AD
102
}
330
39AD
100
AcDbXrecord
280
     1
  1
表示層のみ表示
  1
*
  1
*
  1
*
 70
    13
  1
*
  1
*
  0
XRECORD
  5
52A4
102
{ACAD_REACTORS
330
39AD
102
}
330
39AD
100
AcDbXrecord
280
     1
  1
見える
  1
*
  1
*
  1
*
 70
    13
  1
*
  1
*
  0
XRECORD
  5
529F
102
{ACAD_REACTORS
330
39AD
102
}
330
39AD
100
AcDbXrecord
280
     1
  1
計画
  1
計画*
  1
*
  1
*
 70
     0
  1
*
  1
*
  0
XRECORD
  5
52A0
102
{ACAD_REACTORS
330
39AD
102
}
330
39AD
100
AcDbXrecord
280
     1
  1
計画１レイヤ
  1
0,0_*,1_*,2_*
  1
*
  1
*
 70
     0
  1
*
  1
*
  0
XRECORD
  5
52A1
102
{ACAD_REACTORS
330
39AD
102
}
330
39AD
100
AcDbXrecord
280
     1
  1
計画２レイヤ
  1
0,0_*,1_*,3_*
  1
*
  1
*
 70
     0
  1
*
  1
*
  0
XRECORD
  5
52A2
102
{ACAD_REACTORS
330
39AD
102
}
330
39AD
100
AcDbXrecord
280
     1
  1
計画３レイヤ
  1
0,0_*,1_*,4_*
  1
*
  1
*
 70
     0
  1
*
  1
*
  0
XRECORD
  5
52A3
102
{ACAD_REACTORS
330
39AD
102
}
330
39AD
100
AcDbXrecord
280
     1
  1
計画４レイヤ
  1
0,0_*,1_*,5_*
  1
*
  1
*
 70
     0
  1
*
  1
*
  0
XRECORD
  5
3A4E
102
{ACAD_REACTORS
330
39AD
102
}
330
39AD
100
AcDbXrecord
280
     1
  1
読み込み時表示層
  1
*
  1
*
  1
*
 70
     0
  1
*
  1
*
  0
XRECORD
  5
3A41
102
{ACAD_REACTORS
330
39AD
102
}
330
39AD
100
AcDbXrecord
280
     1
  1
護岸
  1
*護岸*
  1
*
  1
*
 70
     0
  1
*
  1
*
  0
XRECORD
  5
529E
102
{ACAD_REACTORS
330
39AD
102
}
330
39AD
100
AcDbXrecord
280
     1
  1
躯体
  1
STRC*
  1
*
  1
*
 70
     0
  1
*
  1
*
  0
XRECORD
  5
3A4D
102
{ACAD_REACTORS
330
39AD
102
}
330
39AD
100
AcDbXrecord
280
     1
  1
道路
  1
_*,-*,2-*
  1
*
  1
*
 70
     0
  1
*
  1
*
  0
XRECORD
  5
52BE
102
{ACAD_REACTORS
330
39AD
102
}
330
39AD
100
AcDbXrecord
280
     1
  1
配筋図
  1
DSTD_STEEL*
  1
*
  1
*
 70
     0
  1
*
  1
*
  0
XRECORD
  5
52BA
102
{ACAD_REACTORS
330
39AD
102
}
330
39AD
100
AcDbXrecord
280
     1
  1
鉄筋
  1
BAR*
  1
*
  1
*
 70
     0
  1
*
  1
*
  0
XRECORD
  5
3A50
102
{ACAD_REACTORS
330
39AD
102
}
330
39AD
100
AcDbXrecord
280
     1
  1
非表示
  1
*
  1
*
  1
*
 70
     3
  1
*
  1
*
  0
XRECORD
  5
3A51
102
{ACAD_REACTORS
330
39AD
102
}
330
39AD
100
AcDbXrecord
280
     1
  1
非表示の画層
  1
*
  1
*
  1
*
 70
     3
  1
*
  1
*
  0
XRECORD
  5
3A52
102
{ACAD_REACTORS
330
39AD
102
}
330
39AD
100
AcDbXrecord
280
     1
  1
非表示層のみ表示
  1
*
  1
*
  1
*
 70
     7
  1
*
  1
*
  0
XRECORD
  5
3A36
102
{ACAD_REACTORS
330
39AD
102
}
330
39AD
100
AcDbXrecord
280
     1
  1
２－
  1
2-*
  1
*
  1
*
 70
     0
  1
*
  1
*
  0
XRECORD
  5
528D
102
{ACAD_REACTORS
330
39AD
102
}
330
39AD
100
AcDbXrecord
280
     1
  1
Ａ断面
  1
DSTD_SECT-A*
  1
*
  1
*
 70
     0
  1
*
  1
*
  0
XRECORD
  5
528E
102
{ACAD_REACTORS
330
39AD
102
}
330
39AD
100
AcDbXrecord
280
     1
  1
Ｂ断面
  1
DSTD_SECT-B*
  1
*
  1
*
 70
     0
  1
*
  1
*
  0
XRECORD
  5
528F
102
{ACAD_REACTORS
330
39AD
102
}
330
39AD
100
AcDbXrecord
280
     1
  1
Ｃ断面
  1
DSTD_SECT-C*
  1
*
  1
*
 70
     0
  1
*
  1
*
  0
XRECORD
  5
528C
102
{ACAD_REACTORS
330
39AD
102
}
330
39AD
100
AcDbXrecord
280
     1
  1
ﾊｯﾁ
  1
ﾊｯﾁ*
  1
*
  1
*
 70
     0
  1
*
  1
*
  0
DICTIONARY
  5
B760
330
7CC
100
AcDbDictionary
280
     1
281
     1
  3
ACAD_XREC_ROUNDTRIP
360
B761
  0
DICTIONARY
  5
B762
330
7CD
100
AcDbDictionary
280
     1
281
     1
  3
ACAD_XREC_ROUNDTRIP
360
B763
  0
DICTIONARY
  5
9DED
330
9DEC
100
AcDbDictionary
280
     1
281
     1
  3
ACAD_XREC_ROUNDTRIP
360
B769
  3
BUMPTILE
360
9DEF
  3
DIFFUSETILE
360
9DEE
  3
OPACITYTILE
360
9DF2
  3
REFLECTIONTILE
360
9DF1
  3
REFRACTIONTILE
360
9DF3
  3
SPECULARTILE
360
9DF0
  0
DICTIONARY
  5
9DE5
330
9DE4
100
AcDbDictionary
280
     1
281
     1
  3
ACAD_XREC_ROUNDTRIP
360
B768
  3
BUMPTILE
360
9DE7
  3
DIFFUSETILE
360
9DE6
  3
OPACITYTILE
360
9DEA
  3
REFLECTIONTILE
360
9DE9
  3
REFRACTIONTILE
360
9DEB
  3
SPECULARTILE
360
9DE8
  0
DICTIONARY
  5
9DF5
330
9DF4
100
AcDbDictionary
280
     1
281
     1
  3
ACAD_XREC_ROUNDTRIP
360
B76A
  3
BUMPTILE
360
9DF7
  3
DIFFUSETILE
360
9DF6
  3
OPACITYTILE
360
9DFA
  3
REFLECTIONTILE
360
9DF9
  3
REFRACTIONTILE
360
9DFB
  3
SPECULARTILE
360
9DF8
  0
DICTIONARY
  5
B75C
330
9E2B
100
AcDbDictionary
280
     1
281
     1
  3
ACAD_XREC_ROUNDTRIP
360
B75D
  0
DICTIONARY
  5
B764
330
838
100
AcDbDictionary
280
     1
281
     1
  3
ACAD_XREC_ROUNDTRIP
360
B765
  0
DICTIONARY
  5
B766
330
839
100
AcDbDictionary
280
     1
281
     1
  3
ACAD_XREC_ROUNDTRIP
360
B767
  0
DICTIONARY
  5
B622
330
9E17
100
AcDbDictionary
280
     1
281
     1
  3
ACAD_ROUNDTRIP_2008_TABLESTYLE_CELLSTYLEMAP
360
B75B
  3
ACAD_XREC_ROUNDTRIP
360
B79B
  0
DICTIONARY
  5
B775
330
9E02
100
AcDbDictionary
280
     1
281
     1
  3
ACAD_XREC_ROUNDTRIP
360
B776
  0
DICTIONARY
  5
B773
330
9E01
100
AcDbDictionary
280
     1
281
     1
  3
ACAD_XREC_ROUNDTRIP
360
B774
  0
DICTIONARY
  5
B781
330
9E08
100
AcDbDictionary
280
     1
281
     1
  3
ACAD_XREC_ROUNDTRIP
360
B782
  0
DICTIONARY
  5
B789
330
9E0C
100
AcDbDictionary
280
     1
281
     1
  3
ACAD_XREC_ROUNDTRIP
360
B78A
  0
DICTIONARY
  5
B77B
330
9E05
100
AcDbDictionary
280
     1
281
     1
  3
ACAD_XREC_ROUNDTRIP
360
B77C
  0
DICTIONARY
  5
B77F
330
9E07
100
AcDbDictionary
280
     1
281
     1
  3
ACAD_XREC_ROUNDTRIP
360
B780
  0
DICTIONARY
  5
B799
330
9E14
100
AcDbDictionary
280
     1
281
     1
  3
ACAD_XREC_ROUNDTRIP
360
B79A
  0
DICTIONARY
  5
B787
330
9E0B
100
AcDbDictionary
280
     1
281
     1
  3
ACAD_XREC_ROUNDTRIP
360
B788
  0
DICTIONARY
  5
B76B
330
9DFD
100
AcDbDictionary
280
     1
281
     1
  3
ACAD_XREC_ROUNDTRIP
360
B76C
  0
DICTIONARY
  5
B76D
330
9DFE
100
AcDbDictionary
280
     1
281
     1
  3
ACAD_XREC_ROUNDTRIP
360
B76E
  0
DICTIONARY
  5
B76F
330
9DFF
100
AcDbDictionary
280
     1
281
     1
  3
ACAD_XREC_ROUNDTRIP
360
B770
  0
DICTIONARY
  5
B771
330
9E00
100
AcDbDictionary
280
     1
281
     1
  3
ACAD_XREC_ROUNDTRIP
360
B772
  0
DICTIONARY
  5
B779
330
9E04
100
AcDbDictionary
280
     1
281
     1
  3
ACAD_XREC_ROUNDTRIP
360
B77A
  0
DICTIONARY
  5
B795
330
9E12
100
AcDbDictionary
280
     1
281
     1
  3
ACAD_XREC_ROUNDTRIP
360
B796
  0
DICTIONARY
  5
B785
330
9E0A
100
AcDbDictionary
280
     1
281
     1
  3
ACAD_XREC_ROUNDTRIP
360
B786
  0
DICTIONARY
  5
B797
330
9E13
100
AcDbDictionary
280
     1
281
     1
  3
ACAD_XREC_ROUNDTRIP
360
B798
  0
DICTIONARY
  5
B77D
330
9E06
100
AcDbDictionary
280
     1
281
     1
  3
ACAD_XREC_ROUNDTRIP
360
B77E
  0
DICTIONARY
  5
B793
330
9E11
100
AcDbDictionary
280
     1
281
     1
  3
ACAD_XREC_ROUNDTRIP
360
B794
  0
DICTIONARY
  5
B791
330
9E10
100
AcDbDictionary
280
     1
281
     1
  3
ACAD_XREC_ROUNDTRIP
360
B792
  0
DICTIONARY
  5
B78B
330
9E0D
100
AcDbDictionary
280
     1
281
     1
  3
ACAD_XREC_ROUNDTRIP
360
B78C
  0
DICTIONARY
  5
B78D
330
9E0E
100
AcDbDictionary
280
     1
281
     1
  3
ACAD_XREC_ROUNDTRIP
360
B78E
  0
DICTIONARY
  5
B783
330
9E09
100
AcDbDictionary
280
     1
281
     1
  3
ACAD_XREC_ROUNDTRIP
360
B784
  0
DICTIONARY
  5
B777
330
9E03
100
AcDbDictionary
280
     1
281
     1
  3
ACAD_XREC_ROUNDTRIP
360
B778
  0
DICTIONARY
  5
B78F
330
9E0F
100
AcDbDictionary
280
     1
281
     1
  3
ACAD_XREC_ROUNDTRIP
360
B790
  0
XRECORD
  5
B761
102
{ACAD_REACTORS
330
B760
102
}
330
B760
100
AcDbXrecord
280
     1
102
SHADEPLOT
 70
     0
102
SHADEPLOTRESLEVEL
 70
     2
102
SHADEPLOTCUSTOMDPI
 70
   300
  0
XRECORD
  5
B763
102
{ACAD_REACTORS
330
B762
102
}
330
B762
100
AcDbXrecord
280
     1
102
SHADEPLOT
 70
     0
102
SHADEPLOTRESLEVEL
 70
     2
102
SHADEPLOTCUSTOMDPI
 70
   300
  0
XRECORD
  5
B769
102
{ACAD_REACTORS
330
9DED
102
}
330
9DED
100
AcDbXrecord
280
     1
102
MATERIAL
148
0.0
149
0.0
149
0.0
 93
        0
 94
      127
282
     0
 72
     0
 77
     0
171
     0
175
     0
179
     0
273
     0
  0
XRECORD
  5
9DEF
102
{ACAD_REACTORS
330
9DED
102
}
330
9DED
100
AcDbXrecord
280
     1
270
     1
271
     1
  0
XRECORD
  5
9DEE
102
{ACAD_REACTORS
330
9DED
102
}
330
9DED
100
AcDbXrecord
280
     1
270
     1
271
     1
  0
XRECORD
  5
9DF2
102
{ACAD_REACTORS
330
9DED
102
}
330
9DED
100
AcDbXrecord
280
     1
270
     1
271
     1
  0
XRECORD
  5
9DF1
102
{ACAD_REACTORS
330
9DED
102
}
330
9DED
100
AcDbXrecord
280
     1
270
     1
271
     1
  0
XRECORD
  5
9DF3
102
{ACAD_REACTORS
330
9DED
102
}
330
9DED
100
AcDbXrecord
280
     1
270
     1
271
     1
  0
XRECORD
  5
9DF0
102
{ACAD_REACTORS
330
9DED
102
}
330
9DED
100
AcDbXrecord
280
     1
270
     1
271
     1
  0
XRECORD
  5
B768
102
{ACAD_REACTORS
330
9DE5
102
}
330
9DE5
100
AcDbXrecord
280
     1
102
MATERIAL
148
0.0
149
0.0
149
0.0
 93
        0
 94
      127
282
     0
 72
     0
 77
     0
171
     0
175
     0
179
     0
273
     0
  0
XRECORD
  5
9DE7
102
{ACAD_REACTORS
330
9DE5
102
}
330
9DE5
100
AcDbXrecord
280
     1
270
     1
271
     1
  0
XRECORD
  5
9DE6
102
{ACAD_REACTORS
330
9DE5
102
}
330
9DE5
100
AcDbXrecord
280
     1
270
     1
271
     1
  0
XRECORD
  5
9DEA
102
{ACAD_REACTORS
330
9DE5
102
}
330
9DE5
100
AcDbXrecord
280
     1
270
     1
271
     1
  0
XRECORD
  5
9DE9
102
{ACAD_REACTORS
330
9DE5
102
}
330
9DE5
100
AcDbXrecord
280
     1
270
     1
271
     1
  0
XRECORD
  5
9DEB
102
{ACAD_REACTORS
330
9DE5
102
}
330
9DE5
100
AcDbXrecord
280
     1
270
     1
271
     1
  0
XRECORD
  5
9DE8
102
{ACAD_REACTORS
330
9DE5
102
}
330
9DE5
100
AcDbXrecord
280
     1
270
     1
271
     1
  0
XRECORD
  5
B76A
102
{ACAD_REACTORS
330
9DF5
102
}
330
9DF5
100
AcDbXrecord
280
     1
102
MATERIAL
148
0.0
149
0.0
149
0.0
 93
        0
 94
      127
282
     0
 72
     0
 77
     0
171
     0
175
     0
179
     0
273
     0
  0
XRECORD
  5
9DF7
102
{ACAD_REACTORS
330
9DF5
102
}
330
9DF5
100
AcDbXrecord
280
     1
270
     1
271
     1
  0
XRECORD
  5
9DF6
102
{ACAD_REACTORS
330
9DF5
102
}
330
9DF5
100
AcDbXrecord
280
     1
270
     1
271
     1
  0
XRECORD
  5
9DFA
102
{ACAD_REACTORS
330
9DF5
102
}
330
9DF5
100
AcDbXrecord
280
     1
270
     1
271
     1
  0
XRECORD
  5
9DF9
102
{ACAD_REACTORS
330
9DF5
102
}
330
9DF5
100
AcDbXrecord
280
     1
270
     1
271
     1
  0
XRECORD
  5
9DFB
102
{ACAD_REACTORS
330
9DF5
102
}
330
9DF5
100
AcDbXrecord
280
     1
270
     1
271
     1
  0
XRECORD
  5
9DF8
102
{ACAD_REACTORS
330
9DF5
102
}
330
9DF5
100
AcDbXrecord
280
     1
270
     1
271
     1
  0
XRECORD
  5
B75D
102
{ACAD_REACTORS
330
B75C
102
}
330
B75C
100
AcDbXrecord
280
     1
102
ACAD_ROUNDTRIP_2012_MLEADER_STYLE
298
     1
  0
XRECORD
  5
B765
102
{ACAD_REACTORS
330
B764
102
}
330
B764
100
AcDbXrecord
280
     1
102
SHADEPLOT
 70
     0
102
SHADEPLOTRESLEVEL
 70
     2
102
SHADEPLOTCUSTOMDPI
 70
   300
  0
XRECORD
  5
B767
102
{ACAD_REACTORS
330
B766
102
}
330
B766
100
AcDbXrecord
280
     1
102
SHADEPLOT
 70
     0
102
SHADEPLOTRESLEVEL
 70
     2
102
SHADEPLOTCUSTOMDPI
 70
   300
  0
CELLSTYLEMAP
  5
B75B
102
{ACAD_REACTORS
330
B622
102
}
330
B622
100
AcDbCellStyleMap
 90
        3
300
CELLSTYLE
  1
TABLEFORMAT_BEGIN
 90
        5
170
     1
 91
        0
 92
    32768
 62
   257
 93
        1
300
CONTENTFORMAT
  1
CONTENTFORMAT_BEGIN
 90
        0
 91
        0
 92
      512
 93
        0
300

 40
0.0
140
1.0
 94
        5
 62
     0
340
F
144
0.25
309
CONTENTFORMAT_END
171
     0
 94
        0
309
TABLEFORMAT_END
  1
CELLSTYLE_BEGIN
 90
        1
 91
        1
300
_TITLE
309
CELLSTYLE_END
300
CELLSTYLE
  1
TABLEFORMAT_BEGIN
 90
        5
170
     1
 91
        0
 92
        0
 62
   257
 93
        1
300
CONTENTFORMAT
  1
CONTENTFORMAT_BEGIN
 90
        0
 91
        0
 92
      512
 93
        0
300

 40
0.0
140
1.0
 94
        5
 62
     0
340
F
144
0.18
309
CONTENTFORMAT_END
171
     0
 94
        0
309
TABLEFORMAT_END
  1
CELLSTYLE_BEGIN
 90
        2
 91
        1
300
_HEADER
309
CELLSTYLE_END
300
CELLSTYLE
  1
TABLEFORMAT_BEGIN
 90
        5
170
     1
 91
        0
 92
        0
 62
   257
 93
        1
300
CONTENTFORMAT
  1
CONTENTFORMAT_BEGIN
 90
        0
 91
        0
 92
      512
 93
        0
300

 40
0.0
140
1.0
 94
        2
 62
     0
340
F
144
0.18
309
CONTENTFORMAT_END
171
     0
 94
        0
309
TABLEFORMAT_END
  1
CELLSTYLE_BEGIN
 90
        3
 91
        2
300
_DATA
309
CELLSTYLE_END
  0
XRECORD
  5
B79B
102
{ACAD_REACTORS
330
B622
102
}
330
B622
100
AcDbXrecord
280
     1
102
ACAD_ROUNDTRIP_PRE2007_TABLESTYLE
 90
      512
 91
        0
  1

 92
      512
 93
        0
  2

 94
      512
 95
        0
  3

  0
XRECORD
  5
B776
102
{ACAD_REACTORS
330
B775
102
}
330
B775
100
AcDbXrecord
280
     1
102
RTVSPropertyOp0
 70
     1
102
RTVSPropertyOp1
 70
     1
102
RTVSPropertyOp2
 70
     1
102
RTVSPropertyOp3
 70
     1
102
RTVSPropertyOp4
 70
     1
102
RTVSPropertyOp5
 70
     1
102
RTVSPropertyOp6
 70
     1
102
RTVSPropertyOp7
 70
     1
102
RTVSPropertyOp8
 70
     1
102
RTVSPropertyOp9
 70
     1
102
RTVSPropertyOp10
 70
     1
102
RTVSPropertyOp11
 70
     1
102
RTVSPropertyOp12
 70
     1
102
RTVSPropertyOp13
 70
     1
102
RTVSPropertyOp14
 70
     1
102
RTVSPropertyOp15
 70
     1
102
RTVSPropertyOp16
 70
     1
102
RTVSPropertyOp17
 70
     1
102
RTVSPropertyOp18
 70
     1
102
RTVSPropertyOp19
 70
     1
102
RTVSPropertyOp20
 70
     1
102
RTVSPropertyOp21
 70
     1
102
RTVSPropertyOp22
 70
     1
102
RTVSPropertyOp23
 70
     1
102
RTVSPropertyOp24
 70
     1
102
RTVSPropertyOp25
 70
     1
102
RTVSPropertyOp26
 70
     1
102
RTVSPropertyOp27
 70
     1
102
RTVSPropertyOp28
 70
     1
102
RTVSPropertyOp29
 70
     1
102
RTVSPropertyOp30
 70
     1
102
RTVSPropertyOp31
 70
     1
102
RTVSPropertyOp32
 70
     1
  0
XRECORD
  5
B774
102
{ACAD_REACTORS
330
B773
102
}
330
B773
100
AcDbXrecord
280
     1
102
RTVSPropertyOp0
 70
     1
102
RTVSPropertyOp1
 70
     1
102
RTVSPropertyOp2
 70
     1
102
RTVSPropertyOp3
 70
     1
102
RTVSPropertyOp4
 70
     1
102
RTVSPropertyOp5
 70
     1
102
RTVSPropertyOp6
 70
     1
102
RTVSPropertyOp7
 70
     1
102
RTVSPropertyOp8
 70
     1
102
RTVSPropertyOp9
 70
     1
102
RTVSPropertyOp10
 70
     1
102
RTVSPropertyOp11
 70
     1
102
RTVSPropertyOp12
 70
     1
102
RTVSPropertyOp13
 70
     1
102
RTVSPropertyOp14
 70
     1
102
RTVSPropertyOp15
 70
     1
102
RTVSPropertyOp16
 70
     1
102
RTVSPropertyOp17
 70
     1
102
RTVSPropertyOp18
 70
     1
102
RTVSPropertyOp19
 70
     1
102
RTVSPropertyOp20
 70
     1
102
RTVSPropertyOp21
 70
     1
102
RTVSPropertyOp22
 70
     1
102
RTVSPropertyOp23
 70
     1
102
RTVSPropertyOp24
 70
     1
102
RTVSPropertyOp25
 70
     1
102
RTVSPropertyOp26
 70
     1
102
RTVSPropertyOp27
 70
     1
102
RTVSPropertyOp28
 70
     1
102
RTVSPropertyOp29
 70
     1
102
RTVSPropertyOp30
 70
     1
102
RTVSPropertyOp31
 70
     1
102
RTVSPropertyOp32
 70
     1
  0
XRECORD
  5
B782
102
{ACAD_REACTORS
330
B781
102
}
330
B781
100
AcDbXrecord
280
     1
102
RTVSPropertyOp0
 70
     1
102
RTVSPropertyOp1
 70
     1
102
RTVSPropertyOp2
 70
     1
102
RTVSPropertyOp3
 70
     1
102
RTVSPropertyOp4
 70
     1
102
RTVSPropertyOp5
 70
     1
102
RTVSPropertyOp6
 70
     1
102
RTVSPropertyOp7
 70
     1
102
RTVSPropertyOp8
 70
     1
102
RTVSPropertyOp9
 70
     1
102
RTVSPropertyOp10
 70
     1
102
RTVSPropertyOp11
 70
     1
102
RTVSPropertyOp12
 70
     1
102
RTVSPropertyOp13
 70
     1
102
RTVSPropertyOp14
 70
     1
102
RTVSPropertyOp15
 70
     1
102
RTVSPropertyOp16
 70
     1
102
RTVSPropertyOp17
 70
     1
102
RTVSPropertyOp18
 70
     1
102
RTVSPropertyOp19
 70
     1
102
RTVSPropertyOp20
 70
     1
102
RTVSPropertyOp21
 70
     1
102
RTVSPropertyOp22
 70
     1
102
RTVSPropertyOp23
 70
     1
102
RTVSPropertyOp24
 70
     1
102
RTVSPropertyOp25
 70
     1
102
RTVSPropertyOp26
 70
     1
102
RTVSPropertyOp27
 70
     1
102
RTVSPropertyOp28
 70
     1
102
RTVSPropertyOp29
 70
     1
102
RTVSPropertyOp30
 70
     1
102
RTVSPropertyOp31
 70
     1
102
RTVSPropertyOp32
 70
     1
  0
XRECORD
  5
B78A
102
{ACAD_REACTORS
330
B789
102
}
330
B789
100
AcDbXrecord
280
     1
102
RTVSPropertyOp0
 70
     1
102
RTVSPropertyOp1
 70
     1
102
RTVSPropertyOp2
 70
     1
102
RTVSPropertyOp3
 70
     1
102
RTVSPropertyOp4
 70
     1
102
RTVSPropertyOp5
 70
     1
102
RTVSPropertyOp6
 70
     1
102
RTVSPropertyOp7
 70
     1
102
RTVSPropertyOp8
 70
     1
102
RTVSPropertyOp9
 70
     1
102
RTVSPropertyOp10
 70
     1
102
RTVSPropertyOp11
 70
     1
102
RTVSPropertyOp12
 70
     1
102
RTVSPropertyOp13
 70
     1
102
RTVSPropertyOp14
 70
     1
102
RTVSPropertyOp15
 70
     1
102
RTVSPropertyOp16
 70
     1
102
RTVSPropertyOp17
 70
     1
102
RTVSPropertyOp18
 70
     1
102
RTVSPropertyOp19
 70
     1
102
RTVSPropertyOp20
 70
     1
102
RTVSPropertyOp21
 70
     1
102
RTVSPropertyOp22
 70
     1
102
RTVSPropertyOp23
 70
     1
102
RTVSPropertyOp24
 70
     1
102
RTVSPropertyOp25
 70
     1
102
RTVSPropertyOp26
 70
     1
102
RTVSPropertyOp27
 70
     1
102
RTVSPropertyOp28
 70
     1
102
RTVSPropertyOp29
 70
     1
102
RTVSPropertyOp30
 70
     1
102
RTVSPropertyOp31
 70
     1
102
RTVSPropertyOp32
 70
     1
  0
XRECORD
  5
B77C
102
{ACAD_REACTORS
330
B77B
102
}
330
B77B
100
AcDbXrecord
280
     1
102
RTVSPropertyOp0
 70
     1
102
RTVSPropertyOp1
 70
     1
102
RTVSPropertyOp2
 70
     1
102
RTVSPropertyOp3
 70
     1
102
RTVSPropertyOp4
 70
     1
102
RTVSPropertyOp5
 70
     1
102
RTVSPropertyOp6
 70
     1
102
RTVSPropertyOp7
 70
     1
102
RTVSPropertyOp8
 70
     1
102
RTVSPropertyOp9
 70
     1
102
RTVSPropertyOp10
 70
     1
102
RTVSPropertyOp11
 70
     1
102
RTVSPropertyOp12
 70
     1
102
RTVSPropertyOp13
 70
     1
102
RTVSPropertyOp14
 70
     1
102
RTVSPropertyOp15
 70
     1
102
RTVSPropertyOp16
 70
     1
102
RTVSPropertyOp17
 70
     1
102
RTVSPropertyOp18
 70
     1
102
RTVSPropertyOp19
 70
     1
102
RTVSPropertyOp20
 70
     1
102
RTVSPropertyOp21
 70
     1
102
RTVSPropertyOp22
 70
     1
102
RTVSPropertyOp23
 70
     1
102
RTVSPropertyOp24
 70
     1
102
RTVSPropertyOp25
 70
     1
102
RTVSPropertyOp26
 70
     1
102
RTVSPropertyOp27
 70
     1
102
RTVSPropertyOp28
 70
     1
102
RTVSPropertyOp29
 70
     1
102
RTVSPropertyOp30
 70
     1
102
RTVSPropertyOp31
 70
     1
102
RTVSPropertyOp32
 70
     1
  0
XRECORD
  5
B780
102
{ACAD_REACTORS
330
B77F
102
}
330
B77F
100
AcDbXrecord
280
     1
102
RTVSPropertyOp0
 70
     1
102
RTVSPropertyOp1
 70
     1
102
RTVSPropertyOp2
 70
     1
102
RTVSPropertyOp3
 70
     1
102
RTVSPropertyOp4
 70
     1
102
RTVSPropertyOp5
 70
     1
102
RTVSPropertyOp6
 70
     1
102
RTVSPropertyOp7
 70
     1
102
RTVSPropertyOp8
 70
     1
102
RTVSPropertyOp9
 70
     1
102
RTVSPropertyOp10
 70
     1
102
RTVSPropertyOp11
 70
     1
102
RTVSPropertyOp12
 70
     1
102
RTVSPropertyOp13
 70
     1
102
RTVSPropertyOp14
 70
     1
102
RTVSPropertyOp15
 70
     1
102
RTVSPropertyOp16
 70
     1
102
RTVSPropertyOp17
 70
     1
102
RTVSPropertyOp18
 70
     1
102
RTVSPropertyOp19
 70
     1
102
RTVSPropertyOp20
 70
     1
102
RTVSPropertyOp21
 70
     1
102
RTVSPropertyOp22
 70
     1
102
RTVSPropertyOp23
 70
     1
102
RTVSPropertyOp24
 70
     1
102
RTVSPropertyOp25
 70
     1
102
RTVSPropertyOp26
 70
     1
102
RTVSPropertyOp27
 70
     1
102
RTVSPropertyOp28
 70
     1
102
RTVSPropertyOp29
 70
     1
102
RTVSPropertyOp30
 70
     1
102
RTVSPropertyOp31
 70
     1
102
RTVSPropertyOp32
 70
     1
  0
XRECORD
  5
B79A
102
{ACAD_REACTORS
330
B799
102
}
330
B799
100
AcDbXrecord
280
     1
102
RTVSPropertyOp0
 70
     0
102
RTVSPropertyOp1
 70
     0
102
RTVSPropertyOp2
 70
     0
102
RTVSPropertyOp3
 70
     0
102
RTVSPropertyOp4
 70
     0
102
RTVSPropertyOp5
 70
     0
102
RTVSPropertyOp6
 70
     0
102
RTVSPropertyOp7
 70
     0
102
RTVSPropertyOp8
 70
     0
102
RTVSPropertyOp9
 70
     0
102
RTVSPropertyOp10
 70
     0
102
RTVSPropertyOp11
 70
     0
102
RTVSPropertyOp12
 70
     0
102
RTVSPropertyOp13
 70
     0
102
RTVSPropertyOp14
 70
     2
102
RTVSPropertyOp15
 70
     0
102
RTVSPropertyOp16
 70
     0
102
RTVSPropertyOp17
 70
     0
102
RTVSPropertyOp18
 70
     0
102
RTVSPropertyOp19
 70
     0
102
RTVSPropertyOp20
 70
     0
102
RTVSPropertyOp21
 70
     0
102
RTVSPropertyOp22
 70
     0
102
RTVSPropertyOp23
 70
     0
102
RTVSPropertyOp24
 70
     0
102
RTVSPropertyOp25
 70
     0
102
RTVSPropertyOp26
 70
     0
102
RTVSPropertyOp27
 70
     0
102
RTVSPropertyOp28
 70
     0
102
RTVSPropertyOp29
 70
     0
102
RTVSPropertyOp30
 70
     0
102
RTVSPropertyOp31
 70
     0
102
RTVSPropertyOp32
 70
     0
  0
XRECORD
  5
B788
102
{ACAD_REACTORS
330
B787
102
}
330
B787
100
AcDbXrecord
280
     1
102
RTVSPropertyOp0
 70
     1
102
RTVSPropertyOp1
 70
     1
102
RTVSPropertyOp2
 70
     1
102
RTVSPropertyOp3
 70
     1
102
RTVSPropertyOp4
 70
     1
102
RTVSPropertyOp5
 70
     1
102
RTVSPropertyOp6
 70
     1
102
RTVSPropertyOp7
 70
     1
102
RTVSPropertyOp8
 70
     1
102
RTVSPropertyOp9
 70
     1
102
RTVSPropertyOp10
 70
     1
102
RTVSPropertyOp11
 70
     1
102
RTVSPropertyOp12
 70
     1
102
RTVSPropertyOp13
 70
     1
102
RTVSPropertyOp14
 70
     1
102
RTVSPropertyOp15
 70
     1
102
RTVSPropertyOp16
 70
     1
102
RTVSPropertyOp17
 70
     1
102
RTVSPropertyOp18
 70
     1
102
RTVSPropertyOp19
 70
     1
102
RTVSPropertyOp20
 70
     1
102
RTVSPropertyOp21
 70
     1
102
RTVSPropertyOp22
 70
     1
102
RTVSPropertyOp23
 70
     1
102
RTVSPropertyOp24
 70
     1
102
RTVSPropertyOp25
 70
     1
102
RTVSPropertyOp26
 70
     1
102
RTVSPropertyOp27
 70
     1
102
RTVSPropertyOp28
 70
     1
102
RTVSPropertyOp29
 70
     1
102
RTVSPropertyOp30
 70
     1
102
RTVSPropertyOp31
 70
     1
102
RTVSPropertyOp32
 70
     1
  0
XRECORD
  5
B76C
102
{ACAD_REACTORS
330
B76B
102
}
330
B76B
100
AcDbXrecord
280
     1
102
RTVSPropertyOp0
 70
     1
102
RTVSPropertyOp1
 70
     1
102
RTVSPropertyOp2
 70
     1
102
RTVSPropertyOp3
 70
     1
102
RTVSPropertyOp4
 70
     1
102
RTVSPropertyOp5
 70
     1
102
RTVSPropertyOp6
 70
     1
102
RTVSPropertyOp7
 70
     1
102
RTVSPropertyOp8
 70
     1
102
RTVSPropertyOp9
 70
     1
102
RTVSPropertyOp10
 70
     1
102
RTVSPropertyOp11
 70
     1
102
RTVSPropertyOp12
 70
     1
102
RTVSPropertyOp13
 70
     1
102
RTVSPropertyOp14
 70
     1
102
RTVSPropertyOp15
 70
     1
102
RTVSPropertyOp16
 70
     1
102
RTVSPropertyOp17
 70
     1
102
RTVSPropertyOp18
 70
     1
102
RTVSPropertyOp19
 70
     1
102
RTVSPropertyOp20
 70
     1
102
RTVSPropertyOp21
 70
     1
102
RTVSPropertyOp22
 70
     1
102
RTVSPropertyOp23
 70
     1
102
RTVSPropertyOp24
 70
     1
102
RTVSPropertyOp25
 70
     1
102
RTVSPropertyOp26
 70
     1
102
RTVSPropertyOp27
 70
     1
102
RTVSPropertyOp28
 70
     1
102
RTVSPropertyOp29
 70
     1
102
RTVSPropertyOp30
 70
     1
102
RTVSPropertyOp31
 70
     1
102
RTVSPropertyOp32
 70
     1
  0
XRECORD
  5
B76E
102
{ACAD_REACTORS
330
B76D
102
}
330
B76D
100
AcDbXrecord
280
     1
102
RTVSPropertyOp0
 70
     1
102
RTVSPropertyOp1
 70
     1
102
RTVSPropertyOp2
 70
     1
102
RTVSPropertyOp3
 70
     1
102
RTVSPropertyOp4
 70
     1
102
RTVSPropertyOp5
 70
     1
102
RTVSPropertyOp6
 70
     1
102
RTVSPropertyOp7
 70
     1
102
RTVSPropertyOp8
 70
     1
102
RTVSPropertyOp9
 70
     1
102
RTVSPropertyOp10
 70
     1
102
RTVSPropertyOp11
 70
     1
102
RTVSPropertyOp12
 70
     1
102
RTVSPropertyOp13
 70
     1
102
RTVSPropertyOp14
 70
     1
102
RTVSPropertyOp15
 70
     1
102
RTVSPropertyOp16
 70
     1
102
RTVSPropertyOp17
 70
     1
102
RTVSPropertyOp18
 70
     1
102
RTVSPropertyOp19
 70
     1
102
RTVSPropertyOp20
 70
     1
102
RTVSPropertyOp21
 70
     1
102
RTVSPropertyOp22
 70
     1
102
RTVSPropertyOp23
 70
     1
102
RTVSPropertyOp24
 70
     1
102
RTVSPropertyOp25
 70
     1
102
RTVSPropertyOp26
 70
     1
102
RTVSPropertyOp27
 70
     1
102
RTVSPropertyOp28
 70
     1
102
RTVSPropertyOp29
 70
     1
102
RTVSPropertyOp30
 70
     1
102
RTVSPropertyOp31
 70
     1
102
RTVSPropertyOp32
 70
     1
  0
XRECORD
  5
B770
102
{ACAD_REACTORS
330
B76F
102
}
330
B76F
100
AcDbXrecord
280
     1
102
RTVSPropertyOp0
 70
     1
102
RTVSPropertyOp1
 70
     1
102
RTVSPropertyOp2
 70
     1
102
RTVSPropertyOp3
 70
     1
102
RTVSPropertyOp4
 70
     1
102
RTVSPropertyOp5
 70
     1
102
RTVSPropertyOp6
 70
     1
102
RTVSPropertyOp7
 70
     1
102
RTVSPropertyOp8
 70
     1
102
RTVSPropertyOp9
 70
     1
102
RTVSPropertyOp10
 70
     1
102
RTVSPropertyOp11
 70
     1
102
RTVSPropertyOp12
 70
     1
102
RTVSPropertyOp13
 70
     1
102
RTVSPropertyOp14
 70
     1
102
RTVSPropertyOp15
 70
     1
102
RTVSPropertyOp16
 70
     1
102
RTVSPropertyOp17
 70
     1
102
RTVSPropertyOp18
 70
     1
102
RTVSPropertyOp19
 70
     1
102
RTVSPropertyOp20
 70
     1
102
RTVSPropertyOp21
 70
     1
102
RTVSPropertyOp22
 70
     1
102
RTVSPropertyOp23
 70
     1
102
RTVSPropertyOp24
 70
     1
102
RTVSPropertyOp25
 70
     1
102
RTVSPropertyOp26
 70
     1
102
RTVSPropertyOp27
 70
     1
102
RTVSPropertyOp28
 70
     1
102
RTVSPropertyOp29
 70
     1
102
RTVSPropertyOp30
 70
     1
102
RTVSPropertyOp31
 70
     1
102
RTVSPropertyOp32
 70
     1
  0
XRECORD
  5
B772
102
{ACAD_REACTORS
330
B771
102
}
330
B771
100
AcDbXrecord
280
     1
102
RTVSPropertyOp0
 70
     1
102
RTVSPropertyOp1
 70
     1
102
RTVSPropertyOp2
 70
     1
102
RTVSPropertyOp3
 70
     1
102
RTVSPropertyOp4
 70
     1
102
RTVSPropertyOp5
 70
     1
102
RTVSPropertyOp6
 70
     1
102
RTVSPropertyOp7
 70
     1
102
RTVSPropertyOp8
 70
     1
102
RTVSPropertyOp9
 70
     1
102
RTVSPropertyOp10
 70
     1
102
RTVSPropertyOp11
 70
     1
102
RTVSPropertyOp12
 70
     1
102
RTVSPropertyOp13
 70
     1
102
RTVSPropertyOp14
 70
     1
102
RTVSPropertyOp15
 70
     1
102
RTVSPropertyOp16
 70
     1
102
RTVSPropertyOp17
 70
     1
102
RTVSPropertyOp18
 70
     1
102
RTVSPropertyOp19
 70
     1
102
RTVSPropertyOp20
 70
     1
102
RTVSPropertyOp21
 70
     1
102
RTVSPropertyOp22
 70
     1
102
RTVSPropertyOp23
 70
     1
102
RTVSPropertyOp24
 70
     1
102
RTVSPropertyOp25
 70
     1
102
RTVSPropertyOp26
 70
     1
102
RTVSPropertyOp27
 70
     1
102
RTVSPropertyOp28
 70
     1
102
RTVSPropertyOp29
 70
     1
102
RTVSPropertyOp30
 70
     1
102
RTVSPropertyOp31
 70
     1
102
RTVSPropertyOp32
 70
     1
  0
XRECORD
  5
B77A
102
{ACAD_REACTORS
330
B779
102
}
330
B779
100
AcDbXrecord
280
     1
102
RTVSPropertyOp0
 70
     1
102
RTVSPropertyOp1
 70
     1
102
RTVSPropertyOp2
 70
     1
102
RTVSPropertyOp3
 70
     1
102
RTVSPropertyOp4
 70
     1
102
RTVSPropertyOp5
 70
     1
102
RTVSPropertyOp6
 70
     1
102
RTVSPropertyOp7
 70
     1
102
RTVSPropertyOp8
 70
     1
102
RTVSPropertyOp9
 70
     1
102
RTVSPropertyOp10
 70
     1
102
RTVSPropertyOp11
 70
     1
102
RTVSPropertyOp12
 70
     1
102
RTVSPropertyOp13
 70
     1
102
RTVSPropertyOp14
 70
     1
102
RTVSPropertyOp15
 70
     1
102
RTVSPropertyOp16
 70
     1
102
RTVSPropertyOp17
 70
     1
102
RTVSPropertyOp18
 70
     1
102
RTVSPropertyOp19
 70
     1
102
RTVSPropertyOp20
 70
     1
102
RTVSPropertyOp21
 70
     1
102
RTVSPropertyOp22
 70
     1
102
RTVSPropertyOp23
 70
     1
102
RTVSPropertyOp24
 70
     1
102
RTVSPropertyOp25
 70
     1
102
RTVSPropertyOp26
 70
     1
102
RTVSPropertyOp27
 70
     1
102
RTVSPropertyOp28
 70
     1
102
RTVSPropertyOp29
 70
     1
102
RTVSPropertyOp30
 70
     1
102
RTVSPropertyOp31
 70
     1
102
RTVSPropertyOp32
 70
     1
  0
XRECORD
  5
B796
102
{ACAD_REACTORS
330
B795
102
}
330
B795
100
AcDbXrecord
280
     1
102
RTVSPropertyOp0
 70
     0
102
RTVSPropertyOp1
 70
     0
102
RTVSPropertyOp2
 70
     0
102
RTVSPropertyOp3
 70
     0
102
RTVSPropertyOp4
 70
     0
102
RTVSPropertyOp5
 70
     0
102
RTVSPropertyOp6
 70
     0
102
RTVSPropertyOp7
 70
     0
102
RTVSPropertyOp8
 70
     0
102
RTVSPropertyOp9
 70
     0
102
RTVSPropertyOp10
 70
     0
102
RTVSPropertyOp11
 70
     0
102
RTVSPropertyOp12
 70
     0
102
RTVSPropertyOp13
 70
     0
102
RTVSPropertyOp14
 70
     2
102
RTVSPropertyOp15
 70
     0
102
RTVSPropertyOp16
 70
     0
102
RTVSPropertyOp17
 70
     0
102
RTVSPropertyOp18
 70
     0
102
RTVSPropertyOp19
 70
     0
102
RTVSPropertyOp20
 70
     0
102
RTVSPropertyOp21
 70
     0
102
RTVSPropertyOp22
 70
     0
102
RTVSPropertyOp23
 70
     0
102
RTVSPropertyOp24
 70
     0
102
RTVSPropertyOp25
 70
     0
102
RTVSPropertyOp26
 70
     0
102
RTVSPropertyOp27
 70
     0
102
RTVSPropertyOp28
 70
     0
102
RTVSPropertyOp29
 70
     0
102
RTVSPropertyOp30
 70
     0
102
RTVSPropertyOp31
 70
     0
102
RTVSPropertyOp32
 70
     0
  0
XRECORD
  5
B786
102
{ACAD_REACTORS
330
B785
102
}
330
B785
100
AcDbXrecord
280
     1
102
RTVSPropertyOp0
 70
     1
102
RTVSPropertyOp1
 70
     1
102
RTVSPropertyOp2
 70
     1
102
RTVSPropertyOp3
 70
     1
102
RTVSPropertyOp4
 70
     1
102
RTVSPropertyOp5
 70
     1
102
RTVSPropertyOp6
 70
     1
102
RTVSPropertyOp7
 70
     1
102
RTVSPropertyOp8
 70
     1
102
RTVSPropertyOp9
 70
     1
102
RTVSPropertyOp10
 70
     1
102
RTVSPropertyOp11
 70
     1
102
RTVSPropertyOp12
 70
     1
102
RTVSPropertyOp13
 70
     1
102
RTVSPropertyOp14
 70
     1
102
RTVSPropertyOp15
 70
     1
102
RTVSPropertyOp16
 70
     1
102
RTVSPropertyOp17
 70
     1
102
RTVSPropertyOp18
 70
     1
102
RTVSPropertyOp19
 70
     1
102
RTVSPropertyOp20
 70
     1
102
RTVSPropertyOp21
 70
     1
102
RTVSPropertyOp22
 70
     1
102
RTVSPropertyOp23
 70
     1
102
RTVSPropertyOp24
 70
     1
102
RTVSPropertyOp25
 70
     1
102
RTVSPropertyOp26
 70
     1
102
RTVSPropertyOp27
 70
     1
102
RTVSPropertyOp28
 70
     1
102
RTVSPropertyOp29
 70
     1
102
RTVSPropertyOp30
 70
     1
102
RTVSPropertyOp31
 70
     1
102
RTVSPropertyOp32
 70
     1
  0
XRECORD
  5
B798
102
{ACAD_REACTORS
330
B797
102
}
330
B797
100
AcDbXrecord
280
     1
102
RTVSPropertyOp0
 70
     0
102
RTVSPropertyOp1
 70
     0
102
RTVSPropertyOp2
 70
     0
102
RTVSPropertyOp3
 70
     0
102
RTVSPropertyOp4
 70
     0
102
RTVSPropertyOp5
 70
     0
102
RTVSPropertyOp6
 70
     0
102
RTVSPropertyOp7
 70
     0
102
RTVSPropertyOp8
 70
     0
102
RTVSPropertyOp9
 70
     0
102
RTVSPropertyOp10
 70
     0
102
RTVSPropertyOp11
 70
     0
102
RTVSPropertyOp12
 70
     0
102
RTVSPropertyOp13
 70
     0
102
RTVSPropertyOp14
 70
     2
102
RTVSPropertyOp15
 70
     0
102
RTVSPropertyOp16
 70
     0
102
RTVSPropertyOp17
 70
     0
102
RTVSPropertyOp18
 70
     0
102
RTVSPropertyOp19
 70
     0
102
RTVSPropertyOp20
 70
     0
102
RTVSPropertyOp21
 70
     0
102
RTVSPropertyOp22
 70
     0
102
RTVSPropertyOp23
 70
     0
102
RTVSPropertyOp24
 70
     0
102
RTVSPropertyOp25
 70
     0
102
RTVSPropertyOp26
 70
     0
102
RTVSPropertyOp27
 70
     0
102
RTVSPropertyOp28
 70
     0
102
RTVSPropertyOp29
 70
     0
102
RTVSPropertyOp30
 70
     0
102
RTVSPropertyOp31
 70
     0
102
RTVSPropertyOp32
 70
     0
  0
XRECORD
  5
B77E
102
{ACAD_REACTORS
330
B77D
102
}
330
B77D
100
AcDbXrecord
280
     1
102
RTVSPropertyOp0
 70
     1
102
RTVSPropertyOp1
 70
     1
102
RTVSPropertyOp2
 70
     1
102
RTVSPropertyOp3
 70
     1
102
RTVSPropertyOp4
 70
     1
102
RTVSPropertyOp5
 70
     1
102
RTVSPropertyOp6
 70
     1
102
RTVSPropertyOp7
 70
     1
102
RTVSPropertyOp8
 70
     1
102
RTVSPropertyOp9
 70
     1
102
RTVSPropertyOp10
 70
     1
102
RTVSPropertyOp11
 70
     1
102
RTVSPropertyOp12
 70
     1
102
RTVSPropertyOp13
 70
     1
102
RTVSPropertyOp14
 70
     1
102
RTVSPropertyOp15
 70
     1
102
RTVSPropertyOp16
 70
     1
102
RTVSPropertyOp17
 70
     1
102
RTVSPropertyOp18
 70
     1
102
RTVSPropertyOp19
 70
     1
102
RTVSPropertyOp20
 70
     1
102
RTVSPropertyOp21
 70
     1
102
RTVSPropertyOp22
 70
     1
102
RTVSPropertyOp23
 70
     1
102
RTVSPropertyOp24
 70
     1
102
RTVSPropertyOp25
 70
     1
102
RTVSPropertyOp26
 70
     1
102
RTVSPropertyOp27
 70
     1
102
RTVSPropertyOp28
 70
     1
102
RTVSPropertyOp29
 70
     1
102
RTVSPropertyOp30
 70
     1
102
RTVSPropertyOp31
 70
     1
102
RTVSPropertyOp32
 70
     1
  0
XRECORD
  5
B794
102
{ACAD_REACTORS
330
B793
102
}
330
B793
100
AcDbXrecord
280
     1
102
RTVSPropertyOp0
 70
     1
102
RTVSPropertyOp1
 70
     1
102
RTVSPropertyOp2
 70
     1
102
RTVSPropertyOp3
 70
     1
102
RTVSPropertyOp4
 70
     1
102
RTVSPropertyOp5
 70
     1
102
RTVSPropertyOp6
 70
     1
102
RTVSPropertyOp7
 70
     1
102
RTVSPropertyOp8
 70
     1
102
RTVSPropertyOp9
 70
     1
102
RTVSPropertyOp10
 70
     1
102
RTVSPropertyOp11
 70
     1
102
RTVSPropertyOp12
 70
     1
102
RTVSPropertyOp13
 70
     1
102
RTVSPropertyOp14
 70
     1
102
RTVSPropertyOp15
 70
     1
102
RTVSPropertyOp16
 70
     1
102
RTVSPropertyOp17
 70
     1
102
RTVSPropertyOp18
 70
     1
102
RTVSPropertyOp19
 70
     1
102
RTVSPropertyOp20
 70
     1
102
RTVSPropertyOp21
 70
     1
102
RTVSPropertyOp22
 70
     1
102
RTVSPropertyOp23
 70
     1
102
RTVSPropertyOp24
 70
     1
102
RTVSPropertyOp25
 70
     1
102
RTVSPropertyOp26
 70
     1
102
RTVSPropertyOp27
 70
     1
102
RTVSPropertyOp28
 70
     1
102
RTVSPropertyOp29
 70
     1
102
RTVSPropertyOp30
 70
     1
102
RTVSPropertyOp31
 70
     1
102
RTVSPropertyOp32
 70
     1
  0
XRECORD
  5
B792
102
{ACAD_REACTORS
330
B791
102
}
330
B791
100
AcDbXrecord
280
     1
102
RTVSPropertyOp0
 70
     1
102
RTVSPropertyOp1
 70
     1
102
RTVSPropertyOp2
 70
     1
102
RTVSPropertyOp3
 70
     1
102
RTVSPropertyOp4
 70
     1
102
RTVSPropertyOp5
 70
     1
102
RTVSPropertyOp6
 70
     1
102
RTVSPropertyOp7
 70
     1
102
RTVSPropertyOp8
 70
     1
102
RTVSPropertyOp9
 70
     1
102
RTVSPropertyOp10
 70
     1
102
RTVSPropertyOp11
 70
     1
102
RTVSPropertyOp12
 70
     1
102
RTVSPropertyOp13
 70
     1
102
RTVSPropertyOp14
 70
     1
102
RTVSPropertyOp15
 70
     1
102
RTVSPropertyOp16
 70
     1
102
RTVSPropertyOp17
 70
     1
102
RTVSPropertyOp18
 70
     1
102
RTVSPropertyOp19
 70
     1
102
RTVSPropertyOp20
 70
     1
102
RTVSPropertyOp21
 70
     1
102
RTVSPropertyOp22
 70
     1
102
RTVSPropertyOp23
 70
     1
102
RTVSPropertyOp24
 70
     1
102
RTVSPropertyOp25
 70
     1
102
RTVSPropertyOp26
 70
     1
102
RTVSPropertyOp27
 70
     1
102
RTVSPropertyOp28
 70
     1
102
RTVSPropertyOp29
 70
     1
102
RTVSPropertyOp30
 70
     1
102
RTVSPropertyOp31
 70
     1
102
RTVSPropertyOp32
 70
     1
  0
XRECORD
  5
B78C
102
{ACAD_REACTORS
330
B78B
102
}
330
B78B
100
AcDbXrecord
280
     1
102
RTVSPropertyOp0
 70
     1
102
RTVSPropertyOp1
 70
     1
102
RTVSPropertyOp2
 70
     1
102
RTVSPropertyOp3
 70
     1
102
RTVSPropertyOp4
 70
     1
102
RTVSPropertyOp5
 70
     1
102
RTVSPropertyOp6
 70
     1
102
RTVSPropertyOp7
 70
     1
102
RTVSPropertyOp8
 70
     1
102
RTVSPropertyOp9
 70
     1
102
RTVSPropertyOp10
 70
     1
102
RTVSPropertyOp11
 70
     1
102
RTVSPropertyOp12
 70
     1
102
RTVSPropertyOp13
 70
     1
102
RTVSPropertyOp14
 70
     1
102
RTVSPropertyOp15
 70
     1
102
RTVSPropertyOp16
 70
     1
102
RTVSPropertyOp17
 70
     1
102
RTVSPropertyOp18
 70
     1
102
RTVSPropertyOp19
 70
     1
102
RTVSPropertyOp20
 70
     1
102
RTVSPropertyOp21
 70
     1
102
RTVSPropertyOp22
 70
     1
102
RTVSPropertyOp23
 70
     1
102
RTVSPropertyOp24
 70
     1
102
RTVSPropertyOp25
 70
     1
102
RTVSPropertyOp26
 70
     1
102
RTVSPropertyOp27
 70
     1
102
RTVSPropertyOp28
 70
     1
102
RTVSPropertyOp29
 70
     1
102
RTVSPropertyOp30
 70
     1
102
RTVSPropertyOp31
 70
     1
102
RTVSPropertyOp32
 70
     1
  0
XRECORD
  5
B78E
102
{ACAD_REACTORS
330
B78D
102
}
330
B78D
100
AcDbXrecord
280
     1
102
RTVSPropertyOp0
 70
     1
102
RTVSPropertyOp1
 70
     1
102
RTVSPropertyOp2
 70
     1
102
RTVSPropertyOp3
 70
     1
102
RTVSPropertyOp4
 70
     1
102
RTVSPropertyOp5
 70
     1
102
RTVSPropertyOp6
 70
     1
102
RTVSPropertyOp7
 70
     1
102
RTVSPropertyOp8
 70
     1
102
RTVSPropertyOp9
 70
     1
102
RTVSPropertyOp10
 70
     1
102
RTVSPropertyOp11
 70
     1
102
RTVSPropertyOp12
 70
     1
102
RTVSPropertyOp13
 70
     1
102
RTVSPropertyOp14
 70
     1
102
RTVSPropertyOp15
 70
     1
102
RTVSPropertyOp16
 70
     1
102
RTVSPropertyOp17
 70
     1
102
RTVSPropertyOp18
 70
     1
102
RTVSPropertyOp19
 70
     1
102
RTVSPropertyOp20
 70
     1
102
RTVSPropertyOp21
 70
     1
102
RTVSPropertyOp22
 70
     1
102
RTVSPropertyOp23
 70
     1
102
RTVSPropertyOp24
 70
     1
102
RTVSPropertyOp25
 70
     1
102
RTVSPropertyOp26
 70
     1
102
RTVSPropertyOp27
 70
     1
102
RTVSPropertyOp28
 70
     1
102
RTVSPropertyOp29
 70
     1
102
RTVSPropertyOp30
 70
     1
102
RTVSPropertyOp31
 70
     1
102
RTVSPropertyOp32
 70
     1
  0
XRECORD
  5
B784
102
{ACAD_REACTORS
330
B783
102
}
330
B783
100
AcDbXrecord
280
     1
102
RTVSPropertyOp0
 70
     1
102
RTVSPropertyOp1
 70
     1
102
RTVSPropertyOp2
 70
     1
102
RTVSPropertyOp3
 70
     1
102
RTVSPropertyOp4
 70
     1
102
RTVSPropertyOp5
 70
     1
102
RTVSPropertyOp6
 70
     1
102
RTVSPropertyOp7
 70
     1
102
RTVSPropertyOp8
 70
     1
102
RTVSPropertyOp9
 70
     1
102
RTVSPropertyOp10
 70
     1
102
RTVSPropertyOp11
 70
     1
102
RTVSPropertyOp12
 70
     1
102
RTVSPropertyOp13
 70
     1
102
RTVSPropertyOp14
 70
     1
102
RTVSPropertyOp15
 70
     1
102
RTVSPropertyOp16
 70
     1
102
RTVSPropertyOp17
 70
     1
102
RTVSPropertyOp18
 70
     1
102
RTVSPropertyOp19
 70
     1
102
RTVSPropertyOp20
 70
     1
102
RTVSPropertyOp21
 70
     1
102
RTVSPropertyOp22
 70
     1
102
RTVSPropertyOp23
 70
     1
102
RTVSPropertyOp24
 70
     1
102
RTVSPropertyOp25
 70
     1
102
RTVSPropertyOp26
 70
     1
102
RTVSPropertyOp27
 70
     1
102
RTVSPropertyOp28
 70
     1
102
RTVSPropertyOp29
 70
     1
102
RTVSPropertyOp30
 70
     1
102
RTVSPropertyOp31
 70
     1
102
RTVSPropertyOp32
 70
     1
  0
XRECORD
  5
B778
102
{ACAD_REACTORS
330
B777
102
}
330
B777
100
AcDbXrecord
280
     1
102
RTVSPropertyOp0
 70
     1
102
RTVSPropertyOp1
 70
     1
102
RTVSPropertyOp2
 70
     1
102
RTVSPropertyOp3
 70
     1
102
RTVSPropertyOp4
 70
     1
102
RTVSPropertyOp5
 70
     1
102
RTVSPropertyOp6
 70
     1
102
RTVSPropertyOp7
 70
     1
102
RTVSPropertyOp8
 70
     1
102
RTVSPropertyOp9
 70
     1
102
RTVSPropertyOp10
 70
     1
102
RTVSPropertyOp11
 70
     1
102
RTVSPropertyOp12
 70
     1
102
RTVSPropertyOp13
 70
     1
102
RTVSPropertyOp14
 70
     1
102
RTVSPropertyOp15
 70
     1
102
RTVSPropertyOp16
 70
     1
102
RTVSPropertyOp17
 70
     1
102
RTVSPropertyOp18
 70
     1
102
RTVSPropertyOp19
 70
     1
102
RTVSPropertyOp20
 70
     1
102
RTVSPropertyOp21
 70
     1
102
RTVSPropertyOp22
 70
     1
102
RTVSPropertyOp23
 70
     1
102
RTVSPropertyOp24
 70
     1
102
RTVSPropertyOp25
 70
     1
102
RTVSPropertyOp26
 70
     1
102
RTVSPropertyOp27
 70
     1
102
RTVSPropertyOp28
 70
     1
102
RTVSPropertyOp29
 70
     1
102
RTVSPropertyOp30
 70
     1
102
RTVSPropertyOp31
 70
     1
102
RTVSPropertyOp32
 70
     1
  0
XRECORD
  5
B790
102
{ACAD_REACTORS
330
B78F
102
}
330
B78F
100
AcDbXrecord
280
     1
102
RTVSPropertyOp0
 70
     1
102
RTVSPropertyOp1
 70
     1
102
RTVSPropertyOp2
 70
     1
102
RTVSPropertyOp3
 70
     1
102
RTVSPropertyOp4
 70
     1
102
RTVSPropertyOp5
 70
     1
102
RTVSPropertyOp6
 70
     1
102
RTVSPropertyOp7
 70
     1
102
RTVSPropertyOp8
 70
     1
102
RTVSPropertyOp9
 70
     1
102
RTVSPropertyOp10
 70
     1
102
RTVSPropertyOp11
 70
     1
102
RTVSPropertyOp12
 70
     1
102
RTVSPropertyOp13
 70
     1
102
RTVSPropertyOp14
 70
     1
102
RTVSPropertyOp15
 70
     1
102
RTVSPropertyOp16
 70
     1
102
RTVSPropertyOp17
 70
     1
102
RTVSPropertyOp18
 70
     1
102
RTVSPropertyOp19
 70
     1
102
RTVSPropertyOp20
 70
     1
102
RTVSPropertyOp21
 70
     1
102
RTVSPropertyOp22
 70
     1
102
RTVSPropertyOp23
 70
     1
102
RTVSPropertyOp24
 70
     1
102
RTVSPropertyOp25
 70
     1
102
RTVSPropertyOp26
 70
     1
102
RTVSPropertyOp27
 70
     1
102
RTVSPropertyOp28
 70
     1
102
RTVSPropertyOp29
 70
     1
102
RTVSPropertyOp30
 70
     1
102
RTVSPropertyOp31
 70
     1
102
RTVSPropertyOp32
 70
     1
  0
ENDSEC
  0
EOF
