  0
SECTION
  2
HEADER
  9
$ACADVER
  1
AC1015
  9
$ACADMAINTVER
 70
    20
  9
$DWGCODEPAGE
  3
ANSI_932
  9
$INSBASE
 10
0.0
 20
0.0
 30
0.0
  9
$EXTMIN
 10
19298.40245222889
 20
400.3619180361458
 30
0.0
  9
$EXTMAX
 10
34972.39819502675
 20
11600.37210327785
 30
0.0
  9
$LIMMIN
 10
19226.82194673353
 20
296.0967856342831
  9
$LIMMAX
 10
34998.24149251197
 20
11634.95671002381
  9
$ORTHOMODE
 70
     1
  9
$REGENMODE
 70
     1
  9
$FILLMODE
 70
     1
  9
$QTEXTMODE
 70
     0
  9
$MIRRTEXT
 70
     1
  9
$LTSCALE
 40
220.0
  9
$ATTMODE
 70
     1
  9
$TEXTSIZE
 40
200.0
  9
$TRACEWID
 40
0.05
  9
$TEXTSTYLE
  7
JF3
  9
$CLAYER
  8
2
  9
$CELTYPE
  6
BYLAYER
  9
$CECOLOR
 62
   256
  9
$CELTSCALE
 40
1.0
  9
$DISPSILH
 70
     0
  9
$DIMSCALE
 40
20.0
  9
$DIMASZ
 40
2.0
  9
$DIMEXO
 40
3.0
  9
$DIMDLI
 40
0.0
  9
$DIMRND
 40
0.0
  9
$DIMDLE
 40
0.0
  9
$DIMEXE
 40
1.5
  9
$DIMTP
 40
0.0
  9
$DIMTM
 40
0.0
  9
$DIMTXT
 40
3.0
  9
$DIMCEN
 40
0.0
  9
$DIMTSZ
 40
0.0
  9
$DIMTOL
 70
     0
  9
$DIMLIM
 70
     0
  9
$DIMTIH
 70
     0
  9
$DIMTOH
 70
     0
  9
$DIMSE1
 70
     0
  9
$DIMSE2
 70
     0
  9
$DIMTAD
 70
     1
  9
$DIMZIN
 70
     9
  9
$DIMBLK
  1

  9
$DIMASO
 70
     1
  9
$DIMSHO
 70
     1
  9
$DIMPOST
  1

  9
$DIMAPOST
  1

  9
$DIMALT
 70
     0
  9
$DIMALTD
 70
     2
  9
$DIMALTF
 40
25.4
  9
$DIMLFAC
 40
0.25
  9
$DIMTOFL
 70
     1
  9
$DIMTVP
 40
0.0
  9
$DIMTIX
 70
     1
  9
$DIMSOXD
 70
     0
  9
$DIMSAH
 70
     0
  9
$DIMBLK1
  1

  9
$DIMBLK2
  1

  9
$DIMSTYLE
  2
ST20-5（詳細）
  9
$DIMCLRD
 70
   256
  9
$DIMCLRE
 70
   256
  9
$DIMCLRT
 70
     7
  9
$DIMTFAC
 40
0.3333333333333333
  9
$DIMGAP
 40
1.0
  9
$DIMJUST
 70
     0
  9
$DIMSD1
 70
     0
  9
$DIMSD2
 70
     0
  9
$DIMTOLJ
 70
     1
  9
$DIMTZIN
 70
     1
  9
$DIMALTZ
 70
     1
  9
$DIMALTTZ
 70
     1
  9
$DIMUPT
 70
     0
  9
$DIMDEC
 70
     1
  9
$DIMTDEC
 70
     1
  9
$DIMALTU
 70
     2
  9
$DIMALTTD
 70
     2
  9
$DIMTXSTY
  7
JF3
  9
$DIMAUNIT
 70
     0
  9
$DIMADEC
 70
     0
  9
$DIMALTRND
 40
0.0
  9
$DIMAZIN
 70
     0
  9
$DIMDSEP
 70
    46
  9
$DIMATFIT
 70
     3
  9
$DIMFRAC
 70
     0
  9
$DIMLDRBLK
  1

  9
$DIMLUNIT
 70
     2
  9
$DIMLWD
 70
    -2
  9
$DIMLWE
 70
    -2
  9
$DIMTMOVE
 70
     2
  9
$LUNITS
 70
     2
  9
$LUPREC
 70
     4
  9
$SKETCHINC
 40
0.1
  9
$FILLETRAD
 40
0.0
  9
$AUNITS
 70
     0
  9
$AUPREC
 70
     0
  9
$MENU
  1
acad
  9
$ELEVATION
 40
0.0
  9
$PELEVATION
 40
0.0
  9
$THICKNESS
 40
0.0
  9
$LIMCHECK
 70
     0
  9
$CHAMFERA
 40
0.0
  9
$CHAMFERB
 40
0.0
  9
$CHAMFERC
 40
0.0
  9
$CHAMFERD
 40
0.0
  9
$SKPOLY
 70
     0
  9
$TDCREATE
 40
2451227.813129282
  9
$TDUCREATE
 40
2451227.438129283
  9
$TDUPDATE
 40
2456765.486206933
  9
$TDUUPDATE
 40
2456765.111206933
  9
$TDINDWG
 40
1.0644198843
  9
$TDUSRTIMER
 40
1.0644198843
  9
$USRTIMER
 70
     1
  9
$ANGBASE
 50
0.0
  9
$ANGDIR
 70
     0
  9
$PDMODE
 70
     0
  9
$PDSIZE
 40
0.0
  9
$PLINEWID
 40
0.0
  9
$SPLFRAME
 70
     0
  9
$SPLINETYPE
 70
     6
  9
$SPLINESEGS
 70
     8
  9
$HANDSEED
  5
CACC
  9
$SURFTAB1
 70
     6
  9
$SURFTAB2
 70
     6
  9
$SURFTYPE
 70
     6
  9
$SURFU
 70
     6
  9
$SURFV
 70
     6
  9
$UCSBASE
  2

  9
$UCSNAME
  2

  9
$UCSORG
 10
7441.502354646868
 20
2158.167244848408
 30
0.0
  9
$UCSXDIR
 10
1.0
 20
0.0000000000000011
 30
0.0
  9
$UCSYDIR
 10
-0.0000000000000011
 20
1.0
 30
0.0
  9
$UCSORTHOREF
  2

  9
$UCSORTHOVIEW
 70
     0
  9
$UCSORGTOP
 10
0.0
 20
0.0
 30
0.0
  9
$UCSORGBOTTOM
 10
0.0
 20
0.0
 30
0.0
  9
$UCSORGLEFT
 10
0.0
 20
0.0
 30
0.0
  9
$UCSORGRIGHT
 10
0.0
 20
0.0
 30
0.0
  9
$UCSORGFRONT
 10
0.0
 20
0.0
 30
0.0
  9
$UCSORGBACK
 10
0.0
 20
0.0
 30
0.0
  9
$PUCSBASE
  2

  9
$PUCSNAME
  2

  9
$PUCSORG
 10
0.0
 20
0.0
 30
0.0
  9
$PUCSXDIR
 10
1.0
 20
0.0
 30
0.0
  9
$PUCSYDIR
 10
0.0
 20
1.0
 30
0.0
  9
$PUCSORTHOREF
  2

  9
$PUCSORTHOVIEW
 70
     0
  9
$PUCSORGTOP
 10
0.0
 20
0.0
 30
0.0
  9
$PUCSORGBOTTOM
 10
0.0
 20
0.0
 30
0.0
  9
$PUCSORGLEFT
 10
0.0
 20
0.0
 30
0.0
  9
$PUCSORGRIGHT
 10
0.0
 20
0.0
 30
0.0
  9
$PUCSORGFRONT
 10
0.0
 20
0.0
 30
0.0
  9
$PUCSORGBACK
 10
0.0
 20
0.0
 30
0.0
  9
$USERI1
 70
     0
  9
$USERI2
 70
     0
  9
$USERI3
 70
     0
  9
$USERI4
 70
     0
  9
$USERI5
 70
     0
  9
$USERR1
 40
0.0
  9
$USERR2
 40
0.0
  9
$USERR3
 40
0.0
  9
$USERR4
 40
0.0
  9
$USERR5
 40
0.0
  9
$WORLDVIEW
 70
     1
  9
$SHADEDGE
 70
     3
  9
$SHADEDIF
 70
    70
  9
$TILEMODE
 70
     1
  9
$MAXACTVP
 70
    48
  9
$PINSBASE
 10
0.0
 20
0.0
 30
0.0
  9
$PLIMCHECK
 70
     0
  9
$PEXTMIN
 10
1.000000000000000E+20
 20
1.000000000000000E+20
 30
1.000000000000000E+20
  9
$PEXTMAX
 10
-1.000000000000000E+20
 20
-1.000000000000000E+20
 30
-1.000000000000000E+20
  9
$PLIMMIN
 10
0.0
 20
0.0
  9
$PLIMMAX
 10
12.0
 20
9.0
  9
$UNITMODE
 70
     0
  9
$VISRETAIN
 70
     1
  9
$PLINEGEN
 70
     0
  9
$PSLTSCALE
 70
     1
  9
$TREEDEPTH
 70
  3020
  9
$CMLSTYLE
  2
STANDARD
  9
$CMLJUST
 70
     0
  9
$CMLSCALE
 40
1.0
  9
$PROXYGRAPHICS
 70
     1
  9
$MEASUREMENT
 70
     0
  9
$CELWEIGHT
370
    -1
  9
$ENDCAPS
280
     0
  9
$JOINSTYLE
280
     0
  9
$LWDISPLAY
290
     0
  9
$INSUNITS
 70
     0
  9
$HYPERLINKBASE
  1

  9
$STYLESHEET
  1
描画.ctb
  9
$XEDIT
290
     1
  9
$CEPSNTYPE
380
     0
  9
$PSTYLEMODE
290
     1
  9
$FINGERPRINTGUID
  2
{6E4CAC3F-ECF9-4DEC-9439-EF8945963850}
  9
$VERSIONGUID
  2
{2A27DFBF-51D1-4F97-AE74-3145BA36DDBE}
  9
$EXTNAMES
290
     1
  9
$PSVPSCALE
 40
0.0
  9
$OLESTARTUP
290
     0
  0
ENDSEC
  0
SECTION
  2
CLASSES
  0
CLASS
  1
ACDBDICTIONARYWDFLT
  2
AcDbDictionaryWithDefault
  3
ObjectDBX Classes
 90
        0
280
     0
281
     0
  0
CLASS
  1
ACDBPLACEHOLDER
  2
AcDbPlaceHolder
  3
ObjectDBX Classes
 90
        0
280
     0
281
     0
  0
CLASS
  1
LAYOUT
  2
AcDbLayout
  3
ObjectDBX Classes
 90
        0
280
     0
281
     0
  0
CLASS
  1
PLOTSETTINGS
  2
AcDbPlotSettings
  3
ObjectDBX Classes
 90
        0
280
     0
281
     0
  0
CLASS
  1
DICTIONARYVAR
  2
AcDbDictionaryVar
  3
ObjectDBX Classes
 90
        0
280
     0
281
     0
  0
CLASS
  1
MATERIAL
  2
AcDbMaterial
  3
ObjectDBX Classes
 90
     1153
280
     0
281
     0
  0
CLASS
  1
VISUALSTYLE
  2
AcDbVisualStyle
  3
ObjectDBX Classes
 90
     4095
280
     0
281
     0
  0
CLASS
  1
TABLESTYLE
  2
AcDbTableStyle
  3
ObjectDBX Classes
 90
     4095
280
     0
281
     0
  0
CLASS
  1
SCALE
  2
AcDbScale
  3
ObjectDBX Classes
 90
     1153
280
     0
281
     0
  0
CLASS
  1
MLEADERSTYLE
  2
AcDbMLeaderStyle
  3
ACDB_MLEADERSTYLE_CLASS
 90
     4095
280
     0
281
     0
  0
CLASS
  1
SORTENTSTABLE
  2
AcDbSortentsTable
  3
ObjectDBX Classes
 90
        0
280
     0
281
     0
  0
CLASS
  1
CELLSTYLEMAP
  2
AcDbCellStyleMap
  3
ObjectDBX Classes
 90
     1152
280
     0
281
     0
  0
ENDSEC
  0
SECTION
  2
TABLES
  0
TABLE
  2
VPORT
  5
8
102
{ACAD_XDICTIONARY
360
B628
102
}
330
0
100
AcDbSymbolTable
 70
     1
  0
VPORT
  5
9DE1
330
8
100
AcDbSymbolTableRecord
100
AcDbViewportTableRecord
  2
*Active
 70
     0
 10
0.0
 20
0.0
 11
1.0
 21
1.0
 12
27112.53171962275
 22
5965.526747829049
 13
0.0
 23
0.0
 14
1.0
 24
1.0
 15
0.0
 25
0.0
 16
0.0
 26
0.0
 36
1.0
 17
0.0
 27
0.0
 37
0.0
 40
11432.93052865405
 41
1.684426229508196
 42
50.0
 43
0.0
 44
0.0
 50
0.0
 51
0.0
 71
     0
 72
   100
 73
     1
 74
     1
 75
     0
 76
     0
 77
     0
 78
     0
281
     0
 65
     1
110
7441.502354646868
120
2158.167244848408
130
0.0
111
1.0
121
0.0000000000000011
131
0.0
112
-0.0000000000000011
122
1.0
132
0.0
 79
     0
146
0.0
1001
ACAD_NAV_VCDISPLAY
1070
     3
  0
ENDTAB
  0
TABLE
  2
LTYPE
  5
5
330
0
100
AcDbSymbolTable
 70
     4
  0
LTYPE
  5
12
330
5
100
AcDbSymbolTableRecord
100
AcDbLinetypeTableRecord
  2
BYBLOCK
 70
     0
  3

 72
    65
 73
     0
 40
0.0
  0
LTYPE
  5
13
330
5
100
AcDbSymbolTableRecord
100
AcDbLinetypeTableRecord
  2
BYLAYER
 70
     0
  3

 72
    65
 73
     0
 40
0.0
  0
LTYPE
  5
14
330
5
100
AcDbSymbolTableRecord
100
AcDbLinetypeTableRecord
  2
CONTINUOUS
 70
     0
  3
実線
 72
    65
 73
     0
 40
0.0
  0
LTYPE
  5
1F
330
5
100
AcDbSymbolTableRecord
100
AcDbLinetypeTableRecord
  2
HIDDEN
 70
     0
  3
_ _ _ _ _ _ _ _ _ _ _ _ _ _ _ _ _ _ _ _ _ _ _
 72
    65
 73
     2
 40
0.375
 49
0.25
 74
     0
 49
-0.125
 74
     0
  0
LTYPE
  5
20
330
5
100
AcDbSymbolTableRecord
100
AcDbLinetypeTableRecord
  2
CENTER
 70
     0
  3
____ _ ____ _ ____ _ ____ _ ____ _ ____ _ ____
 72
    65
 73
     4
 40
2.0
 49
1.25
 74
     0
 49
-0.25
 74
     0
 49
0.25
 74
     0
 49
-0.25
 74
     0
  0
ENDTAB
  0
TABLE
  2
LAYER
  5
2
102
{ACAD_XDICTIONARY
360
39AC
102
}
330
0
100
AcDbSymbolTable
 70
     5
  0
LAYER
  5
E
102
{ACAD_XDICTIONARY
360
A056
102
}
330
2
100
AcDbSymbolTableRecord
100
AcDbLayerTableRecord
  2
0
 70
     0
 62
     7
  6
CONTINUOUS
370
    -3
390
7C9
  0
LAYER
  5
82E
330
2
100
AcDbSymbolTableRecord
100
AcDbLayerTableRecord
  2
DEFPOINTS
 70
     0
 62
     7
  6
CONTINUOUS
290
     0
370
    -3
390
7C9
  0
LAYER
  5
57B5
102
{ACAD_XDICTIONARY
360
A058
102
}
330
2
100
AcDbSymbolTableRecord
100
AcDbLayerTableRecord
  2
1
 70
     0
 62
     3
  6
CONTINUOUS
370
    -3
390
7C9
  0
LAYER
  5
57B6
102
{ACAD_XDICTIONARY
360
A05A
102
}
330
2
100
AcDbSymbolTableRecord
100
AcDbLayerTableRecord
  2
2
 70
     0
 62
     4
  6
CONTINUOUS
370
    -3
390
7C9
  0
LAYER
  5
57B7
102
{ACAD_XDICTIONARY
360
A05C
102
}
330
2
100
AcDbSymbolTableRecord
100
AcDbLayerTableRecord
  2
3
 70
     0
 62
     7
  6
CONTINUOUS
370
    -3
390
7C9
  0
ENDTAB
  0
TABLE
  2
STYLE
  5
3
330
0
100
AcDbSymbolTable
 70
     4
  0
STYLE
  5
F
330
3
100
AcDbSymbolTableRecord
100
AcDbTextStyleTableRecord
  2
STANDARD
 70
     0
 40
0.0
 41
1.0
 50
0.0
 71
     0
 42
220.0
  3
TXT
  4

  0
STYLE
  5
82F
330
3
100
AcDbSymbolTableRecord
100
AcDbTextStyleTableRecord
  2
JF
 70
     0
 40
0.0
 41
0.8
 50
0.0
 71
     0
 42
3.5
  3
romanc
  4
bigfont
  0
STYLE
  5
830
330
3
100
AcDbSymbolTableRecord
100
AcDbTextStyleTableRecord
  2
JF2
 70
     4
 40
0.0
 41
1.0
 50
0.0
 71
     0
 42
3.5
  3
romans
  4
bigfont
  0
STYLE
  5
831
330
3
100
AcDbSymbolTableRecord
100
AcDbTextStyleTableRecord
  2
JF3
 70
     0
 40
0.0
 41
0.8
 50
0.0
 71
     0
 42
200.0
  3
ROMANS.SHX
  4
bigfont
  0
ENDTAB
  0
TABLE
  2
VIEW
  5
6
330
0
100
AcDbSymbolTable
 70
     0
  0
ENDTAB
  0
TABLE
  2
UCS
  5
7
330
0
100
AcDbSymbolTable
 70
     0
  0
ENDTAB
  0
TABLE
  2
APPID
  5
9
330
0
100
AcDbSymbolTable
 70
     8
  0
APPID
  5
10
330
9
100
AcDbSymbolTableRecord
100
AcDbRegAppTableRecord
  2
ACAD
 70
     0
  0
APPID
  5
9E32
330
9
100
AcDbSymbolTableRecord
100
AcDbRegAppTableRecord
  2
ACAD_EXEMPT_FROM_CAD_STANDARDS
 70
     0
  0
APPID
  5
9E3E
330
9
100
AcDbSymbolTableRecord
100
AcDbRegAppTableRecord
  2
ACAD_NAV_VCDISPLAY
 70
     0
  0
APPID
  5
9E3F
330
9
100
AcDbSymbolTableRecord
100
AcDbRegAppTableRecord
  2
ACAD_PSEXT
 70
     0
  0
APPID
  5
9E5F
330
9
100
AcDbSymbolTableRecord
100
AcDbRegAppTableRecord
  2
ACAD_DSTYLE_DIMJAG
 70
     0
  0
APPID
  5
9E60
330
9
100
AcDbSymbolTableRecord
100
AcDbRegAppTableRecord
  2
ACAD_DSTYLE_DIMTALN
 70
     0
  0
APPID
  5
9E61
330
9
100
AcDbSymbolTableRecord
100
AcDbRegAppTableRecord
  2
ACAD_DSTYLE_DIMBREAK
 70
     0
  0
APPID
  5
B666
330
9
100
AcDbSymbolTableRecord
100
AcDbRegAppTableRecord
  2
ACAD_MLEADERVER
 70
     0
  0
ENDTAB
  0
TABLE
  2
DIMSTYLE
  5
A
330
0
100
AcDbSymbolTable
 70
     7
100
AcDbDimStyleTable
 71
     6
340
57BA
340
1E4A
340
171B
340
52C
340
9C4
340
832
  0
DIMSTYLE
105
52C
330
A
100
AcDbSymbolTableRecord
100
AcDbDimStyleTableRecord
  2
STANDARD
 70
     0
178
     7
340
F
1001
ACAD_DSTYLE_DIMJAG
1070
   388
1040
1.5
1001
ACAD_DSTYLE_DIMTALN
1070
   392
1070
     0
  0
DIMSTYLE
105
832
102
{ACAD_REACTORS
330
9283
330
9284
330
9285
330
9291
330
9292
330
929C
330
BD43
330
BD44
330
BD58
330
BD6C
330
BD6D
330
BD6E
330
BD70
330
C77F
330
C780
330
C783
330
C786
330
C787
330
C788
330
C78A
102
}
330
A
100
AcDbSymbolTableRecord
100
AcDbDimStyleTableRecord
  2
ST20
 70
     0
 40
20.0
 41
2.0
 42
2.0
 43
0.0
 44
2.0
 73
     0
 74
     0
 77
     1
 78
     9
140
3.0
141
0.0
146
0.3333333333333333
147
1.0
172
     1
174
     1
176
   256
177
   256
178
     7
179
     3
271
     0
272
     0
275
     1
279
     2
284
     1
285
     1
286
     1
340
831
1001
ACAD_DSTYLE_DIMJAG
1070
   388
1040
1.5
1001
ACAD_DSTYLE_DIMTALN
1070
   392
1070
     0
  0
DIMSTYLE
105
836
102
{ACAD_REACTORS
330
9E5D
102
}
330
A
100
AcDbSymbolTableRecord
100
AcDbDimStyleTableRecord
  2
ST20$7
 70
     0
 40
20.0
 41
2.0
 42
2.0
 43
0.0
 44
2.0
 73
     0
 74
     0
 77
     1
 78
     1
140
3.0
141
0.0
146
0.3333333333333333
147
1.0
172
     1
174
     1
178
     7
179
     3
271
     0
272
     0
275
     1
279
     2
284
     1
285
     1
286
     1
340
831
1001
ACAD_DSTYLE_DIMBREAK
1070
   391
1040
0.125
1001
ACAD_DSTYLE_DIMJAG
1070
   388
1040
1.5
1001
ACAD_DSTYLE_DIMTALN
1070
   392
1070
     0
  0
DIMSTYLE
105
9C4
102
{ACAD_REACTORS
330
9281
330
9282
330
9286
330
9299
330
929A
330
929B
102
}
330
A
100
AcDbSymbolTableRecord
100
AcDbDimStyleTableRecord
  2
ST20（詳細）
 70
     0
 40
20.0
 41
3.0
 42
3.0
 43
0.0
 44
2.0
 73
     0
 74
     0
 77
     1
 78
     9
140
3.0
141
0.0
146
0.3333333333333333
147
1.0
172
     1
174
     1
176
   256
177
   256
178
     7
179
     3
271
     0
272
     0
275
     1
279
     2
284
     1
285
     1
286
     1
340
831
1001
ACAD_DSTYLE_DIMJAG
1070
   388
1040
1.5
1001
ACAD_DSTYLE_DIMTALN
1070
   392
1070
     0
  0
DIMSTYLE
105
171B
102
{ACAD_REACTORS
330
93A4
330
BD1F
330
BD21
330
BD2F
330
BD3C
330
BD7A
330
BDEC
330
BDFE
330
BE58
330
BE59
330
BE5A
330
BE5B
330
BE72
330
BEE5
330
BEEC
330
BF02
330
BF03
330
BF04
102
}
330
A
100
AcDbSymbolTableRecord
100
AcDbDimStyleTableRecord
  2
ST20-5
 70
     0
 40
20.0
 41
3.0
 42
3.0
 43
0.0
 44
2.0
 73
     0
 74
     0
 77
     1
 78
     9
140
3.0
141
0.0
144
0.25
146
0.3333333333333333
147
1.0
172
     1
174
     1
176
   256
177
   256
178
     7
179
     3
271
     0
272
     0
275
     1
279
     2
284
     1
285
     1
286
     1
340
831
1001
ACAD_DSTYLE_DIMJAG
1070
   388
1040
1.5
1001
ACAD_DSTYLE_DIMTALN
1070
   392
1070
     0
  0
DIMSTYLE
105
1E4A
102
{ACAD_REACTORS
330
BDEF
330
BDF0
330
BDF1
330
BE46
330
BE53
102
}
330
A
100
AcDbSymbolTableRecord
100
AcDbDimStyleTableRecord
  2
ST20-10
 70
     0
 40
20.0
 41
3.0
 42
3.0
 43
0.0
 44
2.0
 73
     0
 74
     0
 77
     1
 78
     9
140
3.0
141
0.0
144
0.5
146
0.3333333333333333
147
1.0
172
     1
174
     1
176
   256
177
   256
178
     7
179
     3
271
     0
272
     0
275
     1
279
     2
284
     1
285
     1
286
     1
340
831
1001
ACAD_DSTYLE_DIMJAG
1070
   388
1040
1.5
1001
ACAD_DSTYLE_DIMTALN
1070
   392
1070
     0
  0
DIMSTYLE
105
57BA
102
{ACAD_REACTORS
330
C8BD
102
}
330
A
100
AcDbSymbolTableRecord
100
AcDbDimStyleTableRecord
  2
ST20-5（詳細）
 70
     0
 40
20.0
 41
2.0
 42
3.0
 43
0.0
 44
1.5
 73
     0
 74
     0
 77
     1
 78
     9
140
3.0
141
0.0
144
0.25
146
0.3333333333333333
147
1.0
172
     1
174
     1
176
   256
177
   256
178
     7
271
     1
272
     1
279
     2
284
     1
285
     1
286
     1
340
831
1001
ACAD_DSTYLE_DIMJAG
1070
   388
1040
1.5
1001
ACAD_DSTYLE_DIMTALN
1070
   392
1070
     0
  0
ENDTAB
  0
TABLE
  2
BLOCK_RECORD
  5
1
330
0
100
AcDbSymbolTable
 70
    50
  0
BLOCK_RECORD
  5
18
102
{ACAD_XDICTIONARY
360
7F6
102
}
330
1
100
AcDbSymbolTableRecord
100
AcDbBlockTableRecord
  2
*MODEL_SPACE
340
7CC
  0
BLOCK_RECORD
  5
15
102
{ACAD_XDICTIONARY
360
7F4
102
}
330
1
100
AcDbSymbolTableRecord
100
AcDbBlockTableRecord
  2
*PAPER_SPACE
340
7CD
  0
BLOCK_RECORD
  5
95E8
330
1
100
AcDbSymbolTableRecord
100
AcDbBlockTableRecord
  2
*D0
340
0
  0
BLOCK_RECORD
  5
95F4
330
1
100
AcDbSymbolTableRecord
100
AcDbBlockTableRecord
  2
*D1
340
0
  0
BLOCK_RECORD
  5
9600
330
1
100
AcDbSymbolTableRecord
100
AcDbBlockTableRecord
  2
*D2
340
0
  0
BLOCK_RECORD
  5
960E
330
1
100
AcDbSymbolTableRecord
100
AcDbBlockTableRecord
  2
*D3
340
0
  0
BLOCK_RECORD
  5
961C
330
1
100
AcDbSymbolTableRecord
100
AcDbBlockTableRecord
  2
*D4
340
0
  0
BLOCK_RECORD
  5
9628
330
1
100
AcDbSymbolTableRecord
100
AcDbBlockTableRecord
  2
*D5
340
0
  0
BLOCK_RECORD
  5
9634
330
1
100
AcDbSymbolTableRecord
100
AcDbBlockTableRecord
  2
*D6
340
0
  0
BLOCK_RECORD
  5
9642
330
1
100
AcDbSymbolTableRecord
100
AcDbBlockTableRecord
  2
*D7
340
0
  0
BLOCK_RECORD
  5
9650
330
1
100
AcDbSymbolTableRecord
100
AcDbBlockTableRecord
  2
*D8
340
0
  0
BLOCK_RECORD
  5
965C
330
1
100
AcDbSymbolTableRecord
100
AcDbBlockTableRecord
  2
*D9
340
0
  0
BLOCK_RECORD
  5
9668
330
1
100
AcDbSymbolTableRecord
100
AcDbBlockTableRecord
  2
*D10
340
0
  0
BLOCK_RECORD
  5
9674
330
1
100
AcDbSymbolTableRecord
100
AcDbBlockTableRecord
  2
*D11
340
0
  0
BLOCK_RECORD
  5
97CE
330
1
100
AcDbSymbolTableRecord
100
AcDbBlockTableRecord
  2
*D12
340
0
  0
BLOCK_RECORD
  5
BF4B
330
1
100
AcDbSymbolTableRecord
100
AcDbBlockTableRecord
  2
*D13
340
0
  0
BLOCK_RECORD
  5
BF59
330
1
100
AcDbSymbolTableRecord
100
AcDbBlockTableRecord
  2
*D14
340
0
  0
BLOCK_RECORD
  5
BF89
330
1
100
AcDbSymbolTableRecord
100
AcDbBlockTableRecord
  2
*D15
340
0
  0
BLOCK_RECORD
  5
BFA3
330
1
100
AcDbSymbolTableRecord
100
AcDbBlockTableRecord
  2
*D16
340
0
  0
BLOCK_RECORD
  5
BFEF
330
1
100
AcDbSymbolTableRecord
100
AcDbBlockTableRecord
  2
*D17
340
0
  0
BLOCK_RECORD
  5
BFFB
330
1
100
AcDbSymbolTableRecord
100
AcDbBlockTableRecord
  2
*D18
340
0
  0
BLOCK_RECORD
  5
C037
330
1
100
AcDbSymbolTableRecord
100
AcDbBlockTableRecord
  2
*D19
340
0
  0
BLOCK_RECORD
  5
C083
330
1
100
AcDbSymbolTableRecord
100
AcDbBlockTableRecord
  2
*D20
340
0
  0
BLOCK_RECORD
  5
C08F
330
1
100
AcDbSymbolTableRecord
100
AcDbBlockTableRecord
  2
*D21
340
0
  0
BLOCK_RECORD
  5
C09D
330
1
100
AcDbSymbolTableRecord
100
AcDbBlockTableRecord
  2
*D22
340
0
  0
BLOCK_RECORD
  5
C0A9
330
1
100
AcDbSymbolTableRecord
100
AcDbBlockTableRecord
  2
*D23
340
0
  0
BLOCK_RECORD
  5
C0F3
330
1
100
AcDbSymbolTableRecord
100
AcDbBlockTableRecord
  2
*D24
340
0
  0
BLOCK_RECORD
  5
C16D
330
1
100
AcDbSymbolTableRecord
100
AcDbBlockTableRecord
  2
*D25
340
0
  0
BLOCK_RECORD
  5
C179
330
1
100
AcDbSymbolTableRecord
100
AcDbBlockTableRecord
  2
*D26
340
0
  0
BLOCK_RECORD
  5
C185
330
1
100
AcDbSymbolTableRecord
100
AcDbBlockTableRecord
  2
*D27
340
0
  0
BLOCK_RECORD
  5
C191
330
1
100
AcDbSymbolTableRecord
100
AcDbBlockTableRecord
  2
*D28
340
0
  0
BLOCK_RECORD
  5
C1A9
330
1
100
AcDbSymbolTableRecord
100
AcDbBlockTableRecord
  2
*D29
340
0
  0
BLOCK_RECORD
  5
C259
330
1
100
AcDbSymbolTableRecord
100
AcDbBlockTableRecord
  2
*D30
340
0
  0
BLOCK_RECORD
  5
C265
330
1
100
AcDbSymbolTableRecord
100
AcDbBlockTableRecord
  2
*D31
340
0
  0
BLOCK_RECORD
  5
C295
330
1
100
AcDbSymbolTableRecord
100
AcDbBlockTableRecord
  2
*D32
340
0
  0
BLOCK_RECORD
  5
C2A3
330
1
100
AcDbSymbolTableRecord
100
AcDbBlockTableRecord
  2
*D33
340
0
  0
BLOCK_RECORD
  5
C2AF
330
1
100
AcDbSymbolTableRecord
100
AcDbBlockTableRecord
  2
*D34
340
0
  0
BLOCK_RECORD
  5
C2BD
330
1
100
AcDbSymbolTableRecord
100
AcDbBlockTableRecord
  2
*D35
340
0
  0
BLOCK_RECORD
  5
C2F9
330
1
100
AcDbSymbolTableRecord
100
AcDbBlockTableRecord
  2
*D36
340
0
  0
BLOCK_RECORD
  5
C32D
330
1
100
AcDbSymbolTableRecord
100
AcDbBlockTableRecord
  2
*D37
340
0
  0
BLOCK_RECORD
  5
C33B
330
1
100
AcDbSymbolTableRecord
100
AcDbBlockTableRecord
  2
*D38
340
0
  0
BLOCK_RECORD
  5
C347
330
1
100
AcDbSymbolTableRecord
100
AcDbBlockTableRecord
  2
*D39
340
0
  0
BLOCK_RECORD
  5
C353
330
1
100
AcDbSymbolTableRecord
100
AcDbBlockTableRecord
  2
*D40
340
0
  0
BLOCK_RECORD
  5
C35F
330
1
100
AcDbSymbolTableRecord
100
AcDbBlockTableRecord
  2
*D41
340
0
  0
BLOCK_RECORD
  5
C79A
330
1
100
AcDbSymbolTableRecord
100
AcDbBlockTableRecord
  2
*D42
340
0
  0
BLOCK_RECORD
  5
C7A6
330
1
100
AcDbSymbolTableRecord
100
AcDbBlockTableRecord
  2
*D43
340
0
  0
BLOCK_RECORD
  5
C7B2
330
1
100
AcDbSymbolTableRecord
100
AcDbBlockTableRecord
  2
*D44
340
0
  0
BLOCK_RECORD
  5
C7BE
330
1
100
AcDbSymbolTableRecord
100
AcDbBlockTableRecord
  2
*D45
340
0
  0
BLOCK_RECORD
  5
C7CA
330
1
100
AcDbSymbolTableRecord
100
AcDbBlockTableRecord
  2
*D46
340
0
  0
BLOCK_RECORD
  5
C7D8
330
1
100
AcDbSymbolTableRecord
100
AcDbBlockTableRecord
  2
*D47
340
0
  0
BLOCK_RECORD
  5
C7E4
330
1
100
AcDbSymbolTableRecord
100
AcDbBlockTableRecord
  2
*D48
340
0
  0
BLOCK_RECORD
  5
C8BE
330
1
100
AcDbSymbolTableRecord
100
AcDbBlockTableRecord
  2
*D49
340
0
  0
ENDTAB
  0
ENDSEC
  0
SECTION
  2
BLOCKS
  0
BLOCK
  5
19
330
18
100
AcDbEntity
  8
0
100
AcDbBlockBegin
  2
*MODEL_SPACE
 70
     0
 10
0.0
 20
0.0
 30
0.0
  3
*MODEL_SPACE
  1

  0
ENDBLK
  5
1A
330
18
100
AcDbEntity
  8
0
100
AcDbBlockEnd
  0
BLOCK
  5
16
330
15
100
AcDbEntity
 67
     1
  8
0
100
AcDbBlockBegin
  2
*PAPER_SPACE
 70
     0
 10
0.0
 20
0.0
 30
0.0
  3
*PAPER_SPACE
  1

  0
ENDBLK
  5
17
330
15
100
AcDbEntity
 67
     1
  8
0
100
AcDbBlockEnd
  0
BLOCK
  5
95F2
330
95E8
100
AcDbEntity
  8
0
100
AcDbBlockBegin
  2
*D0
 70
     1
 10
0.0
 20
0.0
 30
0.0
  3
*D0
  1

  0
LINE
  5
9F07
330
95E8
100
AcDbEntity
  8
2
  6
Continuous
370
    -2
100
AcDbLine
 10
22442.43136451146
 20
9142.903112538457
 30
0.0
 11
23654.7529036918
 21
9142.903112538457
 31
0.0
  0
LINE
  5
9F08
330
95E8
100
AcDbEntity
  8
2
  6
Continuous
370
    -2
100
AcDbLine
 10
22535.82216910917
 20
8492.903112538456
 30
0.0
 11
23654.7529036918
 21
8492.903112538456
 31
0.0
  0
LINE
  5
9F09
330
95E8
100
AcDbEntity
  8
2
  6
Continuous
370
    -2
100
AcDbLine
 10
23614.7529036918
 20
9082.903112538458
 30
0.0
 11
23614.7529036918
 21
8552.903112538457
 31
0.0
  0
SOLID
  5
9F0A
330
95E8
100
AcDbEntity
  8
2
  6
Continuous
100
AcDbTrace
 10
23604.7529036918
 20
9082.903112538458
 30
0.0
 11
23624.7529036918
 21
9082.903112538458
 31
0.0
 12
23614.7529036918
 22
9142.903112538457
 32
0.0
 13
23614.7529036918
 23
9142.903112538457
 33
0.0
  0
SOLID
  5
9F0B
330
95E8
100
AcDbEntity
  8
2
  6
Continuous
100
AcDbTrace
 10
23604.7529036918
 20
8552.903112538457
 30
0.0
 11
23624.7529036918
 21
8552.903112538457
 31
0.0
 12
23614.7529036918
 22
8492.903112538456
 32
0.0
 13
23614.7529036918
 23
8492.903112538456
 33
0.0
  0
MTEXT
  5
9F0C
330
95E8
100
AcDbEntity
  8
2
  6
Continuous
 62
     7
100
AcDbMText
 10
23564.75290369179
 20
8817.903112538461
 30
0.0
 40
60.0
 41
0.0
 71
     5
 72
     1
  1
\A1;650
  7
JF3
 11
0.0000000000000001
 21
1.0
 31
0.0
 73
     1
 44
1.0
1001
ACAD
1000
MTEXTBEGIN
1070
    73
1070
     1
1070
    44
1040
1.0
1070
    74
1070
     0
1000
MTEXTEND
  0
POINT
  5
9F0D
330
95E8
100
AcDbEntity
  8
DEFPOINTS
  6
Continuous
 62
     0
100
AcDbPoint
 10
22382.43136451147
 20
9142.903112538457
 30
0.0
  0
POINT
  5
9F0E
330
95E8
100
AcDbEntity
  8
DEFPOINTS
  6
Continuous
 62
     0
100
AcDbPoint
 10
22475.82216910917
 20
8492.903112538456
 30
0.0
  0
POINT
  5
9F0F
330
95E8
100
AcDbEntity
  8
DEFPOINTS
  6
Continuous
 62
     0
100
AcDbPoint
 10
23614.7529036918
 20
8492.903112538456
 30
0.0
  0
ENDBLK
  5
95F3
330
95E8
100
AcDbEntity
  8
0
100
AcDbBlockEnd
  0
BLOCK
  5
95FE
330
95F4
100
AcDbEntity
  8
0
100
AcDbBlockBegin
  2
*D1
 70
     1
 10
0.0
 20
0.0
 30
0.0
  3
*D1
  1

  0
LINE
  5
9F10
330
95F4
100
AcDbEntity
  8
2
  6
Continuous
370
    -2
100
AcDbLine
 10
22535.82216910917
 20
7892.903112538457
 30
0.0
 11
23654.7529036918
 21
7892.903112538457
 31
0.0
  0
LINE
  5
9F11
330
95F4
100
AcDbEntity
  8
2
  6
Continuous
370
    -2
100
AcDbLine
 10
22442.43136451147
 20
7242.90311253846
 30
0.0
 11
23654.7529036918
 21
7242.90311253846
 31
0.0
  0
LINE
  5
9F12
330
95F4
100
AcDbEntity
  8
2
  6
Continuous
370
    -2
100
AcDbLine
 10
23614.7529036918
 20
7832.903112538456
 30
0.0
 11
23614.7529036918
 21
7302.903112538459
 31
0.0
  0
SOLID
  5
9F13
330
95F4
100
AcDbEntity
  8
2
  6
Continuous
100
AcDbTrace
 10
23604.7529036918
 20
7832.903112538456
 30
0.0
 11
23624.7529036918
 21
7832.903112538456
 31
0.0
 12
23614.7529036918
 22
7892.903112538457
 32
0.0
 13
23614.7529036918
 23
7892.903112538457
 33
0.0
  0
SOLID
  5
9F14
330
95F4
100
AcDbEntity
  8
2
  6
Continuous
100
AcDbTrace
 10
23604.7529036918
 20
7302.903112538459
 30
0.0
 11
23624.7529036918
 21
7302.903112538459
 31
0.0
 12
23614.7529036918
 22
7242.90311253846
 32
0.0
 13
23614.7529036918
 23
7242.90311253846
 33
0.0
  0
MTEXT
  5
9F15
330
95F4
100
AcDbEntity
  8
2
  6
Continuous
 62
     7
100
AcDbMText
 10
23564.7529036918
 20
7567.903112538461
 30
0.0
 40
60.0
 41
0.0
 71
     5
 72
     1
  1
\A1;650
  7
JF3
 11
0.0000000000000001
 21
1.0
 31
0.0
 73
     1
 44
1.0
1001
ACAD
1000
MTEXTBEGIN
1070
    73
1070
     1
1070
    44
1040
1.0
1070
    74
1070
     0
1000
MTEXTEND
  0
POINT
  5
9F16
330
95F4
100
AcDbEntity
  8
DEFPOINTS
  6
Continuous
 62
     0
100
AcDbPoint
 10
22475.82216910917
 20
7892.903112538457
 30
0.0
  0
POINT
  5
9F17
330
95F4
100
AcDbEntity
  8
DEFPOINTS
  6
Continuous
 62
     0
100
AcDbPoint
 10
22382.43136451147
 20
7242.90311253846
 30
0.0
  0
POINT
  5
9F18
330
95F4
100
AcDbEntity
  8
DEFPOINTS
  6
Continuous
 62
     0
100
AcDbPoint
 10
23614.7529036918
 20
7242.90311253846
 30
0.0
  0
ENDBLK
  5
95FF
330
95F4
100
AcDbEntity
  8
0
100
AcDbBlockEnd
  0
BLOCK
  5
960C
330
9600
100
AcDbEntity
  8
0
100
AcDbBlockBegin
  2
*D2
 70
     1
 10
0.0
 20
0.0
 30
0.0
  3
*D2
  1

  0
LINE
  5
9E62
330
9600
100
AcDbEntity
  8
2
  6
Continuous
370
    -2
100
AcDbLine
 10
22515.82216910917
 20
8492.903112538456
 30
0.0
 11
23654.7529036918
 21
8492.903112538456
 31
0.0
  0
LINE
  5
9E63
330
9600
100
AcDbEntity
  8
2
  6
Continuous
370
    -2
100
AcDbLine
 10
23165.82216910917
 20
8399.512307940756
 30
0.0
 11
23654.7529036918
 21
8399.512307940756
 31
0.0
  0
LINE
  5
9E64
330
9600
100
AcDbEntity
  8
2
  6
Continuous
370
    -2
100
AcDbLine
 10
23614.7529036918
 20
8532.903112538457
 30
0.0
 11
23614.7529036918
 21
8572.903112538458
 31
0.0
  0
LINE
  5
9E65
330
9600
100
AcDbEntity
  8
2
  6
Continuous
370
    -2
100
AcDbLine
 10
23614.7529036918
 20
8359.512307940757
 30
0.0
 11
23614.7529036918
 21
8319.512307940756
 31
0.0
  0
LINE
  5
9E66
330
9600
100
AcDbEntity
  8
2
  6
Continuous
370
    -2
100
AcDbLine
 10
23614.7529036918
 20
8492.903112538456
 30
0.0
 11
23614.7529036918
 21
8399.512307940756
 31
0.0
  0
SOLID
  5
9E67
330
9600
100
AcDbEntity
  8
2
  6
Continuous
100
AcDbTrace
 10
23608.08623702513
 20
8532.903112538457
 30
0.0
 11
23621.41957035847
 21
8532.903112538457
 31
0.0
 12
23614.7529036918
 22
8492.903112538456
 32
0.0
 13
23614.7529036918
 23
8492.903112538456
 33
0.0
  0
SOLID
  5
9E68
330
9600
100
AcDbEntity
  8
2
  6
Continuous
100
AcDbTrace
 10
23608.08623702513
 20
8359.512307940757
 30
0.0
 11
23621.41957035847
 21
8359.512307940757
 31
0.0
 12
23614.7529036918
 22
8399.512307940756
 32
0.0
 13
23614.7529036918
 23
8399.512307940756
 33
0.0
  0
MTEXT
  5
9E69
330
9600
100
AcDbEntity
  8
2
  6
Continuous
 62
     7
100
AcDbMText
 10
23564.75290369179
 20
8446.20771023961
 30
0.0
 40
60.0
 41
0.0
 71
     5
 72
     1
  1
\A1;93
  7
JF3
 11
0.0000000000000001
 21
1.0
 31
0.0
 73
     1
 44
1.0
1001
ACAD
1000
MTEXTBEGIN
1070
    73
1070
     1
1070
    44
1040
1.0
1070
    74
1070
     0
1000
MTEXTEND
  0
POINT
  5
9E6A
330
9600
100
AcDbEntity
  8
DEFPOINTS
  6
Continuous
 62
     0
100
AcDbPoint
 10
22475.82216910917
 20
8492.903112538456
 30
0.0
  0
POINT
  5
9E6B
330
9600
100
AcDbEntity
  8
DEFPOINTS
  6
Continuous
 62
     0
100
AcDbPoint
 10
23125.82216910917
 20
8399.512307940756
 30
0.0
  0
POINT
  5
9E6C
330
9600
100
AcDbEntity
  8
DEFPOINTS
  6
Continuous
 62
     0
100
AcDbPoint
 10
23614.7529036918
 20
8399.512307940756
 30
0.0
  0
ENDBLK
  5
960D
330
9600
100
AcDbEntity
  8
0
100
AcDbBlockEnd
  0
BLOCK
  5
961A
330
960E
100
AcDbEntity
  8
0
100
AcDbBlockBegin
  2
*D3
 70
     1
 10
0.0
 20
0.0
 30
0.0
  3
*D3
  1

  0
LINE
  5
9E6D
330
960E
100
AcDbEntity
  8
2
  6
Continuous
370
    -2
100
AcDbLine
 10
22515.82216910917
 20
7892.903112538457
 30
0.0
 11
23654.7529036918
 21
7892.903112538457
 31
0.0
  0
LINE
  5
9E6E
330
960E
100
AcDbEntity
  8
2
  6
Continuous
370
    -2
100
AcDbLine
 10
23165.82216910917
 20
7986.293917136156
 30
0.0
 11
23654.7529036918
 21
7986.293917136156
 31
0.0
  0
LINE
  5
9E6F
330
960E
100
AcDbEntity
  8
2
  6
Continuous
370
    -2
100
AcDbLine
 10
23614.7529036918
 20
7852.903112538456
 30
0.0
 11
23614.7529036918
 21
7812.903112538457
 31
0.0
  0
LINE
  5
9E70
330
960E
100
AcDbEntity
  8
2
  6
Continuous
370
    -2
100
AcDbLine
 10
23614.7529036918
 20
8026.293917136156
 30
0.0
 11
23614.7529036918
 21
8066.293917136155
 31
0.0
  0
LINE
  5
9E71
330
960E
100
AcDbEntity
  8
2
  6
Continuous
370
    -2
100
AcDbLine
 10
23614.7529036918
 20
7892.903112538457
 30
0.0
 11
23614.7529036918
 21
7986.293917136156
 31
0.0
  0
SOLID
  5
9E72
330
960E
100
AcDbEntity
  8
2
  6
Continuous
100
AcDbTrace
 10
23608.08623702513
 20
7852.903112538456
 30
0.0
 11
23621.41957035847
 21
7852.903112538456
 31
0.0
 12
23614.7529036918
 22
7892.903112538457
 32
0.0
 13
23614.7529036918
 23
7892.903112538457
 33
0.0
  0
SOLID
  5
9E73
330
960E
100
AcDbEntity
  8
2
  6
Continuous
100
AcDbTrace
 10
23608.08623702513
 20
8026.293917136156
 30
0.0
 11
23621.41957035847
 21
8026.293917136156
 31
0.0
 12
23614.7529036918
 22
7986.293917136156
 32
0.0
 13
23614.7529036918
 23
7986.293917136156
 33
0.0
  0
MTEXT
  5
9E74
330
960E
100
AcDbEntity
  8
2
  6
Continuous
 62
     7
100
AcDbMText
 10
23564.7529036918
 20
7939.59851483731
 30
0.0
 40
60.0
 41
0.0
 71
     5
 72
     1
  1
\A1;93
  7
JF3
 11
0.0000000000000001
 21
1.0
 31
0.0
 73
     1
 44
1.0
1001
ACAD
1000
MTEXTBEGIN
1070
    73
1070
     1
1070
    44
1040
1.0
1070
    74
1070
     0
1000
MTEXTEND
  0
POINT
  5
9E75
330
960E
100
AcDbEntity
  8
DEFPOINTS
  6
Continuous
 62
     0
100
AcDbPoint
 10
22475.82216910917
 20
7892.903112538457
 30
0.0
  0
POINT
  5
9E76
330
960E
100
AcDbEntity
  8
DEFPOINTS
  6
Continuous
 62
     0
100
AcDbPoint
 10
23125.82216910917
 20
7986.293917136156
 30
0.0
  0
POINT
  5
9E77
330
960E
100
AcDbEntity
  8
DEFPOINTS
  6
Continuous
 62
     0
100
AcDbPoint
 10
23614.7529036918
 20
7986.293917136156
 30
0.0
  0
ENDBLK
  5
961B
330
960E
100
AcDbEntity
  8
0
100
AcDbBlockEnd
  0
BLOCK
  5
9626
330
961C
100
AcDbEntity
  8
0
100
AcDbBlockBegin
  2
*D4
 70
     1
 10
0.0
 20
0.0
 30
0.0
  3
*D4
  1

  0
LINE
  5
9E78
330
961C
100
AcDbEntity
  8
2
  6
Continuous
370
    -2
100
AcDbLine
 10
23165.82216910917
 20
8399.512307940755
 30
0.0
 11
23654.7529036918
 21
8399.512307940755
 31
0.0
  0
LINE
  5
9E79
330
961C
100
AcDbEntity
  8
2
  6
Continuous
370
    -2
100
AcDbLine
 10
23165.82216910917
 20
7986.29391713616
 30
0.0
 11
23654.7529036918
 21
7986.29391713616
 31
0.0
  0
LINE
  5
9E7A
330
961C
100
AcDbEntity
  8
2
  6
Continuous
370
    -2
100
AcDbLine
 10
23614.7529036918
 20
8359.512307940756
 30
0.0
 11
23614.7529036918
 21
8026.293917136159
 31
0.0
  0
SOLID
  5
9E7B
330
961C
100
AcDbEntity
  8
2
  6
Continuous
100
AcDbTrace
 10
23608.08623702514
 20
8359.512307940756
 30
0.0
 11
23621.41957035847
 21
8359.512307940756
 31
0.0
 12
23614.7529036918
 22
8399.512307940755
 32
0.0
 13
23614.7529036918
 23
8399.512307940755
 33
0.0
  0
SOLID
  5
9E7C
330
961C
100
AcDbEntity
  8
2
  6
Continuous
100
AcDbTrace
 10
23608.08623702513
 20
8026.293917136159
 30
0.0
 11
23621.41957035847
 21
8026.293917136159
 31
0.0
 12
23614.7529036918
 22
7986.29391713616
 32
0.0
 13
23614.7529036918
 23
7986.29391713616
 33
0.0
  0
MTEXT
  5
9E7D
330
961C
100
AcDbEntity
  8
2
  6
Continuous
 62
     7
100
AcDbMText
 10
23564.7529036918
 20
8192.903112538461
 30
0.0
 40
60.0
 41
0.0
 71
     5
 72
     1
  1
\A1;413
  7
JF3
 11
0.0000000000000001
 21
1.0
 31
0.0
 73
     1
 44
1.0
1001
ACAD
1000
MTEXTBEGIN
1070
    73
1070
     1
1070
    44
1040
1.0
1070
    74
1070
     0
1000
MTEXTEND
  0
POINT
  5
9E7E
330
961C
100
AcDbEntity
  8
DEFPOINTS
  6
Continuous
 62
     0
100
AcDbPoint
 10
23125.82216910917
 20
8399.512307940755
 30
0.0
  0
POINT
  5
9E7F
330
961C
100
AcDbEntity
  8
DEFPOINTS
  6
Continuous
 62
     0
100
AcDbPoint
 10
23125.82216910917
 20
7986.29391713616
 30
0.0
  0
POINT
  5
9E80
330
961C
100
AcDbEntity
  8
DEFPOINTS
  6
Continuous
 62
     0
100
AcDbPoint
 10
23614.7529036918
 20
7986.29391713616
 30
0.0
  0
ENDBLK
  5
9627
330
961C
100
AcDbEntity
  8
0
100
AcDbBlockEnd
  0
BLOCK
  5
9632
330
9628
100
AcDbEntity
  8
0
100
AcDbBlockBegin
  2
*D5
 70
     1
 10
0.0
 20
0.0
 30
0.0
  3
*D5
  1

  0
LINE
  5
9F19
330
9628
100
AcDbEntity
  8
2
  6
Continuous
370
    -2
100
AcDbLine
 10
22442.43136451146
 20
9142.903112538455
 30
0.0
 11
23799.71857982839
 21
9142.903112538455
 31
0.0
  0
LINE
  5
9F1A
330
9628
100
AcDbEntity
  8
2
  6
Continuous
370
    -2
100
AcDbLine
 10
22442.43136451147
 20
7242.90311253846
 30
0.0
 11
23799.71857982839
 21
7242.90311253846
 31
0.0
  0
LINE
  5
9F1B
330
9628
100
AcDbEntity
  8
2
  6
Continuous
370
    -2
100
AcDbLine
 10
23759.71857982839
 20
9082.903112538456
 30
0.0
 11
23759.71857982839
 21
7302.903112538459
 31
0.0
  0
SOLID
  5
9F1C
330
9628
100
AcDbEntity
  8
2
  6
Continuous
100
AcDbTrace
 10
23749.71857982839
 20
9082.903112538456
 30
0.0
 11
23769.71857982839
 21
9082.903112538456
 31
0.0
 12
23759.71857982839
 22
9142.903112538455
 32
0.0
 13
23759.71857982839
 23
9142.903112538455
 33
0.0
  0
SOLID
  5
9F1D
330
9628
100
AcDbEntity
  8
2
  6
Continuous
100
AcDbTrace
 10
23749.71857982839
 20
7302.903112538459
 30
0.0
 11
23769.71857982839
 21
7302.903112538459
 31
0.0
 12
23759.71857982839
 22
7242.90311253846
 32
0.0
 13
23759.71857982839
 23
7242.90311253846
 33
0.0
  0
MTEXT
  5
9F1E
330
9628
100
AcDbEntity
  8
2
  6
Continuous
 62
     7
100
AcDbMText
 10
23709.71857982839
 20
8192.903112538461
 30
0.0
 40
60.0
 41
0.0
 71
     5
 72
     1
  1
\A1;1900
  7
JF3
 11
0.0000000000000001
 21
1.0
 31
0.0
 73
     1
 44
1.0
1001
ACAD
1000
MTEXTBEGIN
1070
    73
1070
     1
1070
    44
1040
1.0
1070
    74
1070
     0
1000
MTEXTEND
  0
POINT
  5
9F1F
330
9628
100
AcDbEntity
  8
DEFPOINTS
  6
Continuous
 62
     0
100
AcDbPoint
 10
22382.43136451147
 20
9142.903112538455
 30
0.0
  0
POINT
  5
9F20
330
9628
100
AcDbEntity
  8
DEFPOINTS
  6
Continuous
 62
     0
100
AcDbPoint
 10
22382.43136451147
 20
7242.90311253846
 30
0.0
  0
POINT
  5
9F21
330
9628
100
AcDbEntity
  8
DEFPOINTS
  6
Continuous
 62
     0
100
AcDbPoint
 10
23759.71857982839
 20
7242.90311253846
 30
0.0
  0
ENDBLK
  5
9633
330
9628
100
AcDbEntity
  8
0
100
AcDbBlockEnd
  0
BLOCK
  5
9640
330
9634
100
AcDbEntity
  8
0
100
AcDbBlockBegin
  2
*D6
 70
     1
 10
0.0
 20
0.0
 30
0.0
  3
*D6
  1

  0
LINE
  5
9E81
330
9634
100
AcDbEntity
  8
2
  6
Continuous
370
    -2
100
AcDbLine
 10
22382.43136451147
 20
7202.903112538461
 30
0.0
 11
22382.43136451147
 21
6743.343554996979
 31
0.0
  0
LINE
  5
9E82
330
9634
100
AcDbEntity
  8
2
  6
Continuous
370
    -2
100
AcDbLine
 10
22475.82216910917
 20
7852.903112538458
 30
0.0
 11
22475.82216910917
 21
6743.343554996979
 31
0.0
  0
LINE
  5
9E83
330
9634
100
AcDbEntity
  8
2
  6
Continuous
370
    -2
100
AcDbLine
 10
22342.43136451147
 20
6783.343554996979
 30
0.0
 11
22302.43136451147
 21
6783.343554996979
 31
0.0
  0
LINE
  5
9E84
330
9634
100
AcDbEntity
  8
2
  6
Continuous
370
    -2
100
AcDbLine
 10
22515.82216910917
 20
6783.343554996979
 30
0.0
 11
22555.82216910917
 21
6783.343554996979
 31
0.0
  0
LINE
  5
9E85
330
9634
100
AcDbEntity
  8
2
  6
Continuous
370
    -2
100
AcDbLine
 10
22382.43136451147
 20
6783.343554996979
 30
0.0
 11
22475.82216910917
 21
6783.343554996979
 31
0.0
  0
SOLID
  5
9E86
330
9634
100
AcDbEntity
  8
2
  6
Continuous
100
AcDbTrace
 10
22342.43136451147
 20
6790.010221663646
 30
0.0
 11
22342.43136451147
 21
6776.676888330311
 31
0.0
 12
22382.43136451147
 22
6783.343554996979
 32
0.0
 13
22382.43136451147
 23
6783.343554996979
 33
0.0
  0
SOLID
  5
9E87
330
9634
100
AcDbEntity
  8
2
  6
Continuous
100
AcDbTrace
 10
22515.82216910917
 20
6790.010221663646
 30
0.0
 11
22515.82216910917
 21
6776.676888330311
 31
0.0
 12
22475.82216910917
 22
6783.343554996979
 32
0.0
 13
22475.82216910917
 23
6783.343554996979
 33
0.0
  0
MTEXT
  5
9E88
330
9634
100
AcDbEntity
  8
2
  6
Continuous
 62
     7
100
AcDbMText
 10
22429.12676681032
 20
6833.343554996979
 30
0.0
 40
60.0
 41
0.0
 71
     5
 72
     1
  1
\A1;93
  7
JF3
 73
     1
 44
1.0
1001
ACAD
1000
MTEXTBEGIN
1070
    73
1070
     1
1070
    44
1040
1.0
1070
    74
1070
     0
1000
MTEXTEND
  0
POINT
  5
9E89
330
9634
100
AcDbEntity
  8
DEFPOINTS
  6
Continuous
 62
     0
100
AcDbPoint
 10
22382.43136451147
 20
7242.90311253846
 30
0.0
  0
POINT
  5
9E8A
330
9634
100
AcDbEntity
  8
DEFPOINTS
  6
Continuous
 62
     0
100
AcDbPoint
 10
22475.82216910917
 20
7892.903112538457
 30
0.0
  0
POINT
  5
9E8B
330
9634
100
AcDbEntity
  8
DEFPOINTS
  6
Continuous
 62
     0
100
AcDbPoint
 10
22475.82216910917
 20
6783.343554996979
 30
0.0
  0
ENDBLK
  5
9641
330
9634
100
AcDbEntity
  8
0
100
AcDbBlockEnd
  0
BLOCK
  5
964E
330
9642
100
AcDbEntity
  8
0
100
AcDbBlockBegin
  2
*D7
 70
     1
 10
0.0
 20
0.0
 30
0.0
  3
*D7
  1

  0
LINE
  5
9E8C
330
9642
100
AcDbEntity
  8
2
  6
Continuous
370
    -2
100
AcDbLine
 10
21875.82216910915
 20
7852.903112538458
 30
0.0
 11
21875.82216910915
 21
6743.343554996979
 31
0.0
  0
LINE
  5
9E8D
330
9642
100
AcDbEntity
  8
2
  6
Continuous
370
    -2
100
AcDbLine
 10
21969.21297370687
 20
7202.903112538459
 30
0.0
 11
21969.21297370687
 21
6743.343554996979
 31
0.0
  0
LINE
  5
9E8E
330
9642
100
AcDbEntity
  8
2
  6
Continuous
370
    -2
100
AcDbLine
 10
21835.82216910915
 20
6783.343554996978
 30
0.0
 11
21795.82216910915
 21
6783.343554996978
 31
0.0
  0
LINE
  5
9E8F
330
9642
100
AcDbEntity
  8
2
  6
Continuous
370
    -2
100
AcDbLine
 10
22009.21297370687
 20
6783.343554996978
 30
0.0
 11
22049.21297370687
 21
6783.343554996978
 31
0.0
  0
LINE
  5
9E90
330
9642
100
AcDbEntity
  8
2
  6
Continuous
370
    -2
100
AcDbLine
 10
21875.82216910915
 20
6783.343554996978
 30
0.0
 11
21969.21297370687
 21
6783.343554996978
 31
0.0
  0
SOLID
  5
9E91
330
9642
100
AcDbEntity
  8
2
  6
Continuous
100
AcDbTrace
 10
21835.82216910915
 20
6790.010221663646
 30
0.0
 11
21835.82216910915
 21
6776.676888330311
 31
0.0
 12
21875.82216910915
 22
6783.343554996978
 32
0.0
 13
21875.82216910915
 23
6783.343554996978
 33
0.0
  0
SOLID
  5
9E92
330
9642
100
AcDbEntity
  8
2
  6
Continuous
100
AcDbTrace
 10
22009.21297370687
 20
6790.010221663646
 30
0.0
 11
22009.21297370687
 21
6776.676888330311
 31
0.0
 12
21969.21297370687
 22
6783.343554996978
 32
0.0
 13
21969.21297370687
 23
6783.343554996978
 33
0.0
  0
MTEXT
  5
9E93
330
9642
100
AcDbEntity
  8
2
  6
Continuous
 62
     7
100
AcDbMText
 10
21922.51757140801
 20
6833.343554996978
 30
0.0
 40
60.0
 41
0.0
 71
     5
 72
     1
  1
\A1;93
  7
JF3
 73
     1
 44
1.0
1001
ACAD
1000
MTEXTBEGIN
1070
    73
1070
     1
1070
    44
1040
1.0
1070
    74
1070
     0
1000
MTEXTEND
  0
POINT
  5
9E94
330
9642
100
AcDbEntity
  8
DEFPOINTS
  6
Continuous
 62
     0
100
AcDbPoint
 10
21875.82216910915
 20
7892.903112538457
 30
0.0
  0
POINT
  5
9E95
330
9642
100
AcDbEntity
  8
DEFPOINTS
  6
Continuous
 62
     0
100
AcDbPoint
 10
21969.21297370687
 20
7242.90311253846
 30
0.0
  0
POINT
  5
9E96
330
9642
100
AcDbEntity
  8
DEFPOINTS
  6
Continuous
 62
     0
100
AcDbPoint
 10
21969.21297370687
 20
6783.343554996978
 30
0.0
  0
ENDBLK
  5
964F
330
9642
100
AcDbEntity
  8
0
100
AcDbBlockEnd
  0
BLOCK
  5
965A
330
9650
100
AcDbEntity
  8
0
100
AcDbBlockBegin
  2
*D8
 70
     1
 10
0.0
 20
0.0
 30
0.0
  3
*D8
  1

  0
LINE
  5
9F22
330
9650
100
AcDbEntity
  8
2
  6
Continuous
370
    -2
100
AcDbLine
 10
21225.82216910917
 20
7926.293917136158
 30
0.0
 11
21225.82216910917
 21
6743.343554996979
 31
0.0
  0
LINE
  5
9F23
330
9650
100
AcDbEntity
  8
2
  6
Continuous
370
    -2
100
AcDbLine
 10
21875.82216910915
 20
7832.903112538457
 30
0.0
 11
21875.82216910915
 21
6743.343554996979
 31
0.0
  0
LINE
  5
9F24
330
9650
100
AcDbEntity
  8
2
  6
Continuous
370
    -2
100
AcDbLine
 10
21285.82216910917
 20
6783.343554996978
 30
0.0
 11
21815.82216910916
 21
6783.343554996978
 31
0.0
  0
SOLID
  5
9F25
330
9650
100
AcDbEntity
  8
2
  6
Continuous
100
AcDbTrace
 10
21285.82216910917
 20
6793.343554996979
 30
0.0
 11
21285.82216910917
 21
6773.343554996978
 31
0.0
 12
21225.82216910917
 22
6783.343554996978
 32
0.0
 13
21225.82216910917
 23
6783.343554996978
 33
0.0
  0
SOLID
  5
9F26
330
9650
100
AcDbEntity
  8
2
  6
Continuous
100
AcDbTrace
 10
21815.82216910916
 20
6793.343554996979
 30
0.0
 11
21815.82216910916
 21
6773.343554996978
 31
0.0
 12
21875.82216910915
 22
6783.343554996978
 32
0.0
 13
21875.82216910915
 23
6783.343554996978
 33
0.0
  0
MTEXT
  5
9F27
330
9650
100
AcDbEntity
  8
2
  6
Continuous
 62
     7
100
AcDbMText
 10
21550.82216910916
 20
6833.343554996978
 30
0.0
 40
60.0
 41
0.0
 71
     5
 72
     1
  1
\A1;650
  7
JF3
 73
     1
 44
1.0
1001
ACAD
1000
MTEXTBEGIN
1070
    73
1070
     1
1070
    44
1040
1.0
1070
    74
1070
     0
1000
MTEXTEND
  0
POINT
  5
9F28
330
9650
100
AcDbEntity
  8
DEFPOINTS
  6
Continuous
 62
     0
100
AcDbPoint
 10
21225.82216910917
 20
7986.293917136157
 30
0.0
  0
POINT
  5
9F29
330
9650
100
AcDbEntity
  8
DEFPOINTS
  6
Continuous
 62
     0
100
AcDbPoint
 10
21875.82216910915
 20
7892.903112538457
 30
0.0
  0
POINT
  5
9F2A
330
9650
100
AcDbEntity
  8
DEFPOINTS
  6
Continuous
 62
     0
100
AcDbPoint
 10
21875.82216910915
 20
6783.343554996978
 30
0.0
  0
ENDBLK
  5
965B
330
9650
100
AcDbEntity
  8
0
100
AcDbBlockEnd
  0
BLOCK
  5
9666
330
965C
100
AcDbEntity
  8
0
100
AcDbBlockBegin
  2
*D9
 70
     1
 10
0.0
 20
0.0
 30
0.0
  3
*D9
  1

  0
LINE
  5
9F2B
330
965C
100
AcDbEntity
  8
2
  6
Continuous
370
    -2
100
AcDbLine
 10
22475.82216910917
 20
7832.903112538457
 30
0.0
 11
22475.82216910917
 21
6743.343554996979
 31
0.0
  0
LINE
  5
9F2C
330
965C
100
AcDbEntity
  8
2
  6
Continuous
370
    -2
100
AcDbLine
 10
23125.82216910917
 20
7926.293917136156
 30
0.0
 11
23125.82216910917
 21
6743.343554996979
 31
0.0
  0
LINE
  5
9F2D
330
965C
100
AcDbEntity
  8
2
  6
Continuous
370
    -2
100
AcDbLine
 10
22535.82216910917
 20
6783.343554996979
 30
0.0
 11
23065.82216910917
 21
6783.343554996979
 31
0.0
  0
SOLID
  5
9F2E
330
965C
100
AcDbEntity
  8
2
  6
Continuous
100
AcDbTrace
 10
22535.82216910917
 20
6793.343554996979
 30
0.0
 11
22535.82216910917
 21
6773.34355499698
 31
0.0
 12
22475.82216910917
 22
6783.343554996979
 32
0.0
 13
22475.82216910917
 23
6783.343554996979
 33
0.0
  0
SOLID
  5
9F2F
330
965C
100
AcDbEntity
  8
2
  6
Continuous
100
AcDbTrace
 10
23065.82216910917
 20
6793.343554996979
 30
0.0
 11
23065.82216910917
 21
6773.34355499698
 31
0.0
 12
23125.82216910917
 22
6783.343554996979
 32
0.0
 13
23125.82216910917
 23
6783.343554996979
 33
0.0
  0
MTEXT
  5
9F30
330
965C
100
AcDbEntity
  8
2
  6
Continuous
 62
     7
100
AcDbMText
 10
22800.82216910917
 20
6833.343554996979
 30
0.0
 40
60.0
 41
0.0
 71
     5
 72
     1
  1
\A1;650
  7
JF3
 73
     1
 44
1.0
1001
ACAD
1000
MTEXTBEGIN
1070
    73
1070
     1
1070
    44
1040
1.0
1070
    74
1070
     0
1000
MTEXTEND
  0
POINT
  5
9F31
330
965C
100
AcDbEntity
  8
DEFPOINTS
  6
Continuous
 62
     0
100
AcDbPoint
 10
22475.82216910917
 20
7892.903112538457
 30
0.0
  0
POINT
  5
9F32
330
965C
100
AcDbEntity
  8
DEFPOINTS
  6
Continuous
 62
     0
100
AcDbPoint
 10
23125.82216910917
 20
7986.293917136156
 30
0.0
  0
POINT
  5
9F33
330
965C
100
AcDbEntity
  8
DEFPOINTS
  6
Continuous
 62
     0
100
AcDbPoint
 10
23125.82216910917
 20
6783.343554996979
 30
0.0
  0
ENDBLK
  5
9667
330
965C
100
AcDbEntity
  8
0
100
AcDbBlockEnd
  0
BLOCK
  5
9672
330
9668
100
AcDbEntity
  8
0
100
AcDbBlockBegin
  2
*D10
 70
     1
 10
0.0
 20
0.0
 30
0.0
  3
*D10
  1

  0
LINE
  5
9F34
330
9668
100
AcDbEntity
  8
2
  6
Continuous
370
    -2
100
AcDbLine
 10
21225.82216910917
 20
7926.29391713616
 30
0.0
 11
21225.82216910917
 21
6605.845728131235
 31
0.0
  0
LINE
  5
9F35
330
9668
100
AcDbEntity
  8
2
  6
Continuous
370
    -2
100
AcDbLine
 10
23125.82216910917
 20
7926.29391713616
 30
0.0
 11
23125.82216910917
 21
6605.845728131235
 31
0.0
  0
LINE
  5
9F36
330
9668
100
AcDbEntity
  8
2
  6
Continuous
370
    -2
100
AcDbLine
 10
21285.82216910917
 20
6645.845728131236
 30
0.0
 11
23065.82216910917
 21
6645.845728131236
 31
0.0
  0
SOLID
  5
9F37
330
9668
100
AcDbEntity
  8
2
  6
Continuous
100
AcDbTrace
 10
21285.82216910917
 20
6655.845728131236
 30
0.0
 11
21285.82216910917
 21
6635.845728131235
 31
0.0
 12
21225.82216910917
 22
6645.845728131236
 32
0.0
 13
21225.82216910917
 23
6645.845728131236
 33
0.0
  0
SOLID
  5
9F38
330
9668
100
AcDbEntity
  8
2
  6
Continuous
100
AcDbTrace
 10
23065.82216910917
 20
6655.845728131236
 30
0.0
 11
23065.82216910917
 21
6635.845728131235
 31
0.0
 12
23125.82216910917
 22
6645.845728131236
 32
0.0
 13
23125.82216910917
 23
6645.845728131236
 33
0.0
  0
MTEXT
  5
9F39
330
9668
100
AcDbEntity
  8
2
  6
Continuous
 62
     7
100
AcDbMText
 10
22175.82216910917
 20
6695.845728131236
 30
0.0
 40
60.0
 41
0.0
 71
     5
 72
     1
  1
\A1;1900
  7
JF3
 73
     1
 44
1.0
1001
ACAD
1000
MTEXTBEGIN
1070
    73
1070
     1
1070
    44
1040
1.0
1070
    74
1070
     0
1000
MTEXTEND
  0
POINT
  5
9F3A
330
9668
100
AcDbEntity
  8
DEFPOINTS
  6
Continuous
 62
     0
100
AcDbPoint
 10
21225.82216910917
 20
7986.29391713616
 30
0.0
  0
POINT
  5
9F3B
330
9668
100
AcDbEntity
  8
DEFPOINTS
  6
Continuous
 62
     0
100
AcDbPoint
 10
23125.82216910917
 20
7986.29391713616
 30
0.0
  0
POINT
  5
9F3C
330
9668
100
AcDbEntity
  8
DEFPOINTS
  6
Continuous
 62
     0
100
AcDbPoint
 10
23125.82216910917
 20
6645.845728131236
 30
0.0
  0
ENDBLK
  5
9673
330
9668
100
AcDbEntity
  8
0
100
AcDbBlockEnd
  0
BLOCK
  5
967E
330
9674
100
AcDbEntity
  8
0
100
AcDbBlockBegin
  2
*D11
 70
     1
 10
0.0
 20
0.0
 30
0.0
  3
*D11
  1

  0
LINE
  5
9E97
330
9674
100
AcDbEntity
  8
2
  6
Continuous
370
    -2
100
AcDbLine
 10
21969.21297370687
 20
7202.903112538459
 30
0.0
 11
21969.21297370687
 21
6743.343554996979
 31
0.0
  0
LINE
  5
9E98
330
9674
100
AcDbEntity
  8
2
  6
Continuous
370
    -2
100
AcDbLine
 10
22382.43136451147
 20
7202.903112538461
 30
0.0
 11
22382.43136451147
 21
6743.343554996979
 31
0.0
  0
LINE
  5
9E99
330
9674
100
AcDbEntity
  8
2
  6
Continuous
370
    -2
100
AcDbLine
 10
22009.21297370687
 20
6783.343554996979
 30
0.0
 11
22342.43136451147
 21
6783.343554996979
 31
0.0
  0
SOLID
  5
9E9A
330
9674
100
AcDbEntity
  8
2
  6
Continuous
100
AcDbTrace
 10
22009.21297370687
 20
6790.010221663646
 30
0.0
 11
22009.21297370687
 21
6776.676888330311
 31
0.0
 12
21969.21297370687
 22
6783.343554996979
 32
0.0
 13
21969.21297370687
 23
6783.343554996979
 33
0.0
  0
SOLID
  5
9E9B
330
9674
100
AcDbEntity
  8
2
  6
Continuous
100
AcDbTrace
 10
22342.43136451147
 20
6790.010221663646
 30
0.0
 11
22342.43136451147
 21
6776.676888330311
 31
0.0
 12
22382.43136451147
 22
6783.343554996979
 32
0.0
 13
22382.43136451147
 23
6783.343554996979
 33
0.0
  0
MTEXT
  5
9E9C
330
9674
100
AcDbEntity
  8
2
  6
Continuous
 62
     7
100
AcDbMText
 10
22175.82216910917
 20
6833.343554996979
 30
0.0
 40
60.0
 41
0.0
 71
     5
 72
     1
  1
\A1;413
  7
JF3
 73
     1
 44
1.0
1001
ACAD
1000
MTEXTBEGIN
1070
    73
1070
     1
1070
    44
1040
1.0
1070
    74
1070
     0
1000
MTEXTEND
  0
POINT
  5
9E9D
330
9674
100
AcDbEntity
  8
DEFPOINTS
  6
Continuous
 62
     0
100
AcDbPoint
 10
21969.21297370687
 20
7242.90311253846
 30
0.0
  0
POINT
  5
9E9E
330
9674
100
AcDbEntity
  8
DEFPOINTS
  6
Continuous
 62
     0
100
AcDbPoint
 10
22382.43136451147
 20
7242.90311253846
 30
0.0
  0
POINT
  5
9E9F
330
9674
100
AcDbEntity
  8
DEFPOINTS
  6
Continuous
 62
     0
100
AcDbPoint
 10
22382.43136451147
 20
6783.343554996979
 30
0.0
  0
ENDBLK
  5
967F
330
9674
100
AcDbEntity
  8
0
100
AcDbBlockEnd
  0
BLOCK
  5
97D8
330
97CE
100
AcDbEntity
  8
0
100
AcDbBlockBegin
  2
*D12
 70
     1
 10
0.0
 20
0.0
 30
0.0
  3
*D12
  1

  0
LINE
  5
B449
330
97CE
100
AcDbEntity
  8
2
  6
Continuous
370
    -2
100
AcDbLine
 10
31244.25656675542
 20
9077.372241727315
 30
0.0
 11
31244.25656675542
 21
9720.788770101721
 31
0.0
  0
LINE
  5
B44A
330
97CE
100
AcDbEntity
  8
2
  6
Continuous
370
    -2
100
AcDbLine
 10
32896.13821931106
 20
9058.110645937912
 30
0.0
 11
32896.13821931106
 21
9720.788770101721
 31
0.0
  0
LINE
  5
B44B
330
97CE
100
AcDbEntity
  8
2
  6
Continuous
370
    -2
100
AcDbLine
 10
31304.25656675543
 20
9680.78877010172
 30
0.0
 11
32836.13821931106
 21
9680.78877010172
 31
0.0
  0
SOLID
  5
B44C
330
97CE
100
AcDbEntity
  8
2
  6
Continuous
100
AcDbTrace
 10
31304.25656675543
 20
9690.788770101722
 30
0.0
 11
31304.25656675543
 21
9670.788770101722
 31
0.0
 12
31244.25656675542
 22
9680.78877010172
 32
0.0
 13
31244.25656675542
 23
9680.78877010172
 33
0.0
  0
SOLID
  5
B44D
330
97CE
100
AcDbEntity
  8
2
  6
Continuous
100
AcDbTrace
 10
32836.13821931106
 20
9690.788770101722
 30
0.0
 11
32836.13821931106
 21
9670.788770101722
 31
0.0
 12
32896.13821931106
 22
9680.78877010172
 32
0.0
 13
32896.13821931106
 23
9680.78877010172
 33
0.0
  0
MTEXT
  5
B44E
330
97CE
100
AcDbEntity
  8
2
  6
Continuous
 62
     7
100
AcDbMText
 10
32070.19739303324
 20
9730.788770101721
 30
0.0
 40
60.0
 41
0.0
 71
     5
 72
     1
  1
\A1;413
  7
JF3
 73
     1
 44
1.0
1001
ACAD
1000
MTEXTBEGIN
1070
    73
1070
     1
1070
    44
1040
1.0
1070
    74
1070
     0
1000
MTEXTEND
  0
POINT
  5
B44F
330
97CE
100
AcDbEntity
  8
DEFPOINTS
  6
Continuous
 62
     0
100
AcDbPoint
 10
31244.25656675542
 20
9017.372241727315
 30
0.0
  0
POINT
  5
B450
330
97CE
100
AcDbEntity
  8
DEFPOINTS
  6
Continuous
 62
     0
100
AcDbPoint
 10
32896.13821931106
 20
8998.110645937911
 30
0.0
  0
POINT
  5
B451
330
97CE
100
AcDbEntity
  8
DEFPOINTS
  6
Continuous
 62
     0
100
AcDbPoint
 10
32896.13821931106
 20
9680.78877010172
 30
0.0
  0
ENDBLK
  5
97D9
330
97CE
100
AcDbEntity
  8
0
100
AcDbBlockEnd
  0
BLOCK
  5
BF4C
330
BF4B
100
AcDbEntity
  8
0
100
AcDbBlockBegin
  2
*D13
 70
     1
 10
0.0
 20
0.0
 30
0.0
  3
*D13
  1

  0
LINE
  5
C88C
330
BF4B
100
AcDbEntity
  8
2
  6
Continuous
370
    -2
100
AcDbLine
 10
27574.43494881066
 20
6747.800050025664
 30
0.0
 11
27588.19692819209
 21
6905.099896405485
 31
0.0
  0
LINE
  5
C88D
330
BF4B
100
AcDbEntity
  8
2
  6
Continuous
370
    -2
100
AcDbLine
 10
27455.14248654675
 20
6748.028368999557
 30
0.0
 11
27455.1425133149
 21
6910.909199525268
 31
0.0
  0
ARC
  5
C88E
330
BF4B
100
AcDbEntity
  8
2
  6
Continuous
370
    -2
100
AcDbCircle
 10
27455.14226242585
 20
5384.280986199927
 30
0.0
 40
1486.628213325363
100
AcDbArc
 50
87.31259309424313
 51
87.68738807355685
  0
SOLID
  5
C88F
330
BF4B
100
AcDbEntity
  8
2
  6
Continuous
100
AcDbTrace
 10
27525.5160052356
 20
6879.251718575549
 30
0.0
 11
27524.17530413145
 21
6859.296706158883
 31
0.0
 12
27584.71069193352
 22
6865.25210905475
 32
0.0
 13
27584.71069193352
 23
6865.25210905475
 33
0.0
  0
SOLID
  5
C890
330
BF4B
100
AcDbEntity
  8
2
  6
Continuous
100
AcDbTrace
 10
27514.92848786969
 20
6859.70043239831
 30
0.0
 11
27515.33208903906
 21
6879.696359636025
 31
0.0
 12
27455.14250674122
 22
6870.909199525269
 32
0.0
 13
27455.14250674122
 23
6870.909199525269
 33
0.0
  0
MTEXT
  5
C891
330
BF4B
100
AcDbEntity
  8
2
  6
Continuous
 62
     7
100
AcDbMText
 10
27522.16929599151
 20
6919.446658939806
 30
0.0
 40
60.0
 41
0.0
 71
     5
 72
     1
  1
\A1;5\U+00B0
  7
JF3
 11
0.9990482144133492
 21
-0.0436195515508634
 31
0.0
 73
     1
 44
1.0
1001
ACAD
1000
MTEXTBEGIN
1070
    73
1070
     1
1070
    44
1040
1.0
1070
    74
1070
     0
1000
MTEXTEND
  0
POINT
  5
C892
330
BF4B
100
AcDbEntity
  8
DEFPOINTS
  6
Continuous
 62
     0
100
AcDbPoint
 10
27541.58224944517
 20
6868.394045673181
 30
0.0
  0
POINT
  5
C893
330
BF4B
100
AcDbEntity
  8
DEFPOINTS
  6
Continuous
 62
     0
100
AcDbPoint
 10
27394.12160381942
 20
4686.81298695752
 30
0.0
  0
POINT
  5
C894
330
BF4B
100
AcDbEntity
  8
DEFPOINTS
  6
Continuous
 62
     0
100
AcDbPoint
 10
27455.1421478026
 20
4686.812986957519
 30
0.0
  0
POINT
  5
C895
330
BF4B
100
AcDbEntity
  8
DEFPOINTS
  6
Continuous
 62
     0
100
AcDbPoint
 10
27455.14247668623
 20
6688.028368999559
 30
0.0
  0
POINT
  5
C896
330
BF4B
100
AcDbEntity
  8
DEFPOINTS
  6
Continuous
 62
     0
100
AcDbPoint
 10
27569.2055944228
 20
6688.02836899956
 30
0.0
  0
ENDBLK
  5
BF4D
330
BF4B
100
AcDbEntity
  8
0
100
AcDbBlockEnd
  0
BLOCK
  5
BF5A
330
BF59
100
AcDbEntity
  8
0
100
AcDbBlockBegin
  2
*D14
 70
     1
 10
0.0
 20
0.0
 30
0.0
  3
*D14
  1

  0
LINE
  5
C897
330
BF59
100
AcDbEntity
  8
2
  6
Continuous
370
    -2
100
AcDbLine
 10
27102.85141288112
 20
5977.297013622546
 30
0.0
 11
27124.17793574136
 21
6221.060285351018
 31
0.0
  0
LINE
  5
C898
330
BF59
100
AcDbEntity
  8
2
  6
Continuous
370
    -2
100
AcDbLine
 10
27939.65495966646
 20
5904.086189680538
 30
0.0
 11
27960.98148252669
 21
6147.84946140901
 31
0.0
  0
LINE
  5
C899
330
BF59
100
AcDbEntity
  8
2
  6
Continuous
370
    -2
100
AcDbLine
 10
27180.46338791695
 20
6175.983152862489
 30
0.0
 11
27897.72357093128
 21
6113.231018050199
 31
0.0
  0
MTEXT
  5
C89A
330
BF59
100
AcDbEntity
  8
2
  6
Continuous
 62
     7
100
AcDbMText
 10
27650.87159359037
 20
6194.19018197664
 30
0.0
 40
60.0
 41
0.0
 71
     5
 72
     1
  1
\A1;\U+03C6210
  7
JF3
 11
0.9961946980917447
 21
-0.0871557427476669
 31
0.0
 73
     1
 44
1.0
1001
ACAD
1000
MTEXTBEGIN
1070
    73
1070
     1
1070
    44
1040
1.0
1070
    74
1070
     0
1000
MTEXTEND
  0
SOLID
  5
C89B
330
BF59
100
AcDbEntity
  8
2
  6
Continuous
100
AcDbTrace
 10
27181.33494534443
 20
6185.945099843408
 30
0.0
 11
27179.59183048948
 21
6166.021205881572
 31
0.0
 12
27120.69170603145
 22
6181.212497427349
 32
0.0
 13
27120.69170603145
 23
6181.212497427349
 33
0.0
  0
SOLID
  5
C89C
330
BF59
100
AcDbEntity
  8
2
  6
Continuous
100
AcDbTrace
 10
27898.59512835875
 20
6123.192965031118
 30
0.0
 11
27896.8520135038
 21
6103.269071069282
 31
0.0
 12
27957.49525281678
 22
6108.00167348534
 32
0.0
 13
27957.49525281678
 23
6108.00167348534
 33
0.0
  0
POINT
  5
C89D
330
BF59
100
AcDbEntity
  8
DEFPOINTS
  6
Continuous
 62
     0
100
AcDbPoint
 10
27097.62206831626
 20
5917.525331737042
 30
0.0
  0
POINT
  5
C89E
330
BF59
100
AcDbEntity
  8
DEFPOINTS
  6
Continuous
 62
     0
100
AcDbPoint
 10
27934.42561510159
 20
5844.314507795034
 30
0.0
  0
POINT
  5
C89F
330
BF59
100
AcDbEntity
  8
DEFPOINTS
  6
Continuous
 62
     0
100
AcDbPoint
 10
27957.49525281678
 20
6108.00167348534
 30
0.0
  0
ENDBLK
  5
BF5B
330
BF59
100
AcDbEntity
  8
0
100
AcDbBlockEnd
  0
BLOCK
  5
BF8A
330
BF89
100
AcDbEntity
  8
0
100
AcDbBlockBegin
  2
*D15
 70
     1
 10
0.0
 20
0.0
 30
0.0
  3
*D15
  1

  0
LINE
  5
C844
330
BF89
100
AcDbEntity
  8
2
  6
Continuous
370
    -2
100
AcDbLine
 10
27695.11431213936
 20
3956.855952426413
 30
0.0
 11
27722.30733428939
 21
4111.075096360621
 31
0.0
  0
LINE
  5
C845
330
BF89
100
AcDbEntity
  8
2
  6
Continuous
370
    -2
100
AcDbLine
 10
27455.14248654808
 20
3957.767488957938
 30
0.0
 11
27455.14251558428
 21
4134.449033532735
 31
0.0
  0
ARC
  5
C846
330
BF89
100
AcDbEntity
  8
2
  6
Continuous
370
    -2
100
AcDbCircle
 10
27455.14226273748
 20
2595.908139318084
 30
0.0
 40
1498.540894214672
100
AcDbArc
 50
82.29420654765581
 51
87.70577462014445
  0
SOLID
  5
C847
330
BF89
100
AcDbEntity
  8
2
  6
Continuous
100
AcDbTrace
 10
27657.6151803062
 20
4090.797546841339
 30
0.0
 11
27654.53721617888
 21
4071.035812685884
 31
0.0
 12
27715.36140070891
 22
4071.68278738164
 32
0.0
 13
27715.36140070891
 23
4071.68278738164
 33
0.0
  0
SOLID
  5
C848
330
BF89
100
AcDbEntity
  8
2
  6
Continuous
100
AcDbTrace
 10
27514.93028784851
 20
4083.249859383355
 30
0.0
 11
27515.33068060842
 21
4103.245851122645
 31
0.0
 12
27455.1425090106
 22
4094.449033532735
 32
0.0
 13
27455.1425090106
 23
4094.449033532735
 33
0.0
  0
MTEXT
  5
C849
330
BF89
100
AcDbEntity
  8
2
  6
Continuous
 62
     7
100
AcDbMText
 10
27590.10674806968
 20
4138.556345732685
 30
0.0
 40
60.0
 41
0.0
 71
     5
 72
     1
  1
\A1;10\U+00B0
  7
JF3
 11
0.9961946837683878
 21
-0.0871559064642311
 31
0.0
 73
     1
 44
1.0
1001
ACAD
1000
MTEXTBEGIN
1070
    73
1070
     1
1070
    44
1040
1.0
1070
    74
1070
     0
1000
MTEXTEND
  0
POINT
  5
C84A
330
BF89
100
AcDbEntity
  8
DEFPOINTS
  6
Continuous
 62
     0
100
AcDbPoint
 10
27629.11248669059
 20
4084.316407506422
 30
0.0
  0
POINT
  5
C84B
330
BF89
100
AcDbEntity
  8
DEFPOINTS
  6
Continuous
 62
     0
100
AcDbPoint
 10
27455.14214780394
 20
1896.552106915897
 30
0.0
  0
POINT
  5
C84C
330
BF89
100
AcDbEntity
  8
DEFPOINTS
  6
Continuous
 62
     0
100
AcDbPoint
 10
27331.82680659679
 20
1896.552106915898
 30
0.0
  0
POINT
  5
C84D
330
BF89
100
AcDbEntity
  8
DEFPOINTS
  6
Continuous
 62
     0
100
AcDbPoint
 10
27684.69541176862
 20
3897.767488957942
 30
0.0
  0
POINT
  5
C84E
330
BF89
100
AcDbEntity
  8
DEFPOINTS
  6
Continuous
 62
     0
100
AcDbPoint
 10
27455.14247668757
 20
3897.767488957939
 30
0.0
  0
ENDBLK
  5
BF8B
330
BF89
100
AcDbEntity
  8
0
100
AcDbBlockEnd
  0
BLOCK
  5
BFA4
330
BFA3
100
AcDbEntity
  8
0
100
AcDbBlockBegin
  2
*D16
 70
     1
 10
0.0
 20
0.0
 30
0.0
  3
*D16
  1

  0
LINE
  5
C8A0
330
BFA3
100
AcDbEntity
  8
2
  6
Continuous
370
    -2
100
AcDbLine
 10
26955.02831489549
 20
5930.00066865084
 30
0.0
 11
26555.12108522453
 21
5964.988017708186
 31
0.0
  0
LINE
  5
C8A1
330
BFA3
100
AcDbEntity
  8
2
  6
Continuous
370
    -2
100
AcDbLine
 10
26711.02954658148
 20
6453.257713564276
 30
0.0
 11
26598.69895659727
 21
6463.085366754815
 31
0.0
  0
LINE
  5
C8A2
330
BFA3
100
AcDbEntity
  8
2
  6
Continuous
370
    -2
100
AcDbLine
 10
26600.19821771292
 20
6021.273469883889
 30
0.0
 11
26633.31739995622
 21
6399.827455159482
 31
0.0
  0
SOLID
  5
C8A3
330
BFA3
100
AcDbEntity
  8
2
  6
Continuous
100
AcDbTrace
 10
26590.236270732
 20
6022.145027311342
 30
0.0
 11
26610.16016469385
 21
6020.401912456435
 31
0.0
 12
26594.9688731482
 22
5961.501787998372
 32
0.0
 13
26594.9688731482
 23
5961.501787998372
 33
0.0
  0
SOLID
  5
C8A4
330
BFA3
100
AcDbEntity
  8
2
  6
Continuous
100
AcDbTrace
 10
26623.35545297531
 20
6400.699012586937
 30
0.0
 11
26643.27934693714
 21
6398.955897732029
 31
0.0
 12
26638.54674452095
 22
6459.599137045
 32
0.0
 13
26638.54674452095
 23
6459.599137045
 33
0.0
  0
MTEXT
  5
C8A5
330
BFA3
100
AcDbEntity
  8
2
  6
Continuous
 62
     7
100
AcDbMText
 10
26566.94807392998
 20
6214.908249658957
 30
0.0
 40
60.0
 41
0.0
 71
     5
 72
     1
  1
\A1;125
  7
JF3
 11
0.0871557427453825
 21
0.9961946980919446
 31
0.0
 73
     1
 44
1.0
1001
ACAD
1000
MTEXTBEGIN
1070
    73
1070
     1
1070
    44
1040
1.0
1070
    74
1070
     0
1000
MTEXTEND
  0
POINT
  5
C8A6
330
BFA3
100
AcDbEntity
  8
DEFPOINTS
  6
Continuous
 62
     0
100
AcDbPoint
 10
27014.79999678101
 20
5924.771324086116
 30
0.0
  0
POINT
  5
C8A7
330
BFA3
100
AcDbEntity
  8
DEFPOINTS
  6
Continuous
 62
     0
100
AcDbPoint
 10
26770.801228467
 20
6448.028368999555
 30
0.0
  0
POINT
  5
C8A8
330
BFA3
100
AcDbEntity
  8
DEFPOINTS
  6
Continuous
 62
     0
100
AcDbPoint
 10
26638.54674452095
 20
6459.599137045
 30
0.0
  0
ENDBLK
  5
BFA5
330
BFA3
100
AcDbEntity
  8
0
100
AcDbBlockEnd
  0
BLOCK
  5
BFF0
330
BFEF
100
AcDbEntity
  8
0
100
AcDbBlockBegin
  2
*D17
 70
     1
 10
0.0
 20
0.0
 30
0.0
  3
*D17
  1

  0
LINE
  5
C73E
330
BFEF
100
AcDbEntity
  8
2
  6
Continuous
370
    -2
100
AcDbLine
 10
21225.82216910918
 20
2030.588338021114
 30
0.0
 11
21225.82216910918
 21
2590.213398358145
 31
0.0
  0
LINE
  5
C73F
330
BFEF
100
AcDbEntity
  8
2
  6
Continuous
370
    -2
100
AcDbLine
 10
23125.82216910918
 20
2030.588338021115
 30
0.0
 11
23125.82216910918
 21
2590.213398358145
 31
0.0
  0
LINE
  5
C740
330
BFEF
100
AcDbEntity
  8
2
  6
Continuous
370
    -2
100
AcDbLine
 10
21265.82216910918
 20
2550.213398358145
 30
0.0
 11
23085.82216910918
 21
2550.213398358145
 31
0.0
  0
SOLID
  5
C741
330
BFEF
100
AcDbEntity
  8
2
  6
Continuous
100
AcDbTrace
 10
21265.82216910918
 20
2556.880065024812
 30
0.0
 11
21265.82216910918
 21
2543.546731691479
 31
0.0
 12
21225.82216910918
 22
2550.213398358145
 32
0.0
 13
21225.82216910918
 23
2550.213398358145
 33
0.0
  0
SOLID
  5
C742
330
BFEF
100
AcDbEntity
  8
2
  6
Continuous
100
AcDbTrace
 10
23085.82216910918
 20
2556.880065024812
 30
0.0
 11
23085.82216910918
 21
2543.546731691479
 31
0.0
 12
23125.82216910918
 22
2550.213398358145
 32
0.0
 13
23125.82216910918
 23
2550.213398358145
 33
0.0
  0
MTEXT
  5
C743
330
BFEF
100
AcDbEntity
  8
2
  6
Continuous
 62
     7
100
AcDbMText
 10
22175.82216910917
 20
2600.213398358145
 30
0.0
 40
60.0
 41
0.0
 71
     5
 72
     1
  1
\A1;1900
  7
JF3
 73
     1
 44
1.0
1001
ACAD
1000
MTEXTBEGIN
1070
    73
1070
     1
1070
    44
1040
1.0
1070
    74
1070
     0
1000
MTEXTEND
  0
POINT
  5
C744
330
BFEF
100
AcDbEntity
  8
DEFPOINTS
  6
Continuous
 62
     0
100
AcDbPoint
 10
21225.82216910918
 20
1990.588338021114
 30
0.0
  0
POINT
  5
C745
330
BFEF
100
AcDbEntity
  8
DEFPOINTS
  6
Continuous
 62
     0
100
AcDbPoint
 10
23125.82216910918
 20
1990.588338021115
 30
0.0
  0
POINT
  5
C746
330
BFEF
100
AcDbEntity
  8
DEFPOINTS
  6
Continuous
 62
     0
100
AcDbPoint
 10
23125.82216910918
 20
2550.213398358145
 30
0.0
  0
ENDBLK
  5
BFF1
330
BFEF
100
AcDbEntity
  8
0
100
AcDbBlockEnd
  0
BLOCK
  5
BFFC
330
BFFB
100
AcDbEntity
  8
0
100
AcDbBlockBegin
  2
*D18
 70
     1
 10
0.0
 20
0.0
 30
0.0
  3
*D18
  1

  0
LINE
  5
C747
330
BFFB
100
AcDbEntity
  8
2
  6
Continuous
370
    -2
100
AcDbLine
 10
21875.82216910919
 20
2144.957303538345
 30
0.0
 11
21875.82216910919
 21
2466.027600670348
 31
0.0
  0
LINE
  5
C748
330
BFFB
100
AcDbEntity
  8
2
  6
Continuous
370
    -2
100
AcDbLine
 10
22475.82216910918
 20
2142.657303538357
 30
0.0
 11
22475.82216910918
 21
2466.027600670348
 31
0.0
  0
LINE
  5
C749
330
BFFB
100
AcDbEntity
  8
2
  6
Continuous
370
    -2
100
AcDbLine
 10
21915.82216910919
 20
2426.027600670348
 30
0.0
 11
22435.82216910918
 21
2426.027600670348
 31
0.0
  0
SOLID
  5
C74A
330
BFFB
100
AcDbEntity
  8
2
  6
Continuous
100
AcDbTrace
 10
21915.82216910919
 20
2432.694267337014
 30
0.0
 11
21915.82216910919
 21
2419.360934003682
 31
0.0
 12
21875.82216910919
 22
2426.027600670348
 32
0.0
 13
21875.82216910919
 23
2426.027600670348
 33
0.0
  0
SOLID
  5
C74B
330
BFFB
100
AcDbEntity
  8
2
  6
Continuous
100
AcDbTrace
 10
22435.82216910918
 20
2432.694267337014
 30
0.0
 11
22435.82216910918
 21
2419.360934003682
 31
0.0
 12
22475.82216910918
 22
2426.027600670348
 32
0.0
 13
22475.82216910918
 23
2426.027600670348
 33
0.0
  0
MTEXT
  5
C74C
330
BFFB
100
AcDbEntity
  8
2
  6
Continuous
 62
     7
100
AcDbMText
 10
22175.82216910918
 20
2476.027600670348
 30
0.0
 40
60.0
 41
0.0
 71
     5
 72
     1
  1
\A1;600
  7
JF3
 73
     1
 44
1.0
1001
ACAD
1000
MTEXTBEGIN
1070
    73
1070
     1
1070
    44
1040
1.0
1070
    74
1070
     0
1000
MTEXTEND
  0
POINT
  5
C74D
330
BFFB
100
AcDbEntity
  8
DEFPOINTS
  6
Continuous
 62
     0
100
AcDbPoint
 10
21875.82216910919
 20
2104.957303538345
 30
0.0
  0
POINT
  5
C74E
330
BFFB
100
AcDbEntity
  8
DEFPOINTS
  6
Continuous
 62
     0
100
AcDbPoint
 10
22475.82216910918
 20
2102.657303538357
 30
0.0
  0
POINT
  5
C74F
330
BFFB
100
AcDbEntity
  8
DEFPOINTS
  6
Continuous
 62
     0
100
AcDbPoint
 10
22475.82216910918
 20
2426.027600670348
 30
0.0
  0
ENDBLK
  5
BFFD
330
BFFB
100
AcDbEntity
  8
0
100
AcDbBlockEnd
  0
BLOCK
  5
C038
330
C037
100
AcDbEntity
  8
0
100
AcDbBlockBegin
  2
*D19
 70
     1
 10
0.0
 20
0.0
 30
0.0
  3
*D19
  1

  0
LINE
  5
C750
330
C037
100
AcDbEntity
  8
2
  6
Continuous
370
    -2
100
AcDbLine
 10
21225.82216910918
 20
2030.588338021115
 30
0.0
 11
21225.82216910918
 21
2466.027600670347
 31
0.0
  0
LINE
  5
C751
330
C037
100
AcDbEntity
  8
2
  6
Continuous
370
    -2
100
AcDbLine
 10
21875.82216910919
 20
2144.957303538345
 30
0.0
 11
21875.82216910919
 21
2466.027600670347
 31
0.0
  0
LINE
  5
C752
330
C037
100
AcDbEntity
  8
2
  6
Continuous
370
    -2
100
AcDbLine
 10
21265.82216910918
 20
2426.027600670347
 30
0.0
 11
21835.82216910919
 21
2426.027600670347
 31
0.0
  0
SOLID
  5
C753
330
C037
100
AcDbEntity
  8
2
  6
Continuous
100
AcDbTrace
 10
21265.82216910918
 20
2432.694267337014
 30
0.0
 11
21265.82216910918
 21
2419.360934003681
 31
0.0
 12
21225.82216910918
 22
2426.027600670347
 32
0.0
 13
21225.82216910918
 23
2426.027600670347
 33
0.0
  0
SOLID
  5
C754
330
C037
100
AcDbEntity
  8
2
  6
Continuous
100
AcDbTrace
 10
21835.82216910919
 20
2432.694267337014
 30
0.0
 11
21835.82216910919
 21
2419.360934003681
 31
0.0
 12
21875.82216910919
 22
2426.027600670347
 32
0.0
 13
21875.82216910919
 23
2426.027600670347
 33
0.0
  0
MTEXT
  5
C755
330
C037
100
AcDbEntity
  8
2
  6
Continuous
 62
     7
100
AcDbMText
 10
21550.82216910918
 20
2476.027600670347
 30
0.0
 40
60.0
 41
0.0
 71
     5
 72
     1
  1
\A1;650
  7
JF3
 73
     1
 44
1.0
1001
ACAD
1000
MTEXTBEGIN
1070
    73
1070
     1
1070
    44
1040
1.0
1070
    74
1070
     0
1000
MTEXTEND
  0
POINT
  5
C756
330
C037
100
AcDbEntity
  8
DEFPOINTS
  6
Continuous
 62
     0
100
AcDbPoint
 10
21225.82216910918
 20
1990.588338021115
 30
0.0
  0
POINT
  5
C757
330
C037
100
AcDbEntity
  8
DEFPOINTS
  6
Continuous
 62
     0
100
AcDbPoint
 10
21875.82216910919
 20
2104.957303538345
 30
0.0
  0
POINT
  5
C758
330
C037
100
AcDbEntity
  8
DEFPOINTS
  6
Continuous
 62
     0
100
AcDbPoint
 10
21875.82216910919
 20
2426.027600670347
 30
0.0
  0
ENDBLK
  5
C039
330
C037
100
AcDbEntity
  8
0
100
AcDbBlockEnd
  0
BLOCK
  5
C084
330
C083
100
AcDbEntity
  8
0
100
AcDbBlockBegin
  2
*D20
 70
     1
 10
0.0
 20
0.0
 30
0.0
  3
*D20
  1

  0
LINE
  5
C759
330
C083
100
AcDbEntity
  8
2
  6
Continuous
370
    -2
100
AcDbLine
 10
22515.82216910918
 20
2102.657303538357
 30
0.0
 11
23659.66142122101
 21
2102.657303538357
 31
0.0
  0
LINE
  5
C75A
330
C083
100
AcDbEntity
  8
2
  6
Continuous
370
    -2
100
AcDbLine
 10
23165.82216910918
 20
1702.657303538356
 30
0.0
 11
23659.66142122101
 21
1702.657303538356
 31
0.0
  0
LINE
  5
C75B
330
C083
100
AcDbEntity
  8
2
  6
Continuous
370
    -2
100
AcDbLine
 10
23619.66142122101
 20
2062.657303538357
 30
0.0
 11
23619.66142122101
 21
1742.657303538356
 31
0.0
  0
SOLID
  5
C75C
330
C083
100
AcDbEntity
  8
2
  6
Continuous
100
AcDbTrace
 10
23612.99475455434
 20
2062.657303538357
 30
0.0
 11
23626.32808788768
 21
2062.657303538357
 31
0.0
 12
23619.66142122101
 22
2102.657303538357
 32
0.0
 13
23619.66142122101
 23
2102.657303538357
 33
0.0
  0
SOLID
  5
C75D
330
C083
100
AcDbEntity
  8
2
  6
Continuous
100
AcDbTrace
 10
23612.99475455434
 20
1742.657303538356
 30
0.0
 11
23626.32808788768
 21
1742.657303538356
 31
0.0
 12
23619.66142122101
 22
1702.657303538356
 32
0.0
 13
23619.66142122101
 23
1702.657303538356
 33
0.0
  0
MTEXT
  5
C75E
330
C083
100
AcDbEntity
  8
2
  6
Continuous
 62
     7
100
AcDbMText
 10
23569.66142122101
 20
1902.65730353836
 30
0.0
 40
60.0
 41
0.0
 71
     5
 72
     1
  1
\A1;400
  7
JF3
 11
0.0000000000000001
 21
1.0
 31
0.0
 73
     1
 44
1.0
1001
ACAD
1000
MTEXTBEGIN
1070
    73
1070
     1
1070
    44
1040
1.0
1070
    74
1070
     0
1000
MTEXTEND
  0
POINT
  5
C75F
330
C083
100
AcDbEntity
  8
DEFPOINTS
  6
Continuous
 62
     0
100
AcDbPoint
 10
22475.82216910918
 20
2102.657303538357
 30
0.0
  0
POINT
  5
C760
330
C083
100
AcDbEntity
  8
DEFPOINTS
  6
Continuous
 62
     0
100
AcDbPoint
 10
23125.82216910918
 20
1702.657303538356
 30
0.0
  0
POINT
  5
C761
330
C083
100
AcDbEntity
  8
DEFPOINTS
  6
Continuous
 62
     0
100
AcDbPoint
 10
23619.66142122101
 20
1702.657303538356
 30
0.0
  0
ENDBLK
  5
C085
330
C083
100
AcDbEntity
  8
0
100
AcDbBlockEnd
  0
BLOCK
  5
C090
330
C08F
100
AcDbEntity
  8
0
100
AcDbBlockBegin
  2
*D21
 70
     1
 10
0.0
 20
0.0
 30
0.0
  3
*D21
  1

  0
LINE
  5
C762
330
C08F
100
AcDbEntity
  8
2
  6
Continuous
370
    -2
100
AcDbLine
 10
22515.82216910918
 20
2102.657303538357
 30
0.0
 11
23507.21344552951
 21
2102.657303538357
 31
0.0
  0
LINE
  5
C763
330
C08F
100
AcDbEntity
  8
2
  6
Continuous
370
    -2
100
AcDbLine
 10
23165.82216910918
 20
1990.588338021115
 30
0.0
 11
23507.21344552951
 21
1990.588338021115
 31
0.0
  0
LINE
  5
C764
330
C08F
100
AcDbEntity
  8
2
  6
Continuous
370
    -2
100
AcDbLine
 10
23467.21344552951
 20
2142.657303538357
 30
0.0
 11
23467.21344552951
 21
2182.657303538357
 31
0.0
  0
LINE
  5
C765
330
C08F
100
AcDbEntity
  8
2
  6
Continuous
370
    -2
100
AcDbLine
 10
23467.21344552951
 20
1950.588338021115
 30
0.0
 11
23467.21344552951
 21
1910.588338021115
 31
0.0
  0
MTEXT
  5
C766
330
C08F
100
AcDbEntity
  8
2
  6
Continuous
 62
     7
100
AcDbMText
 10
23403.28361462004
 20
2178.031399818244
 30
0.0
 40
60.0
 41
0.0
 71
     5
 72
     1
  1
\A1;112
  7
JF3
 11
0.0000000000000001
 21
1.0
 31
0.0
 73
     1
 44
1.0
1001
ACAD
1000
MTEXTBEGIN
1070
    73
1070
     1
1070
    44
1040
1.0
1070
    74
1070
     0
1000
MTEXTEND
  0
LINE
  5
C767
330
C08F
100
AcDbEntity
  8
2
  6
Continuous
370
    -2
100
AcDbLine
 10
23467.21344552951
 20
2102.657303538357
 30
0.0
 11
23467.21344552951
 21
1990.588338021115
 31
0.0
  0
SOLID
  5
C768
330
C08F
100
AcDbEntity
  8
2
  6
Continuous
100
AcDbTrace
 10
23460.54677886284
 20
2142.657303538357
 30
0.0
 11
23473.88011219618
 21
2142.657303538357
 31
0.0
 12
23467.21344552951
 22
2102.657303538357
 32
0.0
 13
23467.21344552951
 23
2102.657303538357
 33
0.0
  0
SOLID
  5
C769
330
C08F
100
AcDbEntity
  8
2
  6
Continuous
100
AcDbTrace
 10
23460.54677886284
 20
1950.588338021115
 30
0.0
 11
23473.88011219618
 21
1950.588338021115
 31
0.0
 12
23467.21344552951
 22
1990.588338021115
 32
0.0
 13
23467.21344552951
 23
1990.588338021115
 33
0.0
  0
POINT
  5
C76A
330
C08F
100
AcDbEntity
  8
DEFPOINTS
  6
Continuous
 62
     0
100
AcDbPoint
 10
22475.82216910918
 20
2102.657303538357
 30
0.0
  0
POINT
  5
C76B
330
C08F
100
AcDbEntity
  8
DEFPOINTS
  6
Continuous
 62
     0
100
AcDbPoint
 10
23125.82216910918
 20
1990.588338021115
 30
0.0
  0
POINT
  5
C76C
330
C08F
100
AcDbEntity
  8
DEFPOINTS
  6
Continuous
 62
     0
100
AcDbPoint
 10
23467.21344552951
 20
1990.588338021115
 30
0.0
  0
ENDBLK
  5
C091
330
C08F
100
AcDbEntity
  8
0
100
AcDbBlockEnd
  0
BLOCK
  5
C09E
330
C09D
100
AcDbEntity
  8
0
100
AcDbBlockBegin
  2
*D22
 70
     1
 10
0.0
 20
0.0
 30
0.0
  3
*D22
  1

  0
LINE
  5
C76D
330
C09D
100
AcDbEntity
  8
2
  6
Continuous
370
    -2
100
AcDbLine
 10
22475.82216910918
 20
2142.657303538357
 30
0.0
 11
22475.82216910918
 21
2466.027600670347
 31
0.0
  0
LINE
  5
C76E
330
C09D
100
AcDbEntity
  8
2
  6
Continuous
370
    -2
100
AcDbLine
 10
23125.82216910918
 20
2030.588338021115
 30
0.0
 11
23125.82216910918
 21
2466.027600670347
 31
0.0
  0
LINE
  5
C76F
330
C09D
100
AcDbEntity
  8
2
  6
Continuous
370
    -2
100
AcDbLine
 10
22515.82216910918
 20
2426.027600670347
 30
0.0
 11
23085.82216910918
 21
2426.027600670347
 31
0.0
  0
SOLID
  5
C770
330
C09D
100
AcDbEntity
  8
2
  6
Continuous
100
AcDbTrace
 10
22515.82216910918
 20
2432.694267337014
 30
0.0
 11
22515.82216910918
 21
2419.360934003681
 31
0.0
 12
22475.82216910918
 22
2426.027600670347
 32
0.0
 13
22475.82216910918
 23
2426.027600670347
 33
0.0
  0
SOLID
  5
C771
330
C09D
100
AcDbEntity
  8
2
  6
Continuous
100
AcDbTrace
 10
23085.82216910918
 20
2432.694267337014
 30
0.0
 11
23085.82216910918
 21
2419.360934003681
 31
0.0
 12
23125.82216910918
 22
2426.027600670347
 32
0.0
 13
23125.82216910918
 23
2426.027600670347
 33
0.0
  0
MTEXT
  5
C772
330
C09D
100
AcDbEntity
  8
2
  6
Continuous
 62
     7
100
AcDbMText
 10
22800.82216910917
 20
2476.027600670347
 30
0.0
 40
60.0
 41
0.0
 71
     5
 72
     1
  1
\A1;650
  7
JF3
 73
     1
 44
1.0
1001
ACAD
1000
MTEXTBEGIN
1070
    73
1070
     1
1070
    44
1040
1.0
1070
    74
1070
     0
1000
MTEXTEND
  0
POINT
  5
C773
330
C09D
100
AcDbEntity
  8
DEFPOINTS
  6
Continuous
 62
     0
100
AcDbPoint
 10
22475.82216910918
 20
2102.657303538357
 30
0.0
  0
POINT
  5
C774
330
C09D
100
AcDbEntity
  8
DEFPOINTS
  6
Continuous
 62
     0
100
AcDbPoint
 10
23125.82216910918
 20
1990.588338021115
 30
0.0
  0
POINT
  5
C775
330
C09D
100
AcDbEntity
  8
DEFPOINTS
  6
Continuous
 62
     0
100
AcDbPoint
 10
23125.82216910918
 20
2426.027600670347
 30
0.0
  0
ENDBLK
  5
C09F
330
C09D
100
AcDbEntity
  8
0
100
AcDbBlockEnd
  0
BLOCK
  5
C0AA
330
C0A9
100
AcDbEntity
  8
0
100
AcDbBlockBegin
  2
*D23
 70
     1
 10
0.0
 20
0.0
 30
0.0
  3
*D23
  1

  0
LINE
  5
C776
330
C0A9
100
AcDbEntity
  8
2
  6
Continuous
370
    -2
100
AcDbLine
 10
23165.82216910918
 20
1990.588338021115
 30
0.0
 11
23507.21344552951
 21
1990.588338021115
 31
0.0
  0
LINE
  5
C777
330
C0A9
100
AcDbEntity
  8
2
  6
Continuous
370
    -2
100
AcDbLine
 10
23165.82216910918
 20
1702.657303538356
 30
0.0
 11
23507.21344552951
 21
1702.657303538356
 31
0.0
  0
LINE
  5
C778
330
C0A9
100
AcDbEntity
  8
2
  6
Continuous
370
    -2
100
AcDbLine
 10
23467.21344552951
 20
1950.588338021115
 30
0.0
 11
23467.21344552951
 21
1742.657303538356
 31
0.0
  0
SOLID
  5
C779
330
C0A9
100
AcDbEntity
  8
2
  6
Continuous
100
AcDbTrace
 10
23460.54677886284
 20
1950.588338021115
 30
0.0
 11
23473.88011219618
 21
1950.588338021115
 31
0.0
 12
23467.21344552951
 22
1990.588338021115
 32
0.0
 13
23467.21344552951
 23
1990.588338021115
 33
0.0
  0
SOLID
  5
C77A
330
C0A9
100
AcDbEntity
  8
2
  6
Continuous
100
AcDbTrace
 10
23460.54677886284
 20
1742.657303538356
 30
0.0
 11
23473.88011219618
 21
1742.657303538356
 31
0.0
 12
23467.21344552951
 22
1702.657303538356
 32
0.0
 13
23467.21344552951
 23
1702.657303538356
 33
0.0
  0
MTEXT
  5
C77B
330
C0A9
100
AcDbEntity
  8
2
  6
Continuous
 62
     7
100
AcDbMText
 10
23417.21344552951
 20
1846.622820779739
 30
0.0
 40
60.0
 41
0.0
 71
     5
 72
     1
  1
\A1;288
  7
JF3
 11
0.0000000000000001
 21
1.0
 31
0.0
 73
     1
 44
1.0
1001
ACAD
1000
MTEXTBEGIN
1070
    73
1070
     1
1070
    44
1040
1.0
1070
    74
1070
     0
1000
MTEXTEND
  0
POINT
  5
C77C
330
C0A9
100
AcDbEntity
  8
DEFPOINTS
  6
Continuous
 62
     0
100
AcDbPoint
 10
23125.82216910918
 20
1990.588338021115
 30
0.0
  0
POINT
  5
C77D
330
C0A9
100
AcDbEntity
  8
DEFPOINTS
  6
Continuous
 62
     0
100
AcDbPoint
 10
23125.82216910918
 20
1702.657303538356
 30
0.0
  0
POINT
  5
C77E
330
C0A9
100
AcDbEntity
  8
DEFPOINTS
  6
Continuous
 62
     0
100
AcDbPoint
 10
23467.21344552951
 20
1702.657303538356
 30
0.0
  0
ENDBLK
  5
C0AB
330
C0A9
100
AcDbEntity
  8
0
100
AcDbBlockEnd
  0
BLOCK
  5
C0F4
330
C0F3
100
AcDbEntity
  8
0
100
AcDbBlockBegin
  2
*D24
 70
     1
 10
0.0
 20
0.0
 30
0.0
  3
*D24
  1

  0
LINE
  5
C8A9
330
C0F3
100
AcDbEntity
  8
2
  6
Continuous
370
    -2
100
AcDbLine
 10
26997.97209662902
 20
5837.907428876412
 30
0.0
 11
26547.45137986179
 21
5877.32288427608
 31
0.0
  0
LINE
  5
C8AA
330
C0F3
100
AcDbEntity
  8
2
  6
Continuous
370
    -2
100
AcDbLine
 10
26955.02831489549
 20
5930.00066865084
 30
0.0
 11
26555.12108522339
 21
5964.988017708287
 31
0.0
  0
LINE
  5
C8AB
330
C0F3
100
AcDbEntity
  8
2
  6
Continuous
370
    -2
100
AcDbLine
 10
26582.06982322074
 20
5814.064972680748
 30
0.0
 11
26576.84047865602
 21
5754.293290795232
 31
0.0
  0
LINE
  5
C8AC
330
C0F3
100
AcDbEntity
  8
2
  6
Continuous
370
    -2
100
AcDbLine
 10
26600.19821771179
 20
6021.273469883989
 30
0.0
 11
26605.42756227652
 21
6081.045151769504
 31
0.0
  0
LINE
  5
C8AD
330
C0F3
100
AcDbEntity
  8
2
  6
Continuous
370
    -2
100
AcDbLine
 10
26587.29916778546
 20
5873.836654566265
 30
0.0
 11
26594.96887314707
 21
5961.501787998471
 31
0.0
  0
SOLID
  5
C8AE
330
C0F3
100
AcDbEntity
  8
2
  6
Continuous
100
AcDbTrace
 10
26572.10787623982
 20
5814.936530108202
 30
0.0
 11
26592.03177020166
 21
5813.193415253294
 31
0.0
 12
26587.29916778546
 22
5873.836654566265
 32
0.0
 13
26587.29916778546
 23
5873.836654566265
 33
0.0
  0
SOLID
  5
C8AF
330
C0F3
100
AcDbEntity
  8
2
  6
Continuous
100
AcDbTrace
 10
26590.23627073087
 20
6022.145027311442
 30
0.0
 11
26610.16016469271
 21
6020.401912456534
 31
0.0
 12
26594.96887314707
 22
5961.501787998471
 32
0.0
 13
26594.96887314707
 23
5961.501787998471
 33
0.0
  0
MTEXT
  5
C8B0
330
C0F3
100
AcDbEntity
  8
2
  6
Continuous
 62
     7
100
AcDbMText
 10
26541.32428556167
 20
5922.02700841964
 30
0.0
 40
60.0
 41
0.0
 71
     5
 72
     1
  1
\A1;22
  7
JF3
 11
0.0871557427453825
 21
0.9961946980919446
 31
0.0
 73
     1
 44
1.0
1001
ACAD
1000
MTEXTBEGIN
1070
    73
1070
     1
1070
    44
1040
1.0
1070
    74
1070
     0
1000
MTEXTEND
  0
POINT
  5
C8B1
330
C0F3
100
AcDbEntity
  8
DEFPOINTS
  6
Continuous
 62
     0
100
AcDbPoint
 10
27057.74377851454
 20
5832.678084311687
 30
0.0
  0
POINT
  5
C8B2
330
C0F3
100
AcDbEntity
  8
DEFPOINTS
  6
Continuous
 62
     0
100
AcDbPoint
 10
27014.79999678101
 20
5924.771324086116
 30
0.0
  0
POINT
  5
C8B3
330
C0F3
100
AcDbEntity
  8
DEFPOINTS
  6
Continuous
 62
     0
100
AcDbPoint
 10
26594.96887314707
 20
5961.501787998471
 30
0.0
  0
ENDBLK
  5
C0F5
330
C0F3
100
AcDbEntity
  8
0
100
AcDbBlockEnd
  0
BLOCK
  5
C16E
330
C16D
100
AcDbEntity
  8
0
100
AcDbBlockBegin
  2
*D25
 70
     1
 10
0.0
 20
0.0
 30
0.0
  3
*D25
  1

  0
LINE
  5
C8B4
330
C16D
100
AcDbEntity
  8
2
  6
Continuous
370
    -2
100
AcDbLine
 10
28715.14244381787
 20
6488.028368999557
 30
0.0
 11
29231.61560422324
 21
6488.028368999557
 31
0.0
  0
LINE
  5
C8B5
330
C16D
100
AcDbEntity
  8
2
  6
Continuous
370
    -2
100
AcDbLine
 10
28715.14244381786
 20
4888.028368999556
 30
0.0
 11
29231.61560422324
 21
4888.028368999556
 31
0.0
  0
LINE
  5
C8B6
330
C16D
100
AcDbEntity
  8
2
  6
Continuous
370
    -2
100
AcDbLine
 10
29191.61560422324
 20
6428.028368999555
 30
0.0
 11
29191.61560422324
 21
4948.028368999556
 31
0.0
  0
SOLID
  5
C8B7
330
C16D
100
AcDbEntity
  8
2
  6
Continuous
100
AcDbTrace
 10
29181.61560422323
 20
6428.028368999555
 30
0.0
 11
29201.61560422323
 21
6428.028368999555
 31
0.0
 12
29191.61560422324
 22
6488.028368999557
 32
0.0
 13
29191.61560422324
 23
6488.028368999557
 33
0.0
  0
SOLID
  5
C8B8
330
C16D
100
AcDbEntity
  8
2
  6
Continuous
100
AcDbTrace
 10
29181.61560422323
 20
4948.028368999556
 30
0.0
 11
29201.61560422323
 21
4948.028368999556
 31
0.0
 12
29191.61560422324
 22
4888.028368999556
 32
0.0
 13
29191.61560422324
 23
4888.028368999556
 33
0.0
  0
MTEXT
  5
C8B9
330
C16D
100
AcDbEntity
  8
2
  6
Continuous
 62
     7
100
AcDbMText
 10
29141.61560422323
 20
5688.02836899956
 30
0.0
 40
60.0
 41
0.0
 71
     5
 72
     1
  1
\A1;400
  7
JF3
 11
0.0000000000000001
 21
1.0
 31
0.0
 73
     1
 44
1.0
1001
ACAD
1000
MTEXTBEGIN
1070
    73
1070
     1
1070
    44
1040
1.0
1070
    74
1070
     0
1000
MTEXTEND
  0
POINT
  5
C8BA
330
C16D
100
AcDbEntity
  8
DEFPOINTS
  6
Continuous
 62
     0
100
AcDbPoint
 10
28655.14244381786
 20
6488.028368999557
 30
0.0
  0
POINT
  5
C8BB
330
C16D
100
AcDbEntity
  8
DEFPOINTS
  6
Continuous
 62
     0
100
AcDbPoint
 10
28655.14244381786
 20
4888.028368999556
 30
0.0
  0
POINT
  5
C8BC
330
C16D
100
AcDbEntity
  8
DEFPOINTS
  6
Continuous
 62
     0
100
AcDbPoint
 10
29191.61560422324
 20
4888.028368999556
 30
0.0
  0
ENDBLK
  5
C16F
330
C16D
100
AcDbEntity
  8
0
100
AcDbBlockEnd
  0
BLOCK
  5
C17A
330
C179
100
AcDbEntity
  8
0
100
AcDbBlockBegin
  2
*D26
 70
     1
 10
0.0
 20
0.0
 30
0.0
  3
*D26
  1

  0
LINE
  5
C92E
330
C179
100
AcDbEntity
  8
2
  6
Continuous
370
    -2
100
AcDbLine
 10
31138.24215199101
 20
5847.855439108772
 30
0.0
 11
31138.24215199101
 21
6668.705557015718
 31
0.0
  0
LINE
  5
C92F
330
C179
100
AcDbEntity
  8
2
  6
Continuous
370
    -2
100
AcDbLine
 10
33001.663355991
 20
5847.855439108772
 30
0.0
 11
33001.663355991
 21
6668.705557015718
 31
0.0
  0
LINE
  5
C930
330
C179
100
AcDbEntity
  8
2
  6
Continuous
370
    -2
100
AcDbLine
 10
31198.24215199101
 20
6628.705557015718
 30
0.0
 11
32941.663355991
 21
6628.705557015718
 31
0.0
  0
SOLID
  5
C931
330
C179
100
AcDbEntity
  8
2
  6
Continuous
100
AcDbTrace
 10
31198.24215199101
 20
6638.705557015718
 30
0.0
 11
31198.24215199101
 21
6618.705557015719
 31
0.0
 12
31138.24215199101
 22
6628.705557015718
 32
0.0
 13
31138.24215199101
 23
6628.705557015718
 33
0.0
  0
SOLID
  5
C932
330
C179
100
AcDbEntity
  8
2
  6
Continuous
100
AcDbTrace
 10
32941.663355991
 20
6638.705557015718
 30
0.0
 11
32941.663355991
 21
6618.705557015719
 31
0.0
 12
33001.663355991
 22
6628.705557015718
 32
0.0
 13
33001.663355991
 23
6628.705557015718
 33
0.0
  0
MTEXT
  5
C933
330
C179
100
AcDbEntity
  8
2
  6
Continuous
 62
     7
100
AcDbMText
 10
32069.952753991
 20
6678.705557015717
 30
0.0
 40
60.0
 41
0.0
 71
     5
 72
     1
  1
\A1;932
  7
JF3
 73
     1
 44
1.0
1001
ACAD
1000
MTEXTBEGIN
1070
    73
1070
     1
1070
    44
1040
1.0
1070
    74
1070
     0
1000
MTEXTEND
  0
POINT
  5
C934
330
C179
100
AcDbEntity
  8
DEFPOINTS
  6
Continuous
 62
     0
100
AcDbPoint
 10
31138.24215199101
 20
5787.855439108771
 30
0.0
  0
POINT
  5
C935
330
C179
100
AcDbEntity
  8
DEFPOINTS
  6
Continuous
 62
     0
100
AcDbPoint
 10
33001.663355991
 20
5787.855439108771
 30
0.0
  0
POINT
  5
C936
330
C179
100
AcDbEntity
  8
DEFPOINTS
  6
Continuous
 62
     0
100
AcDbPoint
 10
33001.663355991
 20
6628.705557015718
 30
0.0
  0
ENDBLK
  5
C17B
330
C179
100
AcDbEntity
  8
0
100
AcDbBlockEnd
  0
BLOCK
  5
C186
330
C185
100
AcDbEntity
  8
0
100
AcDbBlockBegin
  2
*D27
 70
     1
 10
0.0
 20
0.0
 30
0.0
  3
*D27
  1

  0
LINE
  5
C937
330
C185
100
AcDbEntity
  8
2
  6
Continuous
370
    -2
100
AcDbLine
 10
32629.952753991
 20
6227.855439108772
 30
0.0
 11
33503.93534300251
 21
6227.855439108772
 31
0.0
  0
LINE
  5
C938
330
C185
100
AcDbEntity
  8
2
  6
Continuous
370
    -2
100
AcDbLine
 10
33096.60453246157
 20
5427.855439108771
 30
0.0
 11
33503.93534300251
 21
5427.855439108771
 31
0.0
  0
LINE
  5
C939
330
C185
100
AcDbEntity
  8
2
  6
Continuous
370
    -2
100
AcDbLine
 10
33463.93534300251
 20
6167.855439108772
 30
0.0
 11
33463.93534300251
 21
5487.855439108772
 31
0.0
  0
SOLID
  5
C93A
330
C185
100
AcDbEntity
  8
2
  6
Continuous
100
AcDbTrace
 10
33453.93534300252
 20
6167.855439108772
 30
0.0
 11
33473.93534300251
 21
6167.855439108772
 31
0.0
 12
33463.93534300251
 22
6227.855439108772
 32
0.0
 13
33463.93534300251
 23
6227.855439108772
 33
0.0
  0
SOLID
  5
C93B
330
C185
100
AcDbEntity
  8
2
  6
Continuous
100
AcDbTrace
 10
33453.93534300252
 20
5487.855439108772
 30
0.0
 11
33473.93534300251
 21
5487.855439108772
 31
0.0
 12
33463.93534300251
 22
5427.855439108771
 32
0.0
 13
33463.93534300251
 23
5427.855439108771
 33
0.0
  0
MTEXT
  5
C93C
330
C185
100
AcDbEntity
  8
2
  6
Continuous
 62
     7
100
AcDbMText
 10
33413.93534300252
 20
5827.855439108777
 30
0.0
 40
60.0
 41
0.0
 71
     5
 72
     1
  1
\A1;400
  7
JF3
 11
0.0000000000000001
 21
1.0
 31
0.0
 73
     1
 44
1.0
1001
ACAD
1000
MTEXTBEGIN
1070
    73
1070
     1
1070
    44
1040
1.0
1070
    74
1070
     0
1000
MTEXTEND
  0
POINT
  5
C93D
330
C185
100
AcDbEntity
  8
DEFPOINTS
  6
Continuous
 62
     0
100
AcDbPoint
 10
32569.95275399101
 20
6227.855439108772
 30
0.0
  0
POINT
  5
C93E
330
C185
100
AcDbEntity
  8
DEFPOINTS
  6
Continuous
 62
     0
100
AcDbPoint
 10
33036.60453246157
 20
5427.855439108771
 30
0.0
  0
POINT
  5
C93F
330
C185
100
AcDbEntity
  8
DEFPOINTS
  6
Continuous
 62
     0
100
AcDbPoint
 10
33463.93534300251
 20
5427.855439108771
 30
0.0
  0
ENDBLK
  5
C187
330
C185
100
AcDbEntity
  8
0
100
AcDbBlockEnd
  0
BLOCK
  5
C192
330
C191
100
AcDbEntity
  8
0
100
AcDbBlockBegin
  2
*D28
 70
     1
 10
0.0
 20
0.0
 30
0.0
  3
*D28
  1

  0
LINE
  5
C940
330
C191
100
AcDbEntity
  8
2
  6
Continuous
370
    -2
100
AcDbLine
 10
32629.952753991
 20
6227.855439108768
 30
0.0
 11
33353.06000331609
 21
6227.855439108768
 31
0.0
  0
LINE
  5
C941
330
C191
100
AcDbEntity
  8
2
  6
Continuous
370
    -2
100
AcDbLine
 10
33061.663355991
 20
5787.855439108771
 30
0.0
 11
33353.06000331609
 21
5787.855439108771
 31
0.0
  0
LINE
  5
C942
330
C191
100
AcDbEntity
  8
2
  6
Continuous
370
    -2
100
AcDbLine
 10
33313.06000331609
 20
6167.855439108769
 30
0.0
 11
33313.06000331609
 21
5847.855439108772
 31
0.0
  0
SOLID
  5
C943
330
C191
100
AcDbEntity
  8
2
  6
Continuous
100
AcDbTrace
 10
33303.06000331609
 20
6167.855439108769
 30
0.0
 11
33323.06000331609
 21
6167.855439108769
 31
0.0
 12
33313.06000331609
 22
6227.855439108768
 32
0.0
 13
33313.06000331609
 23
6227.855439108768
 33
0.0
  0
SOLID
  5
C944
330
C191
100
AcDbEntity
  8
2
  6
Continuous
100
AcDbTrace
 10
33303.06000331609
 20
5847.855439108772
 30
0.0
 11
33323.06000331609
 21
5847.855439108772
 31
0.0
 12
33313.06000331609
 22
5787.855439108771
 32
0.0
 13
33313.06000331609
 23
5787.855439108771
 33
0.0
  0
MTEXT
  5
C945
330
C191
100
AcDbEntity
  8
2
  6
Continuous
 62
     7
100
AcDbMText
 10
33263.06000331609
 20
6007.855439108776
 30
0.0
 40
60.0
 41
0.0
 71
     5
 72
     1
  1
\A1;220
  7
JF3
 11
0.0000000000000001
 21
1.0
 31
0.0
 73
     1
 44
1.0
1001
ACAD
1000
MTEXTBEGIN
1070
    73
1070
     1
1070
    44
1040
1.0
1070
    74
1070
     0
1000
MTEXTEND
  0
POINT
  5
C946
330
C191
100
AcDbEntity
  8
DEFPOINTS
  6
Continuous
 62
     0
100
AcDbPoint
 10
32569.95275399101
 20
6227.855439108768
 30
0.0
  0
POINT
  5
C947
330
C191
100
AcDbEntity
  8
DEFPOINTS
  6
Continuous
 62
     0
100
AcDbPoint
 10
33001.663355991
 20
5787.855439108771
 30
0.0
  0
POINT
  5
C948
330
C191
100
AcDbEntity
  8
DEFPOINTS
  6
Continuous
 62
     0
100
AcDbPoint
 10
33313.06000331609
 20
5787.855439108771
 30
0.0
  0
ENDBLK
  5
C193
330
C191
100
AcDbEntity
  8
0
100
AcDbBlockEnd
  0
BLOCK
  5
C1AA
330
C1A9
100
AcDbEntity
  8
0
100
AcDbBlockBegin
  2
*D29
 70
     1
 10
0.0
 20
0.0
 30
0.0
  3
*D29
  1

  0
LINE
  5
C84F
330
C1A9
100
AcDbEntity
  8
2
  6
Continuous
370
    -2
100
AcDbLine
 10
28715.1424438192
 20
3697.767488957937
 30
0.0
 11
29231.61560422458
 21
3697.767488957937
 31
0.0
  0
LINE
  5
C850
330
C1A9
100
AcDbEntity
  8
2
  6
Continuous
370
    -2
100
AcDbLine
 10
28715.1424438192
 20
2097.767488957936
 30
0.0
 11
29231.61560422458
 21
2097.767488957936
 31
0.0
  0
LINE
  5
C851
330
C1A9
100
AcDbEntity
  8
2
  6
Continuous
370
    -2
100
AcDbLine
 10
29191.61560422458
 20
3637.767488957937
 30
0.0
 11
29191.61560422458
 21
2157.767488957937
 31
0.0
  0
SOLID
  5
C852
330
C1A9
100
AcDbEntity
  8
2
  6
Continuous
100
AcDbTrace
 10
29181.61560422458
 20
3637.767488957937
 30
0.0
 11
29201.61560422458
 21
3637.767488957937
 31
0.0
 12
29191.61560422458
 22
3697.767488957937
 32
0.0
 13
29191.61560422458
 23
3697.767488957937
 33
0.0
  0
SOLID
  5
C853
330
C1A9
100
AcDbEntity
  8
2
  6
Continuous
100
AcDbTrace
 10
29181.61560422458
 20
2157.767488957937
 30
0.0
 11
29201.61560422458
 21
2157.767488957937
 31
0.0
 12
29191.61560422458
 22
2097.767488957936
 32
0.0
 13
29191.61560422458
 23
2097.767488957936
 33
0.0
  0
MTEXT
  5
C854
330
C1A9
100
AcDbEntity
  8
2
  6
Continuous
 62
     7
100
AcDbMText
 10
29141.61560422458
 20
2897.767488957941
 30
0.0
 40
60.0
 41
0.0
 71
     5
 72
     1
  1
\A1;400
  7
JF3
 11
0.0000000000000001
 21
1.0
 31
0.0
 73
     1
 44
1.0
1001
ACAD
1000
MTEXTBEGIN
1070
    73
1070
     1
1070
    44
1040
1.0
1070
    74
1070
     0
1000
MTEXTEND
  0
POINT
  5
C855
330
C1A9
100
AcDbEntity
  8
DEFPOINTS
  6
Continuous
 62
     0
100
AcDbPoint
 10
28655.14244381921
 20
3697.767488957937
 30
0.0
  0
POINT
  5
C856
330
C1A9
100
AcDbEntity
  8
DEFPOINTS
  6
Continuous
 62
     0
100
AcDbPoint
 10
28655.14244381921
 20
2097.767488957936
 30
0.0
  0
POINT
  5
C857
330
C1A9
100
AcDbEntity
  8
DEFPOINTS
  6
Continuous
 62
     0
100
AcDbPoint
 10
29191.61560422458
 20
2097.767488957936
 30
0.0
  0
ENDBLK
  5
C1AB
330
C1A9
100
AcDbEntity
  8
0
100
AcDbBlockEnd
  0
BLOCK
  5
C25A
330
C259
100
AcDbEntity
  8
0
100
AcDbBlockBegin
  2
*D30
 70
     1
 10
0.0
 20
0.0
 30
0.0
  3
*D30
  1

  0
LINE
  5
C949
330
C259
100
AcDbEntity
  8
2
  6
Continuous
370
    -2
100
AcDbLine
 10
33061.663355991
 20
5787.855439108771
 30
0.0
 11
33353.06000331609
 21
5787.855439108771
 31
0.0
  0
LINE
  5
C94A
330
C259
100
AcDbEntity
  8
2
  6
Continuous
370
    -2
100
AcDbLine
 10
33096.60453246157
 20
5427.855439108771
 30
0.0
 11
33353.06000331609
 21
5427.855439108771
 31
0.0
  0
LINE
  5
C94B
330
C259
100
AcDbEntity
  8
2
  6
Continuous
370
    -2
100
AcDbLine
 10
33313.06000331609
 20
5727.855439108772
 30
0.0
 11
33313.06000331609
 21
5487.855439108772
 31
0.0
  0
SOLID
  5
C94C
330
C259
100
AcDbEntity
  8
2
  6
Continuous
100
AcDbTrace
 10
33303.06000331609
 20
5727.855439108772
 30
0.0
 11
33323.06000331609
 21
5727.855439108772
 31
0.0
 12
33313.06000331609
 22
5787.855439108771
 32
0.0
 13
33313.06000331609
 23
5787.855439108771
 33
0.0
  0
SOLID
  5
C94D
330
C259
100
AcDbEntity
  8
2
  6
Continuous
100
AcDbTrace
 10
33303.06000331609
 20
5487.855439108772
 30
0.0
 11
33323.06000331609
 21
5487.855439108772
 31
0.0
 12
33313.06000331609
 22
5427.855439108771
 32
0.0
 13
33313.06000331609
 23
5427.855439108771
 33
0.0
  0
MTEXT
  5
C94E
330
C259
100
AcDbEntity
  8
2
  6
Continuous
 62
     7
100
AcDbMText
 10
33263.06000331609
 20
5607.855439108778
 30
0.0
 40
60.0
 41
0.0
 71
     5
 72
     1
  1
\A1;180
  7
JF3
 11
0.0000000000000001
 21
1.0
 31
0.0
 73
     1
 44
1.0
1001
ACAD
1000
MTEXTBEGIN
1070
    73
1070
     1
1070
    44
1040
1.0
1070
    74
1070
     0
1000
MTEXTEND
  0
POINT
  5
C94F
330
C259
100
AcDbEntity
  8
DEFPOINTS
  6
Continuous
 62
     0
100
AcDbPoint
 10
33001.663355991
 20
5787.855439108771
 30
0.0
  0
POINT
  5
C950
330
C259
100
AcDbEntity
  8
DEFPOINTS
  6
Continuous
 62
     0
100
AcDbPoint
 10
33036.60453246157
 20
5427.855439108771
 30
0.0
  0
POINT
  5
C951
330
C259
100
AcDbEntity
  8
DEFPOINTS
  6
Continuous
 62
     0
100
AcDbPoint
 10
33313.06000331609
 20
5427.855439108771
 30
0.0
  0
ENDBLK
  5
C25B
330
C259
100
AcDbEntity
  8
0
100
AcDbBlockEnd
  0
BLOCK
  5
C266
330
C265
100
AcDbEntity
  8
0
100
AcDbBlockBegin
  2
*D31
 70
     1
 10
0.0
 20
0.0
 30
0.0
  3
*D31
  1

  0
LINE
  5
C952
330
C265
100
AcDbEntity
  8
2
  6
Continuous
370
    -2
100
AcDbLine
 10
31469.95275399101
 20
6187.855439108846
 30
0.0
 11
31469.95275399101
 21
6509.274725196465
 31
0.0
  0
LINE
  5
C953
330
C265
100
AcDbEntity
  8
2
  6
Continuous
370
    -2
100
AcDbLine
 10
32669.952753991
 20
6187.855439108768
 30
0.0
 11
32669.952753991
 21
6509.274725196465
 31
0.0
  0
LINE
  5
C954
330
C265
100
AcDbEntity
  8
2
  6
Continuous
370
    -2
100
AcDbLine
 10
31529.95275399101
 20
6469.274725196466
 30
0.0
 11
32609.95275399101
 21
6469.274725196466
 31
0.0
  0
SOLID
  5
C955
330
C265
100
AcDbEntity
  8
2
  6
Continuous
100
AcDbTrace
 10
31529.95275399101
 20
6479.274725196465
 30
0.0
 11
31529.95275399101
 21
6459.274725196465
 31
0.0
 12
31469.95275399101
 22
6469.274725196466
 32
0.0
 13
31469.95275399101
 23
6469.274725196466
 33
0.0
  0
SOLID
  5
C956
330
C265
100
AcDbEntity
  8
2
  6
Continuous
100
AcDbTrace
 10
32609.95275399101
 20
6479.274725196465
 30
0.0
 11
32609.95275399101
 21
6459.274725196465
 31
0.0
 12
32669.952753991
 22
6469.274725196466
 32
0.0
 13
32669.952753991
 23
6469.274725196466
 33
0.0
  0
MTEXT
  5
C957
330
C265
100
AcDbEntity
  8
2
  6
Continuous
 62
     7
100
AcDbMText
 10
32069.952753991
 20
6519.274725196466
 30
0.0
 40
60.0
 41
0.0
 71
     5
 72
     1
  1
\A1;600
  7
JF3
 73
     1
 44
1.0
1001
ACAD
1000
MTEXTBEGIN
1070
    73
1070
     1
1070
    44
1040
1.0
1070
    74
1070
     0
1000
MTEXTEND
  0
POINT
  5
C958
330
C265
100
AcDbEntity
  8
DEFPOINTS
  6
Continuous
 62
     0
100
AcDbPoint
 10
31469.95275399101
 20
6127.855439108846
 30
0.0
  0
POINT
  5
C959
330
C265
100
AcDbEntity
  8
DEFPOINTS
  6
Continuous
 62
     0
100
AcDbPoint
 10
32669.952753991
 20
6127.855439108768
 30
0.0
  0
POINT
  5
C95A
330
C265
100
AcDbEntity
  8
DEFPOINTS
  6
Continuous
 62
     0
100
AcDbPoint
 10
32669.952753991
 20
6469.274725196466
 30
0.0
  0
ENDBLK
  5
C267
330
C265
100
AcDbEntity
  8
0
100
AcDbBlockEnd
  0
BLOCK
  5
C296
330
C295
100
AcDbEntity
  8
0
100
AcDbBlockBegin
  2
*D32
 70
     1
 10
0.0
 20
0.0
 30
0.0
  3
*D32
  1

  0
LINE
  5
C8D0
330
C295
100
AcDbEntity
  8
2
  6
Continuous
370
    -2
100
AcDbLine
 10
28018.28086589924
 20
8615.126360820539
 30
0.0
 11
29086.24095950019
 21
8615.126360820537
 31
0.0
  0
LINE
  5
C8D1
330
C295
100
AcDbEntity
  8
2
  6
Continuous
370
    -2
100
AcDbLine
 10
27967.47404223007
 20
8527.126360820544
 30
0.0
 11
29086.24095950019
 21
8527.126360820542
 31
0.0
  0
LINE
  5
C8D2
330
C295
100
AcDbEntity
  8
2
  6
Continuous
370
    -2
100
AcDbLine
 10
29046.24095950019
 20
8675.126360820538
 30
0.0
 11
29046.24095950019
 21
8735.126360820537
 31
0.0
  0
LINE
  5
C8D3
330
C295
100
AcDbEntity
  8
2
  6
Continuous
370
    -2
100
AcDbLine
 10
29046.24095950019
 20
8467.126360820541
 30
0.0
 11
29046.24095950019
 21
8407.126360820541
 31
0.0
  0
LINE
  5
C8D4
330
C295
100
AcDbEntity
  8
2
  6
Continuous
370
    -2
100
AcDbLine
 10
29046.24095950019
 20
8615.126360820537
 30
0.0
 11
29046.24095950019
 21
8527.126360820542
 31
0.0
  0
SOLID
  5
C8D5
330
C295
100
AcDbEntity
  8
2
  6
Continuous
100
AcDbTrace
 10
29036.24095950019
 20
8675.126360820538
 30
0.0
 11
29056.24095950019
 21
8675.126360820538
 31
0.0
 12
29046.24095950019
 22
8615.126360820537
 32
0.0
 13
29046.24095950019
 23
8615.126360820537
 33
0.0
  0
SOLID
  5
C8D6
330
C295
100
AcDbEntity
  8
2
  6
Continuous
100
AcDbTrace
 10
29036.24095950019
 20
8467.126360820541
 30
0.0
 11
29056.24095950019
 21
8467.126360820541
 31
0.0
 12
29046.24095950019
 22
8527.126360820542
 32
0.0
 13
29046.24095950019
 23
8527.126360820542
 33
0.0
  0
MTEXT
  5
C8D7
330
C295
100
AcDbEntity
  8
2
  6
Continuous
 62
     7
100
AcDbMText
 10
28996.24095950019
 20
8571.126360820544
 30
0.0
 40
60.0
 41
0.0
 71
     5
 72
     1
  1
\A1;22
  7
JF3
 11
0.0000000000000001
 21
1.0
 31
0.0
 73
     1
 44
1.0
1001
ACAD
1000
MTEXTBEGIN
1070
    73
1070
     1
1070
    44
1040
1.0
1070
    74
1070
     0
1000
MTEXTEND
  0
POINT
  5
C8D8
330
C295
100
AcDbEntity
  8
DEFPOINTS
  6
Continuous
 62
     0
100
AcDbPoint
 10
27958.28086589924
 20
8615.126360820539
 30
0.0
  0
POINT
  5
C8D9
330
C295
100
AcDbEntity
  8
DEFPOINTS
  6
Continuous
 62
     0
100
AcDbPoint
 10
27907.47404223008
 20
8527.126360820544
 30
0.0
  0
POINT
  5
C8DA
330
C295
100
AcDbEntity
  8
DEFPOINTS
  6
Continuous
 62
     0
100
AcDbPoint
 10
29046.24095950019
 20
8527.126360820542
 30
0.0
  0
ENDBLK
  5
C297
330
C295
100
AcDbEntity
  8
0
100
AcDbBlockEnd
  0
BLOCK
  5
C2A4
330
C2A3
100
AcDbEntity
  8
0
100
AcDbBlockBegin
  2
*D33
 70
     1
 10
0.0
 20
0.0
 30
0.0
  3
*D33
  1

  0
LINE
  5
C8DB
330
C2A3
100
AcDbEntity
  8
2
  6
Continuous
370
    -2
100
AcDbLine
 10
28306.95600038311
 20
9115.126360820537
 30
0.0
 11
29086.24095950019
 21
9115.126360820536
 31
0.0
  0
LINE
  5
C8DC
330
C2A3
100
AcDbEntity
  8
2
  6
Continuous
370
    -2
100
AcDbLine
 10
28018.28086589924
 20
8615.126360820539
 30
0.0
 11
29086.24095950019
 21
8615.126360820537
 31
0.0
  0
LINE
  5
C8DD
330
C2A3
100
AcDbEntity
  8
2
  6
Continuous
370
    -2
100
AcDbLine
 10
29046.24095950019
 20
9055.126360820535
 30
0.0
 11
29046.24095950019
 21
8675.126360820538
 31
0.0
  0
SOLID
  5
C8DE
330
C2A3
100
AcDbEntity
  8
2
  6
Continuous
100
AcDbTrace
 10
29036.24095950019
 20
9055.126360820535
 30
0.0
 11
29056.24095950019
 21
9055.126360820535
 31
0.0
 12
29046.24095950019
 22
9115.126360820536
 32
0.0
 13
29046.24095950019
 23
9115.126360820536
 33
0.0
  0
SOLID
  5
C8DF
330
C2A3
100
AcDbEntity
  8
2
  6
Continuous
100
AcDbTrace
 10
29036.24095950019
 20
8675.126360820538
 30
0.0
 11
29056.24095950019
 21
8675.126360820538
 31
0.0
 12
29046.24095950019
 22
8615.126360820537
 32
0.0
 13
29046.24095950019
 23
8615.126360820537
 33
0.0
  0
MTEXT
  5
C8E0
330
C2A3
100
AcDbEntity
  8
2
  6
Continuous
 62
     7
100
AcDbMText
 10
28996.24095950019
 20
8865.126360820543
 30
0.0
 40
60.0
 41
0.0
 71
     5
 72
     1
  1
\A1;125
  7
JF3
 11
0.0000000000000001
 21
1.0
 31
0.0
 73
     1
 44
1.0
1001
ACAD
1000
MTEXTBEGIN
1070
    73
1070
     1
1070
    44
1040
1.0
1070
    74
1070
     0
1000
MTEXTEND
  0
POINT
  5
C8E1
330
C2A3
100
AcDbEntity
  8
DEFPOINTS
  6
Continuous
 62
     0
100
AcDbPoint
 10
28246.95600038312
 20
9115.126360820537
 30
0.0
  0
POINT
  5
C8E2
330
C2A3
100
AcDbEntity
  8
DEFPOINTS
  6
Continuous
 62
     0
100
AcDbPoint
 10
27958.28086589924
 20
8615.126360820539
 30
0.0
  0
POINT
  5
C8E3
330
C2A3
100
AcDbEntity
  8
DEFPOINTS
  6
Continuous
 62
     0
100
AcDbPoint
 10
29046.24095950019
 20
8615.126360820537
 30
0.0
  0
ENDBLK
  5
C2A5
330
C2A3
100
AcDbEntity
  8
0
100
AcDbBlockEnd
  0
BLOCK
  5
C2B0
330
C2AF
100
AcDbEntity
  8
0
100
AcDbBlockBegin
  2
*D34
 70
     1
 10
0.0
 20
0.0
 30
0.0
  3
*D34
  1

  0
LINE
  5
C8E4
330
C2AF
100
AcDbEntity
  8
2
  6
Continuous
370
    -2
100
AcDbLine
 10
28715.1424438192
 20
9215.126360820544
 30
0.0
 11
29086.24095950019
 21
9215.126360820544
 31
0.0
  0
LINE
  5
C8E5
330
C2AF
100
AcDbEntity
  8
2
  6
Continuous
370
    -2
100
AcDbLine
 10
28306.95600038311
 20
9115.126360820537
 30
0.0
 11
29086.24095950019
 21
9115.126360820536
 31
0.0
  0
LINE
  5
C8E6
330
C2AF
100
AcDbEntity
  8
2
  6
Continuous
370
    -2
100
AcDbLine
 10
29046.24095950019
 20
9275.126360820545
 30
0.0
 11
29046.24095950019
 21
9335.126360820543
 31
0.0
  0
LINE
  5
C8E7
330
C2AF
100
AcDbEntity
  8
2
  6
Continuous
370
    -2
100
AcDbLine
 10
29046.24095950019
 20
9055.126360820535
 30
0.0
 11
29046.24095950019
 21
8995.126360820535
 31
0.0
  0
LINE
  5
C8E8
330
C2AF
100
AcDbEntity
  8
2
  6
Continuous
370
    -2
100
AcDbLine
 10
29046.24095950019
 20
9215.126360820544
 30
0.0
 11
29046.24095950019
 21
9115.126360820536
 31
0.0
  0
SOLID
  5
C8E9
330
C2AF
100
AcDbEntity
  8
2
  6
Continuous
100
AcDbTrace
 10
29036.24095950019
 20
9275.126360820545
 30
0.0
 11
29056.24095950019
 21
9275.126360820545
 31
0.0
 12
29046.24095950019
 22
9215.126360820544
 32
0.0
 13
29046.24095950019
 23
9215.126360820544
 33
0.0
  0
SOLID
  5
C8EA
330
C2AF
100
AcDbEntity
  8
2
  6
Continuous
100
AcDbTrace
 10
29036.24095950019
 20
9055.126360820535
 30
0.0
 11
29056.24095950019
 21
9055.126360820535
 31
0.0
 12
29046.24095950019
 22
9115.126360820536
 32
0.0
 13
29046.24095950019
 23
9115.126360820536
 33
0.0
  0
MTEXT
  5
C8EB
330
C2AF
100
AcDbEntity
  8
2
  6
Continuous
 62
     7
100
AcDbMText
 10
28996.24095950019
 20
9165.126360820547
 30
0.0
 40
60.0
 41
0.0
 71
     5
 72
     1
  1
\A1;25
  7
JF3
 11
0.0000000000000001
 21
1.0
 31
0.0
 73
     1
 44
1.0
1001
ACAD
1000
MTEXTBEGIN
1070
    73
1070
     1
1070
    44
1040
1.0
1070
    74
1070
     0
1000
MTEXTEND
  0
POINT
  5
C8EC
330
C2AF
100
AcDbEntity
  8
DEFPOINTS
  6
Continuous
 62
     0
100
AcDbPoint
 10
28655.1424438192
 20
9215.126360820546
 30
0.0
  0
POINT
  5
C8ED
330
C2AF
100
AcDbEntity
  8
DEFPOINTS
  6
Continuous
 62
     0
100
AcDbPoint
 10
28246.95600038312
 20
9115.126360820537
 30
0.0
  0
POINT
  5
C8EE
330
C2AF
100
AcDbEntity
  8
DEFPOINTS
  6
Continuous
 62
     0
100
AcDbPoint
 10
29046.24095950019
 20
9115.126360820536
 30
0.0
  0
ENDBLK
  5
C2B1
330
C2AF
100
AcDbEntity
  8
0
100
AcDbBlockEnd
  0
BLOCK
  5
C2BE
330
C2BD
100
AcDbEntity
  8
0
100
AcDbBlockBegin
  2
*D35
 70
     1
 10
0.0
 20
0.0
 30
0.0
  3
*D35
  1

  0
LINE
  5
C8EF
330
C2BD
100
AcDbEntity
  8
2
  6
Continuous
370
    -2
100
AcDbLine
 10
28715.1424438192
 20
9215.126360820544
 30
0.0
 11
29231.61560422458
 21
9215.126360820544
 31
0.0
  0
LINE
  5
C8F0
330
C2BD
100
AcDbEntity
  8
2
  6
Continuous
370
    -2
100
AcDbLine
 10
28715.1424438192
 20
7615.126360820545
 30
0.0
 11
29231.61560422457
 21
7615.126360820545
 31
0.0
  0
LINE
  5
C8F1
330
C2BD
100
AcDbEntity
  8
2
  6
Continuous
370
    -2
100
AcDbLine
 10
29191.61560422458
 20
9155.126360820544
 30
0.0
 11
29191.61560422457
 21
7675.126360820546
 31
0.0
  0
SOLID
  5
C8F2
330
C2BD
100
AcDbEntity
  8
2
  6
Continuous
100
AcDbTrace
 10
29181.61560422458
 20
9155.126360820544
 30
0.0
 11
29201.61560422458
 21
9155.126360820544
 31
0.0
 12
29191.61560422458
 22
9215.126360820544
 32
0.0
 13
29191.61560422458
 23
9215.126360820544
 33
0.0
  0
SOLID
  5
C8F3
330
C2BD
100
AcDbEntity
  8
2
  6
Continuous
100
AcDbTrace
 10
29181.61560422457
 20
7675.126360820546
 30
0.0
 11
29201.61560422457
 21
7675.126360820546
 31
0.0
 12
29191.61560422457
 22
7615.126360820545
 32
0.0
 13
29191.61560422457
 23
7615.126360820545
 33
0.0
  0
MTEXT
  5
C8F4
330
C2BD
100
AcDbEntity
  8
2
  6
Continuous
 62
     7
100
AcDbMText
 10
29141.61560422457
 20
8415.126360820549
 30
0.0
 40
60.0
 41
0.0
 71
     5
 72
     1
  1
\A1;400
  7
JF3
 11
0.0000000000000001
 21
1.0
 31
0.0
 73
     1
 44
1.0
1001
ACAD
1000
MTEXTBEGIN
1070
    73
1070
     1
1070
    44
1040
1.0
1070
    74
1070
     0
1000
MTEXTEND
  0
POINT
  5
C8F5
330
C2BD
100
AcDbEntity
  8
DEFPOINTS
  6
Continuous
 62
     0
100
AcDbPoint
 10
28655.1424438192
 20
9215.126360820546
 30
0.0
  0
POINT
  5
C8F6
330
C2BD
100
AcDbEntity
  8
DEFPOINTS
  6
Continuous
 62
     0
100
AcDbPoint
 10
28655.1424438192
 20
7615.126360820545
 30
0.0
  0
POINT
  5
C8F7
330
C2BD
100
AcDbEntity
  8
DEFPOINTS
  6
Continuous
 62
     0
100
AcDbPoint
 10
29191.61560422457
 20
7615.126360820545
 30
0.0
  0
ENDBLK
  5
C2BF
330
C2BD
100
AcDbEntity
  8
0
100
AcDbBlockEnd
  0
BLOCK
  5
C2FA
330
C2F9
100
AcDbEntity
  8
0
100
AcDbBlockBegin
  2
*D36
 70
     1
 10
0.0
 20
0.0
 30
0.0
  3
*D36
  1

  0
LINE
  5
C91D
330
C2F9
100
AcDbEntity
  8
2
  6
Continuous
370
    -2
100
AcDbLine
 10
32756.39485070731
 20
9202.410170794221
 30
0.0
 11
33554.83189540855
 21
9202.410170794221
 31
0.0
  0
LINE
  5
C91E
330
C2F9
100
AcDbEntity
  8
2
  6
Continuous
370
    -2
100
AcDbLine
 10
33009.10034435399
 20
8050.686032863188
 30
0.0
 11
33554.83189540855
 21
8050.686032863188
 31
0.0
  0
LINE
  5
C91F
330
C2F9
100
AcDbEntity
  8
2
  6
Continuous
370
    -2
100
AcDbLine
 10
33514.83189540855
 20
9142.410170794223
 30
0.0
 11
33514.83189540855
 21
8110.686032863188
 31
0.0
  0
SOLID
  5
C920
330
C2F9
100
AcDbEntity
  8
2
  6
Continuous
100
AcDbTrace
 10
33504.83189540855
 20
9142.410170794223
 30
0.0
 11
33524.83189540855
 21
9142.410170794223
 31
0.0
 12
33514.83189540855
 22
9202.410170794221
 32
0.0
 13
33514.83189540855
 23
9202.410170794221
 33
0.0
  0
SOLID
  5
C921
330
C2F9
100
AcDbEntity
  8
2
  6
Continuous
100
AcDbTrace
 10
33504.83189540855
 20
8110.686032863188
 30
0.0
 11
33524.83189540855
 21
8110.686032863188
 31
0.0
 12
33514.83189540855
 22
8050.686032863188
 32
0.0
 13
33514.83189540855
 23
8050.686032863188
 33
0.0
  0
MTEXT
  5
C922
330
C2F9
100
AcDbEntity
  8
2
  6
Continuous
 62
     7
100
AcDbMText
 10
33464.83189540855
 20
8626.54810182871
 30
0.0
 40
60.0
 41
0.0
 71
     5
 72
     1
  1
\A1;288
  7
JF3
 11
0.0000000000000001
 21
1.0
 31
0.0
 73
     1
 44
1.0
1001
ACAD
1000
MTEXTBEGIN
1070
    73
1070
     1
1070
    44
1040
1.0
1070
    74
1070
     0
1000
MTEXTEND
  0
POINT
  5
C923
330
C2F9
100
AcDbEntity
  8
DEFPOINTS
  6
Continuous
 62
     0
100
AcDbPoint
 10
32696.39485070731
 20
9202.410170794221
 30
0.0
  0
POINT
  5
C924
330
C2F9
100
AcDbEntity
  8
DEFPOINTS
  6
Continuous
 62
     0
100
AcDbPoint
 10
32949.10034435399
 20
8050.686032863188
 30
0.0
  0
POINT
  5
C925
330
C2F9
100
AcDbEntity
  8
DEFPOINTS
  6
Continuous
 62
     0
100
AcDbPoint
 10
33514.83189540855
 20
8050.686032863188
 30
0.0
  0
ENDBLK
  5
C2FB
330
C2F9
100
AcDbEntity
  8
0
100
AcDbBlockEnd
  0
BLOCK
  5
C32E
330
C32D
100
AcDbEntity
  8
0
100
AcDbBlockBegin
  2
*D37
 70
     1
 10
0.0
 20
0.0
 30
0.0
  3
*D37
  1

  0
LINE
  5
C8F8
330
C32D
100
AcDbEntity
  8
2
  6
Continuous
370
    -2
100
AcDbLine
 10
26633.32885297516
 20
9167.087884996401
 30
0.0
 11
26548.43782128649
 21
9314.123464408462
 31
0.0
  0
LINE
  5
C8F9
330
C32D
100
AcDbEntity
  8
2
  6
Continuous
370
    -2
100
AcDbLine
 10
26716.46729286942
 20
9167.0878849964
 30
0.0
 11
26610.79165108427
 21
9350.12346496914
 31
0.0
  0
LINE
  5
C8FA
330
C32D
100
AcDbEntity
  8
2
  6
Continuous
370
    -2
100
AcDbLine
 10
26516.47629716977
 20
9249.482448202526
 30
0.0
 11
26464.51477299391
 21
9219.482448113824
 31
0.0
  0
LINE
  5
C8FB
330
C32D
100
AcDbEntity
  8
2
  6
Continuous
370
    -2
100
AcDbLine
 10
26682.75317531926
 20
9345.482448940602
 30
0.0
 11
26734.71469949512
 21
9375.482449029304
 31
0.0
  0
LINE
  5
C8FC
330
C32D
100
AcDbEntity
  8
2
  6
Continuous
370
    -2
100
AcDbLine
 10
26568.43782134562
 20
9279.482448291226
 30
0.0
 11
26630.79165114341
 21
9315.482448851904
 31
0.0
  0
SOLID
  5
C8FD
330
C32D
100
AcDbEntity
  8
2
  6
Continuous
100
AcDbTrace
 10
26511.47629715498
 20
9258.142702231834
 30
0.0
 11
26521.47629718455
 21
9240.822194173215
 31
0.0
 12
26568.43782134562
 22
9279.482448291226
 32
0.0
 13
26568.43782134562
 23
9279.482448291226
 33
0.0
  0
SOLID
  5
C8FE
330
C32D
100
AcDbEntity
  8
2
  6
Continuous
100
AcDbTrace
 10
26677.75317530448
 20
9354.142702969912
 30
0.0
 11
26687.75317533405
 21
9336.822194911293
 31
0.0
 12
26630.79165114341
 22
9315.482448851904
 32
0.0
 13
26630.79165114341
 23
9315.482448851904
 33
0.0
  0
MTEXT
  5
C8FF
330
C32D
100
AcDbEntity
  8
2
  6
Continuous
 62
     7
100
AcDbMText
 10
26574.6147361706
 20
9340.783718718109
 30
0.0
 40
60.0
 41
0.0
 71
     5
 72
     1
  1
\A1;18
  7
JF3
 11
0.8660254029309133
 21
0.5000000014783494
 31
0.0
 73
     1
 44
1.0
1001
ACAD
1000
MTEXTBEGIN
1070
    73
1070
     1
1070
    44
1040
1.0
1070
    74
1070
     0
1000
MTEXTEND
  0
POINT
  5
C900
330
C32D
100
AcDbEntity
  8
DEFPOINTS
  6
Continuous
 62
     0
100
AcDbPoint
 10
26663.32885306386
 20
9115.126360820545
 30
0.0
  0
POINT
  5
C901
330
C32D
100
AcDbEntity
  8
DEFPOINTS
  6
Continuous
 62
     0
100
AcDbPoint
 10
26746.46729295812
 20
9115.126360820545
 30
0.0
  0
POINT
  5
C902
330
C32D
100
AcDbEntity
  8
DEFPOINTS
  6
Continuous
 62
     0
100
AcDbPoint
 10
26630.79165114341
 20
9315.482448851904
 30
0.0
  0
ENDBLK
  5
C32F
330
C32D
100
AcDbEntity
  8
0
100
AcDbBlockEnd
  0
BLOCK
  5
C33C
330
C33B
100
AcDbEntity
  8
0
100
AcDbBlockBegin
  2
*D38
 70
     1
 10
0.0
 20
0.0
 30
0.0
  3
*D38
  1

  0
LINE
  5
C903
330
C33B
100
AcDbEntity
  8
2
  6
Continuous
370
    -2
100
AcDbLine
 10
27035.14242719011
 20
8675.126360820547
 30
0.0
 11
27035.14242719011
 21
8890.757654463788
 31
0.0
  0
LINE
  5
C904
330
C33B
100
AcDbEntity
  8
2
  6
Continuous
370
    -2
100
AcDbLine
 10
27875.14242757986
 20
8675.12636082054
 30
0.0
 11
27875.14242757986
 21
8890.757654463788
 31
0.0
  0
LINE
  5
C905
330
C33B
100
AcDbEntity
  8
2
  6
Continuous
370
    -2
100
AcDbLine
 10
27095.14242719011
 20
8850.757654463787
 30
0.0
 11
27815.14242757986
 21
8850.757654463787
 31
0.0
  0
MTEXT
  5
C906
330
C33B
100
AcDbEntity
  8
2
  6
Continuous
 62
     7
100
AcDbMText
 10
27586.44884202241
 20
8919.640771694636
 30
0.0
 40
60.0
 41
0.0
 71
     5
 72
     1
  1
\A1;\U+03C6210
  7
JF3
 73
     1
 44
1.0
1001
ACAD
1000
MTEXTBEGIN
1070
    73
1070
     1
1070
    44
1040
1.0
1070
    74
1070
     0
1000
MTEXTEND
  0
SOLID
  5
C907
330
C33B
100
AcDbEntity
  8
2
  6
Continuous
100
AcDbTrace
 10
27095.14242719011
 20
8860.757654463787
 30
0.0
 11
27095.14242719011
 21
8840.757654463788
 31
0.0
 12
27035.14242719011
 22
8850.757654463787
 32
0.0
 13
27035.14242719011
 23
8850.757654463787
 33
0.0
  0
SOLID
  5
C908
330
C33B
100
AcDbEntity
  8
2
  6
Continuous
100
AcDbTrace
 10
27815.14242757986
 20
8860.757654463787
 30
0.0
 11
27815.14242757986
 21
8840.757654463788
 31
0.0
 12
27875.14242757986
 22
8850.757654463787
 32
0.0
 13
27875.14242757986
 23
8850.757654463787
 33
0.0
  0
POINT
  5
C909
330
C33B
100
AcDbEntity
  8
DEFPOINTS
  6
Continuous
 62
     0
100
AcDbPoint
 10
27035.14242719011
 20
8615.126360820548
 30
0.0
  0
POINT
  5
C90A
330
C33B
100
AcDbEntity
  8
DEFPOINTS
  6
Continuous
 62
     0
100
AcDbPoint
 10
27875.14242757986
 20
8615.126360820539
 30
0.0
  0
POINT
  5
C90B
330
C33B
100
AcDbEntity
  8
DEFPOINTS
  6
Continuous
 62
     0
100
AcDbPoint
 10
27875.14242757986
 20
8850.757654463787
 30
0.0
  0
ENDBLK
  5
C33D
330
C33B
100
AcDbEntity
  8
0
100
AcDbBlockEnd
  0
BLOCK
  5
C348
330
C347
100
AcDbEntity
  8
0
100
AcDbBlockBegin
  2
*D39
 70
     1
 10
0.0
 20
0.0
 30
0.0
  3
*D39
  1

  0
LINE
  5
C858
330
C347
100
AcDbEntity
  8
2
  6
Continuous
370
    -2
100
AcDbLine
 10
27139.68002212294
 20
3225.163509395014
 30
0.0
 11
27182.17076012712
 21
3466.140459340309
 31
0.0
  0
LINE
  5
C859
330
C347
100
AcDbEntity
  8
2
  6
Continuous
370
    -2
100
AcDbLine
 10
27966.91853503702
 20
3079.299040087106
 30
0.0
 11
28009.40927304121
 21
3320.2759900324
 31
0.0
  0
LINE
  5
C85A
330
C347
100
AcDbEntity
  8
2
  6
Continuous
370
    -2
100
AcDbLine
 10
27234.31329820118
 20
3416.329258559804
 30
0.0
 11
27943.3748807538
 21
3291.302570571929
 31
0.0
  0
MTEXT
  5
C85B
330
C347
100
AcDbEntity
  8
2
  6
Continuous
 62
     7
100
AcDbMText
 10
27740.19205916512
 20
3388.982736780163
 30
0.0
 40
60.0
 41
0.0
 71
     5
 72
     1
  1
\A1;\U+03C6210
  7
JF3
 11
0.9848077530122068
 21
-0.173648177666938
 31
0.0
 73
     1
 44
1.0
1001
ACAD
1000
MTEXTBEGIN
1070
    73
1070
     1
1070
    44
1040
1.0
1070
    74
1070
     0
1000
MTEXTEND
  0
SOLID
  5
C85C
330
C347
100
AcDbEntity
  8
2
  6
Continuous
100
AcDbTrace
 10
27236.04977997785
 20
3426.177336089927
 30
0.0
 11
27232.57681642451
 21
3406.481181029682
 31
0.0
 12
27175.22483302045
 22
3426.748149219821
 32
0.0
 13
27175.22483302045
 23
3426.748149219821
 33
0.0
  0
SOLID
  5
C85D
330
C347
100
AcDbEntity
  8
2
  6
Continuous
100
AcDbTrace
 10
27945.11136253047
 20
3301.15064810205
 30
0.0
 11
27941.63839897713
 21
3281.454493041806
 31
0.0
 12
28002.46334593453
 22
3280.883679911912
 32
0.0
 13
28002.46334593453
 23
3280.883679911912
 33
0.0
  0
POINT
  5
C85E
330
C347
100
AcDbEntity
  8
DEFPOINTS
  6
Continuous
 62
     0
100
AcDbPoint
 10
27129.26113146292
 20
3166.075044214283
 30
0.0
  0
POINT
  5
C85F
330
C347
100
AcDbEntity
  8
DEFPOINTS
  6
Continuous
 62
     0
100
AcDbPoint
 10
27956.499644377
 20
3020.210574906374
 30
0.0
  0
POINT
  5
C860
330
C347
100
AcDbEntity
  8
DEFPOINTS
  6
Continuous
 62
     0
100
AcDbPoint
 10
28002.46334593453
 20
3280.883679911912
 30
0.0
  0
ENDBLK
  5
C349
330
C347
100
AcDbEntity
  8
0
100
AcDbBlockEnd
  0
BLOCK
  5
C354
330
C353
100
AcDbEntity
  8
0
100
AcDbBlockBegin
  2
*D40
 70
     1
 10
0.0
 20
0.0
 30
0.0
  3
*D40
  1

  0
LINE
  5
C861
330
C353
100
AcDbEntity
  8
2
  6
Continuous
370
    -2
100
AcDbLine
 10
26988.16973005354
 20
3190.953288915391
 30
0.0
 11
26605.77847120051
 21
3258.379249835915
 31
0.0
  0
LINE
  5
C862
330
C353
100
AcDbEntity
  8
2
  6
Continuous
370
    -2
100
AcDbLine
 10
26814.40016326412
 20
3668.381247322207
 30
0.0
 11
26682.18373096459
 21
3691.694594034208
 31
0.0
  0
LINE
  5
C863
330
C353
100
AcDbEntity
  8
2
  6
Continuous
370
    -2
100
AcDbLine
 10
26655.58968055034
 20
3310.521779723789
 30
0.0
 11
26711.1571395727
 21
3625.660196985187
 31
0.0
  0
SOLID
  5
C864
330
C353
100
AcDbEntity
  8
2
  6
Continuous
100
AcDbTrace
 10
26645.7416033056
 20
3312.258263118933
 30
0.0
 11
26665.43775779508
 21
3308.785296328646
 31
0.0
 12
26645.17078017948
 22
3251.433316255341
 32
0.0
 13
26645.17078017948
 23
3251.433316255341
 33
0.0
  0
SOLID
  5
C865
330
C353
100
AcDbEntity
  8
2
  6
Continuous
100
AcDbTrace
 10
26701.30906232795
 20
3627.39668038033
 30
0.0
 11
26721.00521681743
 21
3623.923713590043
 31
0.0
 12
26721.57603994355
 22
3684.748660453634
 32
0.0
 13
26721.57603994355
 23
3684.748660453634
 33
0.0
  0
MTEXT
  5
C866
330
C353
100
AcDbEntity
  8
2
  6
Continuous
 62
     7
100
AcDbMText
 10
26634.13302383781
 20
3476.773405330202
 30
0.0
 40
60.0
 41
0.0
 71
     5
 72
     1
  1
\A1;110
  7
JF3
 11
0.1736483395143284
 21
0.9848077244741313
 31
0.0
 73
     1
 44
1.0
1001
ACAD
1000
MTEXTBEGIN
1070
    73
1070
     1
1070
    44
1040
1.0
1070
    74
1070
     0
1000
MTEXTEND
  0
POINT
  5
C867
330
C353
100
AcDbEntity
  8
DEFPOINTS
  6
Continuous
 62
     0
100
AcDbPoint
 10
27047.25819352199
 20
3180.534388544532
 30
0.0
  0
POINT
  5
C868
330
C353
100
AcDbEntity
  8
DEFPOINTS
  6
Continuous
 62
     0
100
AcDbPoint
 10
26873.48862673256
 20
3657.962346951347
 30
0.0
  0
POINT
  5
C869
330
C353
100
AcDbEntity
  8
DEFPOINTS
  6
Continuous
 62
     0
100
AcDbPoint
 10
26721.57603994355
 20
3684.748660453634
 30
0.0
  0
ENDBLK
  5
C355
330
C353
100
AcDbEntity
  8
0
100
AcDbBlockEnd
  0
BLOCK
  5
C360
330
C35F
100
AcDbEntity
  8
0
100
AcDbBlockBegin
  2
*D41
 70
     1
 10
0.0
 20
0.0
 30
0.0
  3
*D41
  1

  0
LINE
  5
C86A
330
C35F
100
AcDbEntity
  8
2
  6
Continuous
370
    -2
100
AcDbLine
 10
27022.92364988661
 20
3095.46767944359
 30
0.0
 11
26590.49741640156
 21
3171.716164849419
 31
0.0
  0
LINE
  5
C86B
330
C35F
100
AcDbEntity
  8
2
  6
Continuous
370
    -2
100
AcDbLine
 10
26988.16973005354
 20
3190.953288915391
 30
0.0
 11
26605.77847120147
 21
3258.379249835746
 31
0.0
  0
LINE
  5
C86C
330
C35F
100
AcDbEntity
  8
2
  6
Continuous
370
    -2
100
AcDbLine
 10
26619.47082500967
 20
3105.681767800398
 30
0.0
 11
26609.05192463881
 21
3046.59330433195
 31
0.0
  0
LINE
  5
C86D
330
C35F
100
AcDbEntity
  8
2
  6
Continuous
370
    -2
100
AcDbLine
 10
26655.5896805513
 20
3310.52177972362
 30
0.0
 11
26666.00858092216
 21
3369.610243192068
 31
0.0
  0
LINE
  5
C86E
330
C35F
100
AcDbEntity
  8
2
  6
Continuous
370
    -2
100
AcDbLine
 10
26629.88972538053
 20
3164.770231268847
 30
0.0
 11
26645.17078018044
 21
3251.433316255172
 31
0.0
  0
SOLID
  5
C86F
330
C35F
100
AcDbEntity
  8
2
  6
Continuous
100
AcDbTrace
 10
26609.62274776492
 20
3107.418251195542
 30
0.0
 11
26629.31890225441
 21
3103.945284405256
 31
0.0
 12
26629.88972538053
 22
3164.770231268847
 32
0.0
 13
26629.88972538053
 23
3164.770231268847
 33
0.0
  0
SOLID
  5
C870
330
C35F
100
AcDbEntity
  8
2
  6
Continuous
100
AcDbTrace
 10
26645.74160330655
 20
3312.258263118764
 30
0.0
 11
26665.43775779604
 21
3308.785296328478
 31
0.0
 12
26645.17078018044
 22
3251.433316255172
 32
0.0
 13
26645.17078018044
 23
3251.433316255172
 33
0.0
  0
MTEXT
  5
C871
330
C35F
100
AcDbEntity
  8
2
  6
Continuous
 62
     7
100
AcDbMText
 10
26588.28986655677
 20
3216.784190737723
 30
0.0
 40
60.0
 41
0.0
 71
     5
 72
     1
  1
\A1;22
  7
JF3
 11
0.1736483395143284
 21
0.9848077244741313
 31
0.0
 73
     1
 44
1.0
1001
ACAD
1000
MTEXTBEGIN
1070
    73
1070
     1
1070
    44
1040
1.0
1070
    74
1070
     0
1000
MTEXTEND
  0
POINT
  5
C872
330
C35F
100
AcDbEntity
  8
DEFPOINTS
  6
Continuous
 62
     0
100
AcDbPoint
 10
27082.01211335506
 20
3085.04877907273
 30
0.0
  0
POINT
  5
C873
330
C35F
100
AcDbEntity
  8
DEFPOINTS
  6
Continuous
 62
     0
100
AcDbPoint
 10
27047.25819352199
 20
3180.534388544532
 30
0.0
  0
POINT
  5
C874
330
C35F
100
AcDbEntity
  8
DEFPOINTS
  6
Continuous
 62
     0
100
AcDbPoint
 10
26645.17078018044
 20
3251.433316255172
 30
0.0
  0
ENDBLK
  5
C361
330
C35F
100
AcDbEntity
  8
0
100
AcDbBlockEnd
  0
BLOCK
  5
C79B
330
C79A
100
AcDbEntity
  8
0
100
AcDbBlockBegin
  2
*D42
 70
     1
 10
0.0
 20
0.0
 30
0.0
  3
*D42
  1

  0
LINE
  5
C7F0
330
C79A
100
AcDbEntity
  8
2
  6
Continuous
370
    -2
100
AcDbLine
 10
21225.82216910918
 20
3601.745220083573
 30
0.0
 11
21225.82216910918
 21
4161.370280420604
 31
0.0
  0
LINE
  5
C7F1
330
C79A
100
AcDbEntity
  8
2
  6
Continuous
370
    -2
100
AcDbLine
 10
23125.82216910918
 20
3601.745220083575
 30
0.0
 11
23125.82216910918
 21
4161.370280420604
 31
0.0
  0
LINE
  5
C7F2
330
C79A
100
AcDbEntity
  8
2
  6
Continuous
370
    -2
100
AcDbLine
 10
21265.82216910918
 20
4121.370280420604
 30
0.0
 11
23085.82216910918
 21
4121.370280420604
 31
0.0
  0
SOLID
  5
C7F3
330
C79A
100
AcDbEntity
  8
2
  6
Continuous
100
AcDbTrace
 10
21265.82216910918
 20
4128.036947087271
 30
0.0
 11
21265.82216910918
 21
4114.703613753937
 31
0.0
 12
21225.82216910918
 22
4121.370280420604
 32
0.0
 13
21225.82216910918
 23
4121.370280420604
 33
0.0
  0
SOLID
  5
C7F4
330
C79A
100
AcDbEntity
  8
2
  6
Continuous
100
AcDbTrace
 10
23085.82216910918
 20
4128.036947087271
 30
0.0
 11
23085.82216910918
 21
4114.703613753937
 31
0.0
 12
23125.82216910918
 22
4121.370280420604
 32
0.0
 13
23125.82216910918
 23
4121.370280420604
 33
0.0
  0
MTEXT
  5
C7F5
330
C79A
100
AcDbEntity
  8
2
  6
Continuous
 62
     7
100
AcDbMText
 10
22175.82216910919
 20
4171.370280420604
 30
0.0
 40
60.0
 41
0.0
 71
     5
 72
     1
  1
\A1;1900
  7
JF3
 73
     1
 44
1.0
1001
ACAD
1000
MTEXTBEGIN
1070
    73
1070
     1
1070
    44
1040
1.0
1070
    74
1070
     0
1000
MTEXTEND
  0
POINT
  5
C7F6
330
C79A
100
AcDbEntity
  8
DEFPOINTS
  6
Continuous
 62
     0
100
AcDbPoint
 10
21225.82216910918
 20
3561.745220083573
 30
0.0
  0
POINT
  5
C7F7
330
C79A
100
AcDbEntity
  8
DEFPOINTS
  6
Continuous
 62
     0
100
AcDbPoint
 10
23125.82216910918
 20
3561.745220083575
 30
0.0
  0
POINT
  5
C7F8
330
C79A
100
AcDbEntity
  8
DEFPOINTS
  6
Continuous
 62
     0
100
AcDbPoint
 10
23125.82216910918
 20
4121.370280420604
 30
0.0
  0
ENDBLK
  5
C79C
330
C79A
100
AcDbEntity
  8
0
100
AcDbBlockEnd
  0
BLOCK
  5
C7A7
330
C7A6
100
AcDbEntity
  8
0
100
AcDbBlockBegin
  2
*D43
 70
     1
 10
0.0
 20
0.0
 30
0.0
  3
*D43
  1

  0
LINE
  5
C7F9
330
C7A6
100
AcDbEntity
  8
2
  6
Continuous
370
    -2
100
AcDbLine
 10
21875.8221691092
 20
3716.114185600804
 30
0.0
 11
21875.8221691092
 21
4037.184482732807
 31
0.0
  0
LINE
  5
C7FA
330
C7A6
100
AcDbEntity
  8
2
  6
Continuous
370
    -2
100
AcDbLine
 10
22475.82216910918
 20
3713.814185600817
 30
0.0
 11
22475.82216910918
 21
4037.184482732807
 31
0.0
  0
LINE
  5
C7FB
330
C7A6
100
AcDbEntity
  8
2
  6
Continuous
370
    -2
100
AcDbLine
 10
21915.8221691092
 20
3997.184482732808
 30
0.0
 11
22435.82216910918
 21
3997.184482732808
 31
0.0
  0
SOLID
  5
C7FC
330
C7A6
100
AcDbEntity
  8
2
  6
Continuous
100
AcDbTrace
 10
21915.8221691092
 20
4003.851149399474
 30
0.0
 11
21915.8221691092
 21
3990.517816066141
 31
0.0
 12
21875.8221691092
 22
3997.184482732808
 32
0.0
 13
21875.8221691092
 23
3997.184482732808
 33
0.0
  0
SOLID
  5
C7FD
330
C7A6
100
AcDbEntity
  8
2
  6
Continuous
100
AcDbTrace
 10
22435.82216910918
 20
4003.851149399474
 30
0.0
 11
22435.82216910918
 21
3990.517816066141
 31
0.0
 12
22475.82216910918
 22
3997.184482732808
 32
0.0
 13
22475.82216910918
 23
3997.184482732808
 33
0.0
  0
MTEXT
  5
C7FE
330
C7A6
100
AcDbEntity
  8
2
  6
Continuous
 62
     7
100
AcDbMText
 10
22175.8221691092
 20
4047.184482732808
 30
0.0
 40
60.0
 41
0.0
 71
     5
 72
     1
  1
\A1;600
  7
JF3
 73
     1
 44
1.0
1001
ACAD
1000
MTEXTBEGIN
1070
    73
1070
     1
1070
    44
1040
1.0
1070
    74
1070
     0
1000
MTEXTEND
  0
POINT
  5
C7FF
330
C7A6
100
AcDbEntity
  8
DEFPOINTS
  6
Continuous
 62
     0
100
AcDbPoint
 10
21875.8221691092
 20
3676.114185600804
 30
0.0
  0
POINT
  5
C800
330
C7A6
100
AcDbEntity
  8
DEFPOINTS
  6
Continuous
 62
     0
100
AcDbPoint
 10
22475.82216910918
 20
3673.814185600817
 30
0.0
  0
POINT
  5
C801
330
C7A6
100
AcDbEntity
  8
DEFPOINTS
  6
Continuous
 62
     0
100
AcDbPoint
 10
22475.82216910918
 20
3997.184482732808
 30
0.0
  0
ENDBLK
  5
C7A8
330
C7A6
100
AcDbEntity
  8
0
100
AcDbBlockEnd
  0
BLOCK
  5
C7B3
330
C7B2
100
AcDbEntity
  8
0
100
AcDbBlockBegin
  2
*D44
 70
     1
 10
0.0
 20
0.0
 30
0.0
  3
*D44
  1

  0
LINE
  5
C802
330
C7B2
100
AcDbEntity
  8
2
  6
Continuous
370
    -2
100
AcDbLine
 10
21225.82216910918
 20
3601.745220083575
 30
0.0
 11
21225.82216910918
 21
4037.184482732806
 31
0.0
  0
LINE
  5
C803
330
C7B2
100
AcDbEntity
  8
2
  6
Continuous
370
    -2
100
AcDbLine
 10
21875.8221691092
 20
3716.114185600804
 30
0.0
 11
21875.8221691092
 21
4037.184482732806
 31
0.0
  0
LINE
  5
C804
330
C7B2
100
AcDbEntity
  8
2
  6
Continuous
370
    -2
100
AcDbLine
 10
21265.82216910918
 20
3997.184482732806
 30
0.0
 11
21835.8221691092
 21
3997.184482732806
 31
0.0
  0
SOLID
  5
C805
330
C7B2
100
AcDbEntity
  8
2
  6
Continuous
100
AcDbTrace
 10
21265.82216910918
 20
4003.851149399473
 30
0.0
 11
21265.82216910918
 21
3990.51781606614
 31
0.0
 12
21225.82216910918
 22
3997.184482732806
 32
0.0
 13
21225.82216910918
 23
3997.184482732806
 33
0.0
  0
SOLID
  5
C806
330
C7B2
100
AcDbEntity
  8
2
  6
Continuous
100
AcDbTrace
 10
21835.8221691092
 20
4003.851149399473
 30
0.0
 11
21835.8221691092
 21
3990.51781606614
 31
0.0
 12
21875.8221691092
 22
3997.184482732806
 32
0.0
 13
21875.8221691092
 23
3997.184482732806
 33
0.0
  0
MTEXT
  5
C807
330
C7B2
100
AcDbEntity
  8
2
  6
Continuous
 62
     7
100
AcDbMText
 10
21550.8221691092
 20
4047.184482732806
 30
0.0
 40
60.0
 41
0.0
 71
     5
 72
     1
  1
\A1;650
  7
JF3
 73
     1
 44
1.0
1001
ACAD
1000
MTEXTBEGIN
1070
    73
1070
     1
1070
    44
1040
1.0
1070
    74
1070
     0
1000
MTEXTEND
  0
POINT
  5
C808
330
C7B2
100
AcDbEntity
  8
DEFPOINTS
  6
Continuous
 62
     0
100
AcDbPoint
 10
21225.82216910918
 20
3561.745220083575
 30
0.0
  0
POINT
  5
C809
330
C7B2
100
AcDbEntity
  8
DEFPOINTS
  6
Continuous
 62
     0
100
AcDbPoint
 10
21875.8221691092
 20
3676.114185600804
 30
0.0
  0
POINT
  5
C80A
330
C7B2
100
AcDbEntity
  8
DEFPOINTS
  6
Continuous
 62
     0
100
AcDbPoint
 10
21875.8221691092
 20
3997.184482732806
 30
0.0
  0
ENDBLK
  5
C7B4
330
C7B2
100
AcDbEntity
  8
0
100
AcDbBlockEnd
  0
BLOCK
  5
C7BF
330
C7BE
100
AcDbEntity
  8
0
100
AcDbBlockBegin
  2
*D45
 70
     1
 10
0.0
 20
0.0
 30
0.0
  3
*D45
  1

  0
LINE
  5
C80B
330
C7BE
100
AcDbEntity
  8
2
  6
Continuous
370
    -2
100
AcDbLine
 10
22515.82216910918
 20
3673.814185600817
 30
0.0
 11
23659.66142122102
 21
3673.814185600817
 31
0.0
  0
LINE
  5
C80C
330
C7BE
100
AcDbEntity
  8
2
  6
Continuous
370
    -2
100
AcDbLine
 10
23165.82216910918
 20
3273.814185600816
 30
0.0
 11
23659.66142122102
 21
3273.814185600815
 31
0.0
  0
LINE
  5
C80D
330
C7BE
100
AcDbEntity
  8
2
  6
Continuous
370
    -2
100
AcDbLine
 10
23619.66142122102
 20
3633.814185600817
 30
0.0
 11
23619.66142122102
 21
3313.814185600815
 31
0.0
  0
SOLID
  5
C80E
330
C7BE
100
AcDbEntity
  8
2
  6
Continuous
100
AcDbTrace
 10
23612.99475455436
 20
3633.814185600817
 30
0.0
 11
23626.32808788769
 21
3633.814185600817
 31
0.0
 12
23619.66142122102
 22
3673.814185600817
 32
0.0
 13
23619.66142122102
 23
3673.814185600817
 33
0.0
  0
SOLID
  5
C80F
330
C7BE
100
AcDbEntity
  8
2
  6
Continuous
100
AcDbTrace
 10
23612.99475455436
 20
3313.814185600815
 30
0.0
 11
23626.32808788769
 21
3313.814185600815
 31
0.0
 12
23619.66142122102
 22
3273.814185600815
 32
0.0
 13
23619.66142122102
 23
3273.814185600815
 33
0.0
  0
MTEXT
  5
C810
330
C7BE
100
AcDbEntity
  8
2
  6
Continuous
 62
     7
100
AcDbMText
 10
23569.66142122102
 20
3473.81418560082
 30
0.0
 40
60.0
 41
0.0
 71
     5
 72
     1
  1
\A1;400
  7
JF3
 11
0.0000000000000001
 21
1.0
 31
0.0
 73
     1
 44
1.0
1001
ACAD
1000
MTEXTBEGIN
1070
    73
1070
     1
1070
    44
1040
1.0
1070
    74
1070
     0
1000
MTEXTEND
  0
POINT
  5
C811
330
C7BE
100
AcDbEntity
  8
DEFPOINTS
  6
Continuous
 62
     0
100
AcDbPoint
 10
22475.82216910918
 20
3673.814185600817
 30
0.0
  0
POINT
  5
C812
330
C7BE
100
AcDbEntity
  8
DEFPOINTS
  6
Continuous
 62
     0
100
AcDbPoint
 10
23125.82216910918
 20
3273.814185600816
 30
0.0
  0
POINT
  5
C813
330
C7BE
100
AcDbEntity
  8
DEFPOINTS
  6
Continuous
 62
     0
100
AcDbPoint
 10
23619.66142122102
 20
3273.814185600815
 30
0.0
  0
ENDBLK
  5
C7C0
330
C7BE
100
AcDbEntity
  8
0
100
AcDbBlockEnd
  0
BLOCK
  5
C7CB
330
C7CA
100
AcDbEntity
  8
0
100
AcDbBlockBegin
  2
*D46
 70
     1
 10
0.0
 20
0.0
 30
0.0
  3
*D46
  1

  0
LINE
  5
C814
330
C7CA
100
AcDbEntity
  8
2
  6
Continuous
370
    -2
100
AcDbLine
 10
22515.82216910918
 20
3673.814185600817
 30
0.0
 11
23507.21344552952
 21
3673.814185600817
 31
0.0
  0
LINE
  5
C815
330
C7CA
100
AcDbEntity
  8
2
  6
Continuous
370
    -2
100
AcDbLine
 10
23165.82216910918
 20
3561.745220083575
 30
0.0
 11
23507.21344552952
 21
3561.745220083575
 31
0.0
  0
LINE
  5
C816
330
C7CA
100
AcDbEntity
  8
2
  6
Continuous
370
    -2
100
AcDbLine
 10
23467.21344552952
 20
3713.814185600817
 30
0.0
 11
23467.21344552952
 21
3753.814185600817
 31
0.0
  0
LINE
  5
C817
330
C7CA
100
AcDbEntity
  8
2
  6
Continuous
370
    -2
100
AcDbLine
 10
23467.21344552952
 20
3521.745220083575
 30
0.0
 11
23467.21344552952
 21
3481.745220083575
 31
0.0
  0
MTEXT
  5
C818
330
C7CA
100
AcDbEntity
  8
2
  6
Continuous
 62
     7
100
AcDbMText
 10
23403.28361462006
 20
3749.188281880703
 30
0.0
 40
60.0
 41
0.0
 71
     5
 72
     1
  1
\A1;112
  7
JF3
 11
0.0000000000000001
 21
1.0
 31
0.0
 73
     1
 44
1.0
1001
ACAD
1000
MTEXTBEGIN
1070
    73
1070
     1
1070
    44
1040
1.0
1070
    74
1070
     0
1000
MTEXTEND
  0
LINE
  5
C819
330
C7CA
100
AcDbEntity
  8
2
  6
Continuous
370
    -2
100
AcDbLine
 10
23467.21344552952
 20
3673.814185600817
 30
0.0
 11
23467.21344552952
 21
3561.745220083575
 31
0.0
  0
SOLID
  5
C81A
330
C7CA
100
AcDbEntity
  8
2
  6
Continuous
100
AcDbTrace
 10
23460.54677886285
 20
3713.814185600817
 30
0.0
 11
23473.88011219619
 21
3713.814185600817
 31
0.0
 12
23467.21344552952
 22
3673.814185600817
 32
0.0
 13
23467.21344552952
 23
3673.814185600817
 33
0.0
  0
SOLID
  5
C81B
330
C7CA
100
AcDbEntity
  8
2
  6
Continuous
100
AcDbTrace
 10
23460.54677886285
 20
3521.745220083575
 30
0.0
 11
23473.88011219619
 21
3521.745220083575
 31
0.0
 12
23467.21344552952
 22
3561.745220083575
 32
0.0
 13
23467.21344552952
 23
3561.745220083575
 33
0.0
  0
POINT
  5
C81C
330
C7CA
100
AcDbEntity
  8
DEFPOINTS
  6
Continuous
 62
     0
100
AcDbPoint
 10
22475.82216910918
 20
3673.814185600817
 30
0.0
  0
POINT
  5
C81D
330
C7CA
100
AcDbEntity
  8
DEFPOINTS
  6
Continuous
 62
     0
100
AcDbPoint
 10
23125.82216910918
 20
3561.745220083575
 30
0.0
  0
POINT
  5
C81E
330
C7CA
100
AcDbEntity
  8
DEFPOINTS
  6
Continuous
 62
     0
100
AcDbPoint
 10
23467.21344552952
 20
3561.745220083575
 30
0.0
  0
ENDBLK
  5
C7CC
330
C7CA
100
AcDbEntity
  8
0
100
AcDbBlockEnd
  0
BLOCK
  5
C7D9
330
C7D8
100
AcDbEntity
  8
0
100
AcDbBlockBegin
  2
*D47
 70
     1
 10
0.0
 20
0.0
 30
0.0
  3
*D47
  1

  0
LINE
  5
C81F
330
C7D8
100
AcDbEntity
  8
2
  6
Continuous
370
    -2
100
AcDbLine
 10
22475.82216910918
 20
3713.814185600817
 30
0.0
 11
22475.82216910918
 21
4037.184482732806
 31
0.0
  0
LINE
  5
C820
330
C7D8
100
AcDbEntity
  8
2
  6
Continuous
370
    -2
100
AcDbLine
 10
23125.82216910918
 20
3601.745220083575
 30
0.0
 11
23125.82216910918
 21
4037.184482732806
 31
0.0
  0
LINE
  5
C821
330
C7D8
100
AcDbEntity
  8
2
  6
Continuous
370
    -2
100
AcDbLine
 10
22515.82216910918
 20
3997.184482732806
 30
0.0
 11
23085.82216910918
 21
3997.184482732806
 31
0.0
  0
SOLID
  5
C822
330
C7D8
100
AcDbEntity
  8
2
  6
Continuous
100
AcDbTrace
 10
22515.82216910918
 20
4003.851149399473
 30
0.0
 11
22515.82216910918
 21
3990.51781606614
 31
0.0
 12
22475.82216910918
 22
3997.184482732806
 32
0.0
 13
22475.82216910918
 23
3997.184482732806
 33
0.0
  0
SOLID
  5
C823
330
C7D8
100
AcDbEntity
  8
2
  6
Continuous
100
AcDbTrace
 10
23085.82216910918
 20
4003.851149399473
 30
0.0
 11
23085.82216910918
 21
3990.51781606614
 31
0.0
 12
23125.82216910918
 22
3997.184482732806
 32
0.0
 13
23125.82216910918
 23
3997.184482732806
 33
0.0
  0
MTEXT
  5
C824
330
C7D8
100
AcDbEntity
  8
2
  6
Continuous
 62
     7
100
AcDbMText
 10
22800.82216910919
 20
4047.184482732806
 30
0.0
 40
60.0
 41
0.0
 71
     5
 72
     1
  1
\A1;650
  7
JF3
 73
     1
 44
1.0
1001
ACAD
1000
MTEXTBEGIN
1070
    73
1070
     1
1070
    44
1040
1.0
1070
    74
1070
     0
1000
MTEXTEND
  0
POINT
  5
C825
330
C7D8
100
AcDbEntity
  8
DEFPOINTS
  6
Continuous
 62
     0
100
AcDbPoint
 10
22475.82216910918
 20
3673.814185600817
 30
0.0
  0
POINT
  5
C826
330
C7D8
100
AcDbEntity
  8
DEFPOINTS
  6
Continuous
 62
     0
100
AcDbPoint
 10
23125.82216910918
 20
3561.745220083575
 30
0.0
  0
POINT
  5
C827
330
C7D8
100
AcDbEntity
  8
DEFPOINTS
  6
Continuous
 62
     0
100
AcDbPoint
 10
23125.82216910918
 20
3997.184482732806
 30
0.0
  0
ENDBLK
  5
C7DA
330
C7D8
100
AcDbEntity
  8
0
100
AcDbBlockEnd
  0
BLOCK
  5
C7E5
330
C7E4
100
AcDbEntity
  8
0
100
AcDbBlockBegin
  2
*D48
 70
     1
 10
0.0
 20
0.0
 30
0.0
  3
*D48
  1

  0
LINE
  5
C828
330
C7E4
100
AcDbEntity
  8
2
  6
Continuous
370
    -2
100
AcDbLine
 10
23165.82216910918
 20
3561.745220083575
 30
0.0
 11
23507.21344552952
 21
3561.745220083575
 31
0.0
  0
LINE
  5
C829
330
C7E4
100
AcDbEntity
  8
2
  6
Continuous
370
    -2
100
AcDbLine
 10
23165.82216910918
 20
3273.814185600816
 30
0.0
 11
23507.21344552952
 21
3273.814185600816
 31
0.0
  0
LINE
  5
C82A
330
C7E4
100
AcDbEntity
  8
2
  6
Continuous
370
    -2
100
AcDbLine
 10
23467.21344552952
 20
3521.745220083575
 30
0.0
 11
23467.21344552952
 21
3313.814185600815
 31
0.0
  0
SOLID
  5
C82B
330
C7E4
100
AcDbEntity
  8
2
  6
Continuous
100
AcDbTrace
 10
23460.54677886285
 20
3521.745220083575
 30
0.0
 11
23473.88011219619
 21
3521.745220083575
 31
0.0
 12
23467.21344552952
 22
3561.745220083575
 32
0.0
 13
23467.21344552952
 23
3561.745220083575
 33
0.0
  0
SOLID
  5
C82C
330
C7E4
100
AcDbEntity
  8
2
  6
Continuous
100
AcDbTrace
 10
23460.54677886285
 20
3313.814185600815
 30
0.0
 11
23473.88011219619
 21
3313.814185600815
 31
0.0
 12
23467.21344552952
 22
3273.814185600816
 32
0.0
 13
23467.21344552952
 23
3273.814185600816
 33
0.0
  0
MTEXT
  5
C82D
330
C7E4
100
AcDbEntity
  8
2
  6
Continuous
 62
     7
100
AcDbMText
 10
23417.21344552952
 20
3417.779702842199
 30
0.0
 40
60.0
 41
0.0
 71
     5
 72
     1
  1
\A1;288
  7
JF3
 11
0.0000000000000001
 21
1.0
 31
0.0
 73
     1
 44
1.0
1001
ACAD
1000
MTEXTBEGIN
1070
    73
1070
     1
1070
    44
1040
1.0
1070
    74
1070
     0
1000
MTEXTEND
  0
POINT
  5
C82E
330
C7E4
100
AcDbEntity
  8
DEFPOINTS
  6
Continuous
 62
     0
100
AcDbPoint
 10
23125.82216910918
 20
3561.745220083575
 30
0.0
  0
POINT
  5
C82F
330
C7E4
100
AcDbEntity
  8
DEFPOINTS
  6
Continuous
 62
     0
100
AcDbPoint
 10
23125.82216910918
 20
3273.814185600816
 30
0.0
  0
POINT
  5
C830
330
C7E4
100
AcDbEntity
  8
DEFPOINTS
  6
Continuous
 62
     0
100
AcDbPoint
 10
23467.21344552952
 20
3273.814185600816
 30
0.0
  0
ENDBLK
  5
C7E6
330
C7E4
100
AcDbEntity
  8
0
100
AcDbBlockEnd
  0
BLOCK
  5
C8BF
330
C8BE
100
AcDbEntity
  8
0
100
AcDbBlockBegin
  2
*D49
 70
     1
 10
0.0
 20
0.0
 30
0.0
  3
*D49
  1

  0
LINE
  5
C90C
330
C8BE
100
AcDbEntity
  8
2
370
    -2
100
AcDbLine
 10
28715.14244381918
 20
7615.126360820585
 30
0.0
 11
29076.24095950017
 21
7615.126360820585
 31
0.0
  0
LINE
  5
C90D
330
C8BE
100
AcDbEntity
  8
2
370
    -2
100
AcDbLine
 10
28715.14244381915
 20
8527.126360820583
 30
0.0
 11
29076.24095950016
 21
8527.126360820583
 31
0.0
  0
LINE
  5
C90E
330
C8BE
100
AcDbEntity
  8
2
370
    -2
100
AcDbLine
 10
29046.24095950016
 20
7655.126360820585
 30
0.0
 11
29046.24095950016
 21
8487.126360820582
 31
0.0
  0
SOLID
  5
C90F
330
C8BE
100
AcDbEntity
  8
2
100
AcDbTrace
 10
29039.57429283349
 20
7655.126360820585
 30
0.0
 11
29052.90762616683
 21
7655.126360820585
 31
0.0
 12
29046.24095950016
 22
7615.126360820585
 32
0.0
 13
29046.24095950016
 23
7615.126360820585
 33
0.0
  0
SOLID
  5
C910
330
C8BE
100
AcDbEntity
  8
2
100
AcDbTrace
 10
29039.57429283349
 20
8487.126360820582
 30
0.0
 11
29052.90762616683
 21
8487.126360820582
 31
0.0
 12
29046.24095950016
 22
8527.126360820583
 32
0.0
 13
29046.24095950016
 23
8527.126360820583
 33
0.0
  0
MTEXT
  5
C911
330
C8BE
100
AcDbEntity
  8
2
 62
     7
100
AcDbMText
 10
28996.24095950016
 20
8071.126360820583
 30
0.0
 40
60.0
 41
0.0
 71
     5
 72
     1
  1
\A1;228
  7
JF3
 11
-0.0000000000000011
 21
1.0
 31
0.0
 73
     1
 44
1.0
1001
ACAD
1000
MTEXTBEGIN
1070
    73
1070
     1
1070
    44
1040
1.0
1070
    74
1070
     0
1000
MTEXTEND
  0
POINT
  5
C912
330
C8BE
100
AcDbEntity
  8
DEFPOINTS
 62
     0
100
AcDbPoint
 10
28655.14244381918
 20
7615.126360820546
 30
0.0
  0
POINT
  5
C913
330
C8BE
100
AcDbEntity
  8
DEFPOINTS
 62
     0
100
AcDbPoint
 10
28655.14244381917
 20
8527.126360820544
 30
0.0
  0
POINT
  5
C914
330
C8BE
100
AcDbEntity
  8
DEFPOINTS
 62
     0
100
AcDbPoint
 10
29046.24095950017
 20
8527.126360820544
 30
0.0
  0
ENDBLK
  5
C8C0
330
C8BE
100
AcDbEntity
  8
0
100
AcDbBlockEnd
  0
ENDSEC
  0
SECTION
  2
ENTITIES
  0
LWPOLYLINE
  5
59F2
330
18
100
AcDbEntity
  8
0
 62
     6
100
AcDbPolyline
 90
        4
 70
     1
 43
0.0
 10
19298.40245222889
 20
11600.37210327784
 10
34972.39819502674
 20
11600.37210327785
 10
34972.39819502675
 20
400.3619180361545
 10
19298.40245222889
 20
400.3619180361458
  0
LWPOLYLINE
  5
59F3
330
18
100
AcDbEntity
  8
0
 62
     6
100
AcDbPolyline
 90
        4
 70
     1
 43
0.0
 10
19308.4024522289
 20
11590.37210327784
 10
34962.39819502673
 20
11590.37210327785
 10
34962.39819502675
 20
410.3619180361527
 10
19308.40245222889
 20
410.3619180361459
  0
LINE
  5
59FE
330
18
100
AcDbEntity
  8
2
  6
Continuous
 62
     4
100
AcDbLine
 10
25810.6735501286
 20
10860.40565884888
 30
0.0
 11
28472.52266499692
 21
10860.40565884889
 31
0.0
  0
LINE
  5
59FF
330
18
100
AcDbEntity
  8
2
  6
Continuous
 62
     4
100
AcDbLine
 10
25810.6735501286
 20
10837.19084264592
 30
0.0
 11
28472.52266499692
 21
10837.19084264592
 31
0.0
  0
LINE
  5
5A00
330
18
100
AcDbEntity
  8
2
  6
Continuous
 62
     4
100
AcDbLine
 10
26011.41336586283
 20
10142.90311253845
 30
0.0
 11
28332.83088574942
 21
10142.90311253845
 31
0.0
  0
TEXT
  5
5A01
330
18
100
AcDbEntity
  8
2
  6
Continuous
 62
     7
100
AcDbText
 10
26064.86437362048
 20
10162.89665427241
 30
0.0
 40
180.0
  1
テーパーコーン配置図
 41
0.8
  7
JF3
100
AcDbText
  0
TEXT
  5
5A02
330
18
100
AcDbEntity
  8
2
  6
Continuous
 62
     7
100
AcDbText
 10
25816.97268513091
 20
10902.11165087557
 30
0.0
 40
230.0
  1
NRC200-47　構造図
 41
0.8
  7
JF3
100
AcDbText
  0
TEXT
  5
5A31
330
18
100
AcDbEntity
  8
2
  6
Continuous
 62
     7
100
AcDbText
 10
22100.96103728043
 20
6187.519801558647
 30
0.0
 40
110.0
  1
B'
 41
0.8
  7
JF3
100
AcDbText
  0
TEXT
  5
5A48
330
18
100
AcDbEntity
  8
2
  6
Continuous
 62
     7
100
AcDbText
 10
22077.91238364456
 20
4281.917953084377
 30
0.0
 40
90.0
  1
A-A'
 41
0.8
  7
JF3
100
AcDbText
  0
LINE
  5
5A4A
330
18
100
AcDbEntity
  8
2
  6
Continuous
 62
     4
100
AcDbLine
 10
22036.63236226335
 20
4262.745445721433
 30
0.0
 11
22331.31136014845
 21
4262.745445721431
 31
0.0
  0
TEXT
  5
5A4E
330
18
100
AcDbEntity
  8
2
  6
Continuous
 62
     7
100
AcDbText
 10
22077.91238364455
 20
2710.761071021918
 30
0.0
 40
90.0
  1
B-B'
 41
0.8
  7
JF3
100
AcDbText
  0
LINE
  5
5A4F
330
18
100
AcDbEntity
  8
2
  6
Continuous
 62
     4
100
AcDbLine
 10
22036.63236226335
 20
2691.588563658973
 30
0.0
 11
22331.31136014845
 21
2691.588563658973
 31
0.0
  0
LINE
  5
5A54
330
18
100
AcDbEntity
  8
2
  6
Continuous
 62
     4
100
AcDbLine
 10
21512.94620715678
 20
4851.167391589072
 30
0.0
 11
22769.6858498557
 21
4851.167391589073
 31
0.0
  0
TEXT
  5
5A82
330
18
100
AcDbEntity
  8
2
  6
Continuous
 62
     7
100
AcDbText
 10
21545.6739050668
 20
4871.167209538974
 30
0.0
 40
180.0
  1
側断面図
 41
0.8
  7
JF3
100
AcDbText
  0
TEXT
  5
5AAD
330
18
100
AcDbEntity
  8
2
  6
Continuous
 62
     7
100
AcDbText
 10
22293.0748071599
 20
4876.041677868737
 30
0.0
 40
90.0
  1
S=1/20
 41
0.8
  7
JF3
100
AcDbText
  0
LINE
  5
5AC0
330
18
100
AcDbEntity
  8
2
  6
Continuous
 62
     4
100
AcDbLine
 10
22377.27544483978
 20
9619.325896793421
 30
0.0
 11
22231.16078883904
 21
9659.930099785432
 31
0.0
  0
LINE
  5
5AC1
330
18
100
AcDbEntity
  8
2
  6
Continuous
 62
     4
100
AcDbLine
 10
22175.82216910916
 20
9619.325896793421
 30
0.0
 11
22377.27544483978
 21
9619.325896793421
 31
0.0
  0
TEXT
  5
5AC3
330
18
100
AcDbEntity
  8
2
  6
Continuous
 62
     7
100
AcDbText
 10
21342.10141324854
 20
10162.90303065667
 30
0.0
 40
180.0
  1
構造一般平面図
 41
0.8
  7
JF3
100
AcDbText
  0
LINE
  5
5AC4
330
18
100
AcDbEntity
  8
3
  6
HIDDEN
 62
     9
100
AcDbLine
 10
21875.82216910917
 20
8492.90311253846
 30
0.0
 11
22475.82216910917
 21
8492.90311253846
 31
0.0
  0
LINE
  5
5AC5
330
18
100
AcDbEntity
  8
3
  6
HIDDEN
 62
     9
100
AcDbLine
 10
22475.82216910917
 20
7892.903112538457
 30
0.0
 11
21875.82216910917
 21
7892.903112538458
 31
0.0
  0
CIRCLE
  5
5AC6
330
18
100
AcDbEntity
  8
3
 62
     9
100
AcDbCircle
 10
22175.82216910917
 20
8192.903112538457
 30
0.0
 40
65.4
  0
CIRCLE
  5
5AC7
330
18
100
AcDbEntity
  8
3
 62
     9
100
AcDbCircle
 10
22175.82216910917
 20
8192.903112538457
 30
0.0
 40
105.0
  0
CIRCLE
  5
5AC8
330
18
100
AcDbEntity
  8
3
 62
     9
100
AcDbCircle
 10
22175.82216910917
 20
8192.903112538457
 30
0.0
 40
177.15
  0
CIRCLE
  5
5AC9
330
18
100
AcDbEntity
  8
3
 62
     9
100
AcDbCircle
 10
22175.82216910917
 20
8192.903112538457
 30
0.0
 40
197.95
  0
LINE
  5
5ACC
330
18
100
AcDbEntity
  8
2
  6
Continuous
 62
     4
100
AcDbLine
 10
22175.82216910916
 20
6373.870134208781
 30
0.0
 11
22377.27544483977
 21
6373.870134208779
 31
0.0
  0
LINE
  5
5ACD
330
18
100
AcDbEntity
  8
2
  6
Continuous
 62
     4
100
AcDbLine
 10
22377.27544483977
 20
6373.870134208779
 30
0.0
 11
22231.16078883903
 21
6333.265931216771
 31
0.0
  0
LINE
  5
5ACF
330
18
100
AcDbEntity
  8
1
  6
CENTER
 62
     3
100
AcDbLine
 10
23475.82216910917
 20
8192.903112538459
 30
0.0
 11
20875.82216910917
 21
8192.903112538457
 31
0.0
  0
LINE
  5
5AD0
330
18
100
AcDbEntity
  8
2
  6
Continuous
 62
     4
100
AcDbLine
 10
21293.16274508408
 20
10142.90311253845
 30
0.0
 11
23109.76909671547
 21
10142.90311253845
 31
0.0
  0
LINE
  5
5AD7
330
18
100
AcDbEntity
  8
1
  6
CENTER
 62
     3
100
AcDbLine
 10
22175.82216910916
 20
6892.903112538459
 30
0.0
 11
22175.82216910916
 21
9492.90311253846
 31
0.0
  0
ARC
  5
5AD9
330
18
100
AcDbEntity
  8
3
 62
     7
100
AcDbCircle
 10
21522.48186310916
 20
7539.562805538456
 30
0.0
 40
400.0
100
AcDbArc
 50
8.176196999964346
 51
81.82380300014992
  0
LINE
  5
5ADA
330
18
100
AcDbEntity
  8
3
 62
     7
100
AcDbLine
 10
21969.21297370686
 20
7242.90311253846
 30
0.0
 11
21875.82216910917
 21
7892.903112538457
 31
0.0
  0
LINE
  5
5ADB
330
18
100
AcDbEntity
  8
3
  6
HIDDEN
 62
     9
100
AcDbLine
 10
22019.72642275574
 20
7242.90311253846
 30
0.0
 11
21926.37878538323
 21
7892.602668651069
 31
0.0
  0
LINE
  5
5AE3
330
18
100
AcDbEntity
  8
2
  6
Continuous
 62
     4
100
AcDbLine
 10
22231.16078883903
 20
6333.265931216771
 30
0.0
 11
22231.16078883903
 21
6393.16214232231
 31
0.0
  0
LINE
  5
5AE4
330
18
100
AcDbEntity
  8
2
  6
Continuous
 62
     4
100
AcDbLine
 10
22175.82216910916
 20
6449.645229321472
 30
0.0
 11
22175.82216910916
 21
6373.870134208781
 31
0.0
  0
LINE
  5
5AEF
330
18
100
AcDbEntity
  8
3
 62
     7
100
AcDbLine
 10
21225.82216910916
 20
8399.512307940756
 30
0.0
 11
21875.82216910917
 21
8492.90311253846
 31
0.0
  0
LINE
  5
5AF0
330
18
100
AcDbEntity
  8
3
 62
     7
100
AcDbLine
 10
21225.82216910916
 20
7986.293917136157
 30
0.0
 11
21875.82216910917
 21
7892.903112538457
 31
0.0
  0
LINE
  5
5AF1
330
18
100
AcDbEntity
  8
3
  6
HIDDEN
 62
     9
100
AcDbLine
 10
21225.82216910916
 20
8348.998858891885
 30
0.0
 11
21875.52172522178
 21
8442.34649626439
 31
0.0
  0
LINE
  5
5AF2
330
18
100
AcDbEntity
  8
3
  6
HIDDEN
 62
     9
100
AcDbLine
 10
21225.82216910916
 20
8036.807366185032
 30
0.0
 11
21875.52172522178
 21
7943.459728812531
 31
0.0
  0
TEXT
  5
5AF3
330
18
100
AcDbEntity
  8
2
  6
Continuous
 62
     7
100
AcDbText
 10
20624.78888486131
 20
8350.972602293301
 30
0.0
 40
110.0
  1
A
 41
0.8
  7
JF3
100
AcDbText
  0
LINE
  5
5AFE
330
18
100
AcDbEntity
  8
2
  6
Continuous
 62
     4
100
AcDbLine
 10
20827.62147004204
 20
8192.903112538459
 30
0.0
 11
20751.84637492935
 21
8192.903112538459
 31
0.0
  0
LINE
  5
5AFF
330
18
100
AcDbEntity
  8
2
  6
Continuous
 62
     4
100
AcDbLine
 10
20711.24217193735
 20
8248.241732268335
 30
0.0
 11
20771.13838304288
 21
8248.241732268335
 31
0.0
  0
LINE
  5
5B00
330
18
100
AcDbEntity
  8
2
  6
Continuous
 62
     4
100
AcDbLine
 10
20751.84637492935
 20
8192.903112538459
 30
0.0
 11
20751.84637492935
 21
8394.356388269072
 31
0.0
  0
LINE
  5
5B01
330
18
100
AcDbEntity
  8
2
  6
Continuous
 62
     4
100
AcDbLine
 10
20751.84637492935
 20
8394.356388269072
 30
0.0
 11
20711.24217193735
 21
8248.241732268335
 31
0.0
  0
ARC
  5
5B08
330
18
100
AcDbEntity
  8
3
 62
     7
100
AcDbCircle
 10
21522.48186310916
 20
8846.243419538458
 30
0.0
 40
400.0
100
AcDbArc
 50
278.1761969998501
 51
351.8238030000357
  0
LINE
  5
5B09
330
18
100
AcDbEntity
  8
3
 62
     7
100
AcDbLine
 10
21969.21297370686
 20
9142.903112538455
 30
0.0
 11
21875.82216910917
 21
8492.90311253846
 31
0.0
  0
LINE
  5
5B0A
330
18
100
AcDbEntity
  8
3
  6
HIDDEN
 62
     9
100
AcDbLine
 10
22019.72642275574
 20
9142.903112538455
 30
0.0
 11
21926.37878538324
 21
8493.203556425848
 31
0.0
  0
LINE
  5
5B13
330
18
100
AcDbEntity
  8
3
  6
HIDDEN
 62
     9
100
AcDbLine
 10
21875.82216910917
 20
7892.903112538458
 30
0.0
 11
21875.82216910917
 21
8492.90311253846
 31
0.0
  0
ARC
  5
5B14
330
18
100
AcDbEntity
  8
3
  6
HIDDEN
 62
     9
100
AcDbCircle
 10
21866.9886614363
 20
7884.069604865591
 30
0.0
 40
60.0
100
AcDbArc
 50
8.176197098454437
 51
81.82380290159807
  0
ARC
  5
5B15
330
18
100
AcDbEntity
  8
3
  6
HIDDEN
 62
     9
100
AcDbCircle
 10
21866.9886614363
 20
8501.736620211328
 30
0.0
 40
60.0
100
AcDbArc
 50
278.1761970984019
 51
351.8238029015456
  0
MTEXT
  5
5B16
330
18
100
AcDbEntity
  8
2
  6
Continuous
 62
     7
100
AcDbMText
 10
21718.4752096585
 20
9148.440017517101
 30
0.0
 40
60.0
 41
0.0
 71
     6
 72
     1
  1
吊りインサートM16
  7
JF3
 73
     1
 44
1.0
1001
ACAD
1000
MTEXTBEGIN
1070
    73
1070
     1
1070
    44
1040
1.0
1070
    74
1070
     0
1000
MTEXTEND
  0
TEXT
  5
5B1B
330
18
100
AcDbEntity
  8
2
  6
Continuous
 62
     7
100
AcDbText
 10
22100.96103728043
 20
9679.235636324834
 30
0.0
 40
110.0
  1
B
 41
0.8
  7
JF3
100
AcDbText
  0
LINE
  5
5B22
330
18
100
AcDbEntity
  8
2
  6
Continuous
 62
     4
100
AcDbLine
 10
22231.16078883904
 20
9659.930099785432
 30
0.0
 11
22231.16078883904
 21
9600.033888679893
 31
0.0
  0
LINE
  5
5B23
330
18
100
AcDbEntity
  8
2
  6
Continuous
 62
     4
100
AcDbLine
 10
22175.82216910916
 20
9543.55080168073
 30
0.0
 11
22175.82216910916
 21
9619.325896793421
 31
0.0
  0
LINE
  5
5B2A
330
18
100
AcDbEntity
  8
3
 62
     7
100
AcDbLine
 10
22382.43136451146
 20
7242.90311253846
 30
0.0
 11
22475.82216910917
 21
7892.903112538457
 31
0.0
  0
LINE
  5
5B2B
330
18
100
AcDbEntity
  8
3
  6
HIDDEN
 62
     9
100
AcDbLine
 10
22331.91791546258
 20
7242.90311253846
 30
0.0
 11
22425.2655528351
 21
7892.602668651071
 31
0.0
  0
ARC
  5
5B2C
330
18
100
AcDbEntity
  8
3
 62
     7
100
AcDbCircle
 10
22829.16247610917
 20
7539.562805538456
 30
0.0
 40
400.0
100
AcDbArc
 50
98.17619699985009
 51
171.8238030000356
  0
LINE
  5
5B40
330
18
100
AcDbEntity
  8
3
 62
     7
100
AcDbLine
 10
22382.43136451146
 20
9142.903112538455
 30
0.0
 11
22475.82216910917
 21
8492.90311253846
 31
0.0
  0
LINE
  5
5B41
330
18
100
AcDbEntity
  8
3
  6
HIDDEN
 62
     9
100
AcDbLine
 10
22331.91791546259
 20
9142.903112538455
 30
0.0
 11
22425.2655528351
 21
8493.203556425848
 31
0.0
  0
ARC
  5
5B42
330
18
100
AcDbEntity
  8
3
 62
     7
100
AcDbCircle
 10
22829.16247610916
 20
8846.243419538458
 30
0.0
 40
400.0
100
AcDbArc
 50
188.1761969999644
 51
261.8238030001499
  0
LINE
  5
5B43
330
18
100
AcDbEntity
  8
3
 62
     7
100
AcDbLine
 10
23125.82216910916
 20
7986.293917136157
 30
0.0
 11
22475.82216910917
 21
7892.903112538457
 31
0.0
  0
LINE
  5
5B44
330
18
100
AcDbEntity
  8
3
 62
     7
100
AcDbLine
 10
23125.82216910916
 20
8399.512307940756
 30
0.0
 11
22475.82216910917
 21
8492.90311253846
 31
0.0
  0
LINE
  5
5B45
330
18
100
AcDbEntity
  8
3
  6
HIDDEN
 62
     9
100
AcDbLine
 10
23125.82216910917
 20
8348.998858891887
 30
0.0
 11
22476.12261299655
 21
8442.34649626439
 31
0.0
  0
LINE
  5
5B46
330
18
100
AcDbEntity
  8
3
  6
HIDDEN
 62
     9
100
AcDbLine
 10
23125.82216910916
 20
8036.807366185028
 30
0.0
 11
22476.12261299655
 21
7943.459728812531
 31
0.0
  0
LINE
  5
5B47
330
18
100
AcDbEntity
  8
3
  6
HIDDEN
 62
     9
100
AcDbLine
 10
22475.82216910917
 20
8492.90311253846
 30
0.0
 11
22475.82216910917
 21
7892.903112538457
 31
0.0
  0
ARC
  5
5B48
330
18
100
AcDbEntity
  8
3
 62
     9
100
AcDbCircle
 10
22484.65567678203
 20
7884.06960486559
 30
0.0
 40
60.0
100
AcDbArc
 50
98.17619709840194
 51
171.8238029015456
  0
ARC
  5
5B49
330
18
100
AcDbEntity
  8
3
  6
HIDDEN
 62
     9
100
AcDbCircle
 10
22484.65567678203
 20
8501.736620211328
 30
0.0
 40
60.0
100
AcDbArc
 50
188.1761970984544
 51
261.8238029015981
  0
TEXT
  5
5B61
330
18
100
AcDbEntity
  8
2
  6
Continuous
 62
     7
100
AcDbText
 10
24032.14514711659
 20
8350.972602293301
 30
0.0
 40
110.0
  1
A'
 41
0.8
  7
JF3
100
AcDbText
  0
LINE
  5
5B62
330
18
100
AcDbEntity
  8
2
  6
Continuous
 62
     4
100
AcDbLine
 10
24008.39446392121
 20
8248.241732268331
 30
0.0
 11
23948.49825281567
 21
8248.241732268335
 31
0.0
  0
LINE
  5
5B63
330
18
100
AcDbEntity
  8
2
  6
Continuous
 62
     4
100
AcDbLine
 10
23967.7902609292
 20
8394.356388269072
 30
0.0
 11
24008.39446392121
 21
8248.241732268331
 31
0.0
  0
LINE
  5
5B64
330
18
100
AcDbEntity
  8
2
  6
Continuous
 62
     4
100
AcDbLine
 10
23892.01516581651
 20
8192.903112538459
 30
0.0
 11
23967.7902609292
 21
8192.903112538459
 31
0.0
  0
LINE
  5
5B65
330
18
100
AcDbEntity
  8
2
  6
Continuous
 62
     4
100
AcDbLine
 10
23967.7902609292
 20
8192.903112538459
 30
0.0
 11
23967.7902609292
 21
8394.356388269072
 31
0.0
  0
TEXT
  5
5B6E
330
18
100
AcDbEntity
  8
2
  6
Continuous
 62
     7
100
AcDbText
 10
22668.08200664172
 20
10172.90303065667
 30
0.0
 40
90.0
  1
S=1/20
 41
0.8
  7
JF3
100
AcDbText
  0
LWPOLYLINE
  5
5B7C
330
18
100
AcDbEntity
  8
2
 62
     4
100
AcDbPolyline
 90
        4
 70
     1
 43
0.0
 10
31842.39819502675
 20
1110.361918036151
 10
34962.39819502675
 20
1110.361918036151
 10
34962.39819502675
 20
410.3619180361527
 10
31842.39819502675
 20
410.361918036151
  0
LINE
  5
5B8A
330
18
100
AcDbEntity
  8
2
 62
     4
100
AcDbLine
 10
31842.39819502675
 20
910.361918036151
 30
0.0
 11
33282.39819502675
 21
910.3619180361508
 31
0.0
  0
LINE
  5
5B8B
330
18
100
AcDbEntity
  8
2
 62
     4
100
AcDbLine
 10
33282.39819502675
 20
610.3619180361508
 30
0.0
 11
31842.39819502675
 21
610.3619180361511
 31
0.0
  0
TEXT
  5
5B8C
330
18
100
AcDbEntity
  8
2
 62
     7
100
AcDbText
 10
31955.56992742873
 20
431.5382183240036
 30
0.0
 40
140.0
  1
斜面受圧板協会
 41
1.076703676915292
  7
JF
 72
     5
 11
33181.57651420961
 21
431.5382183240031
 31
0.0
100
AcDbText
  0
TEXT
  5
5B8E
330
18
100
AcDbEntity
  8
2
  6
Continuous
 62
     7
100
AcDbText
 10
29072.19051441826
 20
1538.351475803169
 30
0.0
 40
90.0
  1
コンクリート設計基準強度 　50 N/mm
 41
0.8
  7
JF3
100
AcDbText
  0
TEXT
  5
5B8F
330
18
100
AcDbEntity
  8
2
  6
Continuous
 62
     7
100
AcDbText
 10
29072.19051441826
 20
1398.35147580317
 30
0.0
 40
90.0
  1
許容最大設計アンカー力　　470 kN
 41
0.8
  7
JF3
100
AcDbText
  0
TEXT
  5
5B90
330
18
100
AcDbEntity
  8
2
  6
Continuous
 62
     7
100
AcDbText
 10
29072.19246741826
 20
1274.821344731478
 30
0.0
 40
90.0
  1
支圧面積　　　　　　　 　1.74m
 41
0.8
  7
JF3
100
AcDbText
  0
TEXT
  5
5B91
330
18
100
AcDbEntity
  8
2
  6
Continuous
 62
     7
100
AcDbText
 10
29072.19246741826
 20
1134.820978731478
 30
0.0
 40
90.0
  1
参考製品重量　　　　 　　1.59t
 41
0.8
  7
JF3
100
AcDbText
  0
LINE
  5
5B93
330
18
100
AcDbEntity
  8
2
  6
HIDDEN
 62
     4
100
AcDbLine
 10
29676.79966090269
 20
1760.78890589906
 30
0.0
 11
31074.38383109839
 21
1760.788905899059
 31
0.0
  0
LINE
  5
5B94
330
18
100
AcDbEntity
  8
2
  6
HIDDEN
 62
     4
100
AcDbLine
 10
29676.79966090269
 20
1780.78890589906
 30
0.0
 11
31074.38383109839
 21
1780.78890589906
 31
0.0
  0
LINE
  5
5B95
330
18
100
AcDbEntity
  8
2
  6
HIDDEN
 62
     4
100
AcDbLine
 10
29072.20486098547
 20
1081.455171980108
 30
0.0
 11
31074.38523118902
 21
1081.455171980108
 31
0.0
  0
LINE
  5
5B96
330
18
100
AcDbEntity
  8
2
  6
HIDDEN
 62
     4
100
AcDbLine
 10
29072.20486098547
 20
1061.455171980108
 30
0.0
 11
31074.38523118902
 21
1061.455171980108
 31
0.0
  0
TEXT
  5
5B97
330
18
100
AcDbEntity
  8
2
  6
Continuous
 62
     7
100
AcDbText
 10
29072.19051441826
 20
1738.35147580317
 30
0.0
 40
100.0
  1
設 計 条 件
 41
0.8
  7
JF3
100
AcDbText
  0
TEXT
  5
5B98
330
18
100
AcDbEntity
  8
2
 62
     7
100
AcDbText
 10
31900.41808429118
 20
851.1975206247443
 30
0.0
 40
70.0
  1
承認
  7
JF2
100
AcDbText
  0
LINE
  5
5B99
330
18
100
AcDbEntity
  8
2
 62
     4
100
AcDbLine
 10
31962.39819502675
 20
610.3619180361512
 30
0.0
 11
31962.39819502675
 21
1110.361918036151
 31
0.0
  0
TEXT
  5
5B9A
330
18
100
AcDbEntity
  8
2
  6
Continuous
 62
     7
100
AcDbText
 10
30779.75809251687
 20
1592.308027683635
 30
0.0
 40
45.0
  1
2
 41
0.8
  7
JF3
100
AcDbText
  0
TEXT
  5
5B9B
330
18
100
AcDbEntity
  8
2
  6
Continuous
 62
     7
100
AcDbText
 10
30511.56462467891
 20
1328.777652611944
 30
0.0
 40
45.0
  1
2
 41
0.8
  7
JF3
100
AcDbText
  0
TEXT
  5
5B9C
330
18
100
AcDbEntity
  8
2
 62
     7
100
AcDbText
 10
31900.41808429118
 20
1084.70754776322
 30
0.0
 40
70.0
  1
形式
  7
JF2
100
AcDbText
  0
LINE
  5
5BBA
330
18
100
AcDbEntity
  8
2
 62
     4
100
AcDbLine
 10
33482.39819502675
 20
870.3619180361512
 30
0.0
 11
34962.39819502675
 21
870.3619180361526
 31
0.0
  0
LINE
  5
5BBB
330
18
100
AcDbEntity
  8
2
 62
     4
100
AcDbLine
 10
34962.39819502675
 20
650.3619180361527
 30
0.0
 11
33482.39819502675
 21
650.3619180361511
 31
0.0
  0
TEXT
  5
5BBC
330
18
100
AcDbEntity
  8
2
 62
     7
100
AcDbText
 10
33724.11965893448
 20
692.7125885408461
 30
0.0
 40
100.0
  1
平成　　年　　月　　日
 50
360.0
 41
0.8587330618616022
  7
JF
 72
     5
 11
34823.29797811733
 21
692.7125885408456
 31
0.0
100
AcDbText
  0
TEXT
  5
5BBD
330
18
100
AcDbEntity
  8
2
 62
     7
100
AcDbText
 10
33535.57355169936
 20
834.2765041654329
 30
0.0
 40
70.0
  1
日付
  7
JF2
100
AcDbText
  0
LINE
  5
5BBE
330
18
100
AcDbEntity
  8
2
 62
     4
100
AcDbLine
 10
33042.39819502675
 20
610.3619180361524
 30
0.0
 11
33042.39819502675
 21
910.3619180361524
 31
0.0
  0
LINE
  5
5BBF
330
18
100
AcDbEntity
  8
2
 62
     4
100
AcDbLine
 10
32922.39819502675
 20
610.3619180361522
 30
0.0
 11
32922.39819502675
 21
910.3619180361523
 31
0.0
  0
TEXT
  5
5BC0
330
18
100
AcDbEntity
  8
2
 62
     7
100
AcDbText
 10
32978.13418781021
 20
844.4291140410198
 30
0.0
 40
70.0
  1
写図
  7
JF2
100
AcDbText
  0
LINE
  5
5BC1
330
18
100
AcDbEntity
  8
2
 62
     4
100
AcDbLine
 10
32562.39819502675
 20
610.3619180361519
 30
0.0
 11
32562.39819502675
 21
910.3619180361517
 31
0.0
  0
LINE
  5
5BC2
330
18
100
AcDbEntity
  8
2
 62
     4
100
AcDbLine
 10
32682.39819502675
 20
610.361918036152
 30
0.0
 11
32682.39819502675
 21
910.3619180361519
 31
0.0
  0
TEXT
  5
5BC3
330
18
100
AcDbEntity
  8
2
 62
     7
100
AcDbText
 10
32620.02162676627
 20
841.0449107491576
 30
0.0
 40
70.0
  1
設計
  7
JF2
100
AcDbText
  0
LINE
  5
5BC4
330
18
100
AcDbEntity
  8
2
 62
     4
100
AcDbLine
 10
32202.39819502675
 20
610.3619180361514
 30
0.0
 11
32202.39819502675
 21
910.3619180361514
 31
0.0
  0
LINE
  5
5BC5
330
18
100
AcDbEntity
  8
2
 62
     4
100
AcDbLine
 10
32322.39819502675
 20
610.3619180361516
 30
0.0
 11
32322.39819502675
 21
910.3619180361516
 31
0.0
  0
TEXT
  5
5BC6
330
18
100
AcDbEntity
  8
2
 62
     7
100
AcDbText
 10
32255.15222494792
 20
847.813317332881
 30
0.0
 40
70.0
  1
査図
  7
JF2
100
AcDbText
  0
LINE
  5
5BC7
330
18
100
AcDbEntity
  8
2
 62
     4
100
AcDbLine
 10
33282.39819502675
 20
410.3619180361508
 30
0.0
 11
33282.39819502675
 21
1110.361918036151
 31
0.0
  0
LINE
  5
5BC8
330
18
100
AcDbEntity
  8
2
 62
     4
100
AcDbLine
 10
33482.39819502675
 20
410.361918036151
 30
0.0
 11
33482.39819502675
 21
1110.361918036151
 31
0.0
  0
LINE
  5
5BC9
330
18
100
AcDbEntity
  8
2
 62
     4
100
AcDbLine
 10
33602.39819502675
 20
410.3619180361512
 30
0.0
 11
33602.39819502675
 21
1110.361918036151
 31
0.0
  0
TEXT
  5
5BCA
330
18
100
AcDbEntity
  8
2
 62
     7
100
AcDbText
 10
33535.57355169936
 20
614.3032901944043
 30
0.0
 40
70.0
  1
図番
  7
JF2
100
AcDbText
  0
LINE
  5
5BCB
330
18
100
AcDbEntity
  8
2
 62
     4
100
AcDbLine
 10
33282.39819502675
 20
710.3619180361508
 30
0.0
 11
33482.39819502675
 21
710.3619180361511
 31
0.0
  0
LINE
  5
5BCC
330
18
100
AcDbEntity
  8
2
 62
     4
100
AcDbLine
 10
33482.39819502675
 20
690.3619180361511
 30
0.0
 11
33282.39819502675
 21
690.3619180361508
 31
0.0
  0
TEXT
  5
5BCD
330
18
100
AcDbEntity
  8
2
  6
Continuous
 62
     7
100
AcDbText
 10
33913.14213930705
 20
483.7934310512844
 30
0.0
 40
80.0
  1
260417-KD
 41
0.8
  7
JF3
100
AcDbText
  0
TEXT
  5
5BCE
330
18
100
AcDbEntity
  8
2
  6
Continuous
 62
     7
100
AcDbText
 10
32118.61994267682
 20
951.7345733493701
 30
0.0
 40
100.0
  1
NRC200-47
 41
0.8
  7
JF3
100
AcDbText
  0
TEXT
  5
5BCF
330
18
100
AcDbEntity
  8
2
  6
Continuous
 62
     7
100
AcDbText
 10
33673.97332363946
 20
936.5037848290233
 30
0.0
 40
110.0
  1
構造図
 41
0.8
  7
JF3
100
AcDbText
  0
TEXT
  5
5BD0
330
18
100
AcDbEntity
  8
2
 62
     7
100
AcDbText
 10
33535.57355169936
 20
1084.70754776322
 30
0.0
 40
70.0
  1
名称
  7
JF2
100
AcDbText
  0
TEXT
  5
5BD1
330
18
100
AcDbEntity
  8
2
 62
     7
100
AcDbText
 10
33315.9762265309
 20
1003.486668758532
 30
0.0
 40
70.0
  1
尺度
 50
0.0000000000000964
 41
0.9049340322875909
  7
JF
 72
     5
 11
33451.11304201918
 21
1003.486668758532
 31
0.0
100
AcDbText
  0
LINE
  5
5BD2
330
18
100
AcDbEntity
  8
2
 62
     4
100
AcDbLine
 10
33282.39819502675
 20
990.3619180361509
 30
0.0
 11
33482.39819502675
 21
990.3619180361511
 31
0.0
  0
TEXT
  5
5BE0
330
18
100
AcDbEntity
  8
2
  6
Continuous
 62
     7
100
AcDbText
 10
31361.35464967331
 20
10162.90056227241
 30
0.0
 40
180.0
  1
先端部断面図
 41
0.8
  7
JF3
100
AcDbText
  0
TEXT
  5
5BE3
330
18
100
AcDbEntity
  8
2
  6
Continuous
 62
     7
100
AcDbText
 10
31333.20530423759
 20
7094.271707065401
 30
0.0
 40
180.0
  1
付根部断面図
 41
0.8
  7
JF3
100
AcDbText
  0
LINE
  5
5BE4
330
18
100
AcDbEntity
  8
2
  6
Continuous
 62
     4
100
AcDbLine
 10
31294.4243557827
 20
10142.90311253845
 30
0.0
 11
32929.58553169342
 21
10142.90311253845
 31
0.0
  0
LINE
  5
5BE5
330
18
100
AcDbEntity
  8
2
  6
Continuous
 62
     4
100
AcDbLine
 10
31288.2507378519
 20
7074.266683203461
 30
0.0
 11
32957.67683112579
 21
7074.266683203461
 31
0.0
  0
TEXT
  5
5C0C
330
18
100
AcDbEntity
  8
2
  6
Continuous
 62
     7
100
AcDbText
 10
27911.53962879118
 20
10162.89665427241
 30
0.0
 40
90.0
  1
S=1/5
 41
0.8
  7
JF3
100
AcDbText
  0
TEXT
  5
5C15
330
18
100
AcDbEntity
  8
2
  6
Continuous
 62
     7
100
AcDbText
 10
32487.83952961944
 20
7094.271707065401
 30
0.0
 40
90.0
  1
S=1/10
 41
0.8
  7
JF3
100
AcDbText
  0
TEXT
  5
5C24
330
18
100
AcDbEntity
  8
2
  6
Continuous
 62
     7
100
AcDbText
 10
32525.24630995799
 20
10162.90056227241
 30
0.0
 40
90.0
  1
S=1/5
 41
0.8
  7
JF3
100
AcDbText
  0
DIMENSION
  5
9281
330
18
100
AcDbEntity
  8
2
  6
Continuous
 62
     4
100
AcDbDimension
  2
*D0
 10
23614.7529036918
 20
8492.903112538456
 30
0.0
 11
23564.75290369179
 21
8817.903112538461
 31
0.0
 70
    32
 71
     5
 42
650.0
  3
ST20（詳細）
100
AcDbAlignedDimension
 13
22382.43136451147
 23
9142.903112538457
 33
0.0
 14
22475.82216910917
 24
8492.903112538456
 34
0.0
 50
90.0
100
AcDbRotatedDimension
  0
DIMENSION
  5
9282
330
18
100
AcDbEntity
  8
2
  6
Continuous
 62
     4
100
AcDbDimension
  2
*D1
 10
23614.7529036918
 20
7242.90311253846
 30
0.0
 11
23564.7529036918
 21
7567.903112538461
 31
0.0
 70
    32
 71
     5
 42
649.9999999999972
  3
ST20（詳細）
100
AcDbAlignedDimension
 13
22475.82216910917
 23
7892.903112538457
 33
0.0
 14
22382.43136451147
 24
7242.90311253846
 34
0.0
 50
90.0
100
AcDbRotatedDimension
  0
DIMENSION
  5
9283
330
18
100
AcDbEntity
  8
2
  6
Continuous
 62
     4
100
AcDbDimension
  2
*D2
 10
23614.7529036918
 20
8399.512307940756
 30
0.0
 11
23564.75290369179
 21
8446.20771023961
 31
0.0
 70
    32
 71
     5
 42
93.39080459770048
  3
ST20
100
AcDbAlignedDimension
 13
22475.82216910917
 23
8492.903112538456
 33
0.0
 14
23125.82216910917
 24
8399.512307940756
 34
0.0
 50
90.0
100
AcDbRotatedDimension
  0
DIMENSION
  5
9284
330
18
100
AcDbEntity
  8
2
  6
Continuous
 62
     4
100
AcDbDimension
  2
*D3
 10
23614.7529036918
 20
7986.293917136156
 30
0.0
 11
23564.7529036918
 21
7939.59851483731
 31
0.0
 70
    32
 71
     5
 42
93.39080459769958
  3
ST20
100
AcDbAlignedDimension
 13
22475.82216910917
 23
7892.903112538457
 33
0.0
 14
23125.82216910917
 24
7986.293917136156
 34
0.0
 50
90.0
100
AcDbRotatedDimension
  0
DIMENSION
  5
9285
330
18
100
AcDbEntity
  8
2
  6
Continuous
 62
     4
100
AcDbDimension
  2
*D4
 10
23614.7529036918
 20
7986.29391713616
 30
0.0
 11
23564.7529036918
 21
8192.903112538461
 31
0.0
 70
    32
 71
     5
 42
413.2183908045954
  3
ST20
100
AcDbAlignedDimension
 13
23125.82216910917
 23
8399.512307940755
 33
0.0
 14
23125.82216910917
 24
7986.29391713616
 34
0.0
 50
90.0
100
AcDbRotatedDimension
  0
DIMENSION
  5
9286
330
18
100
AcDbEntity
  8
2
  6
Continuous
 62
     4
100
AcDbDimension
  2
*D5
 10
23759.71857982839
 20
7242.90311253846
 30
0.0
 11
23709.71857982839
 21
8192.903112538461
 31
0.0
 70
    32
 71
     5
 42
1899.999999999996
  3
ST20（詳細）
100
AcDbAlignedDimension
 13
22382.43136451147
 23
9142.903112538455
 33
0.0
 14
22382.43136451147
 24
7242.90311253846
 34
0.0
 50
90.0
100
AcDbRotatedDimension
  0
DIMENSION
  5
9291
330
18
100
AcDbEntity
  8
2
  6
Continuous
 62
     4
100
AcDbDimension
  2
*D6
 10
22475.82216910917
 20
6783.343554996979
 30
0.0
 11
22429.12676681032
 21
6833.343554996979
 31
0.0
 70
    32
 71
     5
 42
93.39080459770048
  3
ST20
100
AcDbAlignedDimension
 13
22382.43136451147
 23
7242.90311253846
 33
0.0
 14
22475.82216910917
 24
7892.903112538457
 34
0.0
100
AcDbRotatedDimension
  0
DIMENSION
  5
9292
330
18
100
AcDbEntity
  8
2
  6
Continuous
 62
     4
100
AcDbDimension
  2
*D7
 10
21969.21297370687
 20
6783.343554996978
 30
0.0
 11
21922.51757140801
 21
6833.343554996978
 31
0.0
 70
    32
 71
     5
 42
93.39080459771503
  3
ST20
100
AcDbAlignedDimension
 13
21875.82216910915
 23
7892.903112538457
 33
0.0
 14
21969.21297370687
 24
7242.90311253846
 34
0.0
100
AcDbRotatedDimension
  0
DIMENSION
  5
9299
330
18
100
AcDbEntity
  8
2
  6
Continuous
 62
     4
100
AcDbDimension
  2
*D8
 10
21875.82216910915
 20
6783.343554996978
 30
0.0
 11
21550.82216910916
 21
6833.343554996978
 31
0.0
 70
    32
 71
     5
 42
649.9999999999854
  3
ST20（詳細）
100
AcDbAlignedDimension
 13
21225.82216910917
 23
7986.293917136157
 33
0.0
 14
21875.82216910915
 24
7892.903112538457
 34
0.0
100
AcDbRotatedDimension
  0
DIMENSION
  5
929A
330
18
100
AcDbEntity
  8
2
  6
Continuous
 62
     4
100
AcDbDimension
  2
*D9
 10
23125.82216910917
 20
6783.343554996979
 30
0.0
 11
22800.82216910917
 21
6833.343554996979
 31
0.0
 70
    32
 71
     5
 42
650.0
  3
ST20（詳細）
100
AcDbAlignedDimension
 13
22475.82216910917
 23
7892.903112538457
 33
0.0
 14
23125.82216910917
 24
7986.293917136156
 34
0.0
100
AcDbRotatedDimension
  0
DIMENSION
  5
929B
330
18
100
AcDbEntity
  8
2
  6
Continuous
 62
     4
100
AcDbDimension
  2
*D10
 10
23125.82216910917
 20
6645.845728131236
 30
0.0
 11
22175.82216910917
 21
6695.845728131236
 31
0.0
 70
    32
 71
     5
 42
1900.0
  3
ST20（詳細）
100
AcDbAlignedDimension
 13
21225.82216910917
 23
7986.29391713616
 33
0.0
 14
23125.82216910917
 24
7986.29391713616
 34
0.0
100
AcDbRotatedDimension
  0
DIMENSION
  5
929C
330
18
100
AcDbEntity
  8
2
  6
Continuous
 62
     4
100
AcDbDimension
  2
*D11
 10
22382.43136451147
 20
6783.343554996979
 30
0.0
 11
22175.82216910917
 21
6833.343554996979
 31
0.0
 70
    32
 71
     5
 42
413.218390804599
  3
ST20
100
AcDbAlignedDimension
 13
21969.21297370687
 23
7242.90311253846
 33
0.0
 14
22382.43136451147
 24
7242.90311253846
 34
0.0
100
AcDbRotatedDimension
  0
LINE
  5
929D
330
18
100
AcDbEntity
  8
3
 62
     7
100
AcDbLine
 10
21969.21297370686
 20
7242.90311253846
 30
0.0
 11
22382.43136451147
 21
7242.90311253846
 31
0.0
  0
LINE
  5
92B4
330
18
100
AcDbEntity
  8
3
  6
HIDDEN
 62
     9
100
AcDbLine
 10
21933.9798361229
 20
8897.680474954105
 30
0.0
 11
22032.96337603447
 21
8883.458701978307
 31
0.0
  0
LINE
  5
92B5
330
18
100
AcDbEntity
  8
3
  6
HIDDEN
 62
     9
100
AcDbLine
 10
21939.66854531322
 20
8937.273890918731
 30
0.0
 11
22038.65208522479
 21
8923.052117942933
 31
0.0
  0
LINE
  5
92B6
330
18
100
AcDbEntity
  8
3
  6
HIDDEN
 62
     9
100
AcDbLine
 10
21939.66854531322
 20
7448.532334158183
 30
0.0
 11
22038.65208522479
 21
7462.754107133982
 31
0.0
  0
LINE
  5
92B7
330
18
100
AcDbEntity
  8
3
  6
HIDDEN
 62
     9
100
AcDbLine
 10
21933.9798361229
 20
7488.125750122809
 30
0.0
 11
22032.96337603447
 21
7502.347523098608
 31
0.0
  0
LINE
  5
92BF
330
18
100
AcDbEntity
  8
3
 62
     7
100
AcDbLine
 10
21225.82216910916
 20
8399.512307940755
 30
0.0
 11
21225.82216910916
 21
7986.29391713616
 31
0.0
  0
LINE
  5
92CC
330
18
100
AcDbEntity
  8
3
  6
HIDDEN
 62
     9
100
AcDbLine
 10
21431.45139072889
 20
7956.749488742518
 30
0.0
 11
21445.67316370469
 21
8055.733028654083
 31
0.0
  0
LINE
  5
92CD
330
18
100
AcDbEntity
  8
3
  6
HIDDEN
 62
     9
100
AcDbLine
 10
21471.04480669352
 20
7951.060779552199
 30
0.0
 11
21485.26657966932
 21
8050.044319463765
 31
0.0
  0
LINE
  5
92CE
330
18
100
AcDbEntity
  8
3
  6
HIDDEN
 62
     9
100
AcDbLine
 10
21445.67316370469
 20
8055.733028654083
 30
0.0
 11
21485.26657966932
 21
8050.044319463765
 31
0.0
  0
LINE
  5
92D7
330
18
100
AcDbEntity
  8
3
  6
HIDDEN
 62
     9
100
AcDbLine
 10
21445.67316370469
 20
8330.073196422828
 30
0.0
 11
21485.26657966931
 21
8335.76190561315
 31
0.0
  0
LINE
  5
92D8
330
18
100
AcDbEntity
  8
3
  6
HIDDEN
 62
     9
100
AcDbLine
 10
21471.04480669352
 20
8434.745445524717
 30
0.0
 11
21485.26657966931
 21
8335.76190561315
 31
0.0
  0
LINE
  5
92D9
330
18
100
AcDbEntity
  8
3
  6
HIDDEN
 62
     9
100
AcDbLine
 10
21431.45139072889
 20
8429.056736334397
 30
0.0
 11
21445.67316370469
 21
8330.073196422828
 31
0.0
  0
LINE
  5
92DD
330
18
100
AcDbEntity
  8
3
 62
     7
100
AcDbLine
 10
23125.82216910916
 20
8399.512307940755
 30
0.0
 11
23125.82216910916
 21
7986.29391713616
 31
0.0
  0
LINE
  5
92E7
330
18
100
AcDbEntity
  8
3
  6
HIDDEN
 62
     9
100
AcDbLine
 10
22038.65208522479
 20
7462.754107133982
 30
0.0
 11
22032.96337603447
 21
7502.347523098608
 31
0.0
  0
LINE
  5
92E8
330
18
100
AcDbEntity
  8
3
  6
HIDDEN
 62
     9
100
AcDbLine
 10
22312.99225299354
 20
7462.754107133985
 30
0.0
 11
22318.68096218386
 21
7502.34752309861
 31
0.0
  0
LINE
  5
92E9
330
18
100
AcDbEntity
  8
3
  6
HIDDEN
 62
     9
100
AcDbLine
 10
22411.97579290511
 20
7448.532334158186
 30
0.0
 11
22312.99225299354
 21
7462.754107133985
 31
0.0
  0
LINE
  5
92EA
330
18
100
AcDbEntity
  8
3
  6
HIDDEN
 62
     9
100
AcDbLine
 10
22417.66450209543
 20
7488.125750122811
 30
0.0
 11
22318.68096218386
 21
7502.34752309861
 31
0.0
  0
LINE
  5
92EC
330
18
100
AcDbEntity
  8
3
  6
HIDDEN
 62
     9
100
AcDbLine
 10
22905.97117451364
 20
8055.733028654087
 30
0.0
 11
22866.37775854901
 21
8050.044319463767
 31
0.0
  0
LINE
  5
92ED
330
18
100
AcDbEntity
  8
3
  6
HIDDEN
 62
     9
100
AcDbLine
 10
22880.59953152481
 20
7951.0607795522
 30
0.0
 11
22866.37775854901
 21
8050.044319463767
 31
0.0
  0
LINE
  5
92EE
330
18
100
AcDbEntity
  8
3
  6
HIDDEN
 62
     9
100
AcDbLine
 10
22920.19294748944
 20
7956.74948874252
 30
0.0
 11
22905.97117451364
 21
8055.733028654087
 31
0.0
  0
LINE
  5
92FF
330
18
100
AcDbEntity
  8
3
  6
HIDDEN
 62
     9
100
AcDbLine
 10
22038.65208522479
 20
8923.052117942933
 30
0.0
 11
22032.96337603447
 21
8883.458701978307
 31
0.0
  0
LINE
  5
9305
330
18
100
AcDbEntity
  8
3
  6
HIDDEN
 62
     9
100
AcDbLine
 10
22312.99225299353
 20
8923.05211794293
 30
0.0
 11
22318.68096218386
 21
8883.458701978304
 31
0.0
  0
LINE
  5
9306
330
18
100
AcDbEntity
  8
3
  6
HIDDEN
 62
     9
100
AcDbLine
 10
22417.66450209542
 20
8897.680474954105
 30
0.0
 11
22318.68096218386
 21
8883.458701978304
 31
0.0
  0
LINE
  5
9307
330
18
100
AcDbEntity
  8
3
  6
HIDDEN
 62
     9
100
AcDbLine
 10
22411.9757929051
 20
8937.27389091873
 30
0.0
 11
22312.99225299353
 21
8923.05211794293
 31
0.0
  0
LINE
  5
9308
330
18
100
AcDbEntity
  8
3
  6
HIDDEN
 62
     9
100
AcDbLine
 10
22905.97117451364
 20
8330.07319642283
 30
0.0
 11
22866.37775854901
 21
8335.761905613152
 31
0.0
  0
LINE
  5
9309
330
18
100
AcDbEntity
  8
3
  6
HIDDEN
 62
     9
100
AcDbLine
 10
22880.59953152481
 20
8434.745445524718
 30
0.0
 11
22866.37775854901
 21
8335.761905613152
 31
0.0
  0
LINE
  5
930A
330
18
100
AcDbEntity
  8
3
  6
HIDDEN
 62
     9
100
AcDbLine
 10
22920.19294748944
 20
8429.056736334398
 30
0.0
 11
22905.97117451364
 21
8330.07319642283
 31
0.0
  0
LINE
  5
9311
330
18
100
AcDbEntity
  8
3
 62
     7
100
AcDbLine
 10
21969.21297370686
 20
9142.903112538455
 30
0.0
 11
22382.43136451146
 21
9142.903112538455
 31
0.0
  0
DIMENSION
  5
93A4
330
18
100
AcDbEntity
  8
2
  6
Continuous
100
AcDbDimension
  2
*D12
 10
32896.13821931106
 20
9680.78877010172
 30
0.0
 11
32070.19739303324
 21
9730.788770101721
 31
0.0
 70
    32
 71
     5
 42
412.9704131389098
  3
ST20-5
100
AcDbAlignedDimension
 13
31244.25656675542
 23
9017.372241727315
 33
0.0
 14
32896.13821931106
 24
8998.110645937911
 34
0.0
100
AcDbRotatedDimension
  0
LINE
  5
93CF
330
18
100
AcDbEntity
  8
2
  6
Continuous
100
AcDbLine
 10
32896.13821931106
 20
9002.410170794226
 30
0.0
 11
32896.13821931106
 21
8998.110645937911
 31
0.0
  0
SOLID
  5
9E34
330
18
100
AcDbEntity
  8
2
  6
Continuous
 62
     4
100
AcDbTrace
 10
21915.53976668244
 20
8953.062860932419
 30
0.0
 11
21936.99276507916
 21
8918.650460489628
 31
0.0
 12
21905.53860969541
 22
8944.24500196901
 32
0.0
 13
21905.53860969541
 23
8944.24500196901
 33
0.0
1001
ACAD
1000
DSTYLE
1002
{
1070
     5
1000

1070
    77
1070
     1
1070
   147
1040
1.0
1002
}
  0
LWPOLYLINE
  5
9E35
330
18
100
AcDbEntity
  8
2
  6
Continuous
 62
     4
100
AcDbPolyline
 90
        3
 70
     0
 43
0.0
 10
21910.53918818893
 20
8948.653931450715
 10
21778.4752096585
 20
9098.440017517102
 10
21159.00089619688
 20
9098.440017517102
1001
ACAD
1000
DSTYLE
1002
{
1070
     5
1000

1070
    77
1070
     1
1070
   147
1040
1.0
1002
}
  0
LINE
  5
9E54
330
18
100
AcDbEntity
  8
3
  6
CENTER
 62
     9
100
AcDbLine
 10
22349.06333049987
 20
8366.144273929158
 30
0.0
 11
22377.34760174733
 21
8394.428545176621
 31
0.0
  0
LINE
  5
9E55
330
18
100
AcDbEntity
  8
3
  6
CENTER
 62
     9
100
AcDbLine
 10
22002.58100771845
 20
8366.144273929158
 30
0.0
 11
21974.29673647099
 21
8394.428545176619
 31
0.0
  0
LINE
  5
9E56
330
18
100
AcDbEntity
  8
3
  6
CENTER
 62
     9
100
AcDbLine
 10
22349.06333049987
 20
8019.66195114775
 30
0.0
 11
22377.34760174732
 21
7991.377679900288
 31
0.0
  0
LINE
  5
9E57
330
18
100
AcDbEntity
  8
3
  6
CENTER
 62
     9
100
AcDbLine
 10
22002.58100771845
 20
8019.66195114775
 30
0.0
 11
21974.29673647099
 21
7991.377679900288
 31
0.0
  0
CIRCLE
  5
9E58
330
18
100
AcDbEntity
  8
3
  6
CENTER
 62
     9
100
AcDbCircle
 10
22363.2054661236
 20
8380.286409552889
 30
0.0
 40
8.0
  0
CIRCLE
  5
9E59
330
18
100
AcDbEntity
  8
3
  6
CENTER
 62
     9
100
AcDbCircle
 10
21988.43887209473
 20
8380.286409552889
 30
0.0
 40
8.0
  0
CIRCLE
  5
9E5A
330
18
100
AcDbEntity
  8
3
  6
CENTER
 62
     9
100
AcDbCircle
 10
21988.43887209473
 20
8005.519815524019
 30
0.0
 40
8.0
  0
CIRCLE
  5
9E5B
330
18
100
AcDbEntity
  8
3
  6
CENTER
 62
     9
100
AcDbCircle
 10
22363.2054661236
 20
8005.519815524023
 30
0.0
 40
8.0
  0
MTEXT
  5
9E5C
102
{ACAD_REACTORS
330
9E5D
102
}
330
18
100
AcDbEntity
  8
2
  6
Continuous
 62
     7
100
AcDbMText
 10
21769.92131667407
 20
8610.075966580367
 30
0.0
 40
60.0
 41
0.0
 71
     6
 72
     1
  1
Ｍ１２　ｽﾃﾝﾚｽｲﾝｻｰﾄ
  7
JF3
 73
     1
 44
1.0
1001
ACAD
1000
MTEXTBEGIN
1070
    73
1070
     1
1070
    44
1040
1.0
1070
    74
1070
     0
1000
MTEXTEND
  0
LEADER
  5
9E5D
330
18
100
AcDbEntity
  8
2
  6
Continuous
 62
     4
100
AcDbLeader
  3
ST20$7
 73
     0
 75
     1
 76
     3
 10
21988.43887209472
 20
8380.286409552892
 30
0.0
 10
21829.92131667406
 20
8560.075966580368
 30
0.0
 10
21789.92131667406
 20
8560.075966580368
 30
0.0
1001
ACAD
1000
DSTYLE
1002
{
1070
     5
1000

1070
    77
1070
     1
1070
   147
1040
1.0
1002
}
  0
LINE
  5
9E5E
330
18
100
AcDbEntity
  8
2
100
AcDbLine
 10
21829.92131667407
 20
8560.075966580368
 30
0.0
 11
21219.54652702489
 21
8560.075966580368
 31
0.0
  0
TEXT
  5
A9DC
330
18
100
AcDbEntity
  8
2
  6
Continuous
 62
     7
100
AcDbText
 10
26120.59640158934
 20
4143.113792081354
 30
0.0
 40
180.0
  1
10゜
 41
0.8
  7
JF3
100
AcDbText
  0
TEXT
  5
A9E6
330
18
100
AcDbEntity
  8
2
  6
Continuous
 62
     7
100
AcDbText
 10
26120.59640158933
 20
9660.472663943965
 30
0.0
 40
180.0
  1
0゜
 41
0.8
  7
JF3
100
AcDbText
  0
TEXT
  5
A9EB
330
18
100
AcDbEntity
  8
2
  6
Continuous
 62
     7
100
AcDbText
 10
26120.59640158933
 20
6933.374672123017
 30
0.0
 40
180.0
  1
5゜
 41
0.8
  7
JF3
100
AcDbText
  0
DIMENSION
  5
BD1F
330
18
100
AcDbEntity
  8
2
  6
Continuous
 62
     4
100
AcDbDimension
  2
*D13
 10
27569.2055944228
 20
6688.02836899956
 30
0.0
 11
27522.16929599151
 21
6919.446658939808
 31
0.0
 70
    34
  1
5\U+00B0
 71
     5
 42
0.0872664625997162
  3
ST20-5
100
AcDb2LineAngularDimension
 13
27455.1421478026
 23
4686.812986957519
 33
0.0
 14
27455.14247668622
 24
6688.028368999559
 34
0.0
 15
27394.12160381942
 25
4686.812986957519
 35
0.0
 16
27541.58224944517
 26
6868.394045673181
 36
0.0
1001
ACAD
1000
DSTYLE
1002
{
1070
   271
1070
     4
1070
   271
1070
     4
1070
   271
1070
     4
1070
   271
1070
     4
1070
   271
1070
     4
1002
}
  0
LINE
  5
BD20
330
18
100
AcDbEntity
  8
1
  6
CENTER
 62
     3
100
AcDbLine
 10
27394.12160381942
 20
4686.812986957519
 30
0.0
 11
27569.2055944228
 21
6688.028368999559
 31
0.0
  0
DIMENSION
  5
BD21
330
18
100
AcDbEntity
  8
2
  6
Continuous
 62
     4
100
AcDbDimension
  2
*D14
 10
27957.49525281678
 20
6108.00167348534
 30
0.0
 11
27650.87159359037
 21
6194.19018197664
 31
0.0
 70
   161
  1
\U+03C6<>
 71
     5
 42
210.0000000974378
  3
ST20-5
100
AcDbAlignedDimension
 13
27097.62206831626
 23
5917.525331737042
 33
0.0
 14
27934.42561510159
 24
5844.314507795033
 34
0.0
  0
LINE
  5
BD25
330
18
100
AcDbEntity
  8
3
 62
     7
100
AcDbLine
 10
26255.14244381782
 20
6488.028368999554
 30
0.0
 11
28655.14244381786
 21
6488.028368999557
 31
0.0
  0
LINE
  5
BD26
330
18
100
AcDbEntity
  8
3
 62
     7
100
AcDbLine
 10
26255.14244381782
 20
4888.028368999552
 30
0.0
 11
28655.14244381786
 21
4888.028368999556
 31
0.0
  0
LINE
  5
BD2A
330
18
100
AcDbEntity
  8
3
 62
     7
100
AcDbLine
 10
26255.14244381916
 20
7615.126360820543
 30
0.0
 11
28655.1424438192
 21
7615.126360820545
 31
0.0
  0
LINE
  5
BD2B
330
18
100
AcDbEntity
  8
3
 62
     7
100
AcDbLine
 10
26255.14244381915
 20
9215.126360820542
 30
0.0
 11
28655.1424438192
 21
9215.126360820546
 31
0.0
  0
DIMENSION
  5
BD2F
330
18
100
AcDbEntity
  8
2
  6
Continuous
 62
     4
100
AcDbDimension
  2
*D15
 10
27455.14247668757
 20
3897.767488957939
 30
0.0
 11
27590.10674806968
 21
4138.556345732686
 31
0.0
 70
    34
  1
10\U+00B0
 71
     5
 42
0.1745329251994336
  3
ST20-5
100
AcDb2LineAngularDimension
 13
27331.82680659679
 23
1896.552106915898
 33
0.0
 14
27684.69541176862
 24
3897.767488957942
 34
0.0
 15
27455.14214780394
 25
1896.552106915898
 35
0.0
 16
27629.11248669059
 26
4084.316407506422
 36
0.0
1001
ACAD
1000
DSTYLE
1002
{
1070
   271
1070
     4
1070
   271
1070
     4
1070
   271
1070
     4
1070
   271
1070
     4
1070
   271
1070
     4
1002
}
  0
LINE
  5
BD33
330
18
100
AcDbEntity
  8
3
 62
     7
100
AcDbLine
 10
26255.14244381916
 20
3697.767488957934
 30
0.0
 11
28655.14244381921
 21
3697.767488957937
 31
0.0
  0
LINE
  5
BD34
330
18
100
AcDbEntity
  8
1
  6
CENTER
 62
     3
100
AcDbLine
 10
27331.82680659679
 20
1896.552106915898
 30
0.0
 11
27684.69541176862
 21
3897.767488957941
 31
0.0
  0
LINE
  5
BD35
330
18
100
AcDbEntity
  8
3
 62
     7
100
AcDbLine
 10
26255.14244381917
 20
2097.767488957933
 30
0.0
 11
28655.14244381921
 21
2097.767488957936
 31
0.0
  0
DIMENSION
  5
BD3C
330
18
100
AcDbEntity
  8
2
  6
Continuous
 62
     4
100
AcDbDimension
  2
*D16
 10
26638.54674452095
 20
6459.599137045
 30
0.0
 11
26566.94807392998
 21
6214.908249658957
 31
0.0
 70
    32
 71
     5
 42
125.0000000001646
  3
ST20-5
100
AcDbAlignedDimension
 13
27014.79999678101
 23
5924.771324086115
 33
0.0
 14
26770.801228467
 24
6448.028368999555
 34
0.0
 50
85.00000000013089
100
AcDbRotatedDimension
  0
LINE
  5
BD3D
330
18
100
AcDbEntity
  8
1
  6
CENTER
 62
     3
100
AcDbLine
 10
27455.1421478026
 20
4686.812986957518
 30
0.0
 11
27455.14247668622
 21
6688.028368999557
 31
0.0
  0
DIMENSION
  5
BD43
330
18
100
AcDbEntity
  8
2
  6
Continuous
 62
     4
100
AcDbDimension
  2
*D17
 10
23125.82216910918
 20
2550.213398358145
 30
0.0
 11
22175.82216910917
 21
2600.213398358145
 31
0.0
 70
    32
 71
     5
 42
1900.0
  3
ST20
100
AcDbAlignedDimension
 13
21225.82216910918
 23
1990.588338021114
 33
0.0
 14
23125.82216910918
 24
1990.588338021115
 34
0.0
100
AcDbRotatedDimension
  0
DIMENSION
  5
BD44
330
18
100
AcDbEntity
  8
2
  6
Continuous
 62
     4
100
AcDbDimension
  2
*D18
 10
22475.82216910918
 20
2426.027600670348
 30
0.0
 11
22175.82216910918
 21
2476.027600670348
 31
0.0
 70
    32
 71
     5
 42
599.9999999999854
  3
ST20
100
AcDbAlignedDimension
 13
21875.82216910919
 23
2104.957303538345
 33
0.0
 14
22475.82216910918
 24
2102.657303538357
 34
0.0
100
AcDbRotatedDimension
  0
LINE
  5
BD45
330
18
100
AcDbEntity
  8
3
100
AcDbLine
 10
21875.82216910918
 20
2102.657303538356
 30
0.0
 11
22475.82216910918
 21
2102.657303538357
 31
0.0
  0
LINE
  5
BD46
330
18
100
AcDbEntity
  8
3
100
AcDbLine
 10
21225.82216910918
 20
1702.657303538356
 30
0.0
 11
23125.82216910918
 21
1702.657303538356
 31
0.0
  0
DIMENSION
  5
BD58
330
18
100
AcDbEntity
  8
2
  6
Continuous
 62
     4
100
AcDbDimension
  2
*D19
 10
21875.82216910919
 20
2426.027600670347
 30
0.0
 11
21550.82216910918
 21
2476.027600670347
 31
0.0
 70
    32
 71
     5
 42
650.0000000000145
  3
ST20
100
AcDbAlignedDimension
 13
21225.82216910918
 23
1990.588338021115
 33
0.0
 14
21875.82216910919
 24
2104.957303538345
 34
0.0
100
AcDbRotatedDimension
  0
LINE
  5
BD59
330
18
100
AcDbEntity
  8
3
100
AcDbLine
 10
21225.82216910918
 20
1990.588338021115
 30
0.0
 11
21875.82216910918
 21
2102.657303538356
 31
0.0
  0
LINE
  5
BD5A
330
18
100
AcDbEntity
  8
3
100
AcDbLine
 10
21225.82216910918
 20
1702.657303538356
 30
0.0
 11
21225.82216910918
 21
1990.588338021114
 31
0.0
  0
LINE
  5
BD65
330
18
100
AcDbEntity
  8
1
  6
CENTER
 62
     3
100
AcDbLine
 10
27455.14214780394
 20
1896.552106915898
 30
0.0
 11
27455.14247668757
 21
3897.767488957937
 31
0.0
  0
DIMENSION
  5
BD6C
330
18
100
AcDbEntity
  8
2
  6
Continuous
 62
     4
100
AcDbDimension
  2
*D20
 10
23619.66142122101
 20
1702.657303538356
 30
0.0
 11
23569.66142122101
 21
1902.65730353836
 31
0.0
 70
    32
 71
     5
 42
400.0000000000007
  3
ST20
100
AcDbAlignedDimension
 13
22475.82216910918
 23
2102.657303538357
 33
0.0
 14
23125.82216910918
 24
1702.657303538356
 34
0.0
 50
90.0
100
AcDbRotatedDimension
  0
DIMENSION
  5
BD6D
330
18
100
AcDbEntity
  8
2
  6
Continuous
 62
     4
100
AcDbDimension
  2
*D21
 10
23467.21344552951
 20
1990.588338021115
 30
0.0
 11
23403.28361462004
 21
2178.031399818244
 31
0.0
 70
   160
 71
     5
 42
112.0689655172416
  3
ST20
100
AcDbAlignedDimension
 13
22475.82216910918
 23
2102.657303538357
 33
0.0
 14
23125.82216910918
 24
1990.588338021115
 34
0.0
 50
90.0
100
AcDbRotatedDimension
  0
DIMENSION
  5
BD6E
330
18
100
AcDbEntity
  8
2
  6
Continuous
 62
     4
100
AcDbDimension
  2
*D22
 10
23125.82216910918
 20
2426.027600670347
 30
0.0
 11
22800.82216910917
 21
2476.027600670347
 31
0.0
 70
    32
 71
     5
 42
650.0
  3
ST20
100
AcDbAlignedDimension
 13
22475.82216910918
 23
2102.657303538357
 33
0.0
 14
23125.82216910918
 24
1990.588338021115
 34
0.0
100
AcDbRotatedDimension
  0
LINE
  5
BD6F
330
18
100
AcDbEntity
  8
3
100
AcDbLine
 10
22475.82216910918
 20
2102.657303538357
 30
0.0
 11
23125.82216910918
 21
1990.588338021115
 31
0.0
  0
DIMENSION
  5
BD70
330
18
100
AcDbEntity
  8
2
  6
Continuous
 62
     4
100
AcDbDimension
  2
*D23
 10
23467.21344552951
 20
1702.657303538356
 30
0.0
 11
23417.21344552951
 21
1846.622820779739
 31
0.0
 70
    32
 71
     5
 42
287.9310344827591
  3
ST20
100
AcDbAlignedDimension
 13
23125.82216910918
 23
1990.588338021115
 33
0.0
 14
23125.82216910918
 24
1702.657303538356
 34
0.0
 50
90.0
100
AcDbRotatedDimension
  0
LINE
  5
BD71
330
18
100
AcDbEntity
  8
3
100
AcDbLine
 10
23125.82216910918
 20
1702.657303538356
 30
0.0
 11
23125.82216910918
 21
1990.588338021115
 31
0.0
  0
DIMENSION
  5
BD7A
330
18
100
AcDbEntity
  8
2
  6
Continuous
 62
     4
100
AcDbDimension
  2
*D24
 10
26594.96887314707
 20
5961.501787998471
 30
0.0
 11
26541.32428556167
 21
5922.02700841964
 31
0.0
 70
    32
 71
     5
 42
22.00000000002865
  3
ST20-5
100
AcDbAlignedDimension
 13
27057.74377851454
 23
5832.678084311688
 33
0.0
 14
27014.79999678101
 24
5924.771324086115
 34
0.0
 50
85.00000000013089
100
AcDbRotatedDimension
  0
LINE
  5
BDC3
330
18
100
AcDbEntity
  8
1
  6
CENTER
 62
     3
100
AcDbLine
 10
27455.14214780393
 20
7413.910978778507
 30
0.0
 11
27455.14247668757
 21
9415.126360820547
 31
0.0
  0
LINE
  5
BDEA
330
18
100
AcDbEntity
  8
1
  6
CENTER
 62
     3
100
AcDbLine
 10
32069.952753991
 20
5307.774294559818
 30
0.0
 11
32069.952753991
 21
6320.574500767484
 31
0.0
  0
DIMENSION
  5
BDEC
330
18
100
AcDbEntity
  8
2
  6
Continuous
 62
     4
100
AcDbDimension
  2
*D25
 10
29191.61560422324
 20
4888.028368999556
 30
0.0
 11
29141.61560422323
 21
5688.02836899956
 31
0.0
 70
    32
 71
     5
 42
400.0
  3
ST20-5
100
AcDbAlignedDimension
 13
28655.14244381786
 23
6488.028368999557
 33
0.0
 14
28655.14244381786
 24
4888.028368999556
 34
0.0
 50
90.0
100
AcDbRotatedDimension
  0
DIMENSION
  5
BDEF
330
18
100
AcDbEntity
  8
2
  6
Continuous
 62
     4
100
AcDbDimension
  2
*D26
 10
33001.663355991
 20
6628.705557015718
 30
0.0
 11
32069.952753991
 21
6678.705557015717
 31
0.0
 70
    32
  1
932
 71
     5
 42
931.7106019999956
  3
ST20-10
100
AcDbAlignedDimension
 13
31138.24215199101
 23
5787.855439108771
 33
0.0
 14
33001.663355991
 24
5787.855439108771
 34
0.0
100
AcDbRotatedDimension
  0
DIMENSION
  5
BDF0
330
18
100
AcDbEntity
  8
2
  6
Continuous
 62
     4
100
AcDbDimension
  2
*D27
 10
33463.93534300251
 20
5427.855439108771
 30
0.0
 11
33413.93534300252
 21
5827.855439108777
 31
0.0
 70
    32
 71
     5
 42
400.0
  3
ST20-10
100
AcDbAlignedDimension
 13
32569.95275399101
 23
6227.855439108772
 33
0.0
 14
33036.60453246157
 24
5427.855439108771
 34
0.0
 50
90.0
100
AcDbRotatedDimension
  0
DIMENSION
  5
BDF1
330
18
100
AcDbEntity
  8
2
  6
Continuous
 62
     4
100
AcDbDimension
  2
*D28
 10
33313.06000331609
 20
5787.855439108771
 30
0.0
 11
33263.06000331609
 21
6007.855439108776
 31
0.0
 70
    32
 71
     5
 42
219.9999999999982
  3
ST20-10
100
AcDbAlignedDimension
 13
32569.95275399101
 23
6227.855439108768
 33
0.0
 14
33001.663355991
 24
5787.855439108771
 34
0.0
 50
90.0
100
AcDbRotatedDimension
  0
DIMENSION
  5
BDFE
330
18
100
AcDbEntity
  8
2
  6
Continuous
 62
     4
100
AcDbDimension
  2
*D29
 10
29191.61560422458
 20
2097.767488957936
 30
0.0
 11
29141.61560422458
 21
2897.767488957941
 31
0.0
 70
    32
 71
     5
 42
400.0
  3
ST20-5
100
AcDbAlignedDimension
 13
28655.14244381921
 23
3697.767488957937
 33
0.0
 14
28655.14244381921
 24
2097.767488957936
 34
0.0
 50
90.0
100
AcDbRotatedDimension
  0
DIMENSION
  5
BE46
330
18
100
AcDbEntity
  8
2
  6
Continuous
 62
     4
100
AcDbDimension
  2
*D30
 10
33313.06000331609
 20
5427.855439108771
 30
0.0
 11
33263.06000331609
 21
5607.855439108778
 31
0.0
 70
    32
 71
     5
 42
180.0
  3
ST20-10
100
AcDbAlignedDimension
 13
33001.663355991
 23
5787.855439108771
 33
0.0
 14
33036.60453246157
 24
5427.855439108771
 34
0.0
 50
90.0
100
AcDbRotatedDimension
  0
DIMENSION
  5
BE53
330
18
100
AcDbEntity
  8
2
  6
Continuous
 62
     4
100
AcDbDimension
  2
*D31
 10
32669.952753991
 20
6469.274725196466
 30
0.0
 11
32069.952753991
 21
6519.274725196466
 31
0.0
 70
    32
 71
     5
 42
600.0
  3
ST20-10
100
AcDbAlignedDimension
 13
31469.95275399101
 23
6127.855439108846
 33
0.0
 14
32669.952753991
 24
6127.855439108768
 34
0.0
100
AcDbRotatedDimension
  0
MTEXT
  5
BE56
330
18
100
AcDbEntity
  8
2
  6
Continuous
 62
     7
100
AcDbMText
 10
28101.20205666927
 20
7358.406321892928
 30
0.0
 40
60.0
 41
0.0
 71
     4
 72
     1
  1
VU 125
  7
JF3
 73
     1
 44
1.0
1001
ACAD
1000
MTEXTBEGIN
1070
    73
1070
     1
1070
    44
1040
1.0
1070
    74
1070
     0
1000
MTEXTEND
  0
DIMENSION
  5
BE58
330
18
100
AcDbEntity
  8
2
  6
Continuous
 62
     4
100
AcDbDimension
  2
*D32
 10
29046.24095950019
 20
8527.126360820542
 30
0.0
 11
28996.24095950019
 21
8571.126360820544
 31
0.0
 70
    32
 71
     5
 42
21.99999999999909
  3
ST20-5
100
AcDbAlignedDimension
 13
27958.28086589924
 23
8615.126360820539
 33
0.0
 14
27907.47404223008
 24
8527.126360820544
 34
0.0
 50
90.0
100
AcDbRotatedDimension
  0
DIMENSION
  5
BE59
330
18
100
AcDbEntity
  8
2
  6
Continuous
 62
     4
100
AcDbDimension
  2
*D33
 10
29046.24095950019
 20
8615.126360820537
 30
0.0
 11
28996.24095950019
 21
8865.126360820543
 31
0.0
 70
    32
 71
     5
 42
124.9999999999995
  3
ST20-5
100
AcDbAlignedDimension
 13
28246.95600038312
 23
9115.126360820537
 33
0.0
 14
27958.28086589924
 24
8615.126360820539
 34
0.0
 50
90.0
100
AcDbRotatedDimension
  0
DIMENSION
  5
BE5A
330
18
100
AcDbEntity
  8
2
  6
Continuous
 62
     4
100
AcDbDimension
  2
*D34
 10
29046.24095950019
 20
9115.126360820536
 30
0.0
 11
28996.24095950019
 21
9165.126360820547
 31
0.0
 70
    32
 71
     5
 42
25.00000000000227
  3
ST20-5
100
AcDbAlignedDimension
 13
28655.1424438192
 23
9215.126360820546
 33
0.0
 14
28246.95600038312
 24
9115.126360820537
 34
0.0
 50
90.0
100
AcDbRotatedDimension
  0
DIMENSION
  5
BE5B
330
18
100
AcDbEntity
  8
2
  6
Continuous
 62
     4
100
AcDbDimension
  2
*D35
 10
29191.61560422457
 20
7615.126360820545
 30
0.0
 11
29141.61560422457
 21
8415.126360820549
 31
0.0
 70
    32
 71
     5
 42
400.0
  3
ST20-5
100
AcDbAlignedDimension
 13
28655.1424438192
 23
9215.126360820546
 33
0.0
 14
28655.1424438192
 24
7615.126360820545
 34
0.0
 50
90.0
100
AcDbRotatedDimension
  0
LINE
  5
BE65
330
18
100
AcDbEntity
  8
1
  6
CENTER
 62
     3
100
AcDbLine
 10
32069.95275399101
 20
7850.686032863189
 30
0.0
 11
32069.95275399101
 21
9402.410170794226
 31
0.0
  0
DIMENSION
  5
BE72
330
18
100
AcDbEntity
  8
2
  6
Continuous
 62
     4
100
AcDbDimension
  2
*D36
 10
33514.83189540855
 20
8050.686032863188
 30
0.0
 11
33464.83189540855
 21
8626.54810182871
 31
0.0
 70
    32
  1
288
 71
     5
 42
287.9310344827588
  3
ST20-5
100
AcDbAlignedDimension
 13
32696.39485070731
 23
9202.410170794221
 33
0.0
 14
32949.10034435399
 24
8050.686032863188
 34
0.0
 50
90.0
100
AcDbRotatedDimension
  0
LWPOLYLINE
  5
BEC4
330
18
100
AcDbEntity
  8
3
  6
Continuous
 62
     9
100
AcDbPolyline
 90
        6
 70
     0
 43
0.0
 10
21875.82216910918
 20
2102.657303538356
 10
21925.82216910917
 20
2102.657303538357
 10
22025.82216910918
 20
2212.657303538357
 10
22325.82216910917
 20
2212.657303538357
 10
22425.82216910918
 20
2102.657303538357
 10
22475.82216910918
 20
2102.657303538357
  0
LWPOLYLINE
  5
BEC5
330
18
100
AcDbEntity
  8
3
  6
Continuous
 62
     9
100
AcDbPolyline
 90
        6
 70
     0
 43
0.0
 10
21875.82216910918
 20
2104.957303538355
 10
21924.8047183711
 20
2104.957303538359
 10
22024.8047183711
 20
2214.957303538357
 10
22326.83961984725
 20
2214.957303538358
 10
22426.83961984725
 20
2104.957303538356
 10
22475.82216910918
 20
2104.957303538356
  0
LWPOLYLINE
  5
BEC6
330
18
100
AcDbEntity
  8
3
  6
Continuous
100
AcDbPolyline
 90
        4
 70
     0
 43
0.0
 10
21875.82216910918
 20
2104.957303538355
 10
21875.82216910918
 20
2102.657303538356
 10
22475.82216910918
 20
2102.657303538357
 10
22475.82216910918
 20
2104.957303538356
  0
LWPOLYLINE
  5
BED5
330
18
100
AcDbEntity
  8
3
  6
Continuous
 62
     9
100
AcDbPolyline
 90
        4
 70
     1
 43
0.0
 10
21975.82216910917
 20
2102.657303538357
 10
22375.82216910917
 20
2102.657303538357
 10
22360.82216910918
 20
2077.657303538357
 10
21990.82216910917
 20
2077.657303538357
  0
LWPOLYLINE
  5
BED6
330
18
100
AcDbEntity
  8
3
  6
Continuous
 62
     9
100
AcDbPolyline
 90
        4
 70
     1
 43
0.0
 10
21998.65552445005
 20
2077.657303538357
 10
22352.98881376829
 20
2077.657303538359
 10
22280.83745322407
 20
1952.657303538357
 10
22070.80688499427
 20
1952.657303538361
  0
LWPOLYLINE
  5
BED7
330
18
100
AcDbEntity
  8
3
  6
Continuous
 62
     9
100
AcDbPolyline
 90
        4
 70
     1
 43
0.0
 10
21977.87216910917
 20
2077.657303538357
 10
22373.77216910917
 20
2077.657303538357
 10
22288.92216910917
 20
1930.657303538357
 10
22062.72216910917
 20
1930.657303538357
  0
LWPOLYLINE
  5
BED8
330
18
100
AcDbEntity
  8
3
  6
Continuous
 62
     9
100
AcDbPolyline
 90
        4
 70
     1
 43
0.0
 10
22110.42216910917
 20
1930.657303538357
 10
22241.22216910917
 20
1930.657303538357
 10
22241.22216910917
 20
1711.657303538356
 10
22110.42216910917
 20
1711.657303538356
  0
LWPOLYLINE
  5
BED9
330
18
100
AcDbEntity
  8
3
  6
Continuous
 62
     9
100
AcDbPolyline
 90
        4
 70
     1
 43
0.0
 10
22105.92216910917
 20
1930.657303538357
 10
22245.72216910917
 20
1930.657303538357
 10
22245.72216910917
 20
1711.657303538356
 10
22105.92216910917
 20
1711.657303538356
  0
LWPOLYLINE
  5
BEDA
330
18
100
AcDbEntity
  8
3
  6
Continuous
 62
     9
100
AcDbPolyline
 90
        4
 70
     1
 43
0.0
 10
22110.42216910918
 20
1952.657303538361
 10
22241.22216910917
 20
1952.657303538361
 10
22241.22216910917
 20
1930.657303538357
 10
22110.42216910918
 20
1930.657303538357
  0
LWPOLYLINE
  5
BEDB
330
18
100
AcDbEntity
  8
3
  6
Continuous
 62
     9
100
AcDbPolyline
 90
        4
 70
     1
 43
0.0
 10
22096.82216910918
 20
1702.657303538356
 10
22105.82216910918
 20
1711.657303538356
 10
22245.82216910917
 20
1711.657303538356
 10
22254.82216910918
 20
1702.657303538356
  0
LWPOLYLINE
  5
BEDC
330
18
100
AcDbEntity
  8
3
  6
Continuous
 62
     9
100
AcDbPolyline
 90
        6
 70
     0
 43
0.0
 10
26836.2062267632
 20
6440.844705670023
 10
26804.99203852758
 20
6443.575593281789
 10
26784.47210498634
 20
6488.02836899923
 10
28399.81041658592
 20
6488.028369000011
 10
28279.36019170343
 20
6314.585094015965
 10
28248.1460034682
 20
6317.315981627697
  0
LWPOLYLINE
  5
BEDD
330
18
100
AcDbEntity
  8
3
  6
Continuous
 62
     9
100
AcDbPolyline
 90
        6
 70
     0
 43
0.0
 10
28248.14600346797
 20
6317.315981627374
 10
28330.96307706455
 20
6310.070426541282
 10
27941.6070197966
 20
5753.888603151888
 10
27040.25005696317
 20
5832.74711918997
 10
26753.38915316646
 20
6448.090260756472
 10
26836.20622676303
 20
6440.844705670381
  0
LWPOLYLINE
  5
BEDE
330
18
100
AcDbEntity
  8
3
  6
Continuous
 62
     9
100
AcDbPolyline
 90
        4
 70
     0
 43
0.0
 10
28248.14600346798
 20
6317.315981627384
 10
27917.06092075713
 20
5844.372254255442
 10
27080.13556672622
 20
5917.593734950578
 10
26836.20622676303
 20
6440.844705670379
  0
LWPOLYLINE
  5
BEDF
330
18
100
AcDbEntity
  8
3
  6
Continuous
 62
     9
100
AcDbPolyline
 90
        4
 70
     1
 43
0.0
 10
27237.99371072088
 20
5903.782936905805
 10
27759.20277676247
 20
5858.183052300231
 10
27751.53307140068
 20
5770.517918868143
 10
27230.32400535908
 20
5816.117803473716
  0
LWPOLYLINE
  5
BEE4
330
18
100
AcDbEntity
  8
3
  6
Continuous
 62
     9
100
AcDbPolyline
 90
        4
 70
     1
 43
0.0
 10
27028.92211878583
 20
4888.028368999554
 10
27138.71658173026
 20
4980.156862361519
 10
27696.58561266163
 20
4931.349646422833
 10
27732.93648056963
 20
4888.028368999555
  0
DIMENSION
  5
BEE5
330
18
100
AcDbEntity
  8
2
  6
Continuous
 62
     4
100
AcDbDimension
  2
*D37
 10
26630.79165114341
 20
9315.482448851904
 30
0.0
 11
26574.6147361706
 21
9340.783718718109
 31
0.0
 70
    32
 71
     5
 42
18.00000022711811
  3
ST20-5
100
AcDbAlignedDimension
 13
26663.32885306386
 23
9115.126360820546
 33
0.0
 14
26746.46729295812
 24
9115.126360820545
 34
0.0
 50
30.00000009780681
100
AcDbRotatedDimension
  0
LWPOLYLINE
  5
BEE6
330
18
100
AcDbEntity
  8
3
  6
Continuous
 62
     9
100
AcDbPolyline
 90
        4
 70
     0
 43
0.0
 10
28163.80902245565
 20
9115.126360820552
 10
27875.20358027878
 20
8615.126360820545
 10
27035.08130735956
 20
8615.126360820559
 10
26746.47586518269
 20
9115.126360820543
  0
LWPOLYLINE
  5
BEE7
330
18
100
AcDbEntity
  8
3
  6
Continuous
 62
     9
100
AcDbPolyline
 90
        6
 70
     0
 43
0.0
 10
26746.47586518269
 20
9115.126360820543
 10
26715.14244381917
 20
9115.126360820543
 10
26655.14244381918
 20
9215.126360820542
 10
28255.14244381917
 20
9215.126360820544
 10
28195.14244381918
 20
9115.126360820545
 10
28163.80902245565
 20
9115.126360820545
  0
LWPOLYLINE
  5
BEE8
330
18
100
AcDbEntity
  8
3
  6
Continuous
 62
     9
100
AcDbPolyline
 90
        6
 70
     0
 43
0.0
 10
28163.80902245565
 20
9115.126360820545
 10
28246.94244381917
 20
9115.126360820545
 10
27907.54244381918
 20
8527.126360820544
 10
27002.74244381918
 20
8527.126360820544
 10
26663.34244381916
 20
9115.126360820543
 10
26746.47586518269
 20
9115.126360820543
  0
LWPOLYLINE
  5
BEE9
330
18
100
AcDbEntity
  8
3
  6
Continuous
 62
     9
100
AcDbPolyline
 90
        4
 70
     1
 43
0.0
 10
27193.54244381917
 20
8615.126360820559
 10
27716.74244381917
 20
8615.126360820559
 10
27716.74244381917
 20
8527.126360820544
 10
27193.54244381917
 20
8527.126360820544
  0
DIMENSION
  5
BEEC
330
18
100
AcDbEntity
  8
2
  6
Continuous
 62
     4
100
AcDbDimension
  2
*D38
 10
27875.14242757986
 20
8850.757654463787
 30
0.0
 11
27586.44884202241
 21
8919.640771694636
 31
0.0
 70
   160
  1
\U+03C6<>
 71
     5
 42
210.000000097436
  3
ST20-5
100
AcDbAlignedDimension
 13
27035.14242719011
 23
8615.126360820548
 33
0.0
 14
27875.14242757986
 24
8615.126360820539
 34
0.0
100
AcDbRotatedDimension
  0
LWPOLYLINE
  5
BEED
330
18
100
AcDbEntity
  8
3
  6
Continuous
 62
     9
100
AcDbPolyline
 90
        4
 70
     1
 43
0.0
 10
27139.14244381918
 20
7615.126360820544
 10
27175.14244381918
 20
7651.126360820544
 10
27735.14244381918
 20
7651.126360820545
 10
27771.14244381918
 20
7615.126360820544
  0
LWPOLYLINE
  5
BEFC
330
18
100
AcDbEntity
  8
3
  6
Continuous
 62
     9
100
AcDbPolyline
 90
        6
 70
     0
 43
0.0
 10
26955.43154292615
 20
3643.513599948485
 10
26930.26477728385
 20
3647.951179748389
 10
26921.4808178909
 20
3697.767488957934
 10
28359.81116874282
 20
3697.767488957936
 10
28308.18597996799
 20
3404.986494424917
 10
28283.01921432567
 20
3409.424074224824
  0
LWPOLYLINE
  5
BEFF
330
18
100
AcDbEntity
  8
3
  6
Continuous
 62
     9
100
AcDbPolyline
 90
        4
 70
     1
 43
0.0
 10
27285.19447226446
 20
3138.579789038954
 10
27800.44588864045
 20
3047.727062483616
 10
27785.16484900576
 20
2961.063980218543
 10
27269.91343262977
 20
3051.916706773881
  0
LWPOLYLINE
  5
BF00
330
18
100
AcDbEntity
  8
3
  6
Continuous
 62
     9
100
AcDbPolyline
 90
        4
 70
     0
 43
0.0
 10
28283.01921432567
 20
3409.424074224826
 10
27956.49964437701
 20
3020.210574906374
 10
27129.14071652793
 20
3166.096276616193
 10
26955.43154292615
 20
3643.513599948486
  0
LWPOLYLINE
  5
BF01
330
18
100
AcDbEntity
  8
3
  6
Continuous
 62
     9
100
AcDbPolyline
 90
        6
 70
     0
 43
0.0
 10
28283.01921432567
 20
3409.424074224826
 10
28364.8896522189
 20
3394.988107101835
 10
27973.0661682805
 20
2927.93190791969
 10
27082.01211335506
 20
3085.04877907273
 10
26873.56110503292
 20
3657.949567071477
 10
26955.43154292615
 20
3643.513599948483
  0
DIMENSION
  5
BF02
330
18
100
AcDbEntity
  8
2
  6
Continuous
 62
     4
100
AcDbDimension
  2
*D39
 10
28002.46334593453
 20
3280.883679911912
 30
0.0
 11
27740.19205916512
 21
3388.982736780163
 31
0.0
 70
   161
  1
\U+03C6<>
 71
     5
 42
210.0000000974387
  3
ST20-5
100
AcDbAlignedDimension
 13
27129.26113146292
 23
3166.075044214283
 33
0.0
 14
27956.49964437701
 24
3020.210574906374
 34
0.0
  0
DIMENSION
  5
BF03
330
18
100
AcDbEntity
  8
2
  6
Continuous
 62
     4
100
AcDbDimension
  2
*D40
 10
26721.57603994355
 20
3684.748660453634
 30
0.0
 11
26634.13302383781
 21
3476.773405330202
 31
0.0
 70
    32
 71
     5
 42
109.9999861469596
  3
ST20-5
100
AcDbAlignedDimension
 13
27047.25819352199
 23
3180.534388544532
 33
0.0
 14
26873.48862673256
 24
3657.962346951348
 34
0.0
 50
79.9999905837734
100
AcDbRotatedDimension
  0
DIMENSION
  5
BF04
330
18
100
AcDbEntity
  8
2
  6
Continuous
 62
     4
100
AcDbDimension
  2
*D41
 10
26645.17078018044
 20
3251.433316255172
 30
0.0
 11
26588.28986655677
 21
3216.784190737723
 31
0.0
 70
    32
 71
     5
 42
22.00000132833111
  3
ST20-5
100
AcDbAlignedDimension
 13
27082.01211335506
 23
3085.04877907273
 33
0.0
 14
27047.25819352199
 24
3180.534388544532
 34
0.0
 50
79.9999905837734
100
AcDbRotatedDimension
  0
LINE
  5
BF05
330
18
100
AcDbEntity
  8
3
  6
Continuous
 62
     9
100
AcDbLine
 10
27106.35540478774
 20
2231.447459291389
 30
0.0
 11
26994.18459098516
 21
2097.76748895796
 31
0.0
  0
LINE
  5
BF06
330
18
100
AcDbEntity
  8
3
  6
Continuous
 62
     9
100
AcDbLine
 10
27671.10972656653
 20
2097.767488957914
 30
0.0
 11
27657.84774647457
 21
2134.204479797871
 31
0.0
  0
LINE
  5
BF07
330
18
100
AcDbEntity
  8
3
  6
Continuous
 62
     9
100
AcDbLine
 10
27657.84774647457
 20
2134.204479797871
 30
0.0
 11
27106.35540478774
 21
2231.447459291389
 31
0.0
  0
LEADER
  5
BF1D
330
18
100
AcDbEntity
  8
2
  6
Continuous
100
AcDbLeader
  3
ST20
 76
     3
 10
27734.74244381918
 20
7819.999907666134
 30
0.0
 10
28083.83983361773
 20
7308.317947745073
 30
0.0
 10
28370.98310522171
 20
7308.317947745073
 30
0.0
211
1.0
221
0.0000000000000011
231
0.0
1001
ACAD
1000
DSTYLE
1002
{
1070
   147
1040
0.7
1070
    77
1070
     0
1002
}
  0
LEADER
  5
BF1E
330
18
100
AcDbEntity
  8
2
  6
Continuous
100
AcDbLeader
  3
ST20
 76
     3
 10
27715.6794498039
 20
5154.182688917736
 30
0.0
 10
28064.77683960246
 20
4642.500728996676
 30
0.0
 10
28351.92011120643
 20
4642.500728996676
 30
0.0
211
1.0
221
0.0000000000000011
231
0.0
1001
ACAD
1000
DSTYLE
1002
{
1070
   147
1040
0.7
1070
    77
1070
     0
1002
}
  0
MTEXT
  5
BF1F
330
18
100
AcDbEntity
  8
2
  6
Continuous
 62
     7
100
AcDbMText
 10
28082.13906265401
 20
4692.589103144531
 30
0.0
 40
60.0
 41
0.0
 71
     4
 72
     1
  1
VU 125
  7
JF3
 73
     1
 44
1.0
1001
ACAD
1000
MTEXTBEGIN
1070
    73
1070
     1
1070
    44
1040
1.0
1070
    74
1070
     0
1000
MTEXTEND
  0
LEADER
  5
BF20
330
18
100
AcDbEntity
  8
2
  6
Continuous
100
AcDbLeader
  3
ST20
 76
     3
 10
27680.46575868902
 20
2262.953136784217
 30
0.0
 10
28029.56314848758
 20
1751.271176863156
 30
0.0
 10
28316.70642009155
 20
1751.271176863156
 30
0.0
211
1.0
221
0.0000000000000011
231
0.0
1001
ACAD
1000
DSTYLE
1002
{
1070
   147
1040
0.7
1070
    77
1070
     0
1002
}
  0
MTEXT
  5
BF21
330
18
100
AcDbEntity
  8
2
  6
Continuous
 62
     7
100
AcDbMText
 10
28046.92537153913
 20
1801.359551011011
 30
0.0
 40
60.0
 41
0.0
 71
     4
 72
     1
  1
VU 125
  7
JF3
 73
     1
 44
1.0
1001
ACAD
1000
MTEXTBEGIN
1070
    73
1070
     1
1070
    44
1040
1.0
1070
    74
1070
     0
1000
MTEXTEND
  0
MTEXT
  5
BF24
330
18
100
AcDbEntity
  8
2
  6
Continuous
 62
     7
100
AcDbMText
 10
22385.2221196924
 20
2335.7260069012
 30
0.0
 40
60.0
 41
0.0
 71
     9
 72
     1
  1
ｾ-ﾌﾃｨｷｬｯﾌﾟ
  7
JF3
 73
     1
 44
1.0
1001
ACAD
1000
MTEXTBEGIN
1070
    73
1070
     1
1070
    44
1040
1.0
1070
    74
1070
     0
1000
MTEXTEND
  0
LWPOLYLINE
  5
BF25
330
18
100
AcDbEntity
  8
2
  6
Continuous
 62
     4
100
AcDbPolyline
 90
        3
 70
     0
 43
0.0
 10
22090.99071015059
 20
2266.353285553637
 10
22123.51476385479
 20
2323.671009179736
 10
22392.33388988596
 20
2323.671009179736
1001
ACAD
1000
DSTYLE
1002
{
1070
   147
1040
0.7
1070
    77
1070
     0
1002
}
  0
LEADER
  5
BF26
330
18
100
AcDbEntity
  8
2
  6
Continuous
100
AcDbLeader
  3
ST20
 76
     3
 10
22062.01864933353
 20
2214.957303538358
 30
0.0
 10
22123.51476385479
 20
2323.671009179736
 30
0.0
 10
22392.33388988596
 20
2323.671009179736
 30
0.0
211
1.0
221
0.0000000000000011
231
0.0
1001
ACAD
1000
DSTYLE
1002
{
1070
   147
1040
0.7
1070
    77
1070
     0
1002
}
  0
LINE
  5
BF27
330
18
100
AcDbEntity
  8
1
  6
CENTER
 62
     3
 48
0.5
100
AcDbLine
 10
22175.82216910917
 20
2279.993310150144
 30
0.0
 11
22175.82216910917
 21
1667.693310150143
 31
0.0
  0
DIMENSION
  5
C77F
330
18
100
AcDbEntity
  8
2
  6
Continuous
 62
     4
100
AcDbDimension
  2
*D42
 10
23125.82216910918
 20
4121.370280420604
 30
0.0
 11
22175.82216910919
 21
4171.370280420604
 31
0.0
 70
    32
 71
     5
 42
1900.0
  3
ST20
100
AcDbAlignedDimension
 13
21225.82216910918
 23
3561.745220083573
 33
0.0
 14
23125.82216910918
 24
3561.745220083575
 34
0.0
100
AcDbRotatedDimension
  0
DIMENSION
  5
C780
330
18
100
AcDbEntity
  8
2
  6
Continuous
 62
     4
100
AcDbDimension
  2
*D43
 10
22475.82216910918
 20
3997.184482732808
 30
0.0
 11
22175.8221691092
 21
4047.184482732808
 31
0.0
 70
    32
 71
     5
 42
599.9999999999854
  3
ST20
100
AcDbAlignedDimension
 13
21875.8221691092
 23
3676.114185600804
 33
0.0
 14
22475.82216910918
 24
3673.814185600817
 34
0.0
100
AcDbRotatedDimension
  0
LINE
  5
C781
330
18
100
AcDbEntity
  8
3
100
AcDbLine
 10
21875.82216910918
 20
3673.814185600816
 30
0.0
 11
22475.82216910918
 21
3673.814185600817
 31
0.0
  0
LINE
  5
C782
330
18
100
AcDbEntity
  8
3
100
AcDbLine
 10
21225.82216910918
 20
3273.814185600816
 30
0.0
 11
23125.82216910918
 21
3273.814185600816
 31
0.0
  0
DIMENSION
  5
C783
330
18
100
AcDbEntity
  8
2
  6
Continuous
 62
     4
100
AcDbDimension
  2
*D44
 10
21875.8221691092
 20
3997.184482732806
 30
0.0
 11
21550.8221691092
 21
4047.184482732806
 31
0.0
 70
    32
 71
     5
 42
650.0000000000145
  3
ST20
100
AcDbAlignedDimension
 13
21225.82216910918
 23
3561.745220083575
 33
0.0
 14
21875.8221691092
 24
3676.114185600804
 34
0.0
100
AcDbRotatedDimension
  0
LINE
  5
C784
330
18
100
AcDbEntity
  8
3
100
AcDbLine
 10
21225.82216910918
 20
3561.745220083575
 30
0.0
 11
21875.82216910918
 21
3673.814185600816
 31
0.0
  0
LINE
  5
C785
330
18
100
AcDbEntity
  8
3
100
AcDbLine
 10
21225.82216910918
 20
3273.814185600816
 30
0.0
 11
21225.82216910918
 21
3561.745220083573
 31
0.0
  0
DIMENSION
  5
C786
330
18
100
AcDbEntity
  8
2
  6
Continuous
 62
     4
100
AcDbDimension
  2
*D45
 10
23619.66142122102
 20
3273.814185600815
 30
0.0
 11
23569.66142122102
 21
3473.81418560082
 31
0.0
 70
    32
 71
     5
 42
400.0000000000008
  3
ST20
100
AcDbAlignedDimension
 13
22475.82216910918
 23
3673.814185600817
 33
0.0
 14
23125.82216910918
 24
3273.814185600816
 34
0.0
 50
90.0
100
AcDbRotatedDimension
  0
DIMENSION
  5
C787
330
18
100
AcDbEntity
  8
2
  6
Continuous
 62
     4
100
AcDbDimension
  2
*D46
 10
23467.21344552952
 20
3561.745220083575
 30
0.0
 11
23403.28361462006
 21
3749.188281880703
 31
0.0
 70
   160
 71
     5
 42
112.0689655172418
  3
ST20
100
AcDbAlignedDimension
 13
22475.82216910918
 23
3673.814185600817
 33
0.0
 14
23125.82216910918
 24
3561.745220083575
 34
0.0
 50
90.0
100
AcDbRotatedDimension
  0
DIMENSION
  5
C788
330
18
100
AcDbEntity
  8
2
  6
Continuous
 62
     4
100
AcDbDimension
  2
*D47
 10
23125.82216910918
 20
3997.184482732806
 30
0.0
 11
22800.82216910919
 21
4047.184482732806
 31
0.0
 70
    32
 71
     5
 42
650.0
  3
ST20
100
AcDbAlignedDimension
 13
22475.82216910918
 23
3673.814185600817
 33
0.0
 14
23125.82216910918
 24
3561.745220083575
 34
0.0
100
AcDbRotatedDimension
  0
LINE
  5
C789
330
18
100
AcDbEntity
  8
3
100
AcDbLine
 10
22475.82216910918
 20
3673.814185600817
 30
0.0
 11
23125.82216910918
 21
3561.745220083575
 31
0.0
  0
DIMENSION
  5
C78A
330
18
100
AcDbEntity
  8
2
  6
Continuous
 62
     4
100
AcDbDimension
  2
*D48
 10
23467.21344552952
 20
3273.814185600816
 30
0.0
 11
23417.21344552952
 21
3417.779702842199
 31
0.0
 70
    32
 71
     5
 42
287.9310344827591
  3
ST20
100
AcDbAlignedDimension
 13
23125.82216910918
 23
3561.745220083575
 33
0.0
 14
23125.82216910918
 24
3273.814185600816
 34
0.0
 50
90.0
100
AcDbRotatedDimension
  0
LINE
  5
C78B
330
18
100
AcDbEntity
  8
3
100
AcDbLine
 10
23125.82216910918
 20
3273.814185600816
 30
0.0
 11
23125.82216910918
 21
3561.745220083575
 31
0.0
  0
LWPOLYLINE
  5
C78C
330
18
100
AcDbEntity
  8
3
  6
Continuous
 62
     9
100
AcDbPolyline
 90
        6
 70
     0
 43
0.0
 10
21875.82216910918
 20
3673.814185600816
 10
21925.82216910919
 20
3673.814185600817
 10
22025.82216910919
 20
3783.814185600816
 10
22325.82216910919
 20
3783.814185600816
 10
22425.82216910919
 20
3673.814185600817
 10
22475.82216910918
 20
3673.814185600817
  0
LWPOLYLINE
  5
C78D
330
18
100
AcDbEntity
  8
3
  6
Continuous
 62
     9
100
AcDbPolyline
 90
        6
 70
     0
 43
0.0
 10
21875.82216910918
 20
3676.114185600815
 10
21924.80471837111
 20
3676.114185600817
 10
22024.80471837112
 20
3786.114185600816
 10
22326.83961984726
 20
3786.114185600818
 10
22426.83961984726
 20
3676.114185600816
 10
22475.82216910918
 20
3676.114185600816
  0
LWPOLYLINE
  5
C78E
330
18
100
AcDbEntity
  8
3
  6
Continuous
100
AcDbPolyline
 90
        4
 70
     0
 43
0.0
 10
21875.82216910918
 20
3676.114185600815
 10
21875.82216910918
 20
3673.814185600816
 10
22475.82216910918
 20
3673.814185600817
 10
22475.82216910918
 20
3676.114185600816
  0
LWPOLYLINE
  5
C78F
330
18
100
AcDbEntity
  8
3
  6
Continuous
 62
     9
100
AcDbPolyline
 90
        4
 70
     1
 43
0.0
 10
21975.82216910919
 20
3673.814185600817
 10
22375.82216910919
 20
3673.814185600817
 10
22360.82216910919
 20
3648.814185600816
 10
21990.82216910919
 20
3648.814185600816
  0
LWPOLYLINE
  5
C790
330
18
100
AcDbEntity
  8
3
  6
Continuous
 62
     9
100
AcDbPolyline
 90
        4
 70
     1
 43
0.0
 10
21998.65552445006
 20
3648.814185600816
 10
22352.9888137683
 20
3648.814185600818
 10
22280.83745322408
 20
3523.814185600816
 10
22070.80688499428
 20
3523.814185600821
  0
LWPOLYLINE
  5
C791
330
18
100
AcDbEntity
  8
3
  6
Continuous
 62
     9
100
AcDbPolyline
 90
        4
 70
     1
 43
0.0
 10
21977.87216910918
 20
3648.814185600816
 10
22373.77216910918
 20
3648.814185600816
 10
22288.92216910919
 20
3501.814185600816
 10
22062.72216910918
 20
3501.814185600816
  0
LWPOLYLINE
  5
C792
330
18
100
AcDbEntity
  8
3
  6
Continuous
 62
     9
100
AcDbPolyline
 90
        4
 70
     1
 43
0.0
 10
22110.42216910918
 20
3501.814185600816
 10
22241.22216910918
 20
3501.814185600816
 10
22241.22216910918
 20
3282.814185600816
 10
22110.42216910918
 20
3282.814185600816
  0
LWPOLYLINE
  5
C793
330
18
100
AcDbEntity
  8
3
  6
Continuous
 62
     9
100
AcDbPolyline
 90
        4
 70
     1
 43
0.0
 10
22105.92216910918
 20
3501.814185600816
 10
22245.72216910918
 20
3501.814185600816
 10
22245.72216910918
 20
3282.814185600816
 10
22105.92216910918
 20
3282.814185600816
  0
LWPOLYLINE
  5
C794
330
18
100
AcDbEntity
  8
3
  6
Continuous
 62
     9
100
AcDbPolyline
 90
        4
 70
     1
 43
0.0
 10
22110.42216910918
 20
3523.814185600821
 10
22241.22216910918
 20
3523.814185600821
 10
22241.22216910918
 20
3501.814185600816
 10
22110.42216910918
 20
3501.814185600816
  0
LWPOLYLINE
  5
C795
330
18
100
AcDbEntity
  8
3
  6
Continuous
 62
     9
100
AcDbPolyline
 90
        4
 70
     1
 43
0.0
 10
22096.82216910918
 20
3273.814185600816
 10
22105.82216910919
 20
3282.814185600816
 10
22245.82216910919
 20
3282.814185600816
 10
22254.82216910918
 20
3273.814185600816
  0
MTEXT
  5
C796
330
18
100
AcDbEntity
  8
2
  6
Continuous
 62
     7
100
AcDbMText
 10
22385.22211969241
 20
3906.882888963659
 30
0.0
 40
60.0
 41
0.0
 71
     9
 72
     1
  1
ｾ-ﾌﾃｨｷｬｯﾌﾟ
  7
JF3
 73
     1
 44
1.0
1001
ACAD
1000
MTEXTBEGIN
1070
    73
1070
     1
1070
    44
1040
1.0
1070
    74
1070
     0
1000
MTEXTEND
  0
LWPOLYLINE
  5
C797
330
18
100
AcDbEntity
  8
2
  6
Continuous
 62
     4
100
AcDbPolyline
 90
        3
 70
     0
 43
0.0
 10
22090.9907101506
 20
3837.510167616096
 10
22123.5147638548
 20
3894.827891242196
 10
22392.33388988597
 20
3894.827891242196
1001
ACAD
1000
DSTYLE
1002
{
1070
   147
1040
0.7
1070
    77
1070
     0
1002
}
  0
LEADER
  5
C798
330
18
100
AcDbEntity
  8
2
  6
Continuous
100
AcDbLeader
  3
ST20
 76
     3
 10
22062.01864933354
 20
3786.114185600817
 30
0.0
 10
22123.5147638548
 20
3894.827891242196
 30
0.0
 10
22392.33388988597
 20
3894.827891242196
 30
0.0
211
1.0
221
0.0000000000000011
231
0.0
1001
ACAD
1000
DSTYLE
1002
{
1070
   147
1040
0.7
1070
    77
1070
     0
1002
}
  0
LINE
  5
C799
330
18
100
AcDbEntity
  8
1
  6
CENTER
 62
     3
 48
0.5
100
AcDbLine
 10
22175.82216910919
 20
3851.150192212603
 30
0.0
 11
22175.82216910919
 21
3238.850192212603
 31
0.0
  0
LINE
  5
C83E
330
18
100
AcDbEntity
  8
3
  6
Continuous
 62
     9
100
AcDbLine
 10
27106.93503153561
 20
2231.345255456976
 30
0.0
 11
27252.17541434907
 21
3055.044397981091
 31
0.0
  0
LINE
  5
C840
330
18
100
AcDbEntity
  8
3
  6
Continuous
 62
     9
100
AcDbLine
 10
27802.87990983349
 20
2957.94033702974
 30
0.0
 11
27657.84024130196
 21
2134.205803162313
 31
0.0
  0
LINE
  5
C841
330
18
100
AcDbEntity
  8
3
  6
Continuous
 62
     9
100
AcDbLine
 10
27124.66157108985
 20
2228.219588258973
 30
0.0
 11
27269.90195390328
 21
3051.918730783083
 31
0.0
  0
LINE
  5
C843
330
18
100
AcDbEntity
  8
3
  6
Continuous
 62
     9
100
AcDbLine
 10
27785.15337027926
 20
2961.066004227708
 30
0.0
 11
27639.91298746581
 21
2137.36686170362
 31
0.0
  0
LINE
  5
C87B
330
18
100
AcDbEntity
  8
3
  6
Continuous
 62
     9
100
AcDbLine
 10
27139.11509247787
 20
4980.121997188809
 30
0.0
 11
27212.39250079315
 21
5817.686606843201
 31
0.0
  0
LINE
  5
C87D
330
18
100
AcDbEntity
  8
3
  6
Continuous
 62
     9
100
AcDbLine
 10
27769.46457596606
 20
5768.949115498711
 30
0.0
 11
27696.18716765077
 21
4931.384505844321
 31
0.0
  0
LINE
  5
C87E
330
18
100
AcDbEntity
  8
3
  6
Continuous
 62
     9
100
AcDbLine
 10
27157.04659704353
 20
4978.55319381935
 30
0.0
 11
27237.99371072088
 21
5903.782936905805
 31
0.0
  0
LINE
  5
C880
330
18
100
AcDbEntity
  8
3
  6
Continuous
 62
     9
100
AcDbLine
 10
27759.20277676247
 20
5858.183052300231
 30
0.0
 11
27678.25566308513
 21
4932.953309213778
 31
0.0
  0
DIMENSION
  5
C8BD
330
18
100
AcDbEntity
  8
2
100
AcDbDimension
  2
*D49
 10
29046.24095950017
 20
8527.126360820544
 30
0.0
 11
28996.24095950017
 21
8071.126360820549
 31
0.0
 70
    32
 71
     5
 42
227.9999999999993
 51
360.0
  3
ST20-5（詳細）
100
AcDbAlignedDimension
 13
28655.14244381918
 23
7615.126360820546
 33
0.0
 14
28655.14244381917
 24
8527.126360820544
 34
0.0
 50
90.0
100
AcDbRotatedDimension
  0
LINE
  5
C8CA
330
18
100
AcDbEntity
  8
3
  6
Continuous
 62
     9
100
AcDbLine
 10
27175.54244381915
 20
7651.126360820544
 30
0.0
 11
27175.54244381916
 21
8527.126360820544
 31
0.0
  0
LINE
  5
C8CC
330
18
100
AcDbEntity
  8
3
  6
Continuous
 62
     9
100
AcDbLine
 10
27734.74244381918
 20
8527.126360820544
 30
0.0
 11
27734.74244381917
 21
7651.126360820545
 31
0.0
  0
LINE
  5
C8CD
330
18
100
AcDbEntity
  8
3
  6
Continuous
 62
     9
100
AcDbLine
 10
27193.54244381916
 20
7651.126360820544
 30
0.0
 11
27193.54244381917
 21
8615.126360820559
 31
0.0
  0
LINE
  5
C8CF
330
18
100
AcDbEntity
  8
3
  6
Continuous
 62
     9
100
AcDbLine
 10
27716.74244381917
 20
8615.126360820559
 30
0.0
 11
27716.74244381917
 21
7651.126360820545
 31
0.0
  0
LWPOLYLINE
  5
C915
330
18
100
AcDbEntity
  8
3
 62
     7
100
AcDbPolyline
 90
        6
 70
     1
 43
0.0
 10
31190.43423298794
 20
8050.686032863188
 10
32949.10034435399
 20
8050.686032863188
 10
32895.83440654665
 20
9017.372241727318
 42
0.3924478579985564
 10
32696.39485070731
 20
9202.410170794221
 10
31443.51065727472
 20
9202.410170794225
 42
0.3924478579985564
 10
31244.07110143538
 20
9017.37224172732
  0
LWPOLYLINE
  5
C926
330
18
100
AcDbEntity
  8
3
 62
     7
100
AcDbPolyline
 90
       11
 70
     0
 43
0.0
 10
31110.84109939781
 20
5427.855439108771
 10
33036.60453246157
 20
5427.855439108771
 10
33001.663355991
 20
5787.855439108771
 10
32698.25253511867
 20
5788.281936581288
 10
32669.952753991
 20
6127.855439108768
 42
0.4142135623730951
 10
32569.95275399101
 20
6227.855439108772
 10
31569.95275399101
 20
6227.855439108768
 42
0.4142135623730951
 10
31469.95275399101
 20
6127.855439108768
 10
31441.65297286333
 20
5788.281936581288
 10
31138.24215199101
 20
5787.855439108771
 10
31103.30097552044
 20
5427.855439108771
  0
ENDSEC
  0
SECTION
  2
OBJECTS
  0
DICTIONARY
  5
C
330
0
100
AcDbDictionary
281
     1
  3
ACAD_CIP_PREVIOUS_PRODUCT_INFO
350
9E31
  3
ACAD_COLOR
350
9E15
  3
ACAD_GROUP
350
D
  3
ACAD_LAYOUT
350
7CA
  3
ACAD_MATERIAL
350
9DE3
  3
ACAD_MLEADERSTYLE
350
9E2A
  3
ACAD_MLINESTYLE
350
1B
  3
ACAD_PLOTSETTINGS
350
7CB
  3
ACAD_PLOTSTYLENAME
350
7C8
  3
ACAD_SCALELIST
350
9E18
  3
ACAD_TABLESTYLE
350
9E16
  3
ACAD_VISUALSTYLE
350
9DFC
  3
AcadDim
350
1E45
  3
ACDB_RECOMPOSE_DATA
350
CA8E
  3
AcDbVariableDictionary
350
24A5
  3
DWGPROPS
350
CA8F
  0
DICTIONARY
  5
B628
330
8
100
AcDbDictionary
280
     1
281
     1
  0
DICTIONARY
  5
39AC
330
2
100
AcDbDictionary
280
     1
281
     1
  3
ACAD_LAYERFILTERS
360
39AD
  3
ACAD_LAYERSTATES
360
3A5F
  0
DICTIONARY
  5
A056
330
E
100
AcDbDictionary
280
     1
281
     1
  3
ADSK_XREC_LAYER_RECONCILED
360
A057
  0
DICTIONARY
  5
A058
330
57B5
100
AcDbDictionary
280
     1
281
     1
  3
ADSK_XREC_LAYER_RECONCILED
360
A059
  0
DICTIONARY
  5
A05A
330
57B6
100
AcDbDictionary
280
     1
281
     1
  3
ADSK_XREC_LAYER_RECONCILED
360
A05B
  0
DICTIONARY
  5
A05C
330
57B7
100
AcDbDictionary
280
     1
281
     1
  3
ADSK_XREC_LAYER_RECONCILED
360
A05D
  0
DICTIONARY
  5
7F6
330
18
100
AcDbDictionary
280
     1
281
     1
  3
ACAD_LAYOUTSELFREF
360
2472
  3
ACAD_SORTENTS
360
9E36
  0
DICTIONARY
  5
7F4
330
15
100
AcDbDictionary
280
     1
281
     1
  3
ACAD_LAYOUTSELFREF
360
2471
  0
XRECORD
  5
9E31
102
{ACAD_REACTORS
330
C
102
}
330
C
100
AcDbXrecord
280
     1
300
ACDLT
300
2012
300
ACDLT_F_S
  0
DICTIONARY
  5
9E15
102
{ACAD_REACTORS
330
C
102
}
330
C
100
AcDbDictionary
281
     1
  0
DICTIONARY
  5
D
102
{ACAD_REACTORS
330
C
102
}
330
C
100
AcDbDictionary
281
     1
  0
DICTIONARY
  5
7CA
102
{ACAD_REACTORS
330
C
102
}
330
C
100
AcDbDictionary
281
     1
  3
Model
350
7CC
  3
ﾚｲｱｳﾄ1
350
7CD
  0
DICTIONARY
  5
9DE3
102
{ACAD_REACTORS
330
C
102
}
330
C
100
AcDbDictionary
281
     1
  3
ByBlock
350
9DEC
  3
ByLayer
350
9DE4
  3
Global
350
9DF4
  0
DICTIONARY
  5
9E2A
102
{ACAD_REACTORS
330
C
102
}
330
C
100
AcDbDictionary
281
     1
  3
Standard
350
9E2B
  0
DICTIONARY
  5
1B
102
{ACAD_REACTORS
330
C
102
}
330
C
100
AcDbDictionary
281
     1
  3
STANDARD
350
1C
  0
DICTIONARY
  5
7CB
102
{ACAD_REACTORS
330
C
102
}
330
C
100
AcDbDictionary
281
     1
  3
PrinterEPSON
350
838
  3
ProterHP
350
839
  0
ACDBDICTIONARYWDFLT
  5
7C8
102
{ACAD_REACTORS
330
C
102
}
330
C
100
AcDbDictionary
281
     1
  3
Normal
350
7C9
100
AcDbDictionaryWithDefault
340
7C9
  0
DICTIONARY
  5
9E18
102
{ACAD_REACTORS
330
C
102
}
330
C
100
AcDbDictionary
281
     1
  3
A0
350
9E19
  3
A1
350
9E1A
  3
A2
350
9E1B
  3
A3
350
9E1C
  3
A4
350
9E1D
  3
A5
350
9E1E
  3
A6
350
9E1F
  3
A7
350
9E20
  3
A8
350
9E21
  3
A9
350
9E22
  3
B0
350
9E23
  3
B1
350
9E24
  3
B2
350
9E25
  3
B3
350
9E26
  3
B4
350
9E27
  3
B5
350
9E28
  3
B6
350
9E29
  0
DICTIONARY
  5
9E16
102
{ACAD_REACTORS
330
C
102
}
330
C
100
AcDbDictionary
281
     1
  3
Standard
350
9E17
  0
DICTIONARY
  5
9DFC
102
{ACAD_REACTORS
330
C
102
}
330
C
100
AcDbDictionary
281
     1
  3
2dWireframe
350
9E02
  3
Basic
350
9E01
  3
Brighten
350
9E08
  3
ColorChange
350
9E0C
  3
Conceptual
350
9E05
  3
Dim
350
9E07
  3
EdgeColorOff
350
9E14
  3
Facepattern
350
9E0B
  3
Flat
350
9DFD
  3
FlatWithEdges
350
9DFE
  3
Gouraud
350
9DFF
  3
GouraudWithEdges
350
9E00
  3
Hidden
350
9E04
  3
JitterOff
350
9E12
  3
Linepattern
350
9E0A
  3
OverhangOff
350
9E13
  3
Realistic
350
9E06
  3
Shaded
350
9E11
  3
Shaded with edges
350
9E10
  3
Shades of Gray
350
9E0D
  3
Sketchy
350
9E0E
  3
Thicken
350
9E09
  3
Wireframe
350
9E03
  3
X-Ray
350
9E0F
  0
XRECORD
  5
1E45
102
{ACAD_REACTORS
330
C
102
}
330
C
100
AcDbXrecord
280
     1
 90
   990106
  3

 60
     1
 61
     0
 62
     4
 63
     4
 64
     1
 65
     0
 66
     0
 67
     3
 68
     1
 69
     0
 70
     0
 71
     0
 72
     0
 40
0.0
170
     0
  0
XRECORD
  5
CA8E
102
{ACAD_REACTORS
330
C
102
}
330
C
100
AcDbXrecord
280
     1
 90
        1
330
9E17
  0
DICTIONARY
  5
24A5
102
{ACAD_REACTORS
330
C
102
}
330
C
100
AcDbDictionary
281
     1
  3
CANNOSCALE
350
B669
  3
CMLEADERSTYLE
350
B668
  3
CTABLESTYLE
350
B667
  3
DIMASSOC
350
24A6
  3
INDEXCTL
350
B66B
  3
LAYEREVAL
350
C9F7
  3
LAYERNOTIFY
350
C9F8
  3
LIGHTINGUNITS
350
C9F6
  3
MSLTSCALE
350
C9F5
  3
SORTENTS
350
B66A
  3
XCLIPFRAME
350
CA8A
  0
XRECORD
  5
CA8F
102
{ACAD_REACTORS
330
C
102
}
330
C
100
AcDbXrecord
280
     1
  1
DWGPROPS COOKIE
  2

  3

  4

  6

  7

  8
demizu
  9

300
=
301
=
302
=
303
=
304
=
305
=
306
=
307
=
308
=
309
=
 40
1.064419733796296
 41
2451227.813129282
 42
2456765.486206933
  1

 90
        0
  0
DICTIONARY
  5
39AD
102
{ACAD_REACTORS
330
39AC
102
}
330
39AC
100
AcDbDictionary
280
     1
281
     1
  3
-c
360
39AE
  3
-C2
360
39AF
  3
-cc
360
39B0
  3
-ccc
360
39B1
  3
-cccC
360
39B2
  3
-図面
360
39B3
  3
0
360
5267
  3
01-teitai
360
39B4
  3
02-zentai
360
39B5
  3
03-zentai+kussaku
360
39B6
  3
04-chikei
360
39B7
  3
05-chikei-5m
360
39B8
  3
06-kussaku
360
39B9
  3
1
360
39BA
  3
1-交差点処理図（最新1案）
360
5268
  3
100
360
39BB
  3
100ban
360
39BC
  3
160ban
360
39BD
  3
180
360
39BE
  3
180-240
360
39BF
  3
181
360
39C0
  3
1mtoukousenn
360
39C1
  3
2
360
39C2
  3
2-線形図1
360
5269
  3
2100
360
39C3
  3
240ban
360
39C4
  3
25-C
360
39C5
  3
252
360
39C6
  3
2600
360
39C7
  3
3
360
39C8
  3
3-線形図2
360
526A
  3
3dC
360
526B
  3
3dC5
360
526C
  3
44
360
39C9
  3
5-C
360
39CA
  3
5-C2
360
39CB
  3
50
360
39CC
  3
5m
360
39CD
  3
60
360
39CE
  3
7-専用部北行
360
39CF
  3
8-ONﾗﾝﾌﾟ
360
39D0
  3
9-OFFﾗﾝﾌﾟ
360
39D1
  3
_図面
360
39D2
  3
a
360
39D3
  3
a-
360
39D4
  3
a-（埋設）
360
39D5
  3
aaa
360
39D6
  3
all-DIM -TXT -MTXT OFF
360
526D
  3
all-DIM -TXT OFF
360
526E
  3
all-DIM OFF
360
526F
  3
all-MTXT OFF
360
5270
  3
all-TXT OFF
360
5271
  3
all_tikei
360
39D7
  3
all_tikei2
360
39D8
  3
a、シビ
360
39D9
  3
BASIC
360
39DA
  3
BGD
360
39DB
  3
blue
360
39DC
  3
B北
360
5272
  3
c
360
39DD
  3
chihyou
360
39DE
  3
chihyou-cc
360
39DF
  3
chikei
360
39E0
  3
chikei 5 0
360
39E1
  3
chikei-5m
360
39E2
  3
chikei2
360
39E3
  3
chikei5m
360
39E4
  3
chishitsu
360
39E5
  3
chishitu
360
39E6
  3
ckeiall
360
39E7
  3
cl
360
39E8
  3
cl-konta
360
39E9
  3
cld
360
39EA
  3
cld^ konta
360
39EB
  3
cm
360
39EC
  3
cm-konta
360
39ED
  3
CONTER1m
360
39EE
  3
CONTER5m
360
39EF
  3
cyan
360
5273
  3
D-BAR-treeOFF
360
5274
  3
D-BGD-treeOFF
360
5275
  3
D-BGM-treeOFF
360
5276
  3
D-BMK-treeOFF
360
5277
  3
D-BYP-treeOFF
360
5278
  3
D-MTR-ｔｒｅｅOFF
360
5279
  3
D-OTRS-treeOFF
360
527A
  3
D-PC-treeOFF
360
527B
  3
D-STR-treeOFF
360
527C
  3
D-STRC-treeOFF
360
527D
  3
D-TTL-treeOFF
360
527E
  3
dh-konta
360
39F0
  3
DIM
360
527F
  3
doro
360
5280
  3
douro
360
5281
  3
douro-r
360
39F1
  3
EL30
360
39F2
  3
EL35
360
39F3
  3
EL40
360
39F4
  3
EL45
360
39F5
  3
EL50
360
39F6
  3
EL55
360
39F7
  3
EL60
360
39F8
  3
EL65
360
39F9
  3
EL70
360
39FA
  3
EL75
360
39FB
  3
EL80
360
39FC
  3
E南
360
5282
  3
fault
360
39FD
  3
frize
360
39FE
  3
gankyu
360
39FF
  3
gannkyu-ch
360
3A00
  3
gannkyu-cl
360
3A01
  3
gannkyu-cm
360
3A02
  3
gannkyu-cmh
360
3A03
  3
gound
360
3A04
  3
green
360
3A05
  3
gutter
360
3A06
  3
hidden
360
3A07
  3
hihyouji
360
3A08
  3
hyouji
360
3A09
  3
katen
360
3A0A
  3
KF
360
5283
  3
kfl
360
3A0B
  3
kfl2
360
3A0C
  3
konta
360
3A0D
  3
kouzuibaki
360
3A0E
  3
KU
360
5284
  3
kussaku
360
3A0F
  3
kussaku-k
360
3A10
  3
Live
360
5285
  3
m
360
5286
  3
mage
360
3A11
  3
mennseki-ak
360
3A12
  3
mennseki-at
360
3A13
  3
mｺﾝﾀ
360
3A14
  3
new
360
3A15
  3
new1
360
3A16
  3
new2
360
3A17
  3
new4
360
3A18
  3
NO_Xref
360
5287
  3
norisen
360
3A19
  3
off
360
3A1A
  3
on
360
3A1B
  3
oudan-cl
360
3A1C
  3
oudan-cld
360
3A1D
  3
oudan-cm
360
3A1E
  3
oudan-f
360
3A1F
  3
oudanzu
360
3A20
  3
red
360
3A21
  3
S
360
3A22
  3
sed
360
3A23
  3
sokuti
360
3A24
  3
south
360
3A25
  3
ST
360
5288
  3
STR
360
3A26
  3
syuturyokusurumono_11_1
360
3A27
  3
sｺﾝﾀ
360
3A28
  3
T
360
3A29
  3
teitai
360
3A2A
  3
teitai-t
360
3A2B
  3
text
360
5289
  3
Thaw
360
3A2C
  3
tsuurou
360
3A2D
  3
tt
360
3A2E
  3
TTL
360
3A2F
  3
TU
360
3A30
  3
tyakugan
360
3A31
  3
vec2
360
3A32
  3
waku
360
3A33
  3
White
360
528A
  3
yana
360
3A34
  3
yellow
360
3A35
  3
YM
360
528B
  3
シビ
360
3A37
  3
デッキレイヤ
360
5290
  3
ハッチ
360
5291
  3
フリーズ
360
3A38
  3
ペーパー空間
360
5292
  3
ランプ
360
5293
  3
ロック
360
3A39
  3
ロックされていない画層を表示
360
3A3A
  3
ロック以外
360
3A3B
  3
一般
360
5294
  3
上田坂城BP
360
3A44
  3
両方
360
3A5D
  3
丸森横断
360
5299
  3
作業用
360
52A8
  3
使用中の画層
360
52A9
  3
側面
360
52B5
  3
元図面レイヤ
360
52A5
  3
先行１
360
3A45
  3
先行２
360
3A46
  3
先行３
360
3A47
  3
先行４
360
3A48
  3
全帯
360
3A49
  3
共通
360
529C
  3
副道
360
52C0
  3
協議用添付図形レイヤ
360
529D
  3
和の画層のみ
360
3A5E
  3
圏央道排水計画縦断図
360
3A3E
  3
圏央道縦断図
360
3A3D
  3
土留板
360
52BB
  3
土留板取付詳細図
360
52BC
  3
地形レイヤ
360
52B8
  3
地形以外
360
52B9
  3
地形線等
360
3A4B
  3
埋設
360
3A5C
  3
塗り
360
3A4C
  3
壁
360
3A5B
  3
外部
360
5297
  3
外部参照
360
3A3C
  3
外部参照の非表示画層
360
5298
  3
寸法
360
52B0
  3
対策工
360
3A4A
  3
専北
360
52B2
  3
専用
360
52B3
  3
平面
360
52C1
  3
平面図
360
3A5A
  3
床止工
360
3A43
  3
後ろ
360
3A40
  3
支柱取付部
360
52AA
  3
数量
360
52AF
  3
断面
360
52B6
  3
断面図
360
52B7
  3
新規作成
360
52AD
  3
新規書き込み
360
52AE
  3
旗
360
529A
  3
旗上
360
529B
  3
杭頭詳細図
360
52A7
  3
枠
360
52C2
  3
枠Or文字
360
52C3
  3
桟橋
360
3A42
  3
横断
360
5295
  3
横断図
360
5296
  3
正面図
360
52B1
  3
現況
360
3A3F
  3
現況平面図-
360
52A6
  3
白
360
3A4F
  3
線形
360
52B4
  3
縦断
360
52AB
  3
背面図
360
52BD
  3
色
360
52AC
  3
表枠
360
3A59
  3
表示
360
52BF
  3
表示-日技作成画層のみ
360
3A56
  3
表示-東電作成画層のみ
360
3A55
  3
表示-福山作成画層のみ
360
3A57
  3
表示-近代作成画層のみ
360
3A54
  3
表示-ﾊﾟｼｺﾝ作成画層のみ
360
3A53
  3
表示層のみ表示
360
3A58
  3
見える
360
52A4
  3
計画
360
529F
  3
計画１レイヤ
360
52A0
  3
計画２レイヤ
360
52A1
  3
計画３レイヤ
360
52A2
  3
計画４レイヤ
360
52A3
  3
読み込み時表示層
360
3A4E
  3
護岸
360
3A41
  3
躯体
360
529E
  3
道路
360
3A4D
  3
配筋図
360
52BE
  3
鉄筋
360
52BA
  3
非表示
360
3A50
  3
非表示の画層
360
3A51
  3
非表示層のみ表示
360
3A52
  3
２－
360
3A36
  3
Ａ断面
360
528D
  3
Ｂ断面
360
528E
  3
Ｃ断面
360
528F
  3
ﾊｯﾁ
360
528C
  0
DICTIONARY
  5
3A5F
102
{ACAD_REACTORS
330
39AC
102
}
330
39AC
100
AcDbDictionary
281
     1
  0
XRECORD
  5
A057
102
{ACAD_REACTORS
330
A056
102
}
330
A056
100
AcDbXrecord
280
     1
290
     1
  0
XRECORD
  5
A059
102
{ACAD_REACTORS
330
A058
102
}
330
A058
100
AcDbXrecord
280
     1
290
     1
  0
XRECORD
  5
A05B
102
{ACAD_REACTORS
330
A05A
102
}
330
A05A
100
AcDbXrecord
280
     1
290
     1
  0
XRECORD
  5
A05D
102
{ACAD_REACTORS
330
A05C
102
}
330
A05C
100
AcDbXrecord
280
     1
290
     1
  0
XRECORD
  5
2472
102
{ACAD_REACTORS
330
7F6
102
}
330
7F6
100
AcDbXrecord
280
     1
340
18
  0
SORTENTSTABLE
  5
9E36
102
{ACAD_REACTORS
330
7F6
102
}
330
7F6
100
AcDbSortentsTable
330
18
331
BD34
  5
BD34
331
BE5A
  5
BE5A
331
5B8F
  5
5B91
331
5A4E
  5
5A4E
331
5B8B
  5
5B8E
331
5A4A
  5
5A4A
331
5AD9
  5
5AD9
331
92B5
  5
92CC
331
9E5B
  5
A049
331
BE56
  5
BE56
331
BEED
  5
BEFF
331
BEE9
  5
BEF3
331
BD20
  5
BD20
331
BD6F
  5
BD6F
331
BE46
  5
BE46
331
BEE5
  5
BEED
331
C796
  5
C8CC
331
C792
  5
C880
331
5B14
  5
5B14
331
5ACD
  5
5ACD
331
5A02
  5
5A02
331
929D
  5
92B7
331
5BD2
  5
5BE3
331
5AC9
  5
5AC9
331
5B08
  5
5B08
331
9299
  5
929D
331
9E57
  5
9E5D
331
5BCE
  5
5BD0
331
92EC
  5
9305
331
5B63
  5
5B65
331
5BCA
  5
5BCC
331
9291
  5
929B
331
92E8
  5
92ED
331
BEDD
  5
BEDF
331
BDFE
  5
BDFE
331
BED9
  5
BEDB
331
BED5
  5
BED7
331
C78E
  5
C87C
331
C78A
  5
C841
331
BF24
  5
C784
331
C8CD
  5
BEF6
331
C786
  5
C831
331
BF20
  5
C780
331
C782
  5
C796
331
59FE
  5
59FE
331
5AC5
  5
5AC5
331
5AC1
  5
5AC1
331
5B00
  5
5B00
331
5BC6
  5
5BC8
331
5AAD
  5
5AAD
331
59F2
  5
59F2
331
93CF
  5
9CCF
331
9285
  5
9299
331
5BC2
  5
5BC4
331
9281
  5
9285
331
5B47
  5
5B49
331
5BBE
  5
5BC0
331
5B43
  5
5B45
331
5BBA
  5
5BBC
331
92D8
  5
92E8
331
A9DC
  5
A9DE
331
BEC5
  5
BEC7
331
BD43
  5
BD43
331
BDEA
  5
BDEA
331
BF04
  5
BF1C
331
C843
  5
BF13
331
C87E
  5
BEE6
331
C8BD
  5
C926
331
BF00
  5
BF18
331
5AF0
  5
5AF0
331
5B2B
  5
5B40
331
5B9A
  5
5B9C
331
5C15
  5
64D6
331
5B96
  5
5B98
331
5B23
  5
5B2B
331
92CC
  5
92D8
331
BD33
  5
BD33
331
BE65
  5
BE6C
331
BD2F
  5
BD2F
331
BEFC
  5
BF10
331
BD2B
  5
BD2B
331
BD7A
  5
BD7A
331
BE59
  5
BE59
331
5AE4
  5
5AE4
331
5B8E
  5
5B90
331
5B1B
  5
5B23
331
5B8A
  5
5B8C
331
5BE5
  5
5BED
331
9307
  5
9311
331
92B4
  5
92BF
331
9E5E
  5
A04C
331
9E5A
  5
A048
331
BEEC
  5
BEFC
331
BEE8
  5
BEF2
331
BD1F
  5
BD1F
331
BD6E
  5
BD6E
331
BEE4
  5
BEEC
331
C799
  5
C915
331
C795
  5
C8CB
331
C791
  5
C87F
331
5A31
  5
5A31
331
5B13
  5
5B13
331
5AD0
  5
5AD0
331
5B6E
  5
5B75
331
92FF
  5
9308
331
5ACC
  5
5ACC
331
5A01
  5
5A01
331
5BD1
  5
5BE0
331
929C
  5
92B6
331
5AC8
  5
5AC8
331
9E56
  5
9E5C
331
5BCD
  5
5BCF
331
5B62
  5
5B64
331
5BC9
  5
5BCB
331
A9EB
  5
A9F1
331
BEDC
  5
BEDE
331
BED8
  5
BEDA
331
BD5A
  5
BD5A
331
C78D
  5
C87B
331
BF27
  5
C787
331
BDF1
  5
BDF1
331
C789
  5
C840
331
C8CC
  5
BEFB
331
C785
  5
C799
331
C781
  5
C795
331
5AC4
  5
5AC4
331
5AC0
  5
5AC0
331
5AFF
  5
5AFF
331
5BC5
  5
5BC7
331
92E7
  5
92EC
331
5BC1
  5
5BC3
331
9284
  5
9292
331
5B46
  5
5B48
331
5BBD
  5
5BBF
331
5B42
  5
5B44
331
5C24
  5
6A34
331
BD46
  5
BD46
331
BEC4
  5
BEC6
331
BF1F
  5
C77F
331
BF07
  5
BF1F
331
BF03
  5
BF1B
331
C87D
  5
BEEB
331
C83E
  5
BF14
331
5AF3
  5
5AF3
331
5AEF
  5
5AEF
331
92D7
  5
92E7
331
5A54
  5
5A54
331
5B2A
  5
5B2C
331
5B99
  5
5B9B
331
5B95
  5
5B97
331
5B22
  5
5B2A
331
5B91
  5
5B94
331
5C0C
  5
5C10
331
930A
  5
93A4
331
BEFF
  5
BF17
331
BD2A
  5
BD2A
331
BE58
  5
BE58
331
C926
  5
BE65
331
5AE3
  5
5AE3
331
92BF
  5
92D7
331
5ADB
  5
5ADB
331
5A48
  5
5A48
331
5BE4
  5
5BEB
331
92B7
  5
92CE
331
9306
  5
930A
331
5BE0
  5
5BE4
331
9E5D
  5
A04B
331
9E59
  5
A047
331
BD26
  5
BD26
331
BD71
  5
BD71
331
BD6D
  5
BD6D
331
BEE7
  5
BEEF
331
C798
  5
C8CF
331
C794
  5
C8CA
331
C790
  5
C87E
331
5B16
  5
5B16
331
5AD7
  5
5AD7
331
5ACF
  5
5ACF
331
5B0A
  5
5B0A
331
5A00
  5
5A00
331
5BD0
  5
5BD2
331
929B
  5
92B5
331
5B65
  5
5B74
331
5BCC
  5
5BCE
331
9E55
  5
9E5B
331
92EE
  5
9307
331
5B61
  5
5B63
331
5BC8
  5
5BCA
331
92EA
  5
92FF
331
BD65
  5
BD65
331
BEDF
  5
BEE5
331
BEDB
  5
BEDD
331
BED7
  5
BED9
331
BD59
  5
BD59
331
BDF0
  5
BDF0
331
C8CF
  5
BEF8
331
C78C
  5
C843
331
BF26
  5
C786
331
C788
  5
C83F
331
C784
  5
C798
331
C780
  5
C794
331
C880
  5
BEE8
331
5AC7
  5
5AC7
331
5AC3
  5
5AC3
331
5AFE
  5
5AFE
331
5BC4
  5
5BC6
331
5B49
  5
5B62
331
5BC0
  5
5BC2
331
9283
  5
9291
331
9E35
  5
5B22
331
5B45
  5
5B47
331
5BBC
  5
5BBE
331
A9E6
  5
A9EB
331
5B41
  5
5B43
331
BD45
  5
BD45
331
BDEC
  5
BDEC
331
BD3D
  5
BD3D
331
BF1E
  5
BF32
331
BF06
  5
BF1E
331
C841
  5
BF11
331
BF02
  5
BF1A
331
5AF2
  5
5AF2
331
5B9C
  5
5BBB
331
5B98
  5
5B9A
331
5B94
  5
5B96
331
92CE
  5
92DD
331
9311
  5
93B4
331
5B90
  5
5B93
331
9309
  5
93A3
331
BD35
  5
BD35
331
BE5B
  5
BE5B
331
5A4F
  5
5A4F
331
5B8C
  5
5B8F
331
5ADA
  5
5ADA
331
5B7C
  5
5B8A
331
5BE3
  5
5BE5
331
92B6
  5
92CD
331
9305
  5
9309
331
9E5C
  5
A04A
331
9E58
  5
9E5E
331
BD25
  5
BD25
331
BE53
  5
BE53
331
BD21
  5
BD21
331
BD70
  5
BD70
331
BEE6
  5
BEEE
331
BD6C
  5
BD6C
331
C915
  5
BE6E
331
C797
  5
C8CD
331
C793
  5
C8BD
331
5B15
  5
5B15
331
5B09
  5
5B09
331
5BCF
  5
5BD1
331
929A
  5
92B4
331
5B64
  5
5B6E
331
5BCB
  5
5BCD
331
9E54
  5
9E5A
331
92ED
  5
9306
331
9292
  5
929C
331
92E9
  5
92EE
331
BEDE
  5
BEE4
331
BEDA
  5
BEDC
331
BED6
  5
BED8
331
C78F
  5
C87D
331
BD58
  5
BD58
331
C78B
  5
C842
331
BF25
  5
C785
331
C8CA
  5
BEF9
331
C787
  5
C83E
331
BF21
  5
C781
331
C783
  5
C797
331
59FF
  5
59FF
331
5AC6
  5
5AC6
331
5B01
  5
5B01
331
5BC7
  5
5BC9
331
59F3
  5
59F3
331
5BC3
  5
5BC5
331
9286
  5
929A
331
5B48
  5
5B61
331
5BBF
  5
5BC1
331
9282
  5
9286
331
5B44
  5
5B46
331
5BBB
  5
5BBD
331
9E34
  5
5B1B
331
92DD
  5
92EA
331
5B40
  5
5B42
331
93A4
  5
93CA
331
92D9
  5
92E9
331
BEC6
  5
BEC8
331
BD44
  5
BD44
331
BDEF
  5
BDEF
331
BD3C
  5
BD3C
331
BF1D
  5
BF31
331
BE72
  5
BE7A
331
C77F
  5
C793
331
BDC3
  5
BDC3
331
BF05
  5
BF1D
331
BF01
  5
BF19
331
C87B
  5
BEE9
331
C840
  5
BF16
331
5A82
  5
5A82
331
5AF1
  5
5AF1
331
5B2C
  5
5B41
331
5B9B
  5
5BBA
331
5B97
  5
5B99
331
5B93
  5
5B95
331
92CD
  5
92D9
331
9308
  5
939F
  0
XRECORD
  5
2471
102
{ACAD_REACTORS
330
7F4
102
}
330
7F4
100
AcDbXrecord
280
     1
340
15
  0
LAYOUT
  5
7CC
102
{ACAD_XDICTIONARY
360
CA90
102
}
102
{ACAD_REACTORS
330
7CA
102
}
330
7CA
100
AcDbPlotSettings
  1

  2
RICOH IPSiO SP C720 RPCS
  4
A3
  6

 40
5.873749732971191
 41
5.873748779296875
 42
5.873748779296875
 43
5.873748779296875
 44
296.9259948730469
 45
419.9466552734374
 46
0.0
 47
5.76968760152306
 48
0.0
 49
0.0
140
0.0
141
0.0
142
1.0
143
39.76057125304694
 70
 11956
 72
     1
 73
     1
 74
     2
  7
描画.ctb
 75
     0
147
0.0251505440813647
148
-19226.82194673353
149
-296.0967856342831
100
AcDbLayout
  1
Model
 70
     1
 71
     0
 10
0.0
 20
0.0
 11
12.0
 21
9.0
 12
0.0
 22
0.0
 32
0.0
 14
0.0
 24
0.0
 34
0.0
 15
0.0
 25
0.0
 35
0.0
146
0.0
 13
0.0
 23
0.0
 33
0.0
 16
1.0
 26
0.0
 36
0.0
 17
0.0
 27
1.0
 37
0.0
 76
     0
330
18
331
9DE1
1001
ACAD_PSEXT
1000
RICOH IPSiO SP C720 RPCS
1000
RICOH IPSiO SP C720 RPCS
1000
192.168.19.239_1
1000
RPCS Driver (Windows XP/2003/2008/Vista/7 64-bit)
1070
     0
  0
LAYOUT
  5
7CD
102
{ACAD_XDICTIONARY
360
CA92
102
}
102
{ACAD_REACTORS
330
7CA
102
}
330
7CA
100
AcDbPlotSettings
  1

  2
EPSON LASER LP-9200S
  4

  6

 40
0.0
 41
0.0
 42
0.0
 43
0.0
 44
0.0
 45
0.0
 46
0.0
 47
0.0
 48
0.0
 49
0.0
140
0.0
141
0.0
142
1.0
143
1.0
 70
   688
 72
     0
 73
     0
 74
     5
  7
描画.ctb
 75
    16
147
1.0
148
0.0
149
0.0
100
AcDbLayout
  1
ﾚｲｱｳﾄ1
 70
     1
 71
     1
 10
0.0
 20
0.0
 11
12.0
 21
9.0
 12
0.0
 22
0.0
 32
0.0
 14
1.000000000000000E+20
 24
1.000000000000000E+20
 34
1.000000000000000E+20
 15
-1.000000000000000E+20
 25
-1.000000000000000E+20
 35
-1.000000000000000E+20
146
0.0
 13
0.0
 23
0.0
 33
0.0
 16
1.0
 26
0.0
 36
0.0
 17
0.0
 27
1.0
 37
0.0
 76
     0
330
15
  0
MATERIAL
  5
9DEC
102
{ACAD_XDICTIONARY
360
9DED
102
}
102
{ACAD_REACTORS
330
9DE3
102
}
330
9DE3
100
AcDbMaterial
  1
ByBlock
 72
     0
 43
0.0208333333333333
 43
0.0
 43
0.0
 43
0.0
 43
0.0
 43
0.0208333333333333
 43
0.0
 43
0.0
 43
0.0
 43
0.0
 43
1.0
 43
0.0
 43
0.0
 43
0.0
 43
0.0
 43
1.0
 77
     0
 47
0.0208333333333333
 47
0.0
 47
0.0
 47
0.0
 47
0.0
 47
0.0208333333333333
 47
0.0
 47
0.0
 47
0.0
 47
0.0
 47
1.0
 47
0.0
 47
0.0
 47
0.0
 47
0.0
 47
1.0
171
     0
 49
0.0208333333333333
 49
0.0
 49
0.0
 49
0.0
 49
0.0
 49
0.0208333333333333
 49
0.0
 49
0.0
 49
0.0
 49
0.0
 49
1.0
 49
0.0
 49
0.0
 49
0.0
 49
0.0
 49
1.0
175
     0
142
0.0208333333333333
142
0.0
142
0.0
142
0.0
142
0.0
142
0.0208333333333333
142
0.0
142
0.0
142
0.0
142
0.0
142
1.0
142
0.0
142
0.0
142
0.0
142
0.0
142
1.0
179
     0
144
0.0208333333333333
144
0.0
144
0.0
144
0.0
144
0.0
144
0.0208333333333333
144
0.0
144
0.0
144
0.0
144
0.0
144
1.0
144
0.0
144
0.0
144
0.0
144
0.0
144
1.0
147
0.0208333333333333
147
0.0
147
0.0
147
0.0
147
0.0
147
0.0208333333333333
147
0.0
147
0.0
147
0.0
147
0.0
147
1.0
147
0.0
147
0.0
147
0.0
147
0.0
147
1.0
  0
MATERIAL
  5
9DE4
102
{ACAD_XDICTIONARY
360
9DE5
102
}
102
{ACAD_REACTORS
330
9DE3
102
}
330
9DE3
100
AcDbMaterial
  1
ByLayer
 72
     0
 43
0.0208333333333333
 43
0.0
 43
0.0
 43
0.0
 43
0.0
 43
0.0208333333333333
 43
0.0
 43
0.0
 43
0.0
 43
0.0
 43
1.0
 43
0.0
 43
0.0
 43
0.0
 43
0.0
 43
1.0
 77
     0
 47
0.0208333333333333
 47
0.0
 47
0.0
 47
0.0
 47
0.0
 47
0.0208333333333333
 47
0.0
 47
0.0
 47
0.0
 47
0.0
 47
1.0
 47
0.0
 47
0.0
 47
0.0
 47
0.0
 47
1.0
171
     0
 49
0.0208333333333333
 49
0.0
 49
0.0
 49
0.0
 49
0.0
 49
0.0208333333333333
 49
0.0
 49
0.0
 49
0.0
 49
0.0
 49
1.0
 49
0.0
 49
0.0
 49
0.0
 49
0.0
 49
1.0
175
     0
142
0.0208333333333333
142
0.0
142
0.0
142
0.0
142
0.0
142
0.0208333333333333
142
0.0
142
0.0
142
0.0
142
0.0
142
1.0
142
0.0
142
0.0
142
0.0
142
0.0
142
1.0
179
     0
144
0.0208333333333333
144
0.0
144
0.0
144
0.0
144
0.0
144
0.0208333333333333
144
0.0
144
0.0
144
0.0
144
0.0
144
1.0
144
0.0
144
0.0
144
0.0
144
0.0
144
1.0
147
0.0208333333333333
147
0.0
147
0.0
147
0.0
147
0.0
147
0.0208333333333333
147
0.0
147
0.0
147
0.0
147
0.0
147
1.0
147
0.0
147
0.0
147
0.0
147
0.0
147
1.0
  0
MATERIAL
  5
9DF4
102
{ACAD_XDICTIONARY
360
9DF5
102
}
102
{ACAD_REACTORS
330
9DE3
102
}
330
9DE3
100
AcDbMaterial
  1
Global
 72
     0
 43
0.0208333333333333
 43
0.0
 43
0.0
 43
0.0
 43
0.0
 43
0.0208333333333333
 43
0.0
 43
0.0
 43
0.0
 43
0.0
 43
1.0
 43
0.0
 43
0.0
 43
0.0
 43
0.0
 43
1.0
 77
     0
 47
0.0208333333333333
 47
0.0
 47
0.0
 47
0.0
 47
0.0
 47
0.0208333333333333
 47
0.0
 47
0.0
 47
0.0
 47
0.0
 47
1.0
 47
0.0
 47
0.0
 47
0.0
 47
0.0
 47
1.0
171
     0
 49
0.0208333333333333
 49
0.0
 49
0.0
 49
0.0
 49
0.0
 49
0.0208333333333333
 49
0.0
 49
0.0
 49
0.0
 49
0.0
 49
1.0
 49
0.0
 49
0.0
 49
0.0
 49
0.0
 49
1.0
175
     0
142
0.0208333333333333
142
0.0
142
0.0
142
0.0
142
0.0
142
0.0208333333333333
142
0.0
142
0.0
142
0.0
142
0.0
142
1.0
142
0.0
142
0.0
142
0.0
142
0.0
142
1.0
179
     0
144
0.0208333333333333
144
0.0
144
0.0
144
0.0
144
0.0
144
0.0208333333333333
144
0.0
144
0.0
144
0.0
144
0.0
144
1.0
144
0.0
144
0.0
144
0.0
144
0.0
144
1.0
147
0.0208333333333333
147
0.0
147
0.0
147
0.0
147
0.0
147
0.0208333333333333
147
0.0
147
0.0
147
0.0
147
0.0
147
1.0
147
0.0
147
0.0
147
0.0
147
0.0
147
1.0
  0
MLEADERSTYLE
  5
9E2B
102
{ACAD_XDICTIONARY
360
CA8C
102
}
102
{ACAD_REACTORS
330
9E2A
102
}
330
9E2A
100
AcDbMLeaderStyle
170
     2
171
     1
172
     0
 90
        2
 40
0.0
 41
0.0
173
     1
 91
-1056964608
340
12
 92
       -2
290
     1
 42
0.09
291
     1
 43
0.36
  3
Standard
 44
0.18
300

342
F
174
     1
178
     6
175
     1
176
     0
 93
-1056964608
 45
0.18
292
     0
297
     0
 46
0.18
 94
-1056964608
 47
1.0
 49
1.0
140
1.0
293
     1
141
0.0
294
     1
177
     0
142
1.0
295
     0
296
     0
143
0.125
1001
ACAD_MLEADERVER
1070
     2
  0
MLINESTYLE
  5
1C
102
{ACAD_REACTORS
330
1B
102
}
330
1B
100
AcDbMlineStyle
  2
STANDARD
 70
     0
  3

 62
   256
 51
90.0
 52
90.0
 71
     2
 49
0.5
 62
   256
  6
BYLAYER
 49
-0.5
 62
   256
  6
BYLAYER
  0
PLOTSETTINGS
  5
838
102
{ACAD_XDICTIONARY
360
CA94
102
}
102
{ACAD_REACTORS
330
7CB
102
}
330
7CB
100
AcDbPlotSettings
  1
PrinterEPSON
  2
EPSON LP-9200S
  4
A3
  6

 40
5.873749732971191
 41
5.873747825622558
 42
5.873748779296875
 43
5.873748779296875
 44
297.0106506347656
 45
419.9466552734374
 46
0.0
 47
0.63
 48
0.0
 49
0.0
140
0.0
141
0.0
142
1.0
143
1.907088125961155
 70
  1716
 72
     1
 73
     1
 74
     1
  7
ZenithPrinter.ctb
 75
     0
147
0.5243596173595854
148
-19.45759484557811
149
-6.493153191710916
  0
PLOTSETTINGS
  5
839
102
{ACAD_XDICTIONARY
360
CA96
102
}
102
{ACAD_REACTORS
330
7CB
102
}
330
7CB
100
AcDbPlotSettings
  1
ProterHP
  2
HP DesignJet 430 (D/A1) by HP
  4
User621
  6

 40
0.0
 41
0.0
 42
0.0
 43
0.0
 44
594.0
 45
841.0
 46
2.229999999999999
 47
0.0
 48
0.0
 49
0.0
140
0.0
141
0.0
142
1.0
143
0.9227801962806559
 70
  1716
 72
     1
 73
     1
 74
     1
  7
ZenithPrinter.ctb
 75
     0
147
1.083681687178143
148
-19.45759484557811
149
-6.493153191710916
  0
ACDBPLACEHOLDER
  5
7C9
102
{ACAD_REACTORS
330
7C8
102
}
330
7C8
  0
SCALE
  5
9E19
102
{ACAD_REACTORS
330
9E18
102
}
330
9E18
100
AcDbScale
 70
     0
300
1:1
140
1.0
141
1.0
290
     1
  0
SCALE
  5
9E1A
102
{ACAD_REACTORS
330
9E18
102
}
330
9E18
100
AcDbScale
 70
     0
300
1/128" = 1'-0"
140
0.0078125
141
12.0
290
     0
  0
SCALE
  5
9E1B
102
{ACAD_REACTORS
330
9E18
102
}
330
9E18
100
AcDbScale
 70
     0
300
1/64" = 1'-0"
140
0.015625
141
12.0
290
     0
  0
SCALE
  5
9E1C
102
{ACAD_REACTORS
330
9E18
102
}
330
9E18
100
AcDbScale
 70
     0
300
1/32" = 1'-0"
140
0.03125
141
12.0
290
     0
  0
SCALE
  5
9E1D
102
{ACAD_REACTORS
330
9E18
102
}
330
9E18
100
AcDbScale
 70
     0
300
1/16" = 1'-0"
140
0.0625
141
12.0
290
     0
  0
SCALE
  5
9E1E
102
{ACAD_REACTORS
330
9E18
102
}
330
9E18
100
AcDbScale
 70
     0
300
3/32" = 1'-0"
140
0.09375
141
12.0
290
     0
  0
SCALE
  5
9E1F
102
{ACAD_REACTORS
330
9E18
102
}
330
9E18
100
AcDbScale
 70
     0
300
1/8" = 1'-0"
140
0.125
141
12.0
290
     0
  0
SCALE
  5
9E20
102
{ACAD_REACTORS
330
9E18
102
}
330
9E18
100
AcDbScale
 70
     0
300
3/16" = 1'-0"
140
0.1875
141
12.0
290
     0
  0
SCALE
  5
9E21
102
{ACAD_REACTORS
330
9E18
102
}
330
9E18
100
AcDbScale
 70
     0
300
1/4" = 1'-0"
140
0.25
141
12.0
290
     0
  0
SCALE
  5
9E22
102
{ACAD_REACTORS
330
9E18
102
}
330
9E18
100
AcDbScale
 70
     0
300
3/8" = 1'-0"
140
0.375
141
12.0
290
     0
  0
SCALE
  5
9E23
102
{ACAD_REACTORS
330
9E18
102
}
330
9E18
100
AcDbScale
 70
     0
300
1/2" = 1'-0"
140
0.5
141
12.0
290
     0
  0
SCALE
  5
9E24
102
{ACAD_REACTORS
330
9E18
102
}
330
9E18
100
AcDbScale
 70
     0
300
3/4" = 1'-0"
140
0.75
141
12.0
290
     0
  0
SCALE
  5
9E25
102
{ACAD_REACTORS
330
9E18
102
}
330
9E18
100
AcDbScale
 70
     0
300
1" = 1'-0"
140
1.0
141
12.0
290
     0
  0
SCALE
  5
9E26
102
{ACAD_REACTORS
330
9E18
102
}
330
9E18
100
AcDbScale
 70
     0
300
1-1/2" = 1'-0"
140
1.5
141
12.0
290
     0
  0
SCALE
  5
9E27
102
{ACAD_REACTORS
330
9E18
102
}
330
9E18
100
AcDbScale
 70
     0
300
3" = 1'-0"
140
3.0
141
12.0
290
     0
  0
SCALE
  5
9E28
102
{ACAD_REACTORS
330
9E18
102
}
330
9E18
100
AcDbScale
 70
     0
300
6" = 1'-0"
140
6.0
141
12.0
290
     0
  0
SCALE
  5
9E29
102
{ACAD_REACTORS
330
9E18
102
}
330
9E18
100
AcDbScale
 70
     0
300
1'-0" = 1'-0"
140
12.0
141
12.0
290
     0
  0
TABLESTYLE
  5
9E17
102
{ACAD_XDICTIONARY
360
B622
102
}
102
{ACAD_REACTORS
330
9E16
102
}
330
9E16
100
AcDbTableStyle
  3
Standard
 70
     0
 71
     0
 40
0.06
 41
0.06
280
     0
281
     0
  7
STANDARD
140
0.18
170
     2
 62
     0
 63
     7
283
     0
274
    -2
284
     1
 64
     0
275
    -2
285
     1
 65
     0
276
    -2
286
     1
 66
     0
277
    -2
287
     1
 67
     0
278
    -2
288
     1
 68
     0
279
    -2
289
     1
 69
     0
  7
STANDARD
140
0.25
170
     5
 62
     0
 63
     7
283
     0
274
    -2
284
     1
 64
     0
275
    -2
285
     1
 65
     0
276
    -2
286
     1
 66
     0
277
    -2
287
     1
 67
     0
278
    -2
288
     1
 68
     0
279
    -2
289
     1
 69
     0
  7
STANDARD
140
0.18
170
     5
 62
     0
 63
     7
283
     0
274
    -2
284
     1
 64
     0
275
    -2
285
     1
 65
     0
276
    -2
286
     1
 66
     0
277
    -2
287
     1
 67
     0
278
    -2
288
     1
 68
     0
279
    -2
289
     1
 69
     0
  0
VISUALSTYLE
  5
9E02
102
{ACAD_XDICTIONARY
360
CAA5
102
}
102
{ACAD_REACTORS
330
9DFC
102
}
330
9DFC
100
AcDbVisualStyle
  2
2dWireframe
 70
     4
 71
     0
 72
     2
 73
     0
 90
        0
 40
-0.6
 41
-30.0
 62
     5
 63
     7
 74
     1
 91
        4
 64
     7
 65
   257
 75
     1
175
     1
 42
1.0
 92
        0
 66
   257
 43
1.0
 76
     1
 77
     6
 78
     2
 67
     7
 79
     5
170
     0
171
     0
290
     0
174
     0
 93
        1
 44
0.0
173
     0
291
     0
 45
0.0
1001
ACAD
1000
AcDbSavedByObjectVersion
1070
     0
  0
VISUALSTYLE
  5
9E01
102
{ACAD_XDICTIONARY
360
CAA3
102
}
102
{ACAD_REACTORS
330
9DFC
102
}
330
9DFC
100
AcDbVisualStyle
  2
Basic
 70
     7
 71
     1
 72
     0
 73
     1
 90
        0
 40
-0.6
 41
-30.0
 62
     5
 63
     7
 74
     0
 91
        4
 64
     7
 65
   257
 75
     1
175
     1
 42
1.0
 92
        8
 66
     7
 43
1.0
 76
     1
 77
     6
 78
     2
 67
     7
 79
     5
170
     0
171
     0
290
     0
174
     0
 93
        1
 44
0.0
173
     0
291
     1
 45
0.0
1001
ACAD
1000
AcDbSavedByObjectVersion
1070
     0
  0
VISUALSTYLE
  5
9E08
102
{ACAD_XDICTIONARY
360
CAB1
102
}
102
{ACAD_REACTORS
330
9DFC
102
}
330
9DFC
100
AcDbVisualStyle
  2
Brighten
 70
    12
 71
     2
 72
     2
 73
     0
 90
        0
 40
-0.6
 41
-30.0
 62
     5
 63
     7
 74
     1
 91
        4
 64
     7
 65
   257
 75
     1
175
     1
 42
1.0
 92
        8
 66
     7
 43
1.0
 76
     1
 77
     6
 78
     2
 67
     7
 79
     5
170
     0
171
     0
290
     0
174
     0
 93
        1
 44
50.0
173
     0
291
     1
 45
0.0
1001
ACAD
1000
AcDbSavedByObjectVersion
1070
     0
  0
VISUALSTYLE
  5
9E0C
102
{ACAD_XDICTIONARY
360
CAB9
102
}
102
{ACAD_REACTORS
330
9DFC
102
}
330
9DFC
100
AcDbVisualStyle
  2
ColorChange
 70
    16
 71
     2
 72
     2
 73
     3
 90
        0
 40
-0.6
 41
-30.0
 62
     5
 63
     8
 74
     1
 91
        4
 64
     7
 65
   257
 75
     1
175
     1
 42
1.0
 92
        8
 66
     8
 43
1.0
 76
     1
 77
     6
 78
     2
 67
     7
 79
     5
170
     0
171
     0
290
     0
174
     0
 93
        1
 44
0.0
173
     0
291
     1
 45
0.0
1001
ACAD
1000
AcDbSavedByObjectVersion
1070
     0
  0
VISUALSTYLE
  5
9E05
102
{ACAD_XDICTIONARY
360
CAAB
102
}
102
{ACAD_REACTORS
330
9DFC
102
}
330
9DFC
100
AcDbVisualStyle
  2
Conceptual
 70
     9
 71
     3
 72
     2
 73
     0
 90
        0
 40
-0.6
 41
-30.0
 62
     5
 63
     7
 74
     2
 91
        2
 64
     7
 65
   257
 75
     1
175
     1
 42
179.0
 92
        8
 66
     7
 43
1.0
 76
     1
 77
     6
 78
     2
 67
     7
 79
     3
170
     0
171
     0
290
     0
174
     0
 93
        1
 44
0.0
173
     0
291
     0
 45
0.0
1001
ACAD
1000
AcDbSavedByObjectVersion
1070
     0
  0
VISUALSTYLE
  5
9E07
102
{ACAD_XDICTIONARY
360
CAAF
102
}
102
{ACAD_REACTORS
330
9DFC
102
}
330
9DFC
100
AcDbVisualStyle
  2
Dim
 70
    11
 71
     2
 72
     2
 73
     0
 90
        0
 40
-0.6
 41
-30.0
 62
     5
 63
     7
 74
     1
 91
        4
 64
     7
 65
   257
 75
     1
175
     1
 42
1.0
 92
        8
 66
     7
 43
1.0
 76
     1
 77
     6
 78
     2
 67
     7
 79
     5
170
     0
171
     0
290
     0
174
     0
 93
        1
 44
-50.0
173
     0
291
     1
 45
0.0
1001
ACAD
1000
AcDbSavedByObjectVersion
1070
     0
  0
VISUALSTYLE
  5
9E14
102
{ACAD_XDICTIONARY
360
CAC9
102
}
102
{ACAD_REACTORS
330
9DFC
102
}
330
9DFC
100
AcDbVisualStyle
  2
EdgeColorOff
 70
    22
 71
     2
 72
     2
 73
     0
 90
        0
 40
-0.6
 41
-30.0
 62
     5
 63
     7
 74
     1
 91
        4
 64
     7
 65
   257
 75
     1
175
     1
 42
1.0
 92
        8
 66
     7
 43
1.0
 76
     1
 77
     6
 78
     2
 67
     7
 79
     5
170
     0
171
     0
290
     0
174
     0
 93
        1
 44
0.0
173
     0
291
     1
 45
0.0
1001
ACAD
1000
AcDbSavedByObjectVersion
1070
     0
  0
VISUALSTYLE
  5
9E0B
102
{ACAD_XDICTIONARY
360
CAB7
102
}
102
{ACAD_REACTORS
330
9DFC
102
}
330
9DFC
100
AcDbVisualStyle
  2
Facepattern
 70
    15
 71
     2
 72
     2
 73
     0
 90
        0
 40
-0.6
 41
-30.0
 62
     5
 63
     7
 74
     1
 91
        4
 64
     7
 65
   257
 75
     1
175
     1
 42
1.0
 92
        8
 66
     7
 43
1.0
 76
     1
 77
     6
 78
     2
 67
     7
 79
     5
170
     0
171
     0
290
     0
174
     0
 93
        1
 44
0.0
173
     0
291
     1
 45
0.0
1001
ACAD
1000
AcDbSavedByObjectVersion
1070
     0
  0
VISUALSTYLE
  5
9DFD
102
{ACAD_XDICTIONARY
360
CA9B
102
}
102
{ACAD_REACTORS
330
9DFC
102
}
330
9DFC
100
AcDbVisualStyle
  2
Flat
 70
     0
 71
     2
 72
     1
 73
     1
 90
        2
 40
-0.6
 41
30.0
 62
     5
 63
     7
 74
     0
 91
        0
 64
     7
 65
   257
 75
     1
175
     1
 42
1.0
 92
        8
 66
     7
 43
1.0
 76
     1
 77
     6
 78
     2
 67
     7
 79
     5
170
     0
171
     0
290
     0
174
     0
 93
       13
 44
0.0
173
     0
291
     1
 45
0.0
1001
ACAD
1000
AcDbSavedByObjectVersion
1070
     0
  0
VISUALSTYLE
  5
9DFE
102
{ACAD_XDICTIONARY
360
CA9D
102
}
102
{ACAD_REACTORS
330
9DFC
102
}
330
9DFC
100
AcDbVisualStyle
  2
FlatWithEdges
 70
     1
 71
     2
 72
     1
 73
     1
 90
        2
 40
-0.6
 41
30.0
 62
     5
 63
     7
 74
     1
 91
        0
 64
     7
 65
   257
 75
     1
175
     1
 42
1.0
 92
        0
 66
   257
 43
1.0
 76
     1
 77
     6
 78
     2
 67
     7
 79
     5
170
     0
171
     0
290
     0
174
     0
 93
       13
 44
0.0
173
     0
291
     1
 45
0.0
1001
ACAD
1000
AcDbSavedByObjectVersion
1070
     0
  0
VISUALSTYLE
  5
9DFF
102
{ACAD_XDICTIONARY
360
CA9F
102
}
102
{ACAD_REACTORS
330
9DFC
102
}
330
9DFC
100
AcDbVisualStyle
  2
Gouraud
 70
     2
 71
     2
 72
     2
 73
     1
 90
        2
 40
-0.6
 41
30.0
 62
     5
 63
     7
 74
     0
 91
        0
 64
     7
 65
   257
 75
     1
175
     1
 42
1.0
 92
        0
 66
     7
 43
1.0
 76
     1
 77
     6
 78
     2
 67
     7
 79
     5
170
     0
171
     0
290
     0
174
     0
 93
       13
 44
0.0
173
     0
291
     1
 45
0.0
1001
ACAD
1000
AcDbSavedByObjectVersion
1070
     0
  0
VISUALSTYLE
  5
9E00
102
{ACAD_XDICTIONARY
360
CAA1
102
}
102
{ACAD_REACTORS
330
9DFC
102
}
330
9DFC
100
AcDbVisualStyle
  2
GouraudWithEdges
 70
     3
 71
     2
 72
     2
 73
     1
 90
        2
 40
-0.6
 41
30.0
 62
     5
 63
     7
 74
     1
 91
        0
 64
     7
 65
   257
 75
     1
175
     1
 42
1.0
 92
        0
 66
   257
 43
1.0
 76
     1
 77
     6
 78
     2
 67
     7
 79
     5
170
     0
171
     0
290
     0
174
     0
 93
       13
 44
0.0
173
     0
291
     1
 45
0.0
1001
ACAD
1000
AcDbSavedByObjectVersion
1070
     0
  0
VISUALSTYLE
  5
9E04
102
{ACAD_XDICTIONARY
360
CAA9
102
}
102
{ACAD_REACTORS
330
9DFC
102
}
330
9DFC
100
AcDbVisualStyle
  2
Hidden
 70
     6
 71
     1
 72
     2
 73
     2
 90
        0
 40
-0.6
 41
-30.0
 62
     5
 63
     7
 74
     2
 91
        2
 64
     7
 65
   257
 75
     2
175
     1
 42
40.0
 92
        0
 66
   257
 43
1.0
 76
     1
 77
     6
 78
     2
 67
     7
 79
     3
170
     0
171
     0
290
     0
174
     0
 93
        1
 44
0.0
173
     0
291
     0
 45
0.0
1001
ACAD
1000
AcDbSavedByObjectVersion
1070
     0
  0
VISUALSTYLE
  5
9E12
102
{ACAD_XDICTIONARY
360
CAC5
102
}
102
{ACAD_REACTORS
330
9DFC
102
}
330
9DFC
100
AcDbVisualStyle
  2
JitterOff
 70
    20
 71
     2
 72
     2
 73
     0
 90
        0
 40
-0.6
 41
-30.0
 62
     5
 63
     7
 74
     1
 91
        4
 64
     7
 65
   257
 75
     1
175
     1
 42
1.0
 92
       10
 66
     7
 43
1.0
 76
     1
 77
     6
 78
     2
 67
     7
 79
     5
170
     0
171
     0
290
     0
174
     0
 93
        1
 44
0.0
173
     0
291
     1
 45
0.0
1001
ACAD
1000
AcDbSavedByObjectVersion
1070
     0
  0
VISUALSTYLE
  5
9E0A
102
{ACAD_XDICTIONARY
360
CAB5
102
}
102
{ACAD_REACTORS
330
9DFC
102
}
330
9DFC
100
AcDbVisualStyle
  2
Linepattern
 70
    14
 71
     2
 72
     2
 73
     0
 90
        0
 40
-0.6
 41
-30.0
 62
     5
 63
     7
 74
     1
 91
        4
 64
     7
 65
   257
 75
     7
175
     7
 42
1.0
 92
        8
 66
     7
 43
1.0
 76
     1
 77
     6
 78
     2
 67
     7
 79
     5
170
     0
171
     0
290
     0
174
     0
 93
        1
 44
0.0
173
     0
291
     1
 45
0.0
1001
ACAD
1000
AcDbSavedByObjectVersion
1070
     0
  0
VISUALSTYLE
  5
9E13
102
{ACAD_XDICTIONARY
360
CAC7
102
}
102
{ACAD_REACTORS
330
9DFC
102
}
330
9DFC
100
AcDbVisualStyle
  2
OverhangOff
 70
    21
 71
     2
 72
     2
 73
     0
 90
        0
 40
-0.6
 41
-30.0
 62
     5
 63
     7
 74
     1
 91
        4
 64
     7
 65
   257
 75
     1
175
     1
 42
1.0
 92
        9
 66
     7
 43
1.0
 76
     1
 77
     6
 78
     2
 67
     7
 79
     5
170
     0
171
     0
290
     0
174
     0
 93
        1
 44
0.0
173
     0
291
     1
 45
0.0
1001
ACAD
1000
AcDbSavedByObjectVersion
1070
     0
  0
VISUALSTYLE
  5
9E06
102
{ACAD_XDICTIONARY
360
CAAD
102
}
102
{ACAD_REACTORS
330
9DFC
102
}
330
9DFC
100
AcDbVisualStyle
  2
Realistic
 70
     8
 71
     2
 72
     2
 73
     0
 90
        2
 40
-0.6
 41
30.0
 62
     5
 63
     7
 74
     0
 91
        0
 64
     7
 65
   257
 75
     1
175
     1
 42
1.0
 92
        8
 66
   257
 43
1.0
 76
     1
 77
     6
 78
     2
 67
     7
 79
     3
170
     0
171
     0
290
     0
174
     0
 93
       13
 44
0.0
173
     0
291
     0
 45
0.0
1001
ACAD
1000
AcDbSavedByObjectVersion
1070
     0
  0
VISUALSTYLE
  5
9E11
102
{ACAD_XDICTIONARY
360
CAC3
102
}
102
{ACAD_REACTORS
330
9DFC
102
}
330
9DFC
100
AcDbVisualStyle
  2
Shaded
 70
    27
 71
     2
 72
     2
 73
     1
 90
        2
 40
-0.6
 41
30.0
 62
     5
 63
     7
 74
     0
 91
        4
 64
     7
 65
   257
 75
     1
175
     1
 42
1.0
 92
        8
 66
   257
 43
1.0
 76
     1
 77
     6
 78
     2
 67
     8
 79
     3
170
     0
171
     0
290
     0
174
     0
 93
        5
 44
0.0
173
     0
291
     0
 45
0.0
1001
ACAD
1000
AcDbSavedByObjectVersion
1070
     0
  0
VISUALSTYLE
  5
9E10
102
{ACAD_XDICTIONARY
360
CAC1
102
}
102
{ACAD_REACTORS
330
9DFC
102
}
330
9DFC
100
AcDbVisualStyle
  2
Shaded with edges
 70
    26
 71
     2
 72
     2
 73
     1
 90
        2
 40
-0.6
 41
30.0
 62
     5
 63
     7
 74
     1
 91
       10
 64
     7
 65
   257
 75
     2
175
     1
 42
1.0
 92
        8
 66
   257
 43
1.0
 76
     1
 77
     6
 78
     2
 67
     7
 79
     3
170
     0
171
     0
290
     0
174
     0
 93
        5
 44
0.0
173
     0
291
     0
 45
0.0
1001
ACAD
1000
AcDbSavedByObjectVersion
1070
     0
  0
VISUALSTYLE
  5
9E0D
102
{ACAD_XDICTIONARY
360
CABB
102
}
102
{ACAD_REACTORS
330
9DFC
102
}
330
9DFC
100
AcDbVisualStyle
  2
Shades of Gray
 70
    23
 71
     2
 72
     2
 73
     3
 90
        0
 40
-0.6
 41
-30.0
 62
     5
 63
     7
 74
     2
 91
        2
 64
     7
 65
     7
 75
     1
175
     1
 42
40.0
 92
        8
 66
     7
 43
1.0
 76
     1
 77
     6
 78
     2
 67
     7
 79
     3
170
     0
171
     0
290
     0
174
     0
 93
        1
 44
0.0
173
     0
291
     0
 45
0.0
1001
ACAD
1000
AcDbSavedByObjectVersion
1070
     0
  0
VISUALSTYLE
  5
9E0E
102
{ACAD_XDICTIONARY
360
CABD
102
}
102
{ACAD_REACTORS
330
9DFC
102
}
330
9DFC
100
AcDbVisualStyle
  2
Sketchy
 70
    24
 71
     1
 72
     2
 73
     2
 90
        0
 40
-0.6
 41
-30.0
 62
     5
 63
     7
 74
     2
 91
        2
 64
     7
 65
     7
 75
     1
175
     1
 42
40.0
 92
       11
 66
     7
 43
1.0
 76
     1
 77
     6
 78
     2
 67
     7
 79
     6
170
     0
171
     0
290
     0
174
     0
 93
        1
 44
0.0
173
     0
291
     0
 45
0.0
1001
ACAD
1000
AcDbSavedByObjectVersion
1070
     0
  0
VISUALSTYLE
  5
9E09
102
{ACAD_XDICTIONARY
360
CAB3
102
}
102
{ACAD_REACTORS
330
9DFC
102
}
330
9DFC
100
AcDbVisualStyle
  2
Thicken
 70
    13
 71
     2
 72
     2
 73
     0
 90
        0
 40
-0.6
 41
-30.0
 62
     5
 63
     7
 74
     1
 91
        4
 64
     7
 65
   257
 75
     1
175
     1
 42
1.0
 92
       12
 66
     7
 43
1.0
 76
     1
 77
     6
 78
     2
 67
     7
 79
     5
170
     0
171
     0
290
     0
174
     0
 93
        1
 44
0.0
173
     0
291
     1
 45
0.0
1001
ACAD
1000
AcDbSavedByObjectVersion
1070
     0
  0
VISUALSTYLE
  5
9E03
102
{ACAD_XDICTIONARY
360
CAA7
102
}
102
{ACAD_REACTORS
330
9DFC
102
}
330
9DFC
100
AcDbVisualStyle
  2
Wireframe
 70
     5
 71
     0
 72
     2
 73
     0
 90
        0
 40
-0.6
 41
-30.0
 62
     5
 63
     7
 74
     1
 91
        4
 64
     7
 65
   257
 75
     1
175
     1
 42
1.0
 92
        0
 66
   257
 43
1.0
 76
     1
 77
     6
 78
     2
 67
     7
 79
     3
170
     0
171
     0
290
     0
174
     0
 93
        1
 44
0.0
173
     0
291
     0
 45
0.0
1001
ACAD
1000
AcDbSavedByObjectVersion
1070
     0
  0
VISUALSTYLE
  5
9E0F
102
{ACAD_XDICTIONARY
360
CABF
102
}
102
{ACAD_REACTORS
330
9DFC
102
}
330
9DFC
100
AcDbVisualStyle
  2
X-Ray
 70
    25
 71
     2
 72
     2
 73
     1
 90
        1
 40
0.5
 41
-30.0
 62
     5
 63
     7
 74
     1
 91
        0
 64
     7
 65
   257
 75
     1
175
     1
 42
1.0
 92
        8
 66
     7
 43
1.0
 76
     1
 77
     6
 78
     2
 67
     7
 79
     3
170
     0
171
     0
290
     0
174
     0
 93
       13
 44
0.0
173
     0
291
     0
 45
0.0
1001
ACAD
1000
AcDbSavedByObjectVersion
1070
     0
  0
DICTIONARYVAR
  5
B669
102
{ACAD_REACTORS
330
24A5
102
}
330
24A5
100
DictionaryVariables
280
     0
  1
1:1
  0
DICTIONARYVAR
  5
B668
102
{ACAD_REACTORS
330
24A5
102
}
330
24A5
100
DictionaryVariables
280
     0
  1
STANDARD
  0
DICTIONARYVAR
  5
B667
102
{ACAD_REACTORS
330
24A5
102
}
330
24A5
100
DictionaryVariables
280
     0
  1
STANDARD
  0
DICTIONARYVAR
  5
24A6
102
{ACAD_REACTORS
330
24A5
102
}
330
24A5
100
DictionaryVariables
280
     0
  1
1
  0
DICTIONARYVAR
  5
B66B
102
{ACAD_REACTORS
330
24A5
102
}
330
24A5
100
DictionaryVariables
280
     0
  1
0
  0
DICTIONARYVAR
  5
C9F7
102
{ACAD_REACTORS
330
24A5
102
}
330
24A5
100
DictionaryVariables
280
     0
  1
1
  0
DICTIONARYVAR
  5
C9F8
102
{ACAD_REACTORS
330
24A5
102
}
330
24A5
100
DictionaryVariables
280
     0
  1
15
  0
DICTIONARYVAR
  5
C9F6
102
{ACAD_REACTORS
330
24A5
102
}
330
24A5
100
DictionaryVariables
280
     0
  1
0
  0
DICTIONARYVAR
  5
C9F5
102
{ACAD_REACTORS
330
24A5
102
}
330
24A5
100
DictionaryVariables
280
     0
  1
0
  0
DICTIONARYVAR
  5
B66A
102
{ACAD_REACTORS
330
24A5
102
}
330
24A5
100
DictionaryVariables
280
     0
  1
127
  0
DICTIONARYVAR
  5
CA8A
102
{ACAD_REACTORS
330
24A5
102
}
330
24A5
100
DictionaryVariables
280
     0
  1
2
  0
XRECORD
  5
39AE
102
{ACAD_REACTORS
330
39AD
102
}
330
39AD
100
AcDbXrecord
280
     1
  1
-c
  1
*-c
  1
*
  1
*
 70
     0
  1
*
  1
*
  0
XRECORD
  5
39AF
102
{ACAD_REACTORS
330
39AD
102
}
330
39AD
100
AcDbXrecord
280
     1
  1
-C2
  1
*-c,vec,kigou,touko25
  1
*
  1
*
 70
     0
  1
*
  1
*
  0
XRECORD
  5
39B0
102
{ACAD_REACTORS
330
39AD
102
}
330
39AD
100
AcDbXrecord
280
     1
  1
-cc
  1
*-cc
  1
*
  1
*
 70
     0
  1
*
  1
*
  0
XRECORD
  5
39B1
102
{ACAD_REACTORS
330
39AD
102
}
330
39AD
100
AcDbXrecord
280
     1
  1
-ccc
  1
*-c,*-cc
  1
*
  1
*
 70
     0
  1
*
  1
*
  0
XRECORD
  5
39B2
102
{ACAD_REACTORS
330
39AD
102
}
330
39AD
100
AcDbXrecord
280
     1
  1
-cccC
  1
*-c,*-cc,c_*
  1
*
  1
*
 70
     0
  1
*
  1
*
  0
XRECORD
  5
39B3
102
{ACAD_REACTORS
330
39AD
102
}
330
39AD
100
AcDbXrecord
280
     1
  1
-図面
  1
-*
  1
*
  1
*
 70
     0
  1
*
  1
*
  0
XRECORD
  5
5267
102
{ACAD_REACTORS
330
39AD
102
}
330
39AD
100
AcDbXrecord
280
     1
  1
0
  1
*0*
  1
*
  1
*
 70
     0
  1
*
  1
*
  0
XRECORD
  5
39B4
102
{ACAD_REACTORS
330
39AD
102
}
330
39AD
100
AcDbXrecord
280
     1
  1
01-teitai
  1
teitai-block,teitai-douryuu,teitai-genseiko,teitai-umemodoshi
  1
*
  1
*
 70
     0
  1
*
  1
*
  0
XRECORD
  5
39B5
102
{ACAD_REACTORS
330
39AD
102
}
330
39AD
100
AcDbXrecord
280
     1
  1
02-zentai
  1
teitai-block,teitai-douryuu,teitai-genseiko,teitai-umemodoshi,surface-kussaku,???-c,map-l3
  1
*
  1
*
 70
     0
  1
*
  1
*
  0
XRECORD
  5
39B6
102
{ACAD_REACTORS
330
39AD
102
}
330
39AD
100
AcDbXrecord
280
     1
  1
03-zentai+kussaku
  1
teitai-block,teitai-douryuu,teitai-genseiko,teitai-umemodoshi,surface-kussaku
  1
*
  1
*
 70
     0
  1
*
  1
*
  0
XRECORD
  5
39B7
102
{ACAD_REACTORS
330
39AD
102
}
330
39AD
100
AcDbXrecord
280
     1
  1
04-chikei
  1
*-c
  1
*
  1
*
 70
     0
  1
*
  1
*
  0
XRECORD
  5
39B8
102
{ACAD_REACTORS
330
39AD
102
}
330
39AD
100
AcDbXrecord
280
     1
  1
05-chikei-5m
  1
??5-c,??0-c
  1
*
  1
*
 70
     0
  1
*
  1
*
  0
XRECORD
  5
39B9
102
{ACAD_REACTORS
330
39AD
102
}
330
39AD
100
AcDbXrecord
280
     1
  1
06-kussaku
  1
*-k
  1
*
  1
*
 70
     0
  1
*
  1
*
  0
XRECORD
  5
39BA
102
{ACAD_REACTORS
330
39AD
102
}
330
39AD
100
AcDbXrecord
280
     1
  1
1
  1
*
  1
*
  1
*
 70
   256
  1
*
  1
*
  0
XRECORD
  5
5268
102
{ACAD_REACTORS
330
39AD
102
}
330
39AD
100
AcDbXrecord
280
     1
  1
1-交差点処理図（最新1案）
  1
*交差点処理図（最新1案）*
  1
*
  1
*
 70
     0
  1
*
  1
*
  0
XRECORD
  5
39BB
102
{ACAD_REACTORS
330
39AD
102
}
330
39AD
100
AcDbXrecord
280
     1
  1
100
  1
z1-*
  1
*
  1
*
 70
     0
  1
*
  1
*
  0
XRECORD
  5
39BC
102
{ACAD_REACTORS
330
39AD
102
}
330
39AD
100
AcDbXrecord
280
     1
  1
100ban
  1
*
  1
100
  1
*
 70
     0
  1
*
  1
*
  0
XRECORD
  5
39BD
102
{ACAD_REACTORS
330
39AD
102
}
330
39AD
100
AcDbXrecord
280
     1
  1
160ban
  1
*
  1
160
  1
*
 70
     0
  1
*
  1
*
  0
XRECORD
  5
39BE
102
{ACAD_REACTORS
330
39AD
102
}
330
39AD
100
AcDbXrecord
280
     1
  1
180
  1
*
  1
180
  1
*
 70
     0
  1
*
  1
*
  0
XRECORD
  5
39BF
102
{ACAD_REACTORS
330
39AD
102
}
330
39AD
100
AcDbXrecord
280
     1
  1
180-240
  1
180,240,190,200,210,220,230
  1
*
  1
*
 70
     0
  1
*
  1
*
  0
XRECORD
  5
39C0
102
{ACAD_REACTORS
330
39AD
102
}
330
39AD
100
AcDbXrecord
280
     1
  1
181
  1
*
  1
181
  1
*
 70
     0
  1
*
  1
*
  0
XRECORD
  5
39C1
102
{ACAD_REACTORS
330
39AD
102
}
330
39AD
100
AcDbXrecord
280
     1
  1
1mtoukousenn
  1
*-c
  1
6
  1
*
 70
     0
  1
*
  1
*
  0
XRECORD
  5
39C2
102
{ACAD_REACTORS
330
39AD
102
}
330
39AD
100
AcDbXrecord
280
     1
  1
2
  1
*-c
  1
*
  1
*
 70
     0
  1
*
  1
*
  0
XRECORD
  5
5269
102
{ACAD_REACTORS
330
39AD
102
}
330
39AD
100
AcDbXrecord
280
     1
  1
2-線形図1
  1
*線形図1*
  1
*
  1
*
 70
     0
  1
*
  1
*
  0
XRECORD
  5
39C3
102
{ACAD_REACTORS
330
39AD
102
}
330
39AD
100
AcDbXrecord
280
     1
  1
2100
  1
*2100*
  1
*
  1
*
 70
     0
  1
*
  1
*
  0
XRECORD
  5
39C4
102
{ACAD_REACTORS
330
39AD
102
}
330
39AD
100
AcDbXrecord
280
     1
  1
240ban
  1
*
  1
240
  1
*
 70
     0
  1
*
  1
*
  0
XRECORD
  5
39C5
102
{ACAD_REACTORS
330
39AD
102
}
330
39AD
100
AcDbXrecord
280
     1
  1
25-C
  1
**00-c,**25-c,**50-c,**75-c
  1
*
  1
*
 70
     0
  1
*
  1
*
  0
XRECORD
  5
39C6
102
{ACAD_REACTORS
330
39AD
102
}
330
39AD
100
AcDbXrecord
280
     1
  1
252
  1
*
  1
252
  1
*
 70
     0
  1
*
  1
*
  0
XRECORD
  5
39C7
102
{ACAD_REACTORS
330
39AD
102
}
330
39AD
100
AcDbXrecord
280
     1
  1
2600
  1
*2600*
  1
*
  1
*
 70
     0
  1
*
  1
*
  0
XRECORD
  5
39C8
102
{ACAD_REACTORS
330
39AD
102
}
330
39AD
100
AcDbXrecord
280
     1
  1
3
  1
*-c
  1
green
  1
*
 70
     0
  1
*
  1
*
  0
XRECORD
  5
526A
102
{ACAD_REACTORS
330
39AD
102
}
330
39AD
100
AcDbXrecord
280
     1
  1
3-線形図2
  1
*線形図2*
  1
*
  1
*
 70
     0
  1
*
  1
*
  0
XRECORD
  5
526B
102
{ACAD_REACTORS
330
39AD
102
}
330
39AD
100
AcDbXrecord
280
     1
  1
3dC
  1
***C
  1
*
  1
*
 70
     0
  1
*
  1
*
  0
XRECORD
  5
526C
102
{ACAD_REACTORS
330
39AD
102
}
330
39AD
100
AcDbXrecord
280
     1
  1
3dC5
  1
**5C
  1
*
  1
*
 70
     0
  1
*
  1
*
  0
XRECORD
  5
39C9
102
{ACAD_REACTORS
330
39AD
102
}
330
39AD
100
AcDbXrecord
280
     1
  1
44
  1
*-c
  1
6
  1
*
 70
     0
  1
*
  1
*
  0
XRECORD
  5
39CA
102
{ACAD_REACTORS
330
39AD
102
}
330
39AD
100
AcDbXrecord
280
     1
  1
5-C
  1
**5-c,**10-c,**15-c,**20-c,**30-c,**35-c,**40-c,**45-c,**55-c,**60-c,**65-c,**70-c,**80-c,**85-c,**90-c,**95-c
  1
*
  1
*
 70
     0
  1
*
  1
*
  0
XRECORD
  5
39CB
102
{ACAD_REACTORS
330
39AD
102
}
330
39AD
100
AcDbXrecord
280
     1
  1
5-C2
  1
**05-c,**10-c,**15-c,**20-c,**30-c,**35-c,**40-c,**45-c,**55-c,**60-c,**65-c,**70-c,**80-c,**85-c,**90-c,**95-c
  1
*
  1
*
 70
     0
  1
*
  1
*
  0
XRECORD
  5
39CC
102
{ACAD_REACTORS
330
39AD
102
}
330
39AD
100
AcDbXrecord
280
     1
  1
50
  1
*
  1
50
  1
*
 70
     0
  1
*
  1
*
  0
XRECORD
  5
39CD
102
{ACAD_REACTORS
330
39AD
102
}
330
39AD
100
AcDbXrecord
280
     1
  1
5m
  1
*5-c,*0-c
  1
*
  1
*
 70
     0
  1
*
  1
*
  0
XRECORD
  5
39CE
102
{ACAD_REACTORS
330
39AD
102
}
330
39AD
100
AcDbXrecord
280
     1
  1
60
  1
*
  1
60
  1
*
 70
     0
  1
*
  1
*
  0
XRECORD
  5
39CF
102
{ACAD_REACTORS
330
39AD
102
}
330
39AD
100
AcDbXrecord
280
     1
  1
7-専用部北行
  1
80*,90*,A0*,B0*,
  1
*
  1
*
 70
     0
  1
*
  1
*
  0
XRECORD
  5
39D0
102
{ACAD_REACTORS
330
39AD
102
}
330
39AD
100
AcDbXrecord
280
     1
  1
8-ONﾗﾝﾌﾟ
  1
70*,90*,A0*,B0*,
  1
*
  1
*
 70
     0
  1
*
  1
*
  0
XRECORD
  5
39D1
102
{ACAD_REACTORS
330
39AD
102
}
330
39AD
100
AcDbXrecord
280
     1
  1
9-OFFﾗﾝﾌﾟ
  1
70*,80*,A0*B0*,
  1
*
  1
*
 70
     0
  1
*
  1
*
  0
XRECORD
  5
39D2
102
{ACAD_REACTORS
330
39AD
102
}
330
39AD
100
AcDbXrecord
280
     1
  1
_図面
  1
_*
  1
*
  1
*
 70
     0
  1
*
  1
*
  0
XRECORD
  5
39D3
102
{ACAD_REACTORS
330
39AD
102
}
330
39AD
100
AcDbXrecord
280
     1
  1
a
  1
a-*
  1
*
  1
*
 70
     0
  1
*
  1
*
  0
XRECORD
  5
39D4
102
{ACAD_REACTORS
330
39AD
102
}
330
39AD
100
AcDbXrecord
280
     1
  1
a-
  1
a-*
  1
*
  1
*
 70
     0
  1
*
  1
*
  0
XRECORD
  5
39D5
102
{ACAD_REACTORS
330
39AD
102
}
330
39AD
100
AcDbXrecord
280
     1
  1
a-（埋設）
  1
a-（埋設）*
  1
*
  1
*
 70
     0
  1
*
  1
*
  0
XRECORD
  5
39D6
102
{ACAD_REACTORS
330
39AD
102
}
330
39AD
100
AcDbXrecord
280
     1
  1
aaa
  1
*-c
  1
*
  1
*
 70
     0
  1
*
  1
*
  0
XRECORD
  5
526D
102
{ACAD_REACTORS
330
39AD
102
}
330
39AD
100
AcDbXrecord
280
     1
  1
all-DIM -TXT -MTXT OFF
  1
*-DIM,*-TXT,*-MTXT
  1
*
  1
*
 70
     0
  1
*
  1
*
  0
XRECORD
  5
526E
102
{ACAD_REACTORS
330
39AD
102
}
330
39AD
100
AcDbXrecord
280
     1
  1
all-DIM -TXT OFF
  1
*-DIM,*-TXT
  1
*
  1
*
 70
     0
  1
*
  1
*
  0
XRECORD
  5
526F
102
{ACAD_REACTORS
330
39AD
102
}
330
39AD
100
AcDbXrecord
280
     1
  1
all-DIM OFF
  1
*-DIM
  1
*
  1
*
 70
     0
  1
*
  1
*
  0
XRECORD
  5
5270
102
{ACAD_REACTORS
330
39AD
102
}
330
39AD
100
AcDbXrecord
280
     1
  1
all-MTXT OFF
  1
*-MTXT
  1
*
  1
*
 70
     0
  1
*
  1
*
  0
XRECORD
  5
5271
102
{ACAD_REACTORS
330
39AD
102
}
330
39AD
100
AcDbXrecord
280
     1
  1
all-TXT OFF
  1
*-TXT
  1
*
  1
*
 70
     0
  1
*
  1
*
  0
XRECORD
  5
39D7
102
{ACAD_REACTORS
330
39AD
102
}
330
39AD
100
AcDbXrecord
280
     1
  1
all_tikei
  1
***-cc,c_*
  1
*
  1
*
 70
     0
  1
*
  1
*
  0
XRECORD
  5
39D8
102
{ACAD_REACTORS
330
39AD
102
}
330
39AD
100
AcDbXrecord
280
     1
  1
all_tikei2
  1
***-cc,c_*,***-c
  1
*
  1
*
 70
     0
  1
*
  1
*
  0
XRECORD
  5
39D9
102
{ACAD_REACTORS
330
39AD
102
}
330
39AD
100
AcDbXrecord
280
     1
  1
a、シビ
  1
a*,シビ*
  1
*
  1
*
 70
     0
  1
*
  1
*
  0
XRECORD
  5
39DA
102
{ACAD_REACTORS
330
39AD
102
}
330
39AD
100
AcDbXrecord
280
     1
  1
BASIC
  1
*
  1
*
  1
*
 70
    12
  1
*
  1
*
  0
XRECORD
  5
39DB
102
{ACAD_REACTORS
330
39AD
102
}
330
39AD
100
AcDbXrecord
280
     1
  1
BGD
  1
D-BGD*
  1
*
  1
*
 70
     0
  1
*
  1
*
  0
XRECORD
  5
39DC
102
{ACAD_REACTORS
330
39AD
102
}
330
39AD
100
AcDbXrecord
280
     1
  1
blue
  1
*
  1
blue
  1
*
 70
     0
  1
*
  1
*
  0
XRECORD
  5
5272
102
{ACAD_REACTORS
330
39AD
102
}
330
39AD
100
AcDbXrecord
280
     1
  1
B北
  1
*B北*
  1
*
  1
*
 70
     0
  1
*
  1
*
  0
XRECORD
  5
39DD
102
{ACAD_REACTORS
330
39AD
102
}
330
39AD
100
AcDbXrecord
280
     1
  1
c
  1
*c
  1
*
  1
*
 70
     0
  1
*
  1
*
  0
XRECORD
  5
39DE
102
{ACAD_REACTORS
330
39AD
102
}
330
39AD
100
AcDbXrecord
280
     1
  1
chihyou
  1
****-c
  1
*
  1
*
 70
     0
  1
*
  1
*
  0
XRECORD
  5
39DF
102
{ACAD_REACTORS
330
39AD
102
}
330
39AD
100
AcDbXrecord
280
     1
  1
chihyou-cc
  1
***-cc
  1
*
  1
*
 70
     0
  1
*
  1
*
  0
XRECORD
  5
39E0
102
{ACAD_REACTORS
330
39AD
102
}
330
39AD
100
AcDbXrecord
280
     1
  1
chikei
  1
*-c
  1
*
  1
*
 70
     0
  1
*
  1
*
  0
XRECORD
  5
39E1
102
{ACAD_REACTORS
330
39AD
102
}
330
39AD
100
AcDbXrecord
280
     1
  1
chikei 5 0
  1
*5-c,*0-c
  1
*
  1
*
 70
     0
  1
*
  1
*
  0
XRECORD
  5
39E2
102
{ACAD_REACTORS
330
39AD
102
}
330
39AD
100
AcDbXrecord
280
     1
  1
chikei-5m
  1
??5-c,??0-c
  1
*
  1
*
 70
     0
  1
*
  1
*
  0
XRECORD
  5
39E3
102
{ACAD_REACTORS
330
39AD
102
}
330
39AD
100
AcDbXrecord
280
     1
  1
chikei2
  1
*-c
  1
252
  1
*
 70
     0
  1
*
  1
*
  0
XRECORD
  5
39E4
102
{ACAD_REACTORS
330
39AD
102
}
330
39AD
100
AcDbXrecord
280
     1
  1
chikei5m
  1
*5-c,*0-c
  1
*
  1
*
 70
     0
  1
*
  1
*
  0
XRECORD
  5
39E5
102
{ACAD_REACTORS
330
39AD
102
}
330
39AD
100
AcDbXrecord
280
     1
  1
chishitsu
  1
*chishitsu*
  1
*
  1
*
 70
     0
  1
*
  1
*
  0
XRECORD
  5
39E6
102
{ACAD_REACTORS
330
39AD
102
}
330
39AD
100
AcDbXrecord
280
     1
  1
chishitu
  1
???-chishitsu,???-chishitsu-1,???-chishitsu-2
  1
*
  1
*
 70
     0
  1
*
  1
*
  0
XRECORD
  5
39E7
102
{ACAD_REACTORS
330
39AD
102
}
330
39AD
100
AcDbXrecord
280
     1
  1
ckeiall
  1
c_*,*-c,*-cc
  1
*
  1
*
 70
     0
  1
*
  1
*
  0
XRECORD
  5
39E8
102
{ACAD_REACTORS
330
39AD
102
}
330
39AD
100
AcDbXrecord
280
     1
  1
cl
  1
z1-??cl-l
  1
*
  1
*
 70
     0
  1
*
  1
*
  0
XRECORD
  5
39E9
102
{ACAD_REACTORS
330
39AD
102
}
330
39AD
100
AcDbXrecord
280
     1
  1
cl-konta
  1
*-cl
  1
*
  1
*
 70
     0
  1
*
  1
*
  0
XRECORD
  5
39EA
102
{ACAD_REACTORS
330
39AD
102
}
330
39AD
100
AcDbXrecord
280
     1
  1
cld
  1
z1-??cld-l
  1
*
  1
*
 70
     0
  1
*
  1
*
  0
XRECORD
  5
39EB
102
{ACAD_REACTORS
330
39AD
102
}
330
39AD
100
AcDbXrecord
280
     1
  1
cld^ konta
  1
*-cld
  1
*
  1
*
 70
     0
  1
*
  1
*
  0
XRECORD
  5
39EC
102
{ACAD_REACTORS
330
39AD
102
}
330
39AD
100
AcDbXrecord
280
     1
  1
cm
  1
z1-??cm-l
  1
*
  1
*
 70
     0
  1
*
  1
*
  0
XRECORD
  5
39ED
102
{ACAD_REACTORS
330
39AD
102
}
330
39AD
100
AcDbXrecord
280
     1
  1
cm-konta
  1
*-cm
  1
*
  1
*
 70
     0
  1
*
  1
*
  0
XRECORD
  5
39EE
102
{ACAD_REACTORS
330
39AD
102
}
330
39AD
100
AcDbXrecord
280
     1
  1
CONTER1m
  1
*
  1
8
  1
*
 70
     0
  1
*
  1
*
  0
XRECORD
  5
39EF
102
{ACAD_REACTORS
330
39AD
102
}
330
39AD
100
AcDbXrecord
280
     1
  1
CONTER5m
  1
*
  1
9
  1
*
 70
     0
  1
*
  1
*
  0
XRECORD
  5
5273
102
{ACAD_REACTORS
330
39AD
102
}
330
39AD
100
AcDbXrecord
280
     1
  1
cyan
  1
*
  1
cyan
  1
*
 70
     0
  1
*
  1
*
  0
XRECORD
  5
5274
102
{ACAD_REACTORS
330
39AD
102
}
330
39AD
100
AcDbXrecord
280
     1
  1
D-BAR-treeOFF
  1
D-BAR-*
  1
*
  1
*
 70
     0
  1
*
  1
*
  0
XRECORD
  5
5275
102
{ACAD_REACTORS
330
39AD
102
}
330
39AD
100
AcDbXrecord
280
     1
  1
D-BGD-treeOFF
  1
D-BGD-*
  1
*
  1
*
 70
     0
  1
*
  1
*
  0
XRECORD
  5
5276
102
{ACAD_REACTORS
330
39AD
102
}
330
39AD
100
AcDbXrecord
280
     1
  1
D-BGM-treeOFF
  1
D-BGM-*
  1
*
  1
*
 70
     0
  1
*
  1
*
  0
XRECORD
  5
5277
102
{ACAD_REACTORS
330
39AD
102
}
330
39AD
100
AcDbXrecord
280
     1
  1
D-BMK-treeOFF
  1
D-BMK-*
  1
*
  1
*
 70
     0
  1
*
  1
*
  0
XRECORD
  5
5278
102
{ACAD_REACTORS
330
39AD
102
}
330
39AD
100
AcDbXrecord
280
     1
  1
D-BYP-treeOFF
  1
D-BYP-*
  1
*
  1
*
 70
     0
  1
*
  1
*
  0
XRECORD
  5
5279
102
{ACAD_REACTORS
330
39AD
102
}
330
39AD
100
AcDbXrecord
280
     1
  1
D-MTR-ｔｒｅｅOFF
  1
D-MTR-*
  1
*
  1
*
 70
     0
  1
*
  1
*
  0
XRECORD
  5
527A
102
{ACAD_REACTORS
330
39AD
102
}
330
39AD
100
AcDbXrecord
280
     1
  1
D-OTRS-treeOFF
  1
D-OTRS-*
  1
*
  1
*
 70
     0
  1
*
  1
*
  0
XRECORD
  5
527B
102
{ACAD_REACTORS
330
39AD
102
}
330
39AD
100
AcDbXrecord
280
     1
  1
D-PC-treeOFF
  1
D-PC-*
  1
*
  1
*
 70
     0
  1
*
  1
*
  0
XRECORD
  5
527C
102
{ACAD_REACTORS
330
39AD
102
}
330
39AD
100
AcDbXrecord
280
     1
  1
D-STR-treeOFF
  1
D-STR-*
  1
*
  1
*
 70
     0
  1
*
  1
*
  0
XRECORD
  5
527D
102
{ACAD_REACTORS
330
39AD
102
}
330
39AD
100
AcDbXrecord
280
     1
  1
D-STRC-treeOFF
  1
D-STRC-*
  1
*
  1
*
 70
     0
  1
*
  1
*
  0
XRECORD
  5
527E
102
{ACAD_REACTORS
330
39AD
102
}
330
39AD
100
AcDbXrecord
280
     1
  1
D-TTL-treeOFF
  1
D-TTL-*
  1
*
  1
*
 70
     0
  1
*
  1
*
  0
XRECORD
  5
39F0
102
{ACAD_REACTORS
330
39AD
102
}
330
39AD
100
AcDbXrecord
280
     1
  1
dh-konta
  1
*-dh
  1
*
  1
*
 70
     0
  1
*
  1
*
  0
XRECORD
  5
527F
102
{ACAD_REACTORS
330
39AD
102
}
330
39AD
100
AcDbXrecord
280
     1
  1
DIM
  1
*DIM
  1
*
  1
*
 70
     0
  1
*
  1
*
  0
XRECORD
  5
5280
102
{ACAD_REACTORS
330
39AD
102
}
330
39AD
100
AcDbXrecord
280
     1
  1
doro
  1
doro***
  1
*
  1
*
 70
     0
  1
*
  1
*
  0
XRECORD
  5
5281
102
{ACAD_REACTORS
330
39AD
102
}
330
39AD
100
AcDbXrecord
280
     1
  1
douro
  1
douro***
  1
*
  1
*
 70
     0
  1
*
  1
*
  0
XRECORD
  5
39F1
102
{ACAD_REACTORS
330
39AD
102
}
330
39AD
100
AcDbXrecord
280
     1
  1
douro-r
  1
road*
  1
*
  1
*
 70
     0
  1
*
  1
*
  0
XRECORD
  5
39F2
102
{ACAD_REACTORS
330
39AD
102
}
330
39AD
100
AcDbXrecord
280
     1
  1
EL30
  1
30-*
  1
*
  1
*
 70
     0
  1
*
  1
*
  0
XRECORD
  5
39F3
102
{ACAD_REACTORS
330
39AD
102
}
330
39AD
100
AcDbXrecord
280
     1
  1
EL35
  1
35-*
  1
*
  1
*
 70
     0
  1
*
  1
*
  0
XRECORD
  5
39F4
102
{ACAD_REACTORS
330
39AD
102
}
330
39AD
100
AcDbXrecord
280
     1
  1
EL40
  1
40-*
  1
*
  1
*
 70
     0
  1
*
  1
*
  0
XRECORD
  5
39F5
102
{ACAD_REACTORS
330
39AD
102
}
330
39AD
100
AcDbXrecord
280
     1
  1
EL45
  1
45-*
  1
*
  1
*
 70
     0
  1
*
  1
*
  0
XRECORD
  5
39F6
102
{ACAD_REACTORS
330
39AD
102
}
330
39AD
100
AcDbXrecord
280
     1
  1
EL50
  1
50-*
  1
*
  1
*
 70
     0
  1
*
  1
*
  0
XRECORD
  5
39F7
102
{ACAD_REACTORS
330
39AD
102
}
330
39AD
100
AcDbXrecord
280
     1
  1
EL55
  1
55-*
  1
*
  1
*
 70
     0
  1
*
  1
*
  0
XRECORD
  5
39F8
102
{ACAD_REACTORS
330
39AD
102
}
330
39AD
100
AcDbXrecord
280
     1
  1
EL60
  1
60-*
  1
*
  1
*
 70
     0
  1
*
  1
*
  0
XRECORD
  5
39F9
102
{ACAD_REACTORS
330
39AD
102
}
330
39AD
100
AcDbXrecord
280
     1
  1
EL65
  1
65-*
  1
*
  1
*
 70
     0
  1
*
  1
*
  0
XRECORD
  5
39FA
102
{ACAD_REACTORS
330
39AD
102
}
330
39AD
100
AcDbXrecord
280
     1
  1
EL70
  1
70-*
  1
*
  1
*
 70
     0
  1
*
  1
*
  0
XRECORD
  5
39FB
102
{ACAD_REACTORS
330
39AD
102
}
330
39AD
100
AcDbXrecord
280
     1
  1
EL75
  1
75-*
  1
*
  1
*
 70
     0
  1
*
  1
*
  0
XRECORD
  5
39FC
102
{ACAD_REACTORS
330
39AD
102
}
330
39AD
100
AcDbXrecord
280
     1
  1
EL80
  1
80-*
  1
*
  1
*
 70
     0
  1
*
  1
*
  0
XRECORD
  5
5282
102
{ACAD_REACTORS
330
39AD
102
}
330
39AD
100
AcDbXrecord
280
     1
  1
E南
  1
*E*南*
  1
*
  1
*
 70
     0
  1
*
  1
*
  0
XRECORD
  5
39FD
102
{ACAD_REACTORS
330
39AD
102
}
330
39AD
100
AcDbXrecord
280
     1
  1
fault
  1
*-fault
  1
*
  1
*
 70
     0
  1
*
  1
*
  0
XRECORD
  5
39FE
102
{ACAD_REACTORS
330
39AD
102
}
330
39AD
100
AcDbXrecord
280
     1
  1
frize
  1
*
  1
*
  1
*
 70
     4
  1
*
  1
*
  0
XRECORD
  5
39FF
102
{ACAD_REACTORS
330
39AD
102
}
330
39AD
100
AcDbXrecord
280
     1
  1
gankyu
  1
*-d-cl,*-cl-cm,*-cm-ch
  1
*
  1
*
 70
     0
  1
*
  1
*
  0
XRECORD
  5
3A00
102
{ACAD_REACTORS
330
39AD
102
}
330
39AD
100
AcDbXrecord
280
     1
  1
gannkyu-ch
  1
***-ch
  1
*
  1
*
 70
     0
  1
*
  1
*
  0
XRECORD
  5
3A01
102
{ACAD_REACTORS
330
39AD
102
}
330
39AD
100
AcDbXrecord
280
     1
  1
gannkyu-cl
  1
****-cl
  1
*
  1
*
 70
     0
  1
*
  1
*
  0
XRECORD
  5
3A02
102
{ACAD_REACTORS
330
39AD
102
}
330
39AD
100
AcDbXrecord
280
     1
  1
gannkyu-cm
  1
****-cm
  1
*
  1
*
 70
     0
  1
*
  1
*
  0
XRECORD
  5
3A03
102
{ACAD_REACTORS
330
39AD
102
}
330
39AD
100
AcDbXrecord
280
     1
  1
gannkyu-cmh
  1
***-cmh
  1
*
  1
*
 70
     0
  1
*
  1
*
  0
XRECORD
  5
3A04
102
{ACAD_REACTORS
330
39AD
102
}
330
39AD
100
AcDbXrecord
280
     1
  1
gound
  1
g*
  1
*
  1
*
 70
     0
  1
*
  1
*
  0
XRECORD
  5
3A05
102
{ACAD_REACTORS
330
39AD
102
}
330
39AD
100
AcDbXrecord
280
     1
  1
green
  1
*
  1
green
  1
*
 70
     0
  1
*
  1
*
  0
XRECORD
  5
3A06
102
{ACAD_REACTORS
330
39AD
102
}
330
39AD
100
AcDbXrecord
280
     1
  1
gutter
  1
*gutter*
  1
*
  1
*
 70
     0
  1
*
  1
*
  0
XRECORD
  5
3A07
102
{ACAD_REACTORS
330
39AD
102
}
330
39AD
100
AcDbXrecord
280
     1
  1
hidden
  1
*
  1
*
  1
hidden
 70
     0
  1
*
  1
*
  0
XRECORD
  5
3A08
102
{ACAD_REACTORS
330
39AD
102
}
330
39AD
100
AcDbXrecord
280
     1
  1
hihyouji
  1
*
  1
*
  1
*
 70
     3
  1
*
  1
*
  0
XRECORD
  5
3A09
102
{ACAD_REACTORS
330
39AD
102
}
330
39AD
100
AcDbXrecord
280
     1
  1
hyouji
  1
*
  1
*
  1
*
 70
     1
  1
*
  1
*
  0
XRECORD
  5
3A0A
102
{ACAD_REACTORS
330
39AD
102
}
330
39AD
100
AcDbXrecord
280
     1
  1
katen
  1
katen*
  1
*
  1
*
 70
     0
  1
*
  1
*
  0
XRECORD
  5
5283
102
{ACAD_REACTORS
330
39AD
102
}
330
39AD
100
AcDbXrecord
280
     1
  1
KF
  1
KF*
  1
*
  1
*
 70
     0
  1
*
  1
*
  0
XRECORD
  5
3A0B
102
{ACAD_REACTORS
330
39AD
102
}
330
39AD
100
AcDbXrecord
280
     1
  1
kfl
  1
***-k
  1
*
  1
*
 70
     4
  1
*
  1
*
  0
XRECORD
  5
3A0C
102
{ACAD_REACTORS
330
39AD
102
}
330
39AD
100
AcDbXrecord
280
     1
  1
kfl2
  1
***-k
  1
*
  1
*
 70
     0
  1
*
  1
*
  0
XRECORD
  5
3A0D
102
{ACAD_REACTORS
330
39AD
102
}
330
39AD
100
AcDbXrecord
280
     1
  1
konta
  1
*-cl,*-cm,*-cld
  1
*
  1
*
 70
     0
  1
*
  1
*
  0
XRECORD
  5
3A0E
102
{ACAD_REACTORS
330
39AD
102
}
330
39AD
100
AcDbXrecord
280
     1
  1
kouzuibaki
  1
kouzui*
  1
*
  1
*
 70
     0
  1
*
  1
*
  0
XRECORD
  5
5284
102
{ACAD_REACTORS
330
39AD
102
}
330
39AD
100
AcDbXrecord
280
     1
  1
KU
  1
KU*
  1
*
  1
*
 70
     0
  1
*
  1
*
  0
XRECORD
  5
3A0F
102
{ACAD_REACTORS
330
39AD
102
}
330
39AD
100
AcDbXrecord
280
     1
  1
kussaku
  1
*-k
  1
*
  1
*
 70
     0
  1
*
  1
*
  0
XRECORD
  5
3A10
102
{ACAD_REACTORS
330
39AD
102
}
330
39AD
100
AcDbXrecord
280
     1
  1
kussaku-k
  1
****-k
  1
*
  1
*
 70
     0
  1
*
  1
*
  0
XRECORD
  5
5285
102
{ACAD_REACTORS
330
39AD
102
}
330
39AD
100
AcDbXrecord
280
     1
  1
Live
  1
*
  1
*
  1
*
 70
    12
  1
*
  1
*
  0
XRECORD
  5
5286
102
{ACAD_REACTORS
330
39AD
102
}
330
39AD
100
AcDbXrecord
280
     1
  1
m
  1
***m
  1
*
  1
*
 70
     0
  1
*
  1
*
  0
XRECORD
  5
3A11
102
{ACAD_REACTORS
330
39AD
102
}
330
39AD
100
AcDbXrecord
280
     1
  1
mage
  1
*
  1
magenta
  1
*
 70
     0
  1
*
  1
*
  0
XRECORD
  5
3A12
102
{ACAD_REACTORS
330
39AD
102
}
330
39AD
100
AcDbXrecord
280
     1
  1
mennseki-ak
  1
***-ak
  1
*
  1
*
 70
     0
  1
*
  1
*
  0
XRECORD
  5
3A13
102
{ACAD_REACTORS
330
39AD
102
}
330
39AD
100
AcDbXrecord
280
     1
  1
mennseki-at
  1
***-at
  1
*
  1
*
 70
     0
  1
*
  1
*
  0
XRECORD
  5
3A14
102
{ACAD_REACTORS
330
39AD
102
}
330
39AD
100
AcDbXrecord
280
     1
  1
mｺﾝﾀ
  1
*-cc
  1
*
  1
*
 70
     0
  1
*
  1
*
  0
XRECORD
  5
3A15
102
{ACAD_REACTORS
330
39AD
102
}
330
39AD
100
AcDbXrecord
280
     1
  1
new
  1
*
  1
*
  1
*
 70
    12
  1
*
  1
*
  0
XRECORD
  5
3A16
102
{ACAD_REACTORS
330
39AD
102
}
330
39AD
100
AcDbXrecord
280
     1
  1
new1
  1
*
  1
*
  1
*
 70
     1
  1
*
  1
*
  0
XRECORD
  5
3A17
102
{ACAD_REACTORS
330
39AD
102
}
330
39AD
100
AcDbXrecord
280
     1
  1
new2
  1
*
  1
*
  1
*
 70
     1
  1
*
  1
*
  0
XRECORD
  5
3A18
102
{ACAD_REACTORS
330
39AD
102
}
330
39AD
100
AcDbXrecord
280
     1
  1
new4
  1
*
  1
*
  1
*
 70
    12
  1
*
  1
*
  0
XRECORD
  5
5287
102
{ACAD_REACTORS
330
39AD
102
}
330
39AD
100
AcDbXrecord
280
     1
  1
NO_Xref
  1
*|
  1
*
  1
*
 70
     0
  1
*
  1
*
  0
XRECORD
  5
3A19
102
{ACAD_REACTORS
330
39AD
102
}
330
39AD
100
AcDbXrecord
280
     1
  1
norisen
  1
*-n
  1
*
  1
*
 70
     0
  1
*
  1
*
  0
XRECORD
  5
3A1A
102
{ACAD_REACTORS
330
39AD
102
}
330
39AD
100
AcDbXrecord
280
     1
  1
off
  1
*
  1
*
  1
*
 70
  3072
  1
*
  1
*
  0
XRECORD
  5
3A1B
102
{ACAD_REACTORS
330
39AD
102
}
330
39AD
100
AcDbXrecord
280
     1
  1
on
  1
*
  1
*
  1
*
 70
   256
  1
*
  1
*
  0
XRECORD
  5
3A1C
102
{ACAD_REACTORS
330
39AD
102
}
330
39AD
100
AcDbXrecord
280
     1
  1
oudan-cl
  1
oudan????cl-p
  1
*
  1
*
 70
     0
  1
*
  1
*
  0
XRECORD
  5
3A1D
102
{ACAD_REACTORS
330
39AD
102
}
330
39AD
100
AcDbXrecord
280
     1
  1
oudan-cld
  1
oudan????cld-p
  1
*
  1
*
 70
     0
  1
*
  1
*
  0
XRECORD
  5
3A1E
102
{ACAD_REACTORS
330
39AD
102
}
330
39AD
100
AcDbXrecord
280
     1
  1
oudan-cm
  1
oudan????cm-p
  1
*
  1
*
 70
     0
  1
*
  1
*
  0
XRECORD
  5
3A1F
102
{ACAD_REACTORS
330
39AD
102
}
330
39AD
100
AcDbXrecord
280
     1
  1
oudan-f
  1
oudan????f-p
  1
*
  1
*
 70
     0
  1
*
  1
*
  0
XRECORD
  5
3A20
102
{ACAD_REACTORS
330
39AD
102
}
330
39AD
100
AcDbXrecord
280
     1
  1
oudanzu
  1
oudan*
  1
*
  1
*
 70
     0
  1
*
  1
*
  0
XRECORD
  5
3A21
102
{ACAD_REACTORS
330
39AD
102
}
330
39AD
100
AcDbXrecord
280
     1
  1
red
  1
*
  1
red
  1
*
 70
     0
  1
*
  1
*
  0
XRECORD
  5
3A22
102
{ACAD_REACTORS
330
39AD
102
}
330
39AD
100
AcDbXrecord
280
     1
  1
S
  1
S*
  1
*
  1
*
 70
     0
  1
*
  1
*
  0
XRECORD
  5
3A23
102
{ACAD_REACTORS
330
39AD
102
}
330
39AD
100
AcDbXrecord
280
     1
  1
sed
  1
*-sed
  1
*
  1
*
 70
     0
  1
*
  1
*
  0
XRECORD
  5
3A24
102
{ACAD_REACTORS
330
39AD
102
}
330
39AD
100
AcDbXrecord
280
     1
  1
sokuti
  1
s*
  1
*
  1
*
 70
     0
  1
*
  1
*
  0
XRECORD
  5
3A25
102
{ACAD_REACTORS
330
39AD
102
}
330
39AD
100
AcDbXrecord
280
     1
  1
south
  1
*south
  1
*
  1
*
 70
     0
  1
*
  1
*
  0
XRECORD
  5
5288
102
{ACAD_REACTORS
330
39AD
102
}
330
39AD
100
AcDbXrecord
280
     1
  1
ST
  1
ST*
  1
*
  1
*
 70
     0
  1
*
  1
*
  0
XRECORD
  5
3A26
102
{ACAD_REACTORS
330
39AD
102
}
330
39AD
100
AcDbXrecord
280
     1
  1
STR
  1
D-STR*
  1
*
  1
*
 70
     0
  1
*
  1
*
  0
XRECORD
  5
3A27
102
{ACAD_REACTORS
330
39AD
102
}
330
39AD
100
AcDbXrecord
280
     1
  1
syuturyokusurumono_11_1
  1
*
  1
*
  1
*
 70
    13
  1
*
  1
*
  0
XRECORD
  5
3A28
102
{ACAD_REACTORS
330
39AD
102
}
330
39AD
100
AcDbXrecord
280
     1
  1
sｺﾝﾀ
  1
*-c
  1
red
  1
*
 70
     0
  1
*
  1
*
  0
XRECORD
  5
3A29
102
{ACAD_REACTORS
330
39AD
102
}
330
39AD
100
AcDbXrecord
280
     1
  1
T
  1
*
  1
*
  1
*
 70
     0
  1
*
  1
*
  0
XRECORD
  5
3A2A
102
{ACAD_REACTORS
330
39AD
102
}
330
39AD
100
AcDbXrecord
280
     1
  1
teitai
  1
*-t,hojo-1
  1
*
  1
*
 70
     0
  1
*
  1
*
  0
XRECORD
  5
3A2B
102
{ACAD_REACTORS
330
39AD
102
}
330
39AD
100
AcDbXrecord
280
     1
  1
teitai-t
  1
***-t
  1
*
  1
*
 70
     0
  1
*
  1
*
  0
XRECORD
  5
5289
102
{ACAD_REACTORS
330
39AD
102
}
330
39AD
100
AcDbXrecord
280
     1
  1
text
  1
*TEXT*(
  1
*
  1
*
 70
     0
  1
*
  1
*
  0
XRECORD
  5
3A2C
102
{ACAD_REACTORS
330
39AD
102
}
330
39AD
100
AcDbXrecord
280
     1
  1
Thaw
  1
*
  1
*
  1
*
 70
    12
  1
*
  1
*
  0
XRECORD
  5
3A2D
102
{ACAD_REACTORS
330
39AD
102
}
330
39AD
100
AcDbXrecord
280
     1
  1
tsuurou
  1
tsu*
  1
*
  1
*
 70
     0
  1
*
  1
*
  0
XRECORD
  5
3A2E
102
{ACAD_REACTORS
330
39AD
102
}
330
39AD
100
AcDbXrecord
280
     1
  1
tt
  1
*
  1
red
  1
*
 70
     0
  1
*
  1
*
  0
XRECORD
  5
3A2F
102
{ACAD_REACTORS
330
39AD
102
}
330
39AD
100
AcDbXrecord
280
     1
  1
TTL
  1
D-TTL*
  1
*
  1
*
 70
     0
  1
*
  1
*
  0
XRECORD
  5
3A30
102
{ACAD_REACTORS
330
39AD
102
}
330
39AD
100
AcDbXrecord
280
     1
  1
TU
  1
*TU*
  1
*
  1
*
 70
     0
  1
*
  1
*
  0
XRECORD
  5
3A31
102
{ACAD_REACTORS
330
39AD
102
}
330
39AD
100
AcDbXrecord
280
     1
  1
tyakugan
  1
*-tyakugan
  1
*
  1
*
 70
     0
  1
*
  1
*
  0
XRECORD
  5
3A32
102
{ACAD_REACTORS
330
39AD
102
}
330
39AD
100
AcDbXrecord
280
     1
  1
vec2
  1
*-c,vec,kigou,touko25
  1
*
  1
*
 70
     0
  1
*
  1
*
  0
XRECORD
  5
3A33
102
{ACAD_REACTORS
330
39AD
102
}
330
39AD
100
AcDbXrecord
280
     1
  1
waku
  1
*waku*
  1
*
  1
*
 70
     0
  1
*
  1
*
  0
XRECORD
  5
528A
102
{ACAD_REACTORS
330
39AD
102
}
330
39AD
100
AcDbXrecord
280
     1
  1
White
  1
*
  1
*White
  1
*
 70
     0
  1
*
  1
*
  0
XRECORD
  5
3A34
102
{ACAD_REACTORS
330
39AD
102
}
330
39AD
100
AcDbXrecord
280
     1
  1
yana
  1
*-kkn-ho*,*-t,000-kkn,ore*
  1
*
  1
*
 70
     0
  1
*
  1
*
  0
XRECORD
  5
3A35
102
{ACAD_REACTORS
330
39AD
102
}
330
39AD
100
AcDbXrecord
280
     1
  1
yellow
  1
*
  1
yellow
  1
*
 70
     0
  1
*
  1
*
  0
XRECORD
  5
528B
102
{ACAD_REACTORS
330
39AD
102
}
330
39AD
100
AcDbXrecord
280
     1
  1
YM
  1
YM*
  1
*
  1
*
 70
     0
  1
*
  1
*
  0
XRECORD
  5
3A37
102
{ACAD_REACTORS
330
39AD
102
}
330
39AD
100
AcDbXrecord
280
     1
  1
シビ
  1
シビ*
  1
*
  1
*
 70
     0
  1
*
  1
*
  0
XRECORD
  5
5290
102
{ACAD_REACTORS
330
39AD
102
}
330
39AD
100
AcDbXrecord
280
     1
  1
デッキレイヤ
  1
0,デッキ_*
  1
*
  1
*
 70
     0
  1
*
  1
*
  0
XRECORD
  5
5291
102
{ACAD_REACTORS
330
39AD
102
}
330
39AD
100
AcDbXrecord
280
     1
  1
ハッチ
  1
ﾊｯﾁ*
  1
*
  1
*
 70
     0
  1
*
  1
*
  0
XRECORD
  5
3A38
102
{ACAD_REACTORS
330
39AD
102
}
330
39AD
100
AcDbXrecord
280
     1
  1
フリーズ
  1
*
  1
*
  1
*
 70
     4
  1
*
  1
*
  0
XRECORD
  5
5292
102
{ACAD_REACTORS
330
39AD
102
}
330
39AD
100
AcDbXrecord
280
     1
  1
ペーパー空間
  1
DSTD_FRAME*
  1
*
  1
*
 70
     0
  1
*
  1
*
  0
XRECORD
  5
5293
102
{ACAD_REACTORS
330
39AD
102
}
330
39AD
100
AcDbXrecord
280
     1
  1
ランプ
  1
*ランプ*
  1
*
  1
*
 70
     0
  1
*
  1
*
  0
XRECORD
  5
3A39
102
{ACAD_REACTORS
330
39AD
102
}
330
39AD
100
AcDbXrecord
280
     1
  1
ロック
  1
*
  1
*
  1
*
 70
   256
  1
*
  1
*
  0
XRECORD
  5
3A3A
102
{ACAD_REACTORS
330
39AD
102
}
330
39AD
100
AcDbXrecord
280
     1
  1
ロックされていない画層を表示
  1
*
  1
*
  1
*
 70
   768
  1
*
  1
*
  0
XRECORD
  5
3A3B
102
{ACAD_REACTORS
330
39AD
102
}
330
39AD
100
AcDbXrecord
280
     1
  1
ロック以外
  1
*
  1
*
  1
*
 70
   768
  1
*
  1
*
  0
XRECORD
  5
5294
102
{ACAD_REACTORS
330
39AD
102
}
330
39AD
100
AcDbXrecord
280
     1
  1
一般
  1
*般*
  1
*
  1
*
 70
     0
  1
*
  1
*
  0
XRECORD
  5
3A44
102
{ACAD_REACTORS
330
39AD
102
}
330
39AD
100
AcDbXrecord
280
     1
  1
上田坂城BP
  1
*
  1
*
  1
*
 70
     0
  1
*
  1
*
  0
XRECORD
  5
3A5D
102
{ACAD_REACTORS
330
39AD
102
}
330
39AD
100
AcDbXrecord
280
     1
  1
両方
  1
_*,-*
  1
*
  1
*
 70
     0
  1
*
  1
*
  0
XRECORD
  5
5299
102
{ACAD_REACTORS
330
39AD
102
}
330
39AD
100
AcDbXrecord
280
     1
  1
丸森横断
  1
*
  1
*
  1
*
 70
     0
  1
*
  1
*
  0
XRECORD
  5
52A8
102
{ACAD_REACTORS
330
39AD
102
}
330
39AD
100
AcDbXrecord
280
     1
  1
作業用
  1
*
  1
*
  1
*
 70
  1024
  1
*
  1
*
  0
XRECORD
  5
52A9
102
{ACAD_REACTORS
330
39AD
102
}
330
39AD
100
AcDbXrecord
280
     1
  1
使用中の画層
  1
*
  1
*
  1
*
 70
    12
  1
*
  1
*
  0
XRECORD
  5
52B5
102
{ACAD_REACTORS
330
39AD
102
}
330
39AD
100
AcDbXrecord
280
     1
  1
側面
  1
側面*
  1
*
  1
*
 70
     0
  1
*
  1
*
  0
XRECORD
  5
52A5
102
{ACAD_REACTORS
330
39AD
102
}
330
39AD
100
AcDbXrecord
280
     1
  1
元図面レイヤ
  1
*
  1
*
  1
*
 70
   256
  1
*
  1
*
  0
XRECORD
  5
3A45
102
{ACAD_REACTORS
330
39AD
102
}
330
39AD
100
AcDbXrecord
280
     1
  1
先行１
  1
*
  1
*
  1
*
 70
     0
  1
*
  1
*
  0
XRECORD
  5
3A46
102
{ACAD_REACTORS
330
39AD
102
}
330
39AD
100
AcDbXrecord
280
     1
  1
先行２
  1
*
  1
*
  1
*
 70
     0
  1
*
  1
*
  0
XRECORD
  5
3A47
102
{ACAD_REACTORS
330
39AD
102
}
330
39AD
100
AcDbXrecord
280
     1
  1
先行３
  1
*
  1
*
  1
*
 70
     0
  1
*
  1
*
  0
XRECORD
  5
3A48
102
{ACAD_REACTORS
330
39AD
102
}
330
39AD
100
AcDbXrecord
280
     1
  1
先行４
  1
*
  1
*
  1
*
 70
     0
  1
*
  1
*
  0
XRECORD
  5
3A49
102
{ACAD_REACTORS
330
39AD
102
}
330
39AD
100
AcDbXrecord
280
     1
  1
全帯
  1
*帯*
  1
*
  1
*
 70
     0
  1
*
  1
*
  0
XRECORD
  5
529C
102
{ACAD_REACTORS
330
39AD
102
}
330
39AD
100
AcDbXrecord
280
     1
  1
共通
  1
全-*
  1
*
  1
*
 70
     0
  1
*
  1
*
  0
XRECORD
  5
52C0
102
{ACAD_REACTORS
330
39AD
102
}
330
39AD
100
AcDbXrecord
280
     1
  1
副道
  1
*副*
  1
*
  1
*
 70
     0
  1
*
  1
*
  0
XRECORD
  5
529D
102
{ACAD_REACTORS
330
39AD
102
}
330
39AD
100
AcDbXrecord
280
     1
  1
協議用添付図形レイヤ
  1
*_協議用添付図形*
  1
*
  1
*
 70
     0
  1
*
  1
*
  0
XRECORD
  5
3A5E
102
{ACAD_REACTORS
330
39AD
102
}
330
39AD
100
AcDbXrecord
280
     1
  1
和の画層のみ
  1
和*
  1
*
  1
*
 70
     0
  1
*
  1
*
  0
XRECORD
  5
3A3E
102
{ACAD_REACTORS
330
39AD
102
}
330
39AD
100
AcDbXrecord
280
     1
  1
圏央道排水計画縦断図
  1
*
  1
*
  1
*
 70
     0
  1
*
  1
*
  0
XRECORD
  5
3A3D
102
{ACAD_REACTORS
330
39AD
102
}
330
39AD
100
AcDbXrecord
280
     1
  1
圏央道縦断図
  1
*
  1
*
  1
*
 70
     0
  1
*
  1
*
  0
XRECORD
  5
52BB
102
{ACAD_REACTORS
330
39AD
102
}
330
39AD
100
AcDbXrecord
280
     1
  1
土留板
  1
*_CONC
  1
*
  1
*
 70
     0
  1
*
  1
*
  0
XRECORD
  5
52BC
102
{ACAD_REACTORS
330
39AD
102
}
330
39AD
100
AcDbXrecord
280
     1
  1
土留板取付詳細図
  1
DSTD_CONC*
  1
*
  1
*
 70
     0
  1
*
  1
*
  0
XRECORD
  5
52B8
102
{ACAD_REACTORS
330
39AD
102
}
330
39AD
100
AcDbXrecord
280
     1
  1
地形レイヤ
  1
0,0_*
  1
*
  1
*
 70
     0
  1
*
  1
*
  0
XRECORD
  5
52B9
102
{ACAD_REACTORS
330
39AD
102
}
330
39AD
100
AcDbXrecord
280
     1
  1
地形以外
  1
n_*
  1
*
  1
*
 70
     0
  1
*
  1
*
  0
XRECORD
  5
3A4B
102
{ACAD_REACTORS
330
39AD
102
}
330
39AD
100
AcDbXrecord
280
     1
  1
地形線等
  1
*-c,l3,l1,p0
  1
*
  1
*
 70
     0
  1
*
  1
*
  0
XRECORD
  5
3A5C
102
{ACAD_REACTORS
330
39AD
102
}
330
39AD
100
AcDbXrecord
280
     1
  1
埋設
  1
埋設*
  1
*
  1
*
 70
     0
  1
*
  1
*
  0
XRECORD
  5
3A4C
102
{ACAD_REACTORS
330
39AD
102
}
330
39AD
100
AcDbXrecord
280
     1
  1
塗り
  1
*塗り*
  1
*
  1
*
 70
     0
  1
*
  1
*
  0
XRECORD
  5
3A5B
102
{ACAD_REACTORS
330
39AD
102
}
330
39AD
100
AcDbXrecord
280
     1
  1
壁
  1
シビ-等*,シビ-ソイル*,シビ-RC*,シビ-カベ*
  1
*
  1
*
 70
     0
  1
*
  1
*
  0
XRECORD
  5
5297
102
{ACAD_REACTORS
330
39AD
102
}
330
39AD
100
AcDbXrecord
280
     1
  1
外部
  1
*$*
  1
*
  1
*
 70
     0
  1
*
  1
*
  0
XRECORD
  5
3A3C
102
{ACAD_REACTORS
330
39AD
102
}
330
39AD
100
AcDbXrecord
280
     1
  1
外部参照
  1
*図
  1
*
  1
*
 70
     0
  1
*
  1
*
  0
XRECORD
  5
5298
102
{ACAD_REACTORS
330
39AD
102
}
330
39AD
100
AcDbXrecord
280
     1
  1
外部参照の非表示画層
  1
*
  1
*
  1
*
 70
     0
  1
*
  1
*
  0
XRECORD
  5
52B0
102
{ACAD_REACTORS
330
39AD
102
}
330
39AD
100
AcDbXrecord
280
     1
  1
寸法
  1
寸法*
  1
*
  1
*
 70
     0
  1
*
  1
*
  0
XRECORD
  5
3A4A
102
{ACAD_REACTORS
330
39AD
102
}
330
39AD
100
AcDbXrecord
280
     1
  1
対策工
  1
T*
  1
*
  1
*
 70
     0
  1
*
  1
*
  0
XRECORD
  5
52B2
102
{ACAD_REACTORS
330
39AD
102
}
330
39AD
100
AcDbXrecord
280
     1
  1
専北
  1
*専北*
  1
*
  1
*
 70
     0
  1
*
  1
*
  0
XRECORD
  5
52B3
102
{ACAD_REACTORS
330
39AD
102
}
330
39AD
100
AcDbXrecord
280
     1
  1
専用
  1
*専*
  1
*
  1
*
 70
     0
  1
*
  1
*
  0
XRECORD
  5
52C1
102
{ACAD_REACTORS
330
39AD
102
}
330
39AD
100
AcDbXrecord
280
     1
  1
平面
  1
平*
  1
*
  1
*
 70
     0
  1
*
  1
*
  0
XRECORD
  5
3A5A
102
{ACAD_REACTORS
330
39AD
102
}
330
39AD
100
AcDbXrecord
280
     1
  1
平面図
  1
*平*
  1
*
  1
*
 70
     0
  1
*
  1
*
  0
XRECORD
  5
3A43
102
{ACAD_REACTORS
330
39AD
102
}
330
39AD
100
AcDbXrecord
280
     1
  1
床止工
  1
*
  1
*
  1
*
 70
     0
  1
*
  1
*
  0
XRECORD
  5
3A40
102
{ACAD_REACTORS
330
39AD
102
}
330
39AD
100
AcDbXrecord
280
     1
  1
後ろ
  1
1-車道*,1-歩道*,1-緑地帯*
  1
*
  1
*
 70
     0
  1
*
  1
*
  0
XRECORD
  5
52AA
102
{ACAD_REACTORS
330
39AD
102
}
330
39AD
100
AcDbXrecord
280
     1
  1
支柱取付部
  1
DSTD_COLMN-DET*
  1
*
  1
*
 70
     0
  1
*
  1
*
  0
XRECORD
  5
52AF
102
{ACAD_REACTORS
330
39AD
102
}
330
39AD
100
AcDbXrecord
280
     1
  1
数量
  1
数-*
  1
*
  1
*
 70
     0
  1
*
  1
*
  0
XRECORD
  5
52B6
102
{ACAD_REACTORS
330
39AD
102
}
330
39AD
100
AcDbXrecord
280
     1
  1
断面
  1
*断面*
  1
*
  1
*
 70
     0
  1
*
  1
*
  0
XRECORD
  5
52B7
102
{ACAD_REACTORS
330
39AD
102
}
330
39AD
100
AcDbXrecord
280
     1
  1
断面図
  1
DSTD_SECT*
  1
*
  1
*
 70
     0
  1
*
  1
*
  0
XRECORD
  5
52AD
102
{ACAD_REACTORS
330
39AD
102
}
330
39AD
100
AcDbXrecord
280
     1
  1
新規作成
  1
n_*
  1
*
  1
*
 70
     0
  1
*
  1
*
  0
XRECORD
  5
52AE
102
{ACAD_REACTORS
330
39AD
102
}
330
39AD
100
AcDbXrecord
280
     1
  1
新規書き込み
  1
*
  1
*
  1
*
 70
   768
  1
*
  1
*
  0
XRECORD
  5
529A
102
{ACAD_REACTORS
330
39AD
102
}
330
39AD
100
AcDbXrecord
280
     1
  1
旗
  1
占用物件平面図|*旗*
  1
*
  1
*
 70
     0
  1
*
  1
*
  0
XRECORD
  5
529B
102
{ACAD_REACTORS
330
39AD
102
}
330
39AD
100
AcDbXrecord
280
     1
  1
旗上
  1
*旗上*
  1
*
  1
*
 70
    12
  1
*
  1
*
  0
XRECORD
  5
52A7
102
{ACAD_REACTORS
330
39AD
102
}
330
39AD
100
AcDbXrecord
280
     1
  1
杭頭詳細図
  1
DSTD_PILE*
  1
*
  1
*
 70
     0
  1
*
  1
*
  0
XRECORD
  5
52C2
102
{ACAD_REACTORS
330
39AD
102
}
330
39AD
100
AcDbXrecord
280
     1
  1
枠
  1
*枠*
  1
*
  1
*
 70
     0
  1
*
  1
*
  0
XRECORD
  5
52C3
102
{ACAD_REACTORS
330
39AD
102
}
330
39AD
100
AcDbXrecord
280
     1
  1
枠Or文字
  1
*枠*,*文字*
  1
*
  1
*
 70
     0
  1
*
  1
*
  0
XRECORD
  5
3A42
102
{ACAD_REACTORS
330
39AD
102
}
330
39AD
100
AcDbXrecord
280
     1
  1
桟橋
  1
*桟橋*
  1
*
  1
*
 70
     0
  1
*
  1
*
  0
XRECORD
  5
5295
102
{ACAD_REACTORS
330
39AD
102
}
330
39AD
100
AcDbXrecord
280
     1
  1
横断
  1
o_*
  1
*
  1
*
 70
     0
  1
*
  1
*
  0
XRECORD
  5
5296
102
{ACAD_REACTORS
330
39AD
102
}
330
39AD
100
AcDbXrecord
280
     1
  1
横断図
  1
横*
  1
*
  1
*
 70
     0
  1
*
  1
*
  0
XRECORD
  5
52B1
102
{ACAD_REACTORS
330
39AD
102
}
330
39AD
100
AcDbXrecord
280
     1
  1
正面図
  1
DSTD_FRONT*
  1
*
  1
*
 70
     0
  1
*
  1
*
  0
XRECORD
  5
3A3F
102
{ACAD_REACTORS
330
39AD
102
}
330
39AD
100
AcDbXrecord
280
     1
  1
現況
  1
*現況*
  1
*
  1
*
 70
     0
  1
*
  1
*
  0
XRECORD
  5
52A6
102
{ACAD_REACTORS
330
39AD
102
}
330
39AD
100
AcDbXrecord
280
     1
  1
現況平面図-
  1
現況平面図-*
  1
*
  1
*
 70
     0
  1
*
  1
*
  0
XRECORD
  5
3A4F
102
{ACAD_REACTORS
330
39AD
102
}
330
39AD
100
AcDbXrecord
280
     1
  1
白
  1
*
  1
7
  1
*
 70
     0
  1
*
  1
*
  0
XRECORD
  5
52B4
102
{ACAD_REACTORS
330
39AD
102
}
330
39AD
100
AcDbXrecord
280
     1
  1
線形
  1
*線形*
  1
*
  1
*
 70
     0
  1
*
  1
*
  0
XRECORD
  5
52AB
102
{ACAD_REACTORS
330
39AD
102
}
330
39AD
100
AcDbXrecord
280
     1
  1
縦断
  1
j_*
  1
*
  1
*
 70
     0
  1
*
  1
*
  0
XRECORD
  5
52BD
102
{ACAD_REACTORS
330
39AD
102
}
330
39AD
100
AcDbXrecord
280
     1
  1
背面図
  1
DSTD_BACK*
  1
*
  1
*
 70
     0
  1
*
  1
*
  0
XRECORD
  5
52AC
102
{ACAD_REACTORS
330
39AD
102
}
330
39AD
100
AcDbXrecord
280
     1
  1
色
  1
色-*
  1
*
  1
*
 70
     0
  1
*
  1
*
  0
XRECORD
  5
3A59
102
{ACAD_REACTORS
330
39AD
102
}
330
39AD
100
AcDbXrecord
280
     1
  1
表枠
  1
表*,枠*
  1
*
  1
*
 70
     0
  1
*
  1
*
  0
XRECORD
  5
52BF
102
{ACAD_REACTORS
330
39AD
102
}
330
39AD
100
AcDbXrecord
280
     1
  1
表示
  1
*
  1
*
  1
*
 70
    12
  1
*
  1
*
  0
XRECORD
  5
3A56
102
{ACAD_REACTORS
330
39AD
102
}
330
39AD
100
AcDbXrecord
280
     1
  1
表示-日技作成画層のみ
  1
日*
  1
*
  1
*
 70
     0
  1
*
  1
*
  0
XRECORD
  5
3A55
102
{ACAD_REACTORS
330
39AD
102
}
330
39AD
100
AcDbXrecord
280
     1
  1
表示-東電作成画層のみ
  1
東*
  1
*
  1
*
 70
     0
  1
*
  1
*
  0
XRECORD
  5
3A57
102
{ACAD_REACTORS
330
39AD
102
}
330
39AD
100
AcDbXrecord
280
     1
  1
表示-福山作成画層のみ
  1
福*
  1
*
  1
*
 70
     0
  1
*
  1
*
  0
XRECORD
  5
3A54
102
{ACAD_REACTORS
330
39AD
102
}
330
39AD
100
AcDbXrecord
280
     1
  1
表示-近代作成画層のみ
  1
近*
  1
*
  1
*
 70
     0
  1
*
  1
*
  0
XRECORD
  5
3A53
102
{ACAD_REACTORS
330
39AD
102
}
330
39AD
100
AcDbXrecord
280
     1
  1
表示-ﾊﾟｼｺﾝ作成画層のみ
  1
ﾊﾟｼｺﾝ*
  1
*
  1
*
 70
     0
  1
*
  1
*
  0
XRECORD
  5
3A58
102
{ACAD_REACTORS
330
39AD
102
}
330
39AD
100
AcDbXrecord
280
     1
  1
表示層のみ表示
  1
*
  1
*
  1
*
 70
    13
  1
*
  1
*
  0
XRECORD
  5
52A4
102
{ACAD_REACTORS
330
39AD
102
}
330
39AD
100
AcDbXrecord
280
     1
  1
見える
  1
*
  1
*
  1
*
 70
    13
  1
*
  1
*
  0
XRECORD
  5
529F
102
{ACAD_REACTORS
330
39AD
102
}
330
39AD
100
AcDbXrecord
280
     1
  1
計画
  1
計画*
  1
*
  1
*
 70
     0
  1
*
  1
*
  0
XRECORD
  5
52A0
102
{ACAD_REACTORS
330
39AD
102
}
330
39AD
100
AcDbXrecord
280
     1
  1
計画１レイヤ
  1
0,0_*,1_*,2_*
  1
*
  1
*
 70
     0
  1
*
  1
*
  0
XRECORD
  5
52A1
102
{ACAD_REACTORS
330
39AD
102
}
330
39AD
100
AcDbXrecord
280
     1
  1
計画２レイヤ
  1
0,0_*,1_*,3_*
  1
*
  1
*
 70
     0
  1
*
  1
*
  0
XRECORD
  5
52A2
102
{ACAD_REACTORS
330
39AD
102
}
330
39AD
100
AcDbXrecord
280
     1
  1
計画３レイヤ
  1
0,0_*,1_*,4_*
  1
*
  1
*
 70
     0
  1
*
  1
*
  0
XRECORD
  5
52A3
102
{ACAD_REACTORS
330
39AD
102
}
330
39AD
100
AcDbXrecord
280
     1
  1
計画４レイヤ
  1
0,0_*,1_*,5_*
  1
*
  1
*
 70
     0
  1
*
  1
*
  0
XRECORD
  5
3A4E
102
{ACAD_REACTORS
330
39AD
102
}
330
39AD
100
AcDbXrecord
280
     1
  1
読み込み時表示層
  1
*
  1
*
  1
*
 70
     0
  1
*
  1
*
  0
XRECORD
  5
3A41
102
{ACAD_REACTORS
330
39AD
102
}
330
39AD
100
AcDbXrecord
280
     1
  1
護岸
  1
*護岸*
  1
*
  1
*
 70
     0
  1
*
  1
*
  0
XRECORD
  5
529E
102
{ACAD_REACTORS
330
39AD
102
}
330
39AD
100
AcDbXrecord
280
     1
  1
躯体
  1
STRC*
  1
*
  1
*
 70
     0
  1
*
  1
*
  0
XRECORD
  5
3A4D
102
{ACAD_REACTORS
330
39AD
102
}
330
39AD
100
AcDbXrecord
280
     1
  1
道路
  1
_*,-*,2-*
  1
*
  1
*
 70
     0
  1
*
  1
*
  0
XRECORD
  5
52BE
102
{ACAD_REACTORS
330
39AD
102
}
330
39AD
100
AcDbXrecord
280
     1
  1
配筋図
  1
DSTD_STEEL*
  1
*
  1
*
 70
     0
  1
*
  1
*
  0
XRECORD
  5
52BA
102
{ACAD_REACTORS
330
39AD
102
}
330
39AD
100
AcDbXrecord
280
     1
  1
鉄筋
  1
BAR*
  1
*
  1
*
 70
     0
  1
*
  1
*
  0
XRECORD
  5
3A50
102
{ACAD_REACTORS
330
39AD
102
}
330
39AD
100
AcDbXrecord
280
     1
  1
非表示
  1
*
  1
*
  1
*
 70
     3
  1
*
  1
*
  0
XRECORD
  5
3A51
102
{ACAD_REACTORS
330
39AD
102
}
330
39AD
100
AcDbXrecord
280
     1
  1
非表示の画層
  1
*
  1
*
  1
*
 70
     3
  1
*
  1
*
  0
XRECORD
  5
3A52
102
{ACAD_REACTORS
330
39AD
102
}
330
39AD
100
AcDbXrecord
280
     1
  1
非表示層のみ表示
  1
*
  1
*
  1
*
 70
     7
  1
*
  1
*
  0
XRECORD
  5
3A36
102
{ACAD_REACTORS
330
39AD
102
}
330
39AD
100
AcDbXrecord
280
     1
  1
２－
  1
2-*
  1
*
  1
*
 70
     0
  1
*
  1
*
  0
XRECORD
  5
528D
102
{ACAD_REACTORS
330
39AD
102
}
330
39AD
100
AcDbXrecord
280
     1
  1
Ａ断面
  1
DSTD_SECT-A*
  1
*
  1
*
 70
     0
  1
*
  1
*
  0
XRECORD
  5
528E
102
{ACAD_REACTORS
330
39AD
102
}
330
39AD
100
AcDbXrecord
280
     1
  1
Ｂ断面
  1
DSTD_SECT-B*
  1
*
  1
*
 70
     0
  1
*
  1
*
  0
XRECORD
  5
528F
102
{ACAD_REACTORS
330
39AD
102
}
330
39AD
100
AcDbXrecord
280
     1
  1
Ｃ断面
  1
DSTD_SECT-C*
  1
*
  1
*
 70
     0
  1
*
  1
*
  0
XRECORD
  5
528C
102
{ACAD_REACTORS
330
39AD
102
}
330
39AD
100
AcDbXrecord
280
     1
  1
ﾊｯﾁ
  1
ﾊｯﾁ*
  1
*
  1
*
 70
     0
  1
*
  1
*
  0
DICTIONARY
  5
CA90
330
7CC
100
AcDbDictionary
280
     1
281
     1
  3
ACAD_XREC_ROUNDTRIP
360
CA91
  0
DICTIONARY
  5
CA92
330
7CD
100
AcDbDictionary
280
     1
281
     1
  3
ACAD_XREC_ROUNDTRIP
360
CA93
  0
DICTIONARY
  5
9DED
330
9DEC
100
AcDbDictionary
280
     1
281
     1
  3
ACAD_XREC_ROUNDTRIP
360
CA99
  3
BUMPTILE
360
9DEF
  3
DIFFUSETILE
360
9DEE
  3
OPACITYTILE
360
9DF2
  3
REFLECTIONTILE
360
9DF1
  3
REFRACTIONTILE
360
9DF3
  3
SPECULARTILE
360
9DF0
  0
DICTIONARY
  5
9DE5
330
9DE4
100
AcDbDictionary
280
     1
281
     1
  3
ACAD_XREC_ROUNDTRIP
360
CA98
  3
BUMPTILE
360
9DE7
  3
DIFFUSETILE
360
9DE6
  3
OPACITYTILE
360
9DEA
  3
REFLECTIONTILE
360
9DE9
  3
REFRACTIONTILE
360
9DEB
  3
SPECULARTILE
360
9DE8
  0
DICTIONARY
  5
9DF5
330
9DF4
100
AcDbDictionary
280
     1
281
     1
  3
ACAD_XREC_ROUNDTRIP
360
CA9A
  3
BUMPTILE
360
9DF7
  3
DIFFUSETILE
360
9DF6
  3
OPACITYTILE
360
9DFA
  3
REFLECTIONTILE
360
9DF9
  3
REFRACTIONTILE
360
9DFB
  3
SPECULARTILE
360
9DF8
  0
DICTIONARY
  5
CA8C
330
9E2B
100
AcDbDictionary
280
     1
281
     1
  3
ACAD_XREC_ROUNDTRIP
360
CA8D
  0
DICTIONARY
  5
CA94
330
838
100
AcDbDictionary
280
     1
281
     1
  3
ACAD_XREC_ROUNDTRIP
360
CA95
  0
DICTIONARY
  5
CA96
330
839
100
AcDbDictionary
280
     1
281
     1
  3
ACAD_XREC_ROUNDTRIP
360
CA97
  0
DICTIONARY
  5
B622
330
9E17
100
AcDbDictionary
280
     1
281
     1
  3
ACAD_ROUNDTRIP_2008_TABLESTYLE_CELLSTYLEMAP
360
CA8B
  3
ACAD_XREC_ROUNDTRIP
360
CACB
  0
DICTIONARY
  5
CAA5
330
9E02
100
AcDbDictionary
280
     1
281
     1
  3
ACAD_XREC_ROUNDTRIP
360
CAA6
  0
DICTIONARY
  5
CAA3
330
9E01
100
AcDbDictionary
280
     1
281
     1
  3
ACAD_XREC_ROUNDTRIP
360
CAA4
  0
DICTIONARY
  5
CAB1
330
9E08
100
AcDbDictionary
280
     1
281
     1
  3
ACAD_XREC_ROUNDTRIP
360
CAB2
  0
DICTIONARY
  5
CAB9
330
9E0C
100
AcDbDictionary
280
     1
281
     1
  3
ACAD_XREC_ROUNDTRIP
360
CABA
  0
DICTIONARY
  5
CAAB
330
9E05
100
AcDbDictionary
280
     1
281
     1
  3
ACAD_XREC_ROUNDTRIP
360
CAAC
  0
DICTIONARY
  5
CAAF
330
9E07
100
AcDbDictionary
280
     1
281
     1
  3
ACAD_XREC_ROUNDTRIP
360
CAB0
  0
DICTIONARY
  5
CAC9
330
9E14
100
AcDbDictionary
280
     1
281
     1
  3
ACAD_XREC_ROUNDTRIP
360
CACA
  0
DICTIONARY
  5
CAB7
330
9E0B
100
AcDbDictionary
280
     1
281
     1
  3
ACAD_XREC_ROUNDTRIP
360
CAB8
  0
DICTIONARY
  5
CA9B
330
9DFD
100
AcDbDictionary
280
     1
281
     1
  3
ACAD_XREC_ROUNDTRIP
360
CA9C
  0
DICTIONARY
  5
CA9D
330
9DFE
100
AcDbDictionary
280
     1
281
     1
  3
ACAD_XREC_ROUNDTRIP
360
CA9E
  0
DICTIONARY
  5
CA9F
330
9DFF
100
AcDbDictionary
280
     1
281
     1
  3
ACAD_XREC_ROUNDTRIP
360
CAA0
  0
DICTIONARY
  5
CAA1
330
9E00
100
AcDbDictionary
280
     1
281
     1
  3
ACAD_XREC_ROUNDTRIP
360
CAA2
  0
DICTIONARY
  5
CAA9
330
9E04
100
AcDbDictionary
280
     1
281
     1
  3
ACAD_XREC_ROUNDTRIP
360
CAAA
  0
DICTIONARY
  5
CAC5
330
9E12
100
AcDbDictionary
280
     1
281
     1
  3
ACAD_XREC_ROUNDTRIP
360
CAC6
  0
DICTIONARY
  5
CAB5
330
9E0A
100
AcDbDictionary
280
     1
281
     1
  3
ACAD_XREC_ROUNDTRIP
360
CAB6
  0
DICTIONARY
  5
CAC7
330
9E13
100
AcDbDictionary
280
     1
281
     1
  3
ACAD_XREC_ROUNDTRIP
360
CAC8
  0
DICTIONARY
  5
CAAD
330
9E06
100
AcDbDictionary
280
     1
281
     1
  3
ACAD_XREC_ROUNDTRIP
360
CAAE
  0
DICTIONARY
  5
CAC3
330
9E11
100
AcDbDictionary
280
     1
281
     1
  3
ACAD_XREC_ROUNDTRIP
360
CAC4
  0
DICTIONARY
  5
CAC1
330
9E10
100
AcDbDictionary
280
     1
281
     1
  3
ACAD_XREC_ROUNDTRIP
360
CAC2
  0
DICTIONARY
  5
CABB
330
9E0D
100
AcDbDictionary
280
     1
281
     1
  3
ACAD_XREC_ROUNDTRIP
360
CABC
  0
DICTIONARY
  5
CABD
330
9E0E
100
AcDbDictionary
280
     1
281
     1
  3
ACAD_XREC_ROUNDTRIP
360
CABE
  0
DICTIONARY
  5
CAB3
330
9E09
100
AcDbDictionary
280
     1
281
     1
  3
ACAD_XREC_ROUNDTRIP
360
CAB4
  0
DICTIONARY
  5
CAA7
330
9E03
100
AcDbDictionary
280
     1
281
     1
  3
ACAD_XREC_ROUNDTRIP
360
CAA8
  0
DICTIONARY
  5
CABF
330
9E0F
100
AcDbDictionary
280
     1
281
     1
  3
ACAD_XREC_ROUNDTRIP
360
CAC0
  0
XRECORD
  5
CA91
102
{ACAD_REACTORS
330
CA90
102
}
330
CA90
100
AcDbXrecord
280
     1
102
SHADEPLOT
 70
     0
102
SHADEPLOTRESLEVEL
 70
     2
102
SHADEPLOTCUSTOMDPI
 70
   300
  0
XRECORD
  5
CA93
102
{ACAD_REACTORS
330
CA92
102
}
330
CA92
100
AcDbXrecord
280
     1
102
SHADEPLOT
 70
     0
102
SHADEPLOTRESLEVEL
 70
     2
102
SHADEPLOTCUSTOMDPI
 70
   300
  0
XRECORD
  5
CA99
102
{ACAD_REACTORS
330
9DED
102
}
330
9DED
100
AcDbXrecord
280
     1
102
MATERIAL
148
0.0
149
0.0
149
0.0
 93
        0
 94
      127
282
     0
 72
     0
 77
     0
171
     0
175
     0
179
     0
273
     0
  0
XRECORD
  5
9DEF
102
{ACAD_REACTORS
330
9DED
102
}
330
9DED
100
AcDbXrecord
280
     1
270
     1
271
     1
  0
XRECORD
  5
9DEE
102
{ACAD_REACTORS
330
9DED
102
}
330
9DED
100
AcDbXrecord
280
     1
270
     1
271
     1
  0
XRECORD
  5
9DF2
102
{ACAD_REACTORS
330
9DED
102
}
330
9DED
100
AcDbXrecord
280
     1
270
     1
271
     1
  0
XRECORD
  5
9DF1
102
{ACAD_REACTORS
330
9DED
102
}
330
9DED
100
AcDbXrecord
280
     1
270
     1
271
     1
  0
XRECORD
  5
9DF3
102
{ACAD_REACTORS
330
9DED
102
}
330
9DED
100
AcDbXrecord
280
     1
270
     1
271
     1
  0
XRECORD
  5
9DF0
102
{ACAD_REACTORS
330
9DED
102
}
330
9DED
100
AcDbXrecord
280
     1
270
     1
271
     1
  0
XRECORD
  5
CA98
102
{ACAD_REACTORS
330
9DE5
102
}
330
9DE5
100
AcDbXrecord
280
     1
102
MATERIAL
148
0.0
149
0.0
149
0.0
 93
        0
 94
      127
282
     0
 72
     0
 77
     0
171
     0
175
     0
179
     0
273
     0
  0
XRECORD
  5
9DE7
102
{ACAD_REACTORS
330
9DE5
102
}
330
9DE5
100
AcDbXrecord
280
     1
270
     1
271
     1
  0
XRECORD
  5
9DE6
102
{ACAD_REACTORS
330
9DE5
102
}
330
9DE5
100
AcDbXrecord
280
     1
270
     1
271
     1
  0
XRECORD
  5
9DEA
102
{ACAD_REACTORS
330
9DE5
102
}
330
9DE5
100
AcDbXrecord
280
     1
270
     1
271
     1
  0
XRECORD
  5
9DE9
102
{ACAD_REACTORS
330
9DE5
102
}
330
9DE5
100
AcDbXrecord
280
     1
270
     1
271
     1
  0
XRECORD
  5
9DEB
102
{ACAD_REACTORS
330
9DE5
102
}
330
9DE5
100
AcDbXrecord
280
     1
270
     1
271
     1
  0
XRECORD
  5
9DE8
102
{ACAD_REACTORS
330
9DE5
102
}
330
9DE5
100
AcDbXrecord
280
     1
270
     1
271
     1
  0
XRECORD
  5
CA9A
102
{ACAD_REACTORS
330
9DF5
102
}
330
9DF5
100
AcDbXrecord
280
     1
102
MATERIAL
148
0.0
149
0.0
149
0.0
 93
        0
 94
      127
282
     0
 72
     0
 77
     0
171
     0
175
     0
179
     0
273
     0
  0
XRECORD
  5
9DF7
102
{ACAD_REACTORS
330
9DF5
102
}
330
9DF5
100
AcDbXrecord
280
     1
270
     1
271
     1
  0
XRECORD
  5
9DF6
102
{ACAD_REACTORS
330
9DF5
102
}
330
9DF5
100
AcDbXrecord
280
     1
270
     1
271
     1
  0
XRECORD
  5
9DFA
102
{ACAD_REACTORS
330
9DF5
102
}
330
9DF5
100
AcDbXrecord
280
     1
270
     1
271
     1
  0
XRECORD
  5
9DF9
102
{ACAD_REACTORS
330
9DF5
102
}
330
9DF5
100
AcDbXrecord
280
     1
270
     1
271
     1
  0
XRECORD
  5
9DFB
102
{ACAD_REACTORS
330
9DF5
102
}
330
9DF5
100
AcDbXrecord
280
     1
270
     1
271
     1
  0
XRECORD
  5
9DF8
102
{ACAD_REACTORS
330
9DF5
102
}
330
9DF5
100
AcDbXrecord
280
     1
270
     1
271
     1
  0
XRECORD
  5
CA8D
102
{ACAD_REACTORS
330
CA8C
102
}
330
CA8C
100
AcDbXrecord
280
     1
102
ACAD_ROUNDTRIP_2012_MLEADER_STYLE
298
     1
  0
XRECORD
  5
CA95
102
{ACAD_REACTORS
330
CA94
102
}
330
CA94
100
AcDbXrecord
280
     1
102
SHADEPLOT
 70
     0
102
SHADEPLOTRESLEVEL
 70
     2
102
SHADEPLOTCUSTOMDPI
 70
   300
  0
XRECORD
  5
CA97
102
{ACAD_REACTORS
330
CA96
102
}
330
CA96
100
AcDbXrecord
280
     1
102
SHADEPLOT
 70
     0
102
SHADEPLOTRESLEVEL
 70
     2
102
SHADEPLOTCUSTOMDPI
 70
   300
  0
CELLSTYLEMAP
  5
CA8B
102
{ACAD_REACTORS
330
B622
102
}
330
B622
100
AcDbCellStyleMap
 90
        3
300
CELLSTYLE
  1
TABLEFORMAT_BEGIN
 90
        5
170
     1
 91
        0
 92
    32768
 62
   257
 93
        1
300
CONTENTFORMAT
  1
CONTENTFORMAT_BEGIN
 90
        0
 91
        0
 92
      512
 93
        0
300

 40
0.0
140
1.0
 94
        5
 62
     0
340
F
144
0.25
309
CONTENTFORMAT_END
171
     0
 94
        0
309
TABLEFORMAT_END
  1
CELLSTYLE_BEGIN
 90
        1
 91
        1
300
_TITLE
309
CELLSTYLE_END
300
CELLSTYLE
  1
TABLEFORMAT_BEGIN
 90
        5
170
     1
 91
        0
 92
        0
 62
   257
 93
        1
300
CONTENTFORMAT
  1
CONTENTFORMAT_BEGIN
 90
        0
 91
        0
 92
      512
 93
        0
300

 40
0.0
140
1.0
 94
        5
 62
     0
340
F
144
0.18
309
CONTENTFORMAT_END
171
     0
 94
        0
309
TABLEFORMAT_END
  1
CELLSTYLE_BEGIN
 90
        2
 91
        1
300
_HEADER
309
CELLSTYLE_END
300
CELLSTYLE
  1
TABLEFORMAT_BEGIN
 90
        5
170
     1
 91
        0
 92
        0
 62
   257
 93
        1
300
CONTENTFORMAT
  1
CONTENTFORMAT_BEGIN
 90
        0
 91
        0
 92
      512
 93
        0
300

 40
0.0
140
1.0
 94
        2
 62
     0
340
F
144
0.18
309
CONTENTFORMAT_END
171
     0
 94
        0
309
TABLEFORMAT_END
  1
CELLSTYLE_BEGIN
 90
        3
 91
        2
300
_DATA
309
CELLSTYLE_END
  0
XRECORD
  5
CACB
102
{ACAD_REACTORS
330
B622
102
}
330
B622
100
AcDbXrecord
280
     1
102
ACAD_ROUNDTRIP_PRE2007_TABLESTYLE
 90
      512
 91
        0
  1

 92
      512
 93
        0
  2

 94
      512
 95
        0
  3

  0
XRECORD
  5
CAA6
102
{ACAD_REACTORS
330
CAA5
102
}
330
CAA5
100
AcDbXrecord
280
     1
102
RTVSPropertyOp0
 70
     1
102
RTVSPropertyOp1
 70
     1
102
RTVSPropertyOp2
 70
     1
102
RTVSPropertyOp3
 70
     1
102
RTVSPropertyOp4
 70
     1
102
RTVSPropertyOp5
 70
     1
102
RTVSPropertyOp6
 70
     1
102
RTVSPropertyOp7
 70
     1
102
RTVSPropertyOp8
 70
     1
102
RTVSPropertyOp9
 70
     1
102
RTVSPropertyOp10
 70
     1
102
RTVSPropertyOp11
 70
     1
102
RTVSPropertyOp12
 70
     1
102
RTVSPropertyOp13
 70
     1
102
RTVSPropertyOp14
 70
     1
102
RTVSPropertyOp15
 70
     1
102
RTVSPropertyOp16
 70
     1
102
RTVSPropertyOp17
 70
     1
102
RTVSPropertyOp18
 70
     1
102
RTVSPropertyOp19
 70
     1
102
RTVSPropertyOp20
 70
     1
102
RTVSPropertyOp21
 70
     1
102
RTVSPropertyOp22
 70
     1
102
RTVSPropertyOp23
 70
     1
102
RTVSPropertyOp24
 70
     1
102
RTVSPropertyOp25
 70
     1
102
RTVSPropertyOp26
 70
     1
102
RTVSPropertyOp27
 70
     1
102
RTVSPropertyOp28
 70
     1
102
RTVSPropertyOp29
 70
     1
102
RTVSPropertyOp30
 70
     1
102
RTVSPropertyOp31
 70
     1
102
RTVSPropertyOp32
 70
     1
  0
XRECORD
  5
CAA4
102
{ACAD_REACTORS
330
CAA3
102
}
330
CAA3
100
AcDbXrecord
280
     1
102
RTVSPropertyOp0
 70
     1
102
RTVSPropertyOp1
 70
     1
102
RTVSPropertyOp2
 70
     1
102
RTVSPropertyOp3
 70
     1
102
RTVSPropertyOp4
 70
     1
102
RTVSPropertyOp5
 70
     1
102
RTVSPropertyOp6
 70
     1
102
RTVSPropertyOp7
 70
     1
102
RTVSPropertyOp8
 70
     1
102
RTVSPropertyOp9
 70
     1
102
RTVSPropertyOp10
 70
     1
102
RTVSPropertyOp11
 70
     1
102
RTVSPropertyOp12
 70
     1
102
RTVSPropertyOp13
 70
     1
102
RTVSPropertyOp14
 70
     1
102
RTVSPropertyOp15
 70
     1
102
RTVSPropertyOp16
 70
     1
102
RTVSPropertyOp17
 70
     1
102
RTVSPropertyOp18
 70
     1
102
RTVSPropertyOp19
 70
     1
102
RTVSPropertyOp20
 70
     1
102
RTVSPropertyOp21
 70
     1
102
RTVSPropertyOp22
 70
     1
102
RTVSPropertyOp23
 70
     1
102
RTVSPropertyOp24
 70
     1
102
RTVSPropertyOp25
 70
     1
102
RTVSPropertyOp26
 70
     1
102
RTVSPropertyOp27
 70
     1
102
RTVSPropertyOp28
 70
     1
102
RTVSPropertyOp29
 70
     1
102
RTVSPropertyOp30
 70
     1
102
RTVSPropertyOp31
 70
     1
102
RTVSPropertyOp32
 70
     1
  0
XRECORD
  5
CAB2
102
{ACAD_REACTORS
330
CAB1
102
}
330
CAB1
100
AcDbXrecord
280
     1
102
RTVSPropertyOp0
 70
     1
102
RTVSPropertyOp1
 70
     1
102
RTVSPropertyOp2
 70
     1
102
RTVSPropertyOp3
 70
     1
102
RTVSPropertyOp4
 70
     1
102
RTVSPropertyOp5
 70
     1
102
RTVSPropertyOp6
 70
     1
102
RTVSPropertyOp7
 70
     1
102
RTVSPropertyOp8
 70
     1
102
RTVSPropertyOp9
 70
     1
102
RTVSPropertyOp10
 70
     1
102
RTVSPropertyOp11
 70
     1
102
RTVSPropertyOp12
 70
     1
102
RTVSPropertyOp13
 70
     1
102
RTVSPropertyOp14
 70
     1
102
RTVSPropertyOp15
 70
     1
102
RTVSPropertyOp16
 70
     1
102
RTVSPropertyOp17
 70
     1
102
RTVSPropertyOp18
 70
     1
102
RTVSPropertyOp19
 70
     1
102
RTVSPropertyOp20
 70
     1
102
RTVSPropertyOp21
 70
     1
102
RTVSPropertyOp22
 70
     1
102
RTVSPropertyOp23
 70
     1
102
RTVSPropertyOp24
 70
     1
102
RTVSPropertyOp25
 70
     1
102
RTVSPropertyOp26
 70
     1
102
RTVSPropertyOp27
 70
     1
102
RTVSPropertyOp28
 70
     1
102
RTVSPropertyOp29
 70
     1
102
RTVSPropertyOp30
 70
     1
102
RTVSPropertyOp31
 70
     1
102
RTVSPropertyOp32
 70
     1
  0
XRECORD
  5
CABA
102
{ACAD_REACTORS
330
CAB9
102
}
330
CAB9
100
AcDbXrecord
280
     1
102
RTVSPropertyOp0
 70
     1
102
RTVSPropertyOp1
 70
     1
102
RTVSPropertyOp2
 70
     1
102
RTVSPropertyOp3
 70
     1
102
RTVSPropertyOp4
 70
     1
102
RTVSPropertyOp5
 70
     1
102
RTVSPropertyOp6
 70
     1
102
RTVSPropertyOp7
 70
     1
102
RTVSPropertyOp8
 70
     1
102
RTVSPropertyOp9
 70
     1
102
RTVSPropertyOp10
 70
     1
102
RTVSPropertyOp11
 70
     1
102
RTVSPropertyOp12
 70
     1
102
RTVSPropertyOp13
 70
     1
102
RTVSPropertyOp14
 70
     1
102
RTVSPropertyOp15
 70
     1
102
RTVSPropertyOp16
 70
     1
102
RTVSPropertyOp17
 70
     1
102
RTVSPropertyOp18
 70
     1
102
RTVSPropertyOp19
 70
     1
102
RTVSPropertyOp20
 70
     1
102
RTVSPropertyOp21
 70
     1
102
RTVSPropertyOp22
 70
     1
102
RTVSPropertyOp23
 70
     1
102
RTVSPropertyOp24
 70
     1
102
RTVSPropertyOp25
 70
     1
102
RTVSPropertyOp26
 70
     1
102
RTVSPropertyOp27
 70
     1
102
RTVSPropertyOp28
 70
     1
102
RTVSPropertyOp29
 70
     1
102
RTVSPropertyOp30
 70
     1
102
RTVSPropertyOp31
 70
     1
102
RTVSPropertyOp32
 70
     1
  0
XRECORD
  5
CAAC
102
{ACAD_REACTORS
330
CAAB
102
}
330
CAAB
100
AcDbXrecord
280
     1
102
RTVSPropertyOp0
 70
     1
102
RTVSPropertyOp1
 70
     1
102
RTVSPropertyOp2
 70
     1
102
RTVSPropertyOp3
 70
     1
102
RTVSPropertyOp4
 70
     1
102
RTVSPropertyOp5
 70
     1
102
RTVSPropertyOp6
 70
     1
102
RTVSPropertyOp7
 70
     1
102
RTVSPropertyOp8
 70
     1
102
RTVSPropertyOp9
 70
     1
102
RTVSPropertyOp10
 70
     1
102
RTVSPropertyOp11
 70
     1
102
RTVSPropertyOp12
 70
     1
102
RTVSPropertyOp13
 70
     1
102
RTVSPropertyOp14
 70
     1
102
RTVSPropertyOp15
 70
     1
102
RTVSPropertyOp16
 70
     1
102
RTVSPropertyOp17
 70
     1
102
RTVSPropertyOp18
 70
     1
102
RTVSPropertyOp19
 70
     1
102
RTVSPropertyOp20
 70
     1
102
RTVSPropertyOp21
 70
     1
102
RTVSPropertyOp22
 70
     1
102
RTVSPropertyOp23
 70
     1
102
RTVSPropertyOp24
 70
     1
102
RTVSPropertyOp25
 70
     1
102
RTVSPropertyOp26
 70
     1
102
RTVSPropertyOp27
 70
     1
102
RTVSPropertyOp28
 70
     1
102
RTVSPropertyOp29
 70
     1
102
RTVSPropertyOp30
 70
     1
102
RTVSPropertyOp31
 70
     1
102
RTVSPropertyOp32
 70
     1
  0
XRECORD
  5
CAB0
102
{ACAD_REACTORS
330
CAAF
102
}
330
CAAF
100
AcDbXrecord
280
     1
102
RTVSPropertyOp0
 70
     1
102
RTVSPropertyOp1
 70
     1
102
RTVSPropertyOp2
 70
     1
102
RTVSPropertyOp3
 70
     1
102
RTVSPropertyOp4
 70
     1
102
RTVSPropertyOp5
 70
     1
102
RTVSPropertyOp6
 70
     1
102
RTVSPropertyOp7
 70
     1
102
RTVSPropertyOp8
 70
     1
102
RTVSPropertyOp9
 70
     1
102
RTVSPropertyOp10
 70
     1
102
RTVSPropertyOp11
 70
     1
102
RTVSPropertyOp12
 70
     1
102
RTVSPropertyOp13
 70
     1
102
RTVSPropertyOp14
 70
     1
102
RTVSPropertyOp15
 70
     1
102
RTVSPropertyOp16
 70
     1
102
RTVSPropertyOp17
 70
     1
102
RTVSPropertyOp18
 70
     1
102
RTVSPropertyOp19
 70
     1
102
RTVSPropertyOp20
 70
     1
102
RTVSPropertyOp21
 70
     1
102
RTVSPropertyOp22
 70
     1
102
RTVSPropertyOp23
 70
     1
102
RTVSPropertyOp24
 70
     1
102
RTVSPropertyOp25
 70
     1
102
RTVSPropertyOp26
 70
     1
102
RTVSPropertyOp27
 70
     1
102
RTVSPropertyOp28
 70
     1
102
RTVSPropertyOp29
 70
     1
102
RTVSPropertyOp30
 70
     1
102
RTVSPropertyOp31
 70
     1
102
RTVSPropertyOp32
 70
     1
  0
XRECORD
  5
CACA
102
{ACAD_REACTORS
330
CAC9
102
}
330
CAC9
100
AcDbXrecord
280
     1
102
RTVSPropertyOp0
 70
     0
102
RTVSPropertyOp1
 70
     0
102
RTVSPropertyOp2
 70
     0
102
RTVSPropertyOp3
 70
     0
102
RTVSPropertyOp4
 70
     0
102
RTVSPropertyOp5
 70
     0
102
RTVSPropertyOp6
 70
     0
102
RTVSPropertyOp7
 70
     0
102
RTVSPropertyOp8
 70
     0
102
RTVSPropertyOp9
 70
     0
102
RTVSPropertyOp10
 70
     0
102
RTVSPropertyOp11
 70
     0
102
RTVSPropertyOp12
 70
     0
102
RTVSPropertyOp13
 70
     0
102
RTVSPropertyOp14
 70
     2
102
RTVSPropertyOp15
 70
     0
102
RTVSPropertyOp16
 70
     0
102
RTVSPropertyOp17
 70
     0
102
RTVSPropertyOp18
 70
     0
102
RTVSPropertyOp19
 70
     0
102
RTVSPropertyOp20
 70
     0
102
RTVSPropertyOp21
 70
     0
102
RTVSPropertyOp22
 70
     0
102
RTVSPropertyOp23
 70
     0
102
RTVSPropertyOp24
 70
     0
102
RTVSPropertyOp25
 70
     0
102
RTVSPropertyOp26
 70
     0
102
RTVSPropertyOp27
 70
     0
102
RTVSPropertyOp28
 70
     0
102
RTVSPropertyOp29
 70
     0
102
RTVSPropertyOp30
 70
     0
102
RTVSPropertyOp31
 70
     0
102
RTVSPropertyOp32
 70
     0
  0
XRECORD
  5
CAB8
102
{ACAD_REACTORS
330
CAB7
102
}
330
CAB7
100
AcDbXrecord
280
     1
102
RTVSPropertyOp0
 70
     1
102
RTVSPropertyOp1
 70
     1
102
RTVSPropertyOp2
 70
     1
102
RTVSPropertyOp3
 70
     1
102
RTVSPropertyOp4
 70
     1
102
RTVSPropertyOp5
 70
     1
102
RTVSPropertyOp6
 70
     1
102
RTVSPropertyOp7
 70
     1
102
RTVSPropertyOp8
 70
     1
102
RTVSPropertyOp9
 70
     1
102
RTVSPropertyOp10
 70
     1
102
RTVSPropertyOp11
 70
     1
102
RTVSPropertyOp12
 70
     1
102
RTVSPropertyOp13
 70
     1
102
RTVSPropertyOp14
 70
     1
102
RTVSPropertyOp15
 70
     1
102
RTVSPropertyOp16
 70
     1
102
RTVSPropertyOp17
 70
     1
102
RTVSPropertyOp18
 70
     1
102
RTVSPropertyOp19
 70
     1
102
RTVSPropertyOp20
 70
     1
102
RTVSPropertyOp21
 70
     1
102
RTVSPropertyOp22
 70
     1
102
RTVSPropertyOp23
 70
     1
102
RTVSPropertyOp24
 70
     1
102
RTVSPropertyOp25
 70
     1
102
RTVSPropertyOp26
 70
     1
102
RTVSPropertyOp27
 70
     1
102
RTVSPropertyOp28
 70
     1
102
RTVSPropertyOp29
 70
     1
102
RTVSPropertyOp30
 70
     1
102
RTVSPropertyOp31
 70
     1
102
RTVSPropertyOp32
 70
     1
  0
XRECORD
  5
CA9C
102
{ACAD_REACTORS
330
CA9B
102
}
330
CA9B
100
AcDbXrecord
280
     1
102
RTVSPropertyOp0
 70
     1
102
RTVSPropertyOp1
 70
     1
102
RTVSPropertyOp2
 70
     1
102
RTVSPropertyOp3
 70
     1
102
RTVSPropertyOp4
 70
     1
102
RTVSPropertyOp5
 70
     1
102
RTVSPropertyOp6
 70
     1
102
RTVSPropertyOp7
 70
     1
102
RTVSPropertyOp8
 70
     1
102
RTVSPropertyOp9
 70
     1
102
RTVSPropertyOp10
 70
     1
102
RTVSPropertyOp11
 70
     1
102
RTVSPropertyOp12
 70
     1
102
RTVSPropertyOp13
 70
     1
102
RTVSPropertyOp14
 70
     1
102
RTVSPropertyOp15
 70
     1
102
RTVSPropertyOp16
 70
     1
102
RTVSPropertyOp17
 70
     1
102
RTVSPropertyOp18
 70
     1
102
RTVSPropertyOp19
 70
     1
102
RTVSPropertyOp20
 70
     1
102
RTVSPropertyOp21
 70
     1
102
RTVSPropertyOp22
 70
     1
102
RTVSPropertyOp23
 70
     1
102
RTVSPropertyOp24
 70
     1
102
RTVSPropertyOp25
 70
     1
102
RTVSPropertyOp26
 70
     1
102
RTVSPropertyOp27
 70
     1
102
RTVSPropertyOp28
 70
     1
102
RTVSPropertyOp29
 70
     1
102
RTVSPropertyOp30
 70
     1
102
RTVSPropertyOp31
 70
     1
102
RTVSPropertyOp32
 70
     1
  0
XRECORD
  5
CA9E
102
{ACAD_REACTORS
330
CA9D
102
}
330
CA9D
100
AcDbXrecord
280
     1
102
RTVSPropertyOp0
 70
     1
102
RTVSPropertyOp1
 70
     1
102
RTVSPropertyOp2
 70
     1
102
RTVSPropertyOp3
 70
     1
102
RTVSPropertyOp4
 70
     1
102
RTVSPropertyOp5
 70
     1
102
RTVSPropertyOp6
 70
     1
102
RTVSPropertyOp7
 70
     1
102
RTVSPropertyOp8
 70
     1
102
RTVSPropertyOp9
 70
     1
102
RTVSPropertyOp10
 70
     1
102
RTVSPropertyOp11
 70
     1
102
RTVSPropertyOp12
 70
     1
102
RTVSPropertyOp13
 70
     1
102
RTVSPropertyOp14
 70
     1
102
RTVSPropertyOp15
 70
     1
102
RTVSPropertyOp16
 70
     1
102
RTVSPropertyOp17
 70
     1
102
RTVSPropertyOp18
 70
     1
102
RTVSPropertyOp19
 70
     1
102
RTVSPropertyOp20
 70
     1
102
RTVSPropertyOp21
 70
     1
102
RTVSPropertyOp22
 70
     1
102
RTVSPropertyOp23
 70
     1
102
RTVSPropertyOp24
 70
     1
102
RTVSPropertyOp25
 70
     1
102
RTVSPropertyOp26
 70
     1
102
RTVSPropertyOp27
 70
     1
102
RTVSPropertyOp28
 70
     1
102
RTVSPropertyOp29
 70
     1
102
RTVSPropertyOp30
 70
     1
102
RTVSPropertyOp31
 70
     1
102
RTVSPropertyOp32
 70
     1
  0
XRECORD
  5
CAA0
102
{ACAD_REACTORS
330
CA9F
102
}
330
CA9F
100
AcDbXrecord
280
     1
102
RTVSPropertyOp0
 70
     1
102
RTVSPropertyOp1
 70
     1
102
RTVSPropertyOp2
 70
     1
102
RTVSPropertyOp3
 70
     1
102
RTVSPropertyOp4
 70
     1
102
RTVSPropertyOp5
 70
     1
102
RTVSPropertyOp6
 70
     1
102
RTVSPropertyOp7
 70
     1
102
RTVSPropertyOp8
 70
     1
102
RTVSPropertyOp9
 70
     1
102
RTVSPropertyOp10
 70
     1
102
RTVSPropertyOp11
 70
     1
102
RTVSPropertyOp12
 70
     1
102
RTVSPropertyOp13
 70
     1
102
RTVSPropertyOp14
 70
     1
102
RTVSPropertyOp15
 70
     1
102
RTVSPropertyOp16
 70
     1
102
RTVSPropertyOp17
 70
     1
102
RTVSPropertyOp18
 70
     1
102
RTVSPropertyOp19
 70
     1
102
RTVSPropertyOp20
 70
     1
102
RTVSPropertyOp21
 70
     1
102
RTVSPropertyOp22
 70
     1
102
RTVSPropertyOp23
 70
     1
102
RTVSPropertyOp24
 70
     1
102
RTVSPropertyOp25
 70
     1
102
RTVSPropertyOp26
 70
     1
102
RTVSPropertyOp27
 70
     1
102
RTVSPropertyOp28
 70
     1
102
RTVSPropertyOp29
 70
     1
102
RTVSPropertyOp30
 70
     1
102
RTVSPropertyOp31
 70
     1
102
RTVSPropertyOp32
 70
     1
  0
XRECORD
  5
CAA2
102
{ACAD_REACTORS
330
CAA1
102
}
330
CAA1
100
AcDbXrecord
280
     1
102
RTVSPropertyOp0
 70
     1
102
RTVSPropertyOp1
 70
     1
102
RTVSPropertyOp2
 70
     1
102
RTVSPropertyOp3
 70
     1
102
RTVSPropertyOp4
 70
     1
102
RTVSPropertyOp5
 70
     1
102
RTVSPropertyOp6
 70
     1
102
RTVSPropertyOp7
 70
     1
102
RTVSPropertyOp8
 70
     1
102
RTVSPropertyOp9
 70
     1
102
RTVSPropertyOp10
 70
     1
102
RTVSPropertyOp11
 70
     1
102
RTVSPropertyOp12
 70
     1
102
RTVSPropertyOp13
 70
     1
102
RTVSPropertyOp14
 70
     1
102
RTVSPropertyOp15
 70
     1
102
RTVSPropertyOp16
 70
     1
102
RTVSPropertyOp17
 70
     1
102
RTVSPropertyOp18
 70
     1
102
RTVSPropertyOp19
 70
     1
102
RTVSPropertyOp20
 70
     1
102
RTVSPropertyOp21
 70
     1
102
RTVSPropertyOp22
 70
     1
102
RTVSPropertyOp23
 70
     1
102
RTVSPropertyOp24
 70
     1
102
RTVSPropertyOp25
 70
     1
102
RTVSPropertyOp26
 70
     1
102
RTVSPropertyOp27
 70
     1
102
RTVSPropertyOp28
 70
     1
102
RTVSPropertyOp29
 70
     1
102
RTVSPropertyOp30
 70
     1
102
RTVSPropertyOp31
 70
     1
102
RTVSPropertyOp32
 70
     1
  0
XRECORD
  5
CAAA
102
{ACAD_REACTORS
330
CAA9
102
}
330
CAA9
100
AcDbXrecord
280
     1
102
RTVSPropertyOp0
 70
     1
102
RTVSPropertyOp1
 70
     1
102
RTVSPropertyOp2
 70
     1
102
RTVSPropertyOp3
 70
     1
102
RTVSPropertyOp4
 70
     1
102
RTVSPropertyOp5
 70
     1
102
RTVSPropertyOp6
 70
     1
102
RTVSPropertyOp7
 70
     1
102
RTVSPropertyOp8
 70
     1
102
RTVSPropertyOp9
 70
     1
102
RTVSPropertyOp10
 70
     1
102
RTVSPropertyOp11
 70
     1
102
RTVSPropertyOp12
 70
     1
102
RTVSPropertyOp13
 70
     1
102
RTVSPropertyOp14
 70
     1
102
RTVSPropertyOp15
 70
     1
102
RTVSPropertyOp16
 70
     1
102
RTVSPropertyOp17
 70
     1
102
RTVSPropertyOp18
 70
     1
102
RTVSPropertyOp19
 70
     1
102
RTVSPropertyOp20
 70
     1
102
RTVSPropertyOp21
 70
     1
102
RTVSPropertyOp22
 70
     1
102
RTVSPropertyOp23
 70
     1
102
RTVSPropertyOp24
 70
     1
102
RTVSPropertyOp25
 70
     1
102
RTVSPropertyOp26
 70
     1
102
RTVSPropertyOp27
 70
     1
102
RTVSPropertyOp28
 70
     1
102
RTVSPropertyOp29
 70
     1
102
RTVSPropertyOp30
 70
     1
102
RTVSPropertyOp31
 70
     1
102
RTVSPropertyOp32
 70
     1
  0
XRECORD
  5
CAC6
102
{ACAD_REACTORS
330
CAC5
102
}
330
CAC5
100
AcDbXrecord
280
     1
102
RTVSPropertyOp0
 70
     0
102
RTVSPropertyOp1
 70
     0
102
RTVSPropertyOp2
 70
     0
102
RTVSPropertyOp3
 70
     0
102
RTVSPropertyOp4
 70
     0
102
RTVSPropertyOp5
 70
     0
102
RTVSPropertyOp6
 70
     0
102
RTVSPropertyOp7
 70
     0
102
RTVSPropertyOp8
 70
     0
102
RTVSPropertyOp9
 70
     0
102
RTVSPropertyOp10
 70
     0
102
RTVSPropertyOp11
 70
     0
102
RTVSPropertyOp12
 70
     0
102
RTVSPropertyOp13
 70
     0
102
RTVSPropertyOp14
 70
     2
102
RTVSPropertyOp15
 70
     0
102
RTVSPropertyOp16
 70
     0
102
RTVSPropertyOp17
 70
     0
102
RTVSPropertyOp18
 70
     0
102
RTVSPropertyOp19
 70
     0
102
RTVSPropertyOp20
 70
     0
102
RTVSPropertyOp21
 70
     0
102
RTVSPropertyOp22
 70
     0
102
RTVSPropertyOp23
 70
     0
102
RTVSPropertyOp24
 70
     0
102
RTVSPropertyOp25
 70
     0
102
RTVSPropertyOp26
 70
     0
102
RTVSPropertyOp27
 70
     0
102
RTVSPropertyOp28
 70
     0
102
RTVSPropertyOp29
 70
     0
102
RTVSPropertyOp30
 70
     0
102
RTVSPropertyOp31
 70
     0
102
RTVSPropertyOp32
 70
     0
  0
XRECORD
  5
CAB6
102
{ACAD_REACTORS
330
CAB5
102
}
330
CAB5
100
AcDbXrecord
280
     1
102
RTVSPropertyOp0
 70
     1
102
RTVSPropertyOp1
 70
     1
102
RTVSPropertyOp2
 70
     1
102
RTVSPropertyOp3
 70
     1
102
RTVSPropertyOp4
 70
     1
102
RTVSPropertyOp5
 70
     1
102
RTVSPropertyOp6
 70
     1
102
RTVSPropertyOp7
 70
     1
102
RTVSPropertyOp8
 70
     1
102
RTVSPropertyOp9
 70
     1
102
RTVSPropertyOp10
 70
     1
102
RTVSPropertyOp11
 70
     1
102
RTVSPropertyOp12
 70
     1
102
RTVSPropertyOp13
 70
     1
102
RTVSPropertyOp14
 70
     1
102
RTVSPropertyOp15
 70
     1
102
RTVSPropertyOp16
 70
     1
102
RTVSPropertyOp17
 70
     1
102
RTVSPropertyOp18
 70
     1
102
RTVSPropertyOp19
 70
     1
102
RTVSPropertyOp20
 70
     1
102
RTVSPropertyOp21
 70
     1
102
RTVSPropertyOp22
 70
     1
102
RTVSPropertyOp23
 70
     1
102
RTVSPropertyOp24
 70
     1
102
RTVSPropertyOp25
 70
     1
102
RTVSPropertyOp26
 70
     1
102
RTVSPropertyOp27
 70
     1
102
RTVSPropertyOp28
 70
     1
102
RTVSPropertyOp29
 70
     1
102
RTVSPropertyOp30
 70
     1
102
RTVSPropertyOp31
 70
     1
102
RTVSPropertyOp32
 70
     1
  0
XRECORD
  5
CAC8
102
{ACAD_REACTORS
330
CAC7
102
}
330
CAC7
100
AcDbXrecord
280
     1
102
RTVSPropertyOp0
 70
     0
102
RTVSPropertyOp1
 70
     0
102
RTVSPropertyOp2
 70
     0
102
RTVSPropertyOp3
 70
     0
102
RTVSPropertyOp4
 70
     0
102
RTVSPropertyOp5
 70
     0
102
RTVSPropertyOp6
 70
     0
102
RTVSPropertyOp7
 70
     0
102
RTVSPropertyOp8
 70
     0
102
RTVSPropertyOp9
 70
     0
102
RTVSPropertyOp10
 70
     0
102
RTVSPropertyOp11
 70
     0
102
RTVSPropertyOp12
 70
     0
102
RTVSPropertyOp13
 70
     0
102
RTVSPropertyOp14
 70
     2
102
RTVSPropertyOp15
 70
     0
102
RTVSPropertyOp16
 70
     0
102
RTVSPropertyOp17
 70
     0
102
RTVSPropertyOp18
 70
     0
102
RTVSPropertyOp19
 70
     0
102
RTVSPropertyOp20
 70
     0
102
RTVSPropertyOp21
 70
     0
102
RTVSPropertyOp22
 70
     0
102
RTVSPropertyOp23
 70
     0
102
RTVSPropertyOp24
 70
     0
102
RTVSPropertyOp25
 70
     0
102
RTVSPropertyOp26
 70
     0
102
RTVSPropertyOp27
 70
     0
102
RTVSPropertyOp28
 70
     0
102
RTVSPropertyOp29
 70
     0
102
RTVSPropertyOp30
 70
     0
102
RTVSPropertyOp31
 70
     0
102
RTVSPropertyOp32
 70
     0
  0
XRECORD
  5
CAAE
102
{ACAD_REACTORS
330
CAAD
102
}
330
CAAD
100
AcDbXrecord
280
     1
102
RTVSPropertyOp0
 70
     1
102
RTVSPropertyOp1
 70
     1
102
RTVSPropertyOp2
 70
     1
102
RTVSPropertyOp3
 70
     1
102
RTVSPropertyOp4
 70
     1
102
RTVSPropertyOp5
 70
     1
102
RTVSPropertyOp6
 70
     1
102
RTVSPropertyOp7
 70
     1
102
RTVSPropertyOp8
 70
     1
102
RTVSPropertyOp9
 70
     1
102
RTVSPropertyOp10
 70
     1
102
RTVSPropertyOp11
 70
     1
102
RTVSPropertyOp12
 70
     1
102
RTVSPropertyOp13
 70
     1
102
RTVSPropertyOp14
 70
     1
102
RTVSPropertyOp15
 70
     1
102
RTVSPropertyOp16
 70
     1
102
RTVSPropertyOp17
 70
     1
102
RTVSPropertyOp18
 70
     1
102
RTVSPropertyOp19
 70
     1
102
RTVSPropertyOp20
 70
     1
102
RTVSPropertyOp21
 70
     1
102
RTVSPropertyOp22
 70
     1
102
RTVSPropertyOp23
 70
     1
102
RTVSPropertyOp24
 70
     1
102
RTVSPropertyOp25
 70
     1
102
RTVSPropertyOp26
 70
     1
102
RTVSPropertyOp27
 70
     1
102
RTVSPropertyOp28
 70
     1
102
RTVSPropertyOp29
 70
     1
102
RTVSPropertyOp30
 70
     1
102
RTVSPropertyOp31
 70
     1
102
RTVSPropertyOp32
 70
     1
  0
XRECORD
  5
CAC4
102
{ACAD_REACTORS
330
CAC3
102
}
330
CAC3
100
AcDbXrecord
280
     1
102
RTVSPropertyOp0
 70
     1
102
RTVSPropertyOp1
 70
     1
102
RTVSPropertyOp2
 70
     1
102
RTVSPropertyOp3
 70
     1
102
RTVSPropertyOp4
 70
     1
102
RTVSPropertyOp5
 70
     1
102
RTVSPropertyOp6
 70
     1
102
RTVSPropertyOp7
 70
     1
102
RTVSPropertyOp8
 70
     1
102
RTVSPropertyOp9
 70
     1
102
RTVSPropertyOp10
 70
     1
102
RTVSPropertyOp11
 70
     1
102
RTVSPropertyOp12
 70
     1
102
RTVSPropertyOp13
 70
     1
102
RTVSPropertyOp14
 70
     1
102
RTVSPropertyOp15
 70
     1
102
RTVSPropertyOp16
 70
     1
102
RTVSPropertyOp17
 70
     1
102
RTVSPropertyOp18
 70
     1
102
RTVSPropertyOp19
 70
     1
102
RTVSPropertyOp20
 70
     1
102
RTVSPropertyOp21
 70
     1
102
RTVSPropertyOp22
 70
     1
102
RTVSPropertyOp23
 70
     1
102
RTVSPropertyOp24
 70
     1
102
RTVSPropertyOp25
 70
     1
102
RTVSPropertyOp26
 70
     1
102
RTVSPropertyOp27
 70
     1
102
RTVSPropertyOp28
 70
     1
102
RTVSPropertyOp29
 70
     1
102
RTVSPropertyOp30
 70
     1
102
RTVSPropertyOp31
 70
     1
102
RTVSPropertyOp32
 70
     1
  0
XRECORD
  5
CAC2
102
{ACAD_REACTORS
330
CAC1
102
}
330
CAC1
100
AcDbXrecord
280
     1
102
RTVSPropertyOp0
 70
     1
102
RTVSPropertyOp1
 70
     1
102
RTVSPropertyOp2
 70
     1
102
RTVSPropertyOp3
 70
     1
102
RTVSPropertyOp4
 70
     1
102
RTVSPropertyOp5
 70
     1
102
RTVSPropertyOp6
 70
     1
102
RTVSPropertyOp7
 70
     1
102
RTVSPropertyOp8
 70
     1
102
RTVSPropertyOp9
 70
     1
102
RTVSPropertyOp10
 70
     1
102
RTVSPropertyOp11
 70
     1
102
RTVSPropertyOp12
 70
     1
102
RTVSPropertyOp13
 70
     1
102
RTVSPropertyOp14
 70
     1
102
RTVSPropertyOp15
 70
     1
102
RTVSPropertyOp16
 70
     1
102
RTVSPropertyOp17
 70
     1
102
RTVSPropertyOp18
 70
     1
102
RTVSPropertyOp19
 70
     1
102
RTVSPropertyOp20
 70
     1
102
RTVSPropertyOp21
 70
     1
102
RTVSPropertyOp22
 70
     1
102
RTVSPropertyOp23
 70
     1
102
RTVSPropertyOp24
 70
     1
102
RTVSPropertyOp25
 70
     1
102
RTVSPropertyOp26
 70
     1
102
RTVSPropertyOp27
 70
     1
102
RTVSPropertyOp28
 70
     1
102
RTVSPropertyOp29
 70
     1
102
RTVSPropertyOp30
 70
     1
102
RTVSPropertyOp31
 70
     1
102
RTVSPropertyOp32
 70
     1
  0
XRECORD
  5
CABC
102
{ACAD_REACTORS
330
CABB
102
}
330
CABB
100
AcDbXrecord
280
     1
102
RTVSPropertyOp0
 70
     1
102
RTVSPropertyOp1
 70
     1
102
RTVSPropertyOp2
 70
     1
102
RTVSPropertyOp3
 70
     1
102
RTVSPropertyOp4
 70
     1
102
RTVSPropertyOp5
 70
     1
102
RTVSPropertyOp6
 70
     1
102
RTVSPropertyOp7
 70
     1
102
RTVSPropertyOp8
 70
     1
102
RTVSPropertyOp9
 70
     1
102
RTVSPropertyOp10
 70
     1
102
RTVSPropertyOp11
 70
     1
102
RTVSPropertyOp12
 70
     1
102
RTVSPropertyOp13
 70
     1
102
RTVSPropertyOp14
 70
     1
102
RTVSPropertyOp15
 70
     1
102
RTVSPropertyOp16
 70
     1
102
RTVSPropertyOp17
 70
     1
102
RTVSPropertyOp18
 70
     1
102
RTVSPropertyOp19
 70
     1
102
RTVSPropertyOp20
 70
     1
102
RTVSPropertyOp21
 70
     1
102
RTVSPropertyOp22
 70
     1
102
RTVSPropertyOp23
 70
     1
102
RTVSPropertyOp24
 70
     1
102
RTVSPropertyOp25
 70
     1
102
RTVSPropertyOp26
 70
     1
102
RTVSPropertyOp27
 70
     1
102
RTVSPropertyOp28
 70
     1
102
RTVSPropertyOp29
 70
     1
102
RTVSPropertyOp30
 70
     1
102
RTVSPropertyOp31
 70
     1
102
RTVSPropertyOp32
 70
     1
  0
XRECORD
  5
CABE
102
{ACAD_REACTORS
330
CABD
102
}
330
CABD
100
AcDbXrecord
280
     1
102
RTVSPropertyOp0
 70
     1
102
RTVSPropertyOp1
 70
     1
102
RTVSPropertyOp2
 70
     1
102
RTVSPropertyOp3
 70
     1
102
RTVSPropertyOp4
 70
     1
102
RTVSPropertyOp5
 70
     1
102
RTVSPropertyOp6
 70
     1
102
RTVSPropertyOp7
 70
     1
102
RTVSPropertyOp8
 70
     1
102
RTVSPropertyOp9
 70
     1
102
RTVSPropertyOp10
 70
     1
102
RTVSPropertyOp11
 70
     1
102
RTVSPropertyOp12
 70
     1
102
RTVSPropertyOp13
 70
     1
102
RTVSPropertyOp14
 70
     1
102
RTVSPropertyOp15
 70
     1
102
RTVSPropertyOp16
 70
     1
102
RTVSPropertyOp17
 70
     1
102
RTVSPropertyOp18
 70
     1
102
RTVSPropertyOp19
 70
     1
102
RTVSPropertyOp20
 70
     1
102
RTVSPropertyOp21
 70
     1
102
RTVSPropertyOp22
 70
     1
102
RTVSPropertyOp23
 70
     1
102
RTVSPropertyOp24
 70
     1
102
RTVSPropertyOp25
 70
     1
102
RTVSPropertyOp26
 70
     1
102
RTVSPropertyOp27
 70
     1
102
RTVSPropertyOp28
 70
     1
102
RTVSPropertyOp29
 70
     1
102
RTVSPropertyOp30
 70
     1
102
RTVSPropertyOp31
 70
     1
102
RTVSPropertyOp32
 70
     1
  0
XRECORD
  5
CAB4
102
{ACAD_REACTORS
330
CAB3
102
}
330
CAB3
100
AcDbXrecord
280
     1
102
RTVSPropertyOp0
 70
     1
102
RTVSPropertyOp1
 70
     1
102
RTVSPropertyOp2
 70
     1
102
RTVSPropertyOp3
 70
     1
102
RTVSPropertyOp4
 70
     1
102
RTVSPropertyOp5
 70
     1
102
RTVSPropertyOp6
 70
     1
102
RTVSPropertyOp7
 70
     1
102
RTVSPropertyOp8
 70
     1
102
RTVSPropertyOp9
 70
     1
102
RTVSPropertyOp10
 70
     1
102
RTVSPropertyOp11
 70
     1
102
RTVSPropertyOp12
 70
     1
102
RTVSPropertyOp13
 70
     1
102
RTVSPropertyOp14
 70
     1
102
RTVSPropertyOp15
 70
     1
102
RTVSPropertyOp16
 70
     1
102
RTVSPropertyOp17
 70
     1
102
RTVSPropertyOp18
 70
     1
102
RTVSPropertyOp19
 70
     1
102
RTVSPropertyOp20
 70
     1
102
RTVSPropertyOp21
 70
     1
102
RTVSPropertyOp22
 70
     1
102
RTVSPropertyOp23
 70
     1
102
RTVSPropertyOp24
 70
     1
102
RTVSPropertyOp25
 70
     1
102
RTVSPropertyOp26
 70
     1
102
RTVSPropertyOp27
 70
     1
102
RTVSPropertyOp28
 70
     1
102
RTVSPropertyOp29
 70
     1
102
RTVSPropertyOp30
 70
     1
102
RTVSPropertyOp31
 70
     1
102
RTVSPropertyOp32
 70
     1
  0
XRECORD
  5
CAA8
102
{ACAD_REACTORS
330
CAA7
102
}
330
CAA7
100
AcDbXrecord
280
     1
102
RTVSPropertyOp0
 70
     1
102
RTVSPropertyOp1
 70
     1
102
RTVSPropertyOp2
 70
     1
102
RTVSPropertyOp3
 70
     1
102
RTVSPropertyOp4
 70
     1
102
RTVSPropertyOp5
 70
     1
102
RTVSPropertyOp6
 70
     1
102
RTVSPropertyOp7
 70
     1
102
RTVSPropertyOp8
 70
     1
102
RTVSPropertyOp9
 70
     1
102
RTVSPropertyOp10
 70
     1
102
RTVSPropertyOp11
 70
     1
102
RTVSPropertyOp12
 70
     1
102
RTVSPropertyOp13
 70
     1
102
RTVSPropertyOp14
 70
     1
102
RTVSPropertyOp15
 70
     1
102
RTVSPropertyOp16
 70
     1
102
RTVSPropertyOp17
 70
     1
102
RTVSPropertyOp18
 70
     1
102
RTVSPropertyOp19
 70
     1
102
RTVSPropertyOp20
 70
     1
102
RTVSPropertyOp21
 70
     1
102
RTVSPropertyOp22
 70
     1
102
RTVSPropertyOp23
 70
     1
102
RTVSPropertyOp24
 70
     1
102
RTVSPropertyOp25
 70
     1
102
RTVSPropertyOp26
 70
     1
102
RTVSPropertyOp27
 70
     1
102
RTVSPropertyOp28
 70
     1
102
RTVSPropertyOp29
 70
     1
102
RTVSPropertyOp30
 70
     1
102
RTVSPropertyOp31
 70
     1
102
RTVSPropertyOp32
 70
     1
  0
XRECORD
  5
CAC0
102
{ACAD_REACTORS
330
CABF
102
}
330
CABF
100
AcDbXrecord
280
     1
102
RTVSPropertyOp0
 70
     1
102
RTVSPropertyOp1
 70
     1
102
RTVSPropertyOp2
 70
     1
102
RTVSPropertyOp3
 70
     1
102
RTVSPropertyOp4
 70
     1
102
RTVSPropertyOp5
 70
     1
102
RTVSPropertyOp6
 70
     1
102
RTVSPropertyOp7
 70
     1
102
RTVSPropertyOp8
 70
     1
102
RTVSPropertyOp9
 70
     1
102
RTVSPropertyOp10
 70
     1
102
RTVSPropertyOp11
 70
     1
102
RTVSPropertyOp12
 70
     1
102
RTVSPropertyOp13
 70
     1
102
RTVSPropertyOp14
 70
     1
102
RTVSPropertyOp15
 70
     1
102
RTVSPropertyOp16
 70
     1
102
RTVSPropertyOp17
 70
     1
102
RTVSPropertyOp18
 70
     1
102
RTVSPropertyOp19
 70
     1
102
RTVSPropertyOp20
 70
     1
102
RTVSPropertyOp21
 70
     1
102
RTVSPropertyOp22
 70
     1
102
RTVSPropertyOp23
 70
     1
102
RTVSPropertyOp24
 70
     1
102
RTVSPropertyOp25
 70
     1
102
RTVSPropertyOp26
 70
     1
102
RTVSPropertyOp27
 70
     1
102
RTVSPropertyOp28
 70
     1
102
RTVSPropertyOp29
 70
     1
102
RTVSPropertyOp30
 70
     1
102
RTVSPropertyOp31
 70
     1
102
RTVSPropertyOp32
 70
     1
  0
ENDSEC
  0
EOF
