  0
SECTION
  2
HEADER
  9
$ACADVER
  1
AC1024
  9
$ACADMAINTVER
 70
    63
  9
$DWGCODEPAGE
  3
ANSI_932
  9
$LASTSAVEDBY
  1
demizu
  9
$INSBASE
 10
0.0
 20
0.0
 30
0.0
  9
$EXTMIN
 10
19298.40245222889
 20
400.3619180361458
 30
0.0
  9
$EXTMAX
 10
34972.39819502675
 20
11600.37210327785
 30
0.0
  9
$LIMMIN
 10
19226.82194673353
 20
296.0967856342831
  9
$LIMMAX
 10
34998.24149251197
 20
11634.95671002381
  9
$ORTHOMODE
 70
     1
  9
$REGENMODE
 70
     1
  9
$FILLMODE
 70
     1
  9
$QTEXTMODE
 70
     0
  9
$MIRRTEXT
 70
     1
  9
$LTSCALE
 40
220.0
  9
$ATTMODE
 70
     1
  9
$TEXTSIZE
 40
200.0
  9
$TRACEWID
 40
0.05
  9
$TEXTSTYLE
  7
JF3
  9
$CLAYER
  8
2
  9
$CELTYPE
  6
BYLAYER
  9
$CECOLOR
 62
   256
  9
$CELTSCALE
 40
1.0
  9
$DISPSILH
 70
     0
  9
$DIMSCALE
 40
20.0
  9
$DIMASZ
 40
2.0
  9
$DIMEXO
 40
3.0
  9
$DIMDLI
 40
0.0
  9
$DIMRND
 40
0.0
  9
$DIMDLE
 40
0.0
  9
$DIMEXE
 40
1.5
  9
$DIMTP
 40
0.0
  9
$DIMTM
 40
0.0
  9
$DIMTXT
 40
3.0
  9
$DIMCEN
 40
0.0
  9
$DIMTSZ
 40
0.0
  9
$DIMTOL
 70
     0
  9
$DIMLIM
 70
     0
  9
$DIMTIH
 70
     0
  9
$DIMTOH
 70
     0
  9
$DIMSE1
 70
     0
  9
$DIMSE2
 70
     0
  9
$DIMTAD
 70
     1
  9
$DIMZIN
 70
     9
  9
$DIMBLK
  1

  9
$DIMASO
 70
     1
  9
$DIMSHO
 70
     1
  9
$DIMPOST
  1

  9
$DIMAPOST
  1

  9
$DIMALT
 70
     0
  9
$DIMALTD
 70
     2
  9
$DIMALTF
 40
25.4
  9
$DIMLFAC
 40
0.5
  9
$DIMTOFL
 70
     1
  9
$DIMTVP
 40
0.0
  9
$DIMTIX
 70
     1
  9
$DIMSOXD
 70
     0
  9
$DIMSAH
 70
     0
  9
$DIMBLK1
  1

  9
$DIMBLK2
  1

  9
$DIMSTYLE
  2
ST20-10（詳細）
  9
$DIMCLRD
 70
   256
  9
$DIMCLRE
 70
   256
  9
$DIMCLRT
 70
     7
  9
$DIMTFAC
 40
0.3333333333333333
  9
$DIMGAP
 40
1.0
  9
$DIMJUST
 70
     0
  9
$DIMSD1
 70
     0
  9
$DIMSD2
 70
     0
  9
$DIMTOLJ
 70
     1
  9
$DIMTZIN
 70
     1
  9
$DIMALTZ
 70
     1
  9
$DIMALTTZ
 70
     1
  9
$DIMUPT
 70
     0
  9
$DIMDEC
 70
     1
  9
$DIMTDEC
 70
     1
  9
$DIMALTU
 70
     2
  9
$DIMALTTD
 70
     2
  9
$DIMTXSTY
  7
JF3
  9
$DIMAUNIT
 70
     1
  9
$DIMADEC
 70
     3
  9
$DIMALTRND
 40
0.0
  9
$DIMAZIN
 70
     0
  9
$DIMDSEP
 70
    46
  9
$DIMATFIT
 70
     3
  9
$DIMFRAC
 70
     0
  9
$DIMLDRBLK
  1

  9
$DIMLUNIT
 70
     2
  9
$DIMLWD
 70
    -2
  9
$DIMLWE
 70
    -2
  9
$DIMTMOVE
 70
     2
  9
$DIMFXL
 40
1.0
  9
$DIMFXLON
 70
     0
  9
$DIMJOGANG
 40
0.7853981633974483
  9
$DIMTFILL
 70
     0
  9
$DIMTFILLCLR
 70
     0
  9
$DIMARCSYM
 70
     0
  9
$DIMLTYPE
  6

  9
$DIMLTEX1
  6

  9
$DIMLTEX2
  6

  9
$DIMTXTDIRECTION
 70
     0
  9
$LUNITS
 70
     2
  9
$LUPREC
 70
     4
  9
$SKETCHINC
 40
0.1
  9
$FILLETRAD
 40
0.0
  9
$AUNITS
 70
     0
  9
$AUPREC
 70
     0
  9
$MENU
  1
acad
  9
$ELEVATION
 40
0.0
  9
$PELEVATION
 40
0.0
  9
$THICKNESS
 40
0.0
  9
$LIMCHECK
 70
     0
  9
$CHAMFERA
 40
0.0
  9
$CHAMFERB
 40
0.0
  9
$CHAMFERC
 40
0.0
  9
$CHAMFERD
 40
0.0
  9
$SKPOLY
 70
     0
  9
$TDCREATE
 40
2451227.813129282
  9
$TDUCREATE
 40
2451227.438129283
  9
$TDUPDATE
 40
2456709.698118461
  9
$TDUUPDATE
 40
2456709.323118461
  9
$TDINDWG
 40
0.7725927315
  9
$TDUSRTIMER
 40
0.7725927315
  9
$USRTIMER
 70
     1
  9
$ANGBASE
 50
0.0
  9
$ANGDIR
 70
     0
  9
$PDMODE
 70
     0
  9
$PDSIZE
 40
0.0
  9
$PLINEWID
 40
0.0
  9
$SPLFRAME
 70
     0
  9
$SPLINETYPE
 70
     6
  9
$SPLINESEGS
 70
     8
  9
$HANDSEED
  5
AF60
  9
$SURFTAB1
 70
     6
  9
$SURFTAB2
 70
     6
  9
$SURFTYPE
 70
     6
  9
$SURFU
 70
     6
  9
$SURFV
 70
     6
  9
$UCSBASE
  2

  9
$UCSNAME
  2

  9
$UCSORG
 10
7441.502354646868
 20
2158.167244848408
 30
0.0
  9
$UCSXDIR
 10
1.0
 20
0.0000000000000011
 30
0.0
  9
$UCSYDIR
 10
-0.0000000000000011
 20
1.0
 30
0.0
  9
$UCSORTHOREF
  2

  9
$UCSORTHOVIEW
 70
     0
  9
$UCSORGTOP
 10
0.0
 20
0.0
 30
0.0
  9
$UCSORGBOTTOM
 10
0.0
 20
0.0
 30
0.0
  9
$UCSORGLEFT
 10
0.0
 20
0.0
 30
0.0
  9
$UCSORGRIGHT
 10
0.0
 20
0.0
 30
0.0
  9
$UCSORGFRONT
 10
0.0
 20
0.0
 30
0.0
  9
$UCSORGBACK
 10
0.0
 20
0.0
 30
0.0
  9
$PUCSBASE
  2

  9
$PUCSNAME
  2

  9
$PUCSORG
 10
0.0
 20
0.0
 30
0.0
  9
$PUCSXDIR
 10
1.0
 20
0.0
 30
0.0
  9
$PUCSYDIR
 10
0.0
 20
1.0
 30
0.0
  9
$PUCSORTHOREF
  2

  9
$PUCSORTHOVIEW
 70
     0
  9
$PUCSORGTOP
 10
0.0
 20
0.0
 30
0.0
  9
$PUCSORGBOTTOM
 10
0.0
 20
0.0
 30
0.0
  9
$PUCSORGLEFT
 10
0.0
 20
0.0
 30
0.0
  9
$PUCSORGRIGHT
 10
0.0
 20
0.0
 30
0.0
  9
$PUCSORGFRONT
 10
0.0
 20
0.0
 30
0.0
  9
$PUCSORGBACK
 10
0.0
 20
0.0
 30
0.0
  9
$USERI1
 70
     0
  9
$USERI2
 70
     0
  9
$USERI3
 70
     0
  9
$USERI4
 70
     0
  9
$USERI5
 70
     0
  9
$USERR1
 40
0.0
  9
$USERR2
 40
0.0
  9
$USERR3
 40
0.0
  9
$USERR4
 40
0.0
  9
$USERR5
 40
0.0
  9
$WORLDVIEW
 70
     1
  9
$SHADEDGE
 70
     3
  9
$SHADEDIF
 70
    70
  9
$TILEMODE
 70
     1
  9
$MAXACTVP
 70
    48
  9
$PINSBASE
 10
0.0
 20
0.0
 30
0.0
  9
$PLIMCHECK
 70
     0
  9
$PEXTMIN
 10
1.000000000000000E+20
 20
1.000000000000000E+20
 30
1.000000000000000E+20
  9
$PEXTMAX
 10
-1.000000000000000E+20
 20
-1.000000000000000E+20
 30
-1.000000000000000E+20
  9
$PLIMMIN
 10
0.0
 20
0.0
  9
$PLIMMAX
 10
12.0
 20
9.0
  9
$UNITMODE
 70
     0
  9
$VISRETAIN
 70
     1
  9
$PLINEGEN
 70
     0
  9
$PSLTSCALE
 70
     1
  9
$TREEDEPTH
 70
  3020
  9
$CMLSTYLE
  2
STANDARD
  9
$CMLJUST
 70
     0
  9
$CMLSCALE
 40
1.0
  9
$PROXYGRAPHICS
 70
     1
  9
$MEASUREMENT
 70
     0
  9
$CELWEIGHT
370
    -1
  9
$ENDCAPS
280
     0
  9
$JOINSTYLE
280
     0
  9
$LWDISPLAY
290
     0
  9
$INSUNITS
 70
     0
  9
$HYPERLINKBASE
  1

  9
$STYLESHEET
  1
描画.ctb
  9
$XEDIT
290
     1
  9
$CEPSNTYPE
380
     0
  9
$PSTYLEMODE
290
     1
  9
$FINGERPRINTGUID
  2
{6E4CAC3F-ECF9-4DEC-9439-EF8945963850}
  9
$VERSIONGUID
  2
{6824DF83-13E2-49E5-B5B9-F9DAA37EBA5E}
  9
$EXTNAMES
290
     1
  9
$PSVPSCALE
 40
0.0
  9
$OLESTARTUP
290
     0
  9
$SORTENTS
280
   127
  9
$INDEXCTL
280
     0
  9
$HIDETEXT
280
     0
  9
$XCLIPFRAME
280
     2
  9
$HALOGAP
280
     0
  9
$OBSCOLOR
 70
   257
  9
$OBSLTYPE
280
     0
  9
$INTERSECTIONDISPLAY
280
     0
  9
$INTERSECTIONCOLOR
 70
   257
  9
$DIMASSOC
280
     1
  9
$PROJECTNAME
  1

  9
$CAMERADISPLAY
290
     0
  9
$LENSLENGTH
 40
50.0
  9
$CAMERAHEIGHT
 40
0.0
  9
$STEPSPERSEC
 40
2.0
  9
$STEPSIZE
 40
6.0
  9
$3DDWFPREC
 40
2.0
  9
$PSOLWIDTH
 40
0.25
  9
$PSOLHEIGHT
 40
4.0
  9
$LOFTANG1
 40
1.570796326794896
  9
$LOFTANG2
 40
1.570796326794896
  9
$LOFTMAG1
 40
0.0
  9
$LOFTMAG2
 40
0.0
  9
$LOFTPARAM
 70
     7
  9
$LOFTNORMALS
280
     1
  9
$LATITUDE
 40
37.795
  9
$LONGITUDE
 40
-122.394
  9
$NORTHDIRECTION
 40
0.0
  9
$TIMEZONE
 70
 -8000
  9
$LIGHTGLYPHDISPLAY
280
     1
  9
$TILEMODELIGHTSYNCH
280
     1
  9
$CMATERIAL
347
8B2C
  9
$SOLIDHIST
280
     0
  9
$SHOWHIST
280
     1
  9
$DWFFRAME
280
     2
  9
$DGNFRAME
280
     0
  9
$REALWORLDSCALE
290
     1
  9
$INTERFERECOLOR
 62
     1
  9
$INTERFEREOBJVS
345
8B4E
  9
$INTERFEREVPVS
346
8B4B
  9
$CSHADOW
280
     0
  9
$SHADOWPLANELOCATION
 40
0.0
  0
ENDSEC
  0
SECTION
  2
CLASSES
  0
CLASS
  1
ACDBDICTIONARYWDFLT
  2
AcDbDictionaryWithDefault
  3
ObjectDBX Classes
 90
        0
 91
        1
280
     0
281
     0
  0
CLASS
  1
PLOTSETTINGS
  2
AcDbPlotSettings
  3
ObjectDBX Classes
 90
        0
 91
        2
280
     0
281
     0
  0
CLASS
  1
DICTIONARYVAR
  2
AcDbDictionaryVar
  3
ObjectDBX Classes
 90
        0
 91
       11
280
     0
281
     0
  0
CLASS
  1
MATERIAL
  2
AcDbMaterial
  3
ObjectDBX Classes
 90
     1153
 91
        3
280
     0
281
     0
  0
CLASS
  1
VISUALSTYLE
  2
AcDbVisualStyle
  3
ObjectDBX Classes
 90
     4095
 91
       24
280
     0
281
     0
  0
CLASS
  1
TABLESTYLE
  2
AcDbTableStyle
  3
ObjectDBX Classes
 90
     4095
 91
        1
280
     0
281
     0
  0
CLASS
  1
SCALE
  2
AcDbScale
  3
ObjectDBX Classes
 90
     1153
 91
       17
280
     0
281
     0
  0
CLASS
  1
MLEADERSTYLE
  2
AcDbMLeaderStyle
  3
ACDB_MLEADERSTYLE_CLASS
 90
     4095
 91
        1
280
     0
281
     0
  0
CLASS
  1
SORTENTSTABLE
  2
AcDbSortentsTable
  3
ObjectDBX Classes
 90
        0
 91
        1
280
     0
281
     0
  0
CLASS
  1
CELLSTYLEMAP
  2
AcDbCellStyleMap
  3
ObjectDBX Classes
 90
     1152
 91
        2
280
     0
281
     0
  0
ENDSEC
  0
SECTION
  2
TABLES
  0
TABLE
  2
VPORT
  5
8
102
{ACAD_XDICTIONARY
360
AF0D
102
}
330
0
100
AcDbSymbolTable
 70
     1
  0
VPORT
  5
8B29
330
8
100
AcDbSymbolTableRecord
100
AcDbViewportTableRecord
  2
*Active
 70
     0
 10
0.0
 20
0.0
 11
1.0
 21
1.0
 12
27112.53171962275
 22
5965.526747829049
 13
0.0
 23
0.0
 14
1.0
 24
1.0
 15
0.0
 25
0.0
 16
0.0
 26
0.0
 36
1.0
 17
0.0
 27
0.0
 37
0.0
 40
11437.43723240489
 41
1.684426229508196
 42
50.0
 43
0.0
 44
0.0
 50
0.0
 51
0.0
 71
     0
 72
   100
 73
     1
 74
     1
 75
     0
 76
     0
 77
     0
 78
     0
281
     0
 65
     1
110
7441.502354646868
120
2158.167244848408
130
0.0
111
1.0
121
0.0000000000000011
131
0.0
112
-0.0000000000000011
122
1.0
132
0.0
 79
     0
146
0.0
348
8B4A
 60
     3
 61
     5
292
     1
282
     1
141
0.0
142
0.0
 63
   250
421
  3355443
1001
ACAD_NAV_VCDISPLAY
1070
     3
  0
ENDTAB
  0
TABLE
  2
LTYPE
  5
5
330
0
100
AcDbSymbolTable
 70
     3
  0
LTYPE
  5
12
330
5
100
AcDbSymbolTableRecord
100
AcDbLinetypeTableRecord
  2
BYBLOCK
 70
     0
  3

 72
    65
 73
     0
 40
0.0
  0
LTYPE
  5
13
330
5
100
AcDbSymbolTableRecord
100
AcDbLinetypeTableRecord
  2
BYLAYER
 70
     0
  3

 72
    65
 73
     0
 40
0.0
  0
LTYPE
  5
14
330
5
100
AcDbSymbolTableRecord
100
AcDbLinetypeTableRecord
  2
CONTINUOUS
 70
     0
  3
実線
 72
    65
 73
     0
 40
0.0
  0
LTYPE
  5
1F
330
5
100
AcDbSymbolTableRecord
100
AcDbLinetypeTableRecord
  2
HIDDEN
 70
     0
  3
_ _ _ _ _ _ _ _ _ _ _ _ _ _ _ _ _ _ _ _ _ _ _
 72
    65
 73
     2
 40
0.375
 49
0.25
 74
     0
 49
-0.125
 74
     0
  0
LTYPE
  5
20
330
5
100
AcDbSymbolTableRecord
100
AcDbLinetypeTableRecord
  2
CENTER
 70
     0
  3
____ _ ____ _ ____ _ ____ _ ____ _ ____ _ ____
 72
    65
 73
     4
 40
2.0
 49
1.25
 74
     0
 49
-0.25
 74
     0
 49
0.25
 74
     0
 49
-0.25
 74
     0
  0
ENDTAB
  0
TABLE
  2
LAYER
  5
2
102
{ACAD_XDICTIONARY
360
39AC
102
}
330
0
100
AcDbSymbolTable
 70
     5
  0
LAYER
  5
E
102
{ACAD_XDICTIONARY
360
8D30
102
}
330
2
100
AcDbSymbolTableRecord
100
AcDbLayerTableRecord
  2
0
 70
     0
 62
     7
  6
CONTINUOUS
370
    -3
390
7C9
347
8B3C
  0
LAYER
  5
82E
330
2
100
AcDbSymbolTableRecord
100
AcDbLayerTableRecord
  2
DEFPOINTS
 70
     0
 62
     7
  6
CONTINUOUS
290
     0
370
    -3
390
7C9
347
8B3C
  0
LAYER
  5
57B5
102
{ACAD_XDICTIONARY
360
8D32
102
}
330
2
100
AcDbSymbolTableRecord
100
AcDbLayerTableRecord
  2
1
 70
     0
 62
     3
  6
CONTINUOUS
370
    -3
390
7C9
347
8B3C
  0
LAYER
  5
57B6
102
{ACAD_XDICTIONARY
360
8D34
102
}
330
2
100
AcDbSymbolTableRecord
100
AcDbLayerTableRecord
  2
2
 70
     0
 62
     4
  6
CONTINUOUS
370
    -3
390
7C9
347
8B3C
  0
LAYER
  5
57B7
102
{ACAD_XDICTIONARY
360
8D36
102
}
330
2
100
AcDbSymbolTableRecord
100
AcDbLayerTableRecord
  2
3
 70
     0
 62
     7
  6
CONTINUOUS
370
    -3
390
7C9
347
8B3C
  0
ENDTAB
  0
TABLE
  2
STYLE
  5
3
330
0
100
AcDbSymbolTable
 70
     4
  0
STYLE
  5
F
330
3
100
AcDbSymbolTableRecord
100
AcDbTextStyleTableRecord
  2
STANDARD
 70
     0
 40
0.0
 41
1.0
 50
0.0
 71
     0
 42
220.0
  3
TXT
  4

  0
STYLE
  5
82F
330
3
100
AcDbSymbolTableRecord
100
AcDbTextStyleTableRecord
  2
JF
 70
     0
 40
0.0
 41
0.8
 50
0.0
 71
     0
 42
3.5
  3
romanc
  4
bigfont
  0
STYLE
  5
830
330
3
100
AcDbSymbolTableRecord
100
AcDbTextStyleTableRecord
  2
JF2
 70
     4
 40
0.0
 41
1.0
 50
0.0
 71
     0
 42
3.5
  3
romans
  4
bigfont
  0
STYLE
  5
831
330
3
100
AcDbSymbolTableRecord
100
AcDbTextStyleTableRecord
  2
JF3
 70
     0
 40
0.0
 41
0.8
 50
0.0
 71
     0
 42
200.0
  3
ROMANS.SHX
  4
bigfont
  0
ENDTAB
  0
TABLE
  2
VIEW
  5
6
330
0
100
AcDbSymbolTable
 70
     0
  0
ENDTAB
  0
TABLE
  2
UCS
  5
7
330
0
100
AcDbSymbolTable
 70
     0
  0
ENDTAB
  0
TABLE
  2
APPID
  5
9
330
0
100
AcDbSymbolTable
 70
     8
  0
APPID
  5
10
330
9
100
AcDbSymbolTableRecord
100
AcDbRegAppTableRecord
  2
ACAD
 70
     0
  0
APPID
  5
8B81
330
9
100
AcDbSymbolTableRecord
100
AcDbRegAppTableRecord
  2
ACAD_NAV_VCDISPLAY
 70
     0
  0
APPID
  5
8B82
330
9
100
AcDbSymbolTableRecord
100
AcDbRegAppTableRecord
  2
ACAD_PSEXT
 70
     0
  0
APPID
  5
8BAB
330
9
100
AcDbSymbolTableRecord
100
AcDbRegAppTableRecord
  2
ACAD_EXEMPT_FROM_CAD_STANDARDS
 70
     0
  0
APPID
  5
8BAD
330
9
100
AcDbSymbolTableRecord
100
AcDbRegAppTableRecord
  2
ACAD_DSTYLE_DIMJAG
 70
     0
  0
APPID
  5
8BAE
330
9
100
AcDbSymbolTableRecord
100
AcDbRegAppTableRecord
  2
ACAD_DSTYLE_DIMTALN
 70
     0
  0
APPID
  5
8C49
330
9
100
AcDbSymbolTableRecord
100
AcDbRegAppTableRecord
  2
ACAD_DSTYLE_DIMBREAK
 70
     0
  0
APPID
  5
AF4B
330
9
100
AcDbSymbolTableRecord
100
AcDbRegAppTableRecord
  2
ACAD_MLEADERVER
 70
     0
  0
ENDTAB
  0
TABLE
  2
DIMSTYLE
  5
A
330
0
100
AcDbSymbolTable
 70
     8
100
AcDbDimStyleTable
 71
     6
340
995D
340
52C
340
57BA
340
171B
340
1E4A
340
9C4
  0
DIMSTYLE
105
52C
330
A
100
AcDbSymbolTableRecord
100
AcDbDimStyleTableRecord
  2
STANDARD
 70
     0
178
     7
340
F
1001
ACAD_DSTYLE_DIMJAG
1070
   388
1040
1.5
1001
ACAD_DSTYLE_DIMTALN
1070
   392
1070
     0
  0
DIMSTYLE
105
832
330
A
100
AcDbSymbolTableRecord
100
AcDbDimStyleTableRecord
  2
ST20
 70
     0
 40
20.0
 41
2.0
 42
2.0
 43
0.0
 44
2.0
 73
     0
 74
     0
 77
     1
 78
     9
140
3.0
141
0.0
146
0.3333333333333333
147
1.0
172
     1
174
     1
176
   256
177
   256
178
     7
179
     3
271
     0
272
     0
275
     1
279
     2
284
     1
285
     1
286
     1
340
831
1001
ACAD_DSTYLE_DIMJAG
1070
   388
1040
1.5
1001
ACAD_DSTYLE_DIMTALN
1070
   392
1070
     0
  0
DIMSTYLE
105
836
102
{ACAD_REACTORS
330
8BA0
102
}
330
A
100
AcDbSymbolTableRecord
100
AcDbDimStyleTableRecord
  2
ST20$7
 70
     0
 40
20.0
 41
2.0
 42
2.0
 43
0.0
 44
2.0
 73
     0
 74
     0
 77
     1
 78
     1
140
3.0
141
0.0
146
0.3333333333333333
147
1.0
172
     1
174
     1
178
     7
179
     3
271
     0
272
     0
275
     1
279
     2
284
     1
285
     1
286
     1
340
831
1001
ACAD_DSTYLE_DIMBREAK
1070
   391
1040
0.125
1001
ACAD_DSTYLE_DIMJAG
1070
   388
1040
1.5
1001
ACAD_DSTYLE_DIMTALN
1070
   392
1070
     0
  0
DIMSTYLE
105
9C4
102
{ACAD_REACTORS
330
5ACE
330
5AD1
330
5ADC
330
5ADD
330
5AE2
330
5B27
330
5B28
330
5B29
330
5B2D
330
5B2E
330
5B2F
330
5B32
330
5B3D
330
5B3E
330
5B3F
330
5B58
330
9BB1
330
9BB3
330
9BC3
330
9BC4
330
9BD2
330
9BD3
330
9BD4
330
9BD5
330
9BD9
330
A704
330
A706
330
A708
330
A709
330
A70C
330
A70D
330
A70E
330
A70F
330
A713
102
}
330
A
100
AcDbSymbolTableRecord
100
AcDbDimStyleTableRecord
  2
ST20（詳細）
 70
     0
 40
20.0
 41
3.0
 42
3.0
 43
0.0
 44
2.0
 73
     0
 74
     0
 77
     1
 78
     9
140
3.0
141
0.0
146
0.3333333333333333
147
1.0
172
     1
174
     1
176
   256
177
   256
178
     7
179
     3
271
     0
272
     0
275
     1
279
     2
284
     1
285
     1
286
     1
340
831
1001
ACAD_DSTYLE_DIMJAG
1070
   388
1040
1.5
1001
ACAD_DSTYLE_DIMTALN
1070
   392
1070
     0
  0
DIMSTYLE
105
171B
102
{ACAD_REACTORS
330
5BEC
330
91E9
330
91F2
330
91F3
330
9208
330
920D
330
920F
330
9210
330
9214
330
9222
330
A7EC
102
}
330
A
100
AcDbSymbolTableRecord
100
AcDbDimStyleTableRecord
  2
ST20-5
 70
     0
 40
20.0
 41
3.0
 42
3.0
 43
0.0
 44
2.0
 73
     0
 74
     0
 77
     1
 78
     9
140
3.0
141
0.0
144
0.25
146
0.3333333333333333
147
1.0
172
     1
174
     1
176
   256
177
   256
178
     7
179
     3
271
     0
272
     0
275
     1
279
     2
284
     1
285
     1
286
     1
340
831
1001
ACAD_DSTYLE_DIMJAG
1070
   388
1040
1.5
1001
ACAD_DSTYLE_DIMTALN
1070
   392
1070
     0
  0
DIMSTYLE
105
1E4A
102
{ACAD_REACTORS
330
5BED
330
5BEE
102
}
330
A
100
AcDbSymbolTableRecord
100
AcDbDimStyleTableRecord
  2
ST20-10
 70
     0
 40
20.0
 41
3.0
 42
3.0
 43
0.0
 44
2.0
 73
     0
 74
     0
 77
     1
 78
     9
140
3.0
141
0.0
144
0.5
146
0.3333333333333333
147
1.0
172
     1
174
     1
176
   256
177
   256
178
     7
179
     3
271
     0
272
     0
275
     1
279
     2
284
     1
285
     1
286
     1
340
831
1001
ACAD_DSTYLE_DIMJAG
1070
   388
1040
1.5
1001
ACAD_DSTYLE_DIMTALN
1070
   392
1070
     0
  0
DIMSTYLE
105
57BA
102
{ACAD_REACTORS
330
9207
330
9209
330
9218
330
9219
330
921A
330
921B
330
921C
330
921D
330
91FD
330
921E
330
9220
102
}
330
A
100
AcDbSymbolTableRecord
100
AcDbDimStyleTableRecord
  2
ST20-5（詳細）
 70
     0
 40
20.0
 41
2.0
 42
3.0
 43
0.0
 44
1.5
 73
     0
 74
     0
 77
     1
 78
     9
140
3.0
141
0.0
144
0.25
146
0.3333333333333333
147
1.0
172
     1
174
     1
176
   256
177
   256
178
     7
271
     1
272
     1
279
     2
284
     1
285
     1
286
     1
340
831
1001
ACAD_DSTYLE_DIMJAG
1070
   388
1040
1.5
1001
ACAD_DSTYLE_DIMTALN
1070
   392
1070
     0
  0
DIMSTYLE
105
995D
102
{ACAD_REACTORS
330
A804
330
ADE0
330
ADED
102
}
330
A
100
AcDbSymbolTableRecord
100
AcDbDimStyleTableRecord
  2
ST20-10（詳細）
 70
     0
 40
20.0
 41
2.0
 42
3.0
 43
0.0
 44
1.5
 73
     0
 74
     0
 77
     1
 78
     9
140
3.0
141
0.0
144
0.5
146
0.3333333333333333
147
1.0
172
     1
174
     1
176
   256
177
   256
178
     7
179
     3
271
     1
272
     1
275
     1
279
     2
284
     1
285
     1
286
     1
340
831
1001
ACAD_DSTYLE_DIMJAG
1070
   388
1040
1.5
1001
ACAD_DSTYLE_DIMTALN
1070
   392
1070
     0
  0
ENDTAB
  0
TABLE
  2
BLOCK_RECORD
  5
1
330
0
100
AcDbSymbolTable
 70
    58
  0
BLOCK_RECORD
  5
18
102
{ACAD_XDICTIONARY
360
7F6
102
}
330
1
100
AcDbSymbolTableRecord
100
AcDbBlockTableRecord
  2
*MODEL_SPACE
340
7CC
 70
     0
280
     1
281
     0
  0
BLOCK_RECORD
  5
15
102
{ACAD_XDICTIONARY
360
7F4
102
}
330
1
100
AcDbSymbolTableRecord
100
AcDbBlockTableRecord
  2
*PAPER_SPACE
340
7CD
 70
     0
280
     1
281
     0
  0
BLOCK_RECORD
  5
5D21
330
1
100
AcDbSymbolTableRecord
100
AcDbBlockTableRecord
  2
*D0
340
0
 70
     0
280
     1
281
     0
  0
BLOCK_RECORD
  5
5D2D
330
1
100
AcDbSymbolTableRecord
100
AcDbBlockTableRecord
  2
*D1
340
0
 70
     0
280
     1
281
     0
  0
BLOCK_RECORD
  5
5D39
330
1
100
AcDbSymbolTableRecord
100
AcDbBlockTableRecord
  2
*D2
340
0
 70
     0
280
     1
281
     0
  0
BLOCK_RECORD
  5
5D45
330
1
100
AcDbSymbolTableRecord
100
AcDbBlockTableRecord
  2
*D3
340
0
 70
     0
280
     1
281
     0
  0
BLOCK_RECORD
  5
5D51
330
1
100
AcDbSymbolTableRecord
100
AcDbBlockTableRecord
  2
*D4
340
0
 70
     0
280
     1
281
     0
  0
BLOCK_RECORD
  5
5D5F
330
1
100
AcDbSymbolTableRecord
100
AcDbBlockTableRecord
  2
*D5
340
0
 70
     0
280
     1
281
     0
  0
BLOCK_RECORD
  5
5D6B
330
1
100
AcDbSymbolTableRecord
100
AcDbBlockTableRecord
  2
*D6
340
0
 70
     0
280
     1
281
     0
  0
BLOCK_RECORD
  5
5D77
330
1
100
AcDbSymbolTableRecord
100
AcDbBlockTableRecord
  2
*D7
340
0
 70
     0
280
     1
281
     0
  0
BLOCK_RECORD
  5
5D83
330
1
100
AcDbSymbolTableRecord
100
AcDbBlockTableRecord
  2
*D8
340
0
 70
     0
280
     1
281
     0
  0
BLOCK_RECORD
  5
5D8F
330
1
100
AcDbSymbolTableRecord
100
AcDbBlockTableRecord
  2
*D9
340
0
 70
     0
280
     1
281
     0
  0
BLOCK_RECORD
  5
5D9B
330
1
100
AcDbSymbolTableRecord
100
AcDbBlockTableRecord
  2
*D10
340
0
 70
     0
280
     1
281
     0
  0
BLOCK_RECORD
  5
5DA7
330
1
100
AcDbSymbolTableRecord
100
AcDbBlockTableRecord
  2
*D11
340
0
 70
     0
280
     1
281
     0
  0
BLOCK_RECORD
  5
5DB5
330
1
100
AcDbSymbolTableRecord
100
AcDbBlockTableRecord
  2
*D12
340
0
 70
     0
280
     1
281
     0
  0
BLOCK_RECORD
  5
5DC1
330
1
100
AcDbSymbolTableRecord
100
AcDbBlockTableRecord
  2
*D13
340
0
 70
     0
280
     1
281
     0
  0
BLOCK_RECORD
  5
5DCF
330
1
100
AcDbSymbolTableRecord
100
AcDbBlockTableRecord
  2
*D14
340
0
 70
     0
280
     1
281
     0
  0
BLOCK_RECORD
  5
5DE5
330
1
100
AcDbSymbolTableRecord
100
AcDbBlockTableRecord
  2
*D15
340
0
 70
     0
280
     1
281
     0
  0
BLOCK_RECORD
  5
5F03
330
1
100
AcDbSymbolTableRecord
100
AcDbBlockTableRecord
  2
*D16
340
0
 70
     0
280
     1
281
     0
  0
BLOCK_RECORD
  5
5F0F
330
1
100
AcDbSymbolTableRecord
100
AcDbBlockTableRecord
  2
*D17
340
0
 70
     0
280
     1
281
     0
  0
BLOCK_RECORD
  5
5F1B
330
1
100
AcDbSymbolTableRecord
100
AcDbBlockTableRecord
  2
*D18
340
0
 70
     0
280
     1
281
     0
  0
BLOCK_RECORD
  5
9223
330
1
100
AcDbSymbolTableRecord
100
AcDbBlockTableRecord
  2
*D19
340
0
 70
     0
280
     1
281
     0
  0
BLOCK_RECORD
  5
922F
330
1
100
AcDbSymbolTableRecord
100
AcDbBlockTableRecord
  2
*D20
340
0
 70
     0
280
     1
281
     0
  0
BLOCK_RECORD
  5
923B
330
1
100
AcDbSymbolTableRecord
100
AcDbBlockTableRecord
  2
*D21
340
0
 70
     0
280
     1
281
     0
  0
BLOCK_RECORD
  5
9247
330
1
100
AcDbSymbolTableRecord
100
AcDbBlockTableRecord
  2
*D22
340
0
 70
     0
280
     1
281
     0
  0
BLOCK_RECORD
  5
9255
330
1
100
AcDbSymbolTableRecord
100
AcDbBlockTableRecord
  2
*D23
340
0
 70
     0
280
     1
281
     0
  0
BLOCK_RECORD
  5
9261
330
1
100
AcDbSymbolTableRecord
100
AcDbBlockTableRecord
  2
*D24
340
0
 70
     0
280
     1
281
     0
  0
BLOCK_RECORD
  5
926F
330
1
100
AcDbSymbolTableRecord
100
AcDbBlockTableRecord
  2
*D25
340
0
 70
     0
280
     1
281
     0
  0
BLOCK_RECORD
  5
927D
330
1
100
AcDbSymbolTableRecord
100
AcDbBlockTableRecord
  2
*D26
340
0
 70
     0
280
     1
281
     0
  0
BLOCK_RECORD
  5
928B
330
1
100
AcDbSymbolTableRecord
100
AcDbBlockTableRecord
  2
*D27
340
0
 70
     0
280
     1
281
     0
  0
BLOCK_RECORD
  5
9297
330
1
100
AcDbSymbolTableRecord
100
AcDbBlockTableRecord
  2
*D28
340
0
 70
     0
280
     1
281
     0
  0
BLOCK_RECORD
  5
92A5
330
1
100
AcDbSymbolTableRecord
100
AcDbBlockTableRecord
  2
*D29
340
0
 70
     0
280
     1
281
     0
  0
BLOCK_RECORD
  5
92B1
330
1
100
AcDbSymbolTableRecord
100
AcDbBlockTableRecord
  2
*D30
340
0
 70
     0
280
     1
281
     0
  0
BLOCK_RECORD
  5
92BD
330
1
100
AcDbSymbolTableRecord
100
AcDbBlockTableRecord
  2
*D31
340
0
 70
     0
280
     1
281
     0
  0
BLOCK_RECORD
  5
92C9
330
1
100
AcDbSymbolTableRecord
100
AcDbBlockTableRecord
  2
*D32
340
0
 70
     0
280
     1
281
     0
  0
BLOCK_RECORD
  5
92D7
330
1
100
AcDbSymbolTableRecord
100
AcDbBlockTableRecord
  2
*D33
340
0
 70
     0
280
     1
281
     0
  0
BLOCK_RECORD
  5
92E3
330
1
100
AcDbSymbolTableRecord
100
AcDbBlockTableRecord
  2
*D34
340
0
 70
     0
280
     1
281
     0
  0
BLOCK_RECORD
  5
92F1
330
1
100
AcDbSymbolTableRecord
100
AcDbBlockTableRecord
  2
*D35
340
0
 70
     0
280
     1
281
     0
  0
BLOCK_RECORD
  5
A183
330
1
100
AcDbSymbolTableRecord
100
AcDbBlockTableRecord
  2
*D36
340
0
 70
     0
280
     1
281
     0
  0
BLOCK_RECORD
  5
A18F
330
1
100
AcDbSymbolTableRecord
100
AcDbBlockTableRecord
  2
*D37
340
0
 70
     0
280
     1
281
     0
  0
BLOCK_RECORD
  5
A1B3
330
1
100
AcDbSymbolTableRecord
100
AcDbBlockTableRecord
  2
*D38
340
0
 70
     0
280
     1
281
     0
  0
BLOCK_RECORD
  5
A1BF
330
1
100
AcDbSymbolTableRecord
100
AcDbBlockTableRecord
  2
*D39
340
0
 70
     0
280
     1
281
     0
  0
BLOCK_RECORD
  5
A20F
330
1
100
AcDbSymbolTableRecord
100
AcDbBlockTableRecord
  2
*D40
340
0
 70
     0
280
     1
281
     0
  0
BLOCK_RECORD
  5
A21D
330
1
100
AcDbSymbolTableRecord
100
AcDbBlockTableRecord
  2
*D41
340
0
 70
     0
280
     1
281
     0
  0
BLOCK_RECORD
  5
A229
330
1
100
AcDbSymbolTableRecord
100
AcDbBlockTableRecord
  2
*D42
340
0
 70
     0
280
     1
281
     0
  0
BLOCK_RECORD
  5
A237
330
1
100
AcDbSymbolTableRecord
100
AcDbBlockTableRecord
  2
*D43
340
0
 70
     0
280
     1
281
     0
  0
BLOCK_RECORD
  5
A243
330
1
100
AcDbSymbolTableRecord
100
AcDbBlockTableRecord
  2
*D44
340
0
 70
     0
280
     1
281
     0
  0
BLOCK_RECORD
  5
A721
330
1
100
AcDbSymbolTableRecord
100
AcDbBlockTableRecord
  2
*D45
340
0
 70
     0
280
     1
281
     0
  0
BLOCK_RECORD
  5
A72D
330
1
100
AcDbSymbolTableRecord
100
AcDbBlockTableRecord
  2
*D46
340
0
 70
     0
280
     1
281
     0
  0
BLOCK_RECORD
  5
A739
330
1
100
AcDbSymbolTableRecord
100
AcDbBlockTableRecord
  2
*D47
340
0
 70
     0
280
     1
281
     0
  0
BLOCK_RECORD
  5
A745
330
1
100
AcDbSymbolTableRecord
100
AcDbBlockTableRecord
  2
*D48
340
0
 70
     0
280
     1
281
     0
  0
BLOCK_RECORD
  5
A753
330
1
100
AcDbSymbolTableRecord
100
AcDbBlockTableRecord
  2
*D49
340
0
 70
     0
280
     1
281
     0
  0
BLOCK_RECORD
  5
A761
330
1
100
AcDbSymbolTableRecord
100
AcDbBlockTableRecord
  2
*D50
340
0
 70
     0
280
     1
281
     0
  0
BLOCK_RECORD
  5
A76D
330
1
100
AcDbSymbolTableRecord
100
AcDbBlockTableRecord
  2
*D51
340
0
 70
     0
280
     1
281
     0
  0
BLOCK_RECORD
  5
A77B
330
1
100
AcDbSymbolTableRecord
100
AcDbBlockTableRecord
  2
*D52
340
0
 70
     0
280
     1
281
     0
  0
BLOCK_RECORD
  5
A787
330
1
100
AcDbSymbolTableRecord
100
AcDbBlockTableRecord
  2
*D53
340
0
 70
     0
280
     1
281
     0
  0
BLOCK_RECORD
  5
A7ED
330
1
100
AcDbSymbolTableRecord
100
AcDbBlockTableRecord
  2
*D54
340
0
 70
     0
280
     1
281
     0
  0
BLOCK_RECORD
  5
A805
330
1
100
AcDbSymbolTableRecord
100
AcDbBlockTableRecord
  2
*D55
340
0
 70
     0
280
     1
281
     0
  0
BLOCK_RECORD
  5
ADE1
330
1
100
AcDbSymbolTableRecord
100
AcDbBlockTableRecord
  2
*D56
340
0
 70
     0
280
     1
281
     0
  0
BLOCK_RECORD
  5
ADEE
330
1
100
AcDbSymbolTableRecord
100
AcDbBlockTableRecord
  2
*D57
340
0
 70
     0
280
     1
281
     0
  0
ENDTAB
  0
ENDSEC
  0
SECTION
  2
BLOCKS
  0
BLOCK
  5
19
330
18
100
AcDbEntity
  8
0
100
AcDbBlockBegin
  2
*MODEL_SPACE
 70
     0
 10
0.0
 20
0.0
 30
0.0
  3
*MODEL_SPACE
  1

  0
ENDBLK
  5
1A
330
18
100
AcDbEntity
  8
0
100
AcDbBlockEnd
  0
BLOCK
  5
16
330
15
100
AcDbEntity
 67
     1
  8
0
100
AcDbBlockBegin
  2
*PAPER_SPACE
 70
     0
 10
0.0
 20
0.0
 30
0.0
  3
*PAPER_SPACE
  1

  0
ENDBLK
  5
17
330
15
100
AcDbEntity
 67
     1
  8
0
100
AcDbBlockEnd
  0
BLOCK
  5
5D2B
330
5D21
100
AcDbEntity
  8
0
100
AcDbBlockBegin
  2
*D0
 70
     1
 10
0.0
 20
0.0
 30
0.0
  3
*D0
  1

  0
LINE
  5
A87D
330
5D21
100
AcDbEntity
  8
2
  6
Continuous
440
 16777216
370
    -2
100
AcDbLine
 10
22350.82216910916
 20
6932.903112538456
 30
0.0
 11
22350.82216910916
 21
6625.287844316957
 31
0.0
  0
LINE
  5
A87E
330
5D21
100
AcDbEntity
  8
2
  6
Continuous
440
 16777216
370
    -2
100
AcDbLine
 10
22000.82216910916
 20
6932.903112538454
 30
0.0
 11
22000.82216910916
 21
6625.287844316957
 31
0.0
  0
LINE
  5
A87F
330
5D21
100
AcDbEntity
  8
2
  6
Continuous
440
 16777216
370
    -2
100
AcDbLine
 10
22290.82216910916
 20
6665.287844316958
 30
0.0
 11
22060.82216910916
 21
6665.287844316958
 31
0.0
  0
SOLID
  5
A880
330
5D21
100
AcDbEntity
  8
2
  6
Continuous
440
 16777216
100
AcDbTrace
 10
22290.82216910916
 20
6675.287844316958
 30
0.0
 11
22290.82216910916
 21
6655.287844316958
 31
0.0
 12
22350.82216910916
 22
6665.287844316958
 32
0.0
 13
22350.82216910916
 23
6665.287844316958
 33
0.0
  0
SOLID
  5
A881
330
5D21
100
AcDbEntity
  8
2
  6
Continuous
440
 16777216
100
AcDbTrace
 10
22060.82216910916
 20
6675.287844316958
 30
0.0
 11
22060.82216910916
 21
6655.287844316958
 31
0.0
 12
22000.82216910916
 22
6665.287844316958
 32
0.0
 13
22000.82216910916
 23
6665.287844316958
 33
0.0
  0
MTEXT
  5
A882
330
5D21
100
AcDbEntity
  8
2
  6
Continuous
 62
     7
440
 16777216
100
AcDbMText
 10
22175.82216910916
 20
6715.287844316958
 30
0.0
 40
60.0
 41
0.0
 46
0.0
 71
     5
 72
     1
  1
\A1;350
  7
JF3
 73
     1
 44
1.0
  0
POINT
  5
A883
330
5D21
100
AcDbEntity
  8
DEFPOINTS
  6
Continuous
 62
     0
440
 16777216
100
AcDbPoint
 10
22350.82216910916
 20
6992.903112538455
 30
0.0
  0
POINT
  5
A884
330
5D21
100
AcDbEntity
  8
DEFPOINTS
  6
Continuous
 62
     0
440
 16777216
100
AcDbPoint
 10
22000.82216910916
 20
6992.903112538454
 30
0.0
  0
POINT
  5
A885
330
5D21
100
AcDbEntity
  8
DEFPOINTS
  6
Continuous
 62
     0
440
 16777216
100
AcDbPoint
 10
22000.82216910916
 20
6665.287844316958
 30
0.0
  0
ENDBLK
  5
5D2C
330
5D21
100
AcDbEntity
  8
0
100
AcDbBlockEnd
  0
BLOCK
  5
5D37
330
5D2D
100
AcDbEntity
  8
0
100
AcDbBlockBegin
  2
*D1
 70
     1
 10
0.0
 20
0.0
 30
0.0
  3
*D1
  1

  0
LINE
  5
A886
330
5D2D
100
AcDbEntity
  8
2
  6
Continuous
440
 16777216
370
    -2
100
AcDbLine
 10
23375.82216910917
 20
7957.903112538454
 30
0.0
 11
23375.82216910917
 21
6473.115277229682
 31
0.0
  0
LINE
  5
A887
330
5D2D
100
AcDbEntity
  8
2
  6
Continuous
440
 16777216
370
    -2
100
AcDbLine
 10
20975.82216910916
 20
7957.903112538457
 30
0.0
 11
20975.82216910916
 21
6473.115277229682
 31
0.0
  0
LINE
  5
A888
330
5D2D
100
AcDbEntity
  8
2
  6
Continuous
440
 16777216
370
    -2
100
AcDbLine
 10
23315.82216910917
 20
6513.115277229683
 30
0.0
 11
21035.82216910916
 21
6513.115277229683
 31
0.0
  0
SOLID
  5
A889
330
5D2D
100
AcDbEntity
  8
2
  6
Continuous
440
 16777216
100
AcDbTrace
 10
23315.82216910917
 20
6523.115277229682
 30
0.0
 11
23315.82216910917
 21
6503.115277229683
 31
0.0
 12
23375.82216910917
 22
6513.115277229683
 32
0.0
 13
23375.82216910917
 23
6513.115277229683
 33
0.0
  0
SOLID
  5
A88A
330
5D2D
100
AcDbEntity
  8
2
  6
Continuous
440
 16777216
100
AcDbTrace
 10
21035.82216910916
 20
6523.115277229682
 30
0.0
 11
21035.82216910916
 21
6503.115277229683
 31
0.0
 12
20975.82216910916
 22
6513.115277229683
 32
0.0
 13
20975.82216910916
 23
6513.115277229683
 33
0.0
  0
MTEXT
  5
A88B
330
5D2D
100
AcDbEntity
  8
2
  6
Continuous
 62
     7
440
 16777216
100
AcDbMText
 10
22175.82216910916
 20
6563.115277229683
 30
0.0
 40
60.0
 41
0.0
 46
0.0
 71
     5
 72
     1
  1
\A1;2400
  7
JF3
 73
     1
 44
1.0
  0
POINT
  5
A88C
330
5D2D
100
AcDbEntity
  8
DEFPOINTS
  6
Continuous
 62
     0
440
 16777216
100
AcDbPoint
 10
23375.82216910917
 20
8017.903112538453
 30
0.0
  0
POINT
  5
A88D
330
5D2D
100
AcDbEntity
  8
DEFPOINTS
  6
Continuous
 62
     0
440
 16777216
100
AcDbPoint
 10
20975.82216910916
 20
8017.903112538457
 30
0.0
  0
POINT
  5
A88E
330
5D2D
100
AcDbEntity
  8
DEFPOINTS
  6
Continuous
 62
     0
440
 16777216
100
AcDbPoint
 10
20975.82216910916
 20
6513.115277229683
 30
0.0
  0
ENDBLK
  5
5D38
330
5D2D
100
AcDbEntity
  8
0
100
AcDbBlockEnd
  0
BLOCK
  5
5D43
330
5D39
100
AcDbEntity
  8
0
100
AcDbBlockBegin
  2
*D2
 70
     1
 10
0.0
 20
0.0
 30
0.0
  3
*D2
  1

  0
LINE
  5
A88F
330
5D39
100
AcDbEntity
  8
2
  6
Continuous
440
 16777216
370
    -2
100
AcDbLine
 10
21875.82216910916
 20
7667.047811469984
 30
0.0
 11
21875.82216910916
 21
6625.287844316959
 31
0.0
  0
LINE
  5
A890
330
5D39
100
AcDbEntity
  8
2
  6
Continuous
440
 16777216
370
    -2
100
AcDbLine
 10
21005.82216910916
 20
7957.903112538457
 30
0.0
 11
21005.82216910916
 21
6625.287844316959
 31
0.0
  0
LINE
  5
A891
330
5D39
100
AcDbEntity
  8
2
  6
Continuous
440
 16777216
370
    -2
100
AcDbLine
 10
21815.82216910916
 20
6665.28784431696
 30
0.0
 11
21065.82216910916
 21
6665.28784431696
 31
0.0
  0
SOLID
  5
A892
330
5D39
100
AcDbEntity
  8
2
  6
Continuous
440
 16777216
100
AcDbTrace
 10
21815.82216910916
 20
6675.287844316959
 30
0.0
 11
21815.82216910916
 21
6655.287844316958
 31
0.0
 12
21875.82216910916
 22
6665.28784431696
 32
0.0
 13
21875.82216910916
 23
6665.28784431696
 33
0.0
  0
SOLID
  5
A893
330
5D39
100
AcDbEntity
  8
2
  6
Continuous
440
 16777216
100
AcDbTrace
 10
21065.82216910916
 20
6675.287844316959
 30
0.0
 11
21065.82216910916
 21
6655.287844316958
 31
0.0
 12
21005.82216910916
 22
6665.28784431696
 32
0.0
 13
21005.82216910916
 23
6665.28784431696
 33
0.0
  0
MTEXT
  5
A894
330
5D39
100
AcDbEntity
  8
2
  6
Continuous
 62
     7
440
 16777216
100
AcDbMText
 10
21440.82216910916
 20
6715.28784431696
 30
0.0
 40
60.0
 41
0.0
 46
0.0
 71
     5
 72
     1
  1
\A1;870
  7
JF3
 73
     1
 44
1.0
  0
POINT
  5
A895
330
5D39
100
AcDbEntity
  8
DEFPOINTS
  6
Continuous
 62
     0
440
 16777216
100
AcDbPoint
 10
21875.82216910916
 20
7727.047811469984
 30
0.0
  0
POINT
  5
A896
330
5D39
100
AcDbEntity
  8
DEFPOINTS
  6
Continuous
 62
     0
440
 16777216
100
AcDbPoint
 10
21005.82216910916
 20
8017.903112538457
 30
0.0
  0
POINT
  5
A897
330
5D39
100
AcDbEntity
  8
DEFPOINTS
  6
Continuous
 62
     0
440
 16777216
100
AcDbPoint
 10
21005.82216910916
 20
6665.28784431696
 30
0.0
  0
ENDBLK
  5
5D44
330
5D39
100
AcDbEntity
  8
0
100
AcDbBlockEnd
  0
BLOCK
  5
5D4F
330
5D45
100
AcDbEntity
  8
0
100
AcDbBlockBegin
  2
*D3
 70
     1
 10
0.0
 20
0.0
 30
0.0
  3
*D3
  1

  0
LINE
  5
A898
330
5D45
100
AcDbEntity
  8
2
  6
Continuous
440
 16777216
370
    -2
100
AcDbLine
 10
21005.82216910916
 20
7957.903112538457
 30
0.0
 11
21005.82216910916
 21
6625.287844316959
 31
0.0
  0
LINE
  5
A899
330
5D45
100
AcDbEntity
  8
2
  6
Continuous
440
 16777216
370
    -2
100
AcDbLine
 10
20975.82216910916
 20
7957.903112538457
 30
0.0
 11
20975.82216910916
 21
6625.287844316959
 31
0.0
  0
LINE
  5
A89A
330
5D45
100
AcDbEntity
  8
2
  6
Continuous
440
 16777216
370
    -2
100
AcDbLine
 10
21065.82216910916
 20
6665.28784431696
 30
0.0
 11
21125.82216910916
 21
6665.28784431696
 31
0.0
  0
LINE
  5
A89B
330
5D45
100
AcDbEntity
  8
2
  6
Continuous
440
 16777216
370
    -2
100
AcDbLine
 10
20915.82216910916
 20
6665.28784431696
 30
0.0
 11
20855.82216910916
 21
6665.28784431696
 31
0.0
  0
LINE
  5
A89C
330
5D45
100
AcDbEntity
  8
2
  6
Continuous
440
 16777216
370
    -2
100
AcDbLine
 10
21005.82216910916
 20
6665.28784431696
 30
0.0
 11
20975.82216910916
 21
6665.28784431696
 31
0.0
  0
SOLID
  5
A89D
330
5D45
100
AcDbEntity
  8
2
  6
Continuous
440
 16777216
100
AcDbTrace
 10
21065.82216910916
 20
6675.287844316959
 30
0.0
 11
21065.82216910916
 21
6655.287844316958
 31
0.0
 12
21005.82216910916
 22
6665.28784431696
 32
0.0
 13
21005.82216910916
 23
6665.28784431696
 33
0.0
  0
SOLID
  5
A89E
330
5D45
100
AcDbEntity
  8
2
  6
Continuous
440
 16777216
100
AcDbTrace
 10
20915.82216910916
 20
6675.287844316959
 30
0.0
 11
20915.82216910916
 21
6655.287844316958
 31
0.0
 12
20975.82216910916
 22
6665.28784431696
 32
0.0
 13
20975.82216910916
 23
6665.28784431696
 33
0.0
  0
MTEXT
  5
A89F
330
5D45
100
AcDbEntity
  8
2
  6
Continuous
 62
     7
440
 16777216
100
AcDbMText
 10
20990.82216910916
 20
6715.28784431696
 30
0.0
 40
60.0
 41
0.0
 46
0.0
 71
     5
 72
     1
  1
\A1;30
  7
JF3
 73
     1
 44
1.0
  0
POINT
  5
A8A0
330
5D45
100
AcDbEntity
  8
DEFPOINTS
  6
Continuous
 62
     0
440
 16777216
100
AcDbPoint
 10
21005.82216910916
 20
8017.903112538457
 30
0.0
  0
POINT
  5
A8A1
330
5D45
100
AcDbEntity
  8
DEFPOINTS
  6
Continuous
 62
     0
440
 16777216
100
AcDbPoint
 10
20975.82216910916
 20
8017.903112538457
 30
0.0
  0
POINT
  5
A8A2
330
5D45
100
AcDbEntity
  8
DEFPOINTS
  6
Continuous
 62
     0
440
 16777216
100
AcDbPoint
 10
20975.82216910916
 20
6665.28784431696
 30
0.0
  0
ENDBLK
  5
5D50
330
5D45
100
AcDbEntity
  8
0
100
AcDbBlockEnd
  0
BLOCK
  5
5D5D
330
5D51
100
AcDbEntity
  8
0
100
AcDbBlockBegin
  2
*D4
 70
     1
 10
0.0
 20
0.0
 30
0.0
  3
*D4
  1

  0
LINE
  5
A8A3
330
5D51
100
AcDbEntity
  8
2
  6
Continuous
440
 16777216
370
    -2
100
AcDbLine
 10
22000.82216910916
 20
6932.903112538454
 30
0.0
 11
22000.82216910916
 21
6625.287844316957
 31
0.0
  0
LINE
  5
A8A4
330
5D51
100
AcDbEntity
  8
2
  6
Continuous
440
 16777216
370
    -2
100
AcDbLine
 10
21875.82216910916
 20
7667.047811469984
 30
0.0
 11
21875.82216910916
 21
6625.287844316957
 31
0.0
  0
LINE
  5
A8A5
330
5D51
100
AcDbEntity
  8
2
  6
Continuous
440
 16777216
370
    -2
100
AcDbLine
 10
22060.82216910916
 20
6665.287844316958
 30
0.0
 11
22120.82216910916
 21
6665.287844316958
 31
0.0
  0
LINE
  5
A8A6
330
5D51
100
AcDbEntity
  8
2
  6
Continuous
440
 16777216
370
    -2
100
AcDbLine
 10
21815.82216910916
 20
6665.287844316958
 30
0.0
 11
21755.82216910916
 21
6665.287844316958
 31
0.0
  0
LINE
  5
A8A7
330
5D51
100
AcDbEntity
  8
2
  6
Continuous
440
 16777216
370
    -2
100
AcDbLine
 10
22000.82216910916
 20
6665.287844316958
 30
0.0
 11
21875.82216910916
 21
6665.287844316958
 31
0.0
  0
SOLID
  5
A8A8
330
5D51
100
AcDbEntity
  8
2
  6
Continuous
440
 16777216
100
AcDbTrace
 10
22060.82216910916
 20
6675.287844316958
 30
0.0
 11
22060.82216910916
 21
6655.287844316958
 31
0.0
 12
22000.82216910916
 22
6665.287844316958
 32
0.0
 13
22000.82216910916
 23
6665.287844316958
 33
0.0
  0
SOLID
  5
A8A9
330
5D51
100
AcDbEntity
  8
2
  6
Continuous
440
 16777216
100
AcDbTrace
 10
21815.82216910916
 20
6675.287844316958
 30
0.0
 11
21815.82216910916
 21
6655.287844316958
 31
0.0
 12
21875.82216910916
 22
6665.287844316958
 32
0.0
 13
21875.82216910916
 23
6665.287844316958
 33
0.0
  0
MTEXT
  5
A8AA
330
5D51
100
AcDbEntity
  8
2
  6
Continuous
 62
     7
440
 16777216
100
AcDbMText
 10
21938.32216910916
 20
6715.287844316958
 30
0.0
 40
60.0
 41
0.0
 46
0.0
 71
     5
 72
     1
  1
\A1;125
  7
JF3
 73
     1
 44
1.0
  0
POINT
  5
A8AB
330
5D51
100
AcDbEntity
  8
DEFPOINTS
  6
Continuous
 62
     0
440
 16777216
100
AcDbPoint
 10
22000.82216910916
 20
6992.903112538454
 30
0.0
  0
POINT
  5
A8AC
330
5D51
100
AcDbEntity
  8
DEFPOINTS
  6
Continuous
 62
     0
440
 16777216
100
AcDbPoint
 10
21875.82216910916
 20
7727.047811469984
 30
0.0
  0
POINT
  5
A8AD
330
5D51
100
AcDbEntity
  8
DEFPOINTS
  6
Continuous
 62
     0
440
 16777216
100
AcDbPoint
 10
21875.82216910916
 20
6665.287844316958
 30
0.0
  0
ENDBLK
  5
5D5E
330
5D51
100
AcDbEntity
  8
0
100
AcDbBlockEnd
  0
BLOCK
  5
5D69
330
5D5F
100
AcDbEntity
  8
0
100
AcDbBlockBegin
  2
*D5
 70
     1
 10
0.0
 20
0.0
 30
0.0
  3
*D5
  1

  0
LINE
  5
A8AE
330
5D5F
100
AcDbEntity
  8
2
  6
Continuous
440
 16777216
370
    -2
100
AcDbLine
 10
22410.82216910916
 20
9392.90311253846
 30
0.0
 11
23743.43743733066
 21
9392.90311253846
 31
0.0
  0
LINE
  5
A8AF
330
5D5F
100
AcDbEntity
  8
2
  6
Continuous
440
 16777216
370
    -2
100
AcDbLine
 10
22410.82216910916
 20
9362.903112538457
 30
0.0
 11
23743.43743733066
 21
9362.903112538457
 31
0.0
  0
LINE
  5
A8B0
330
5D5F
100
AcDbEntity
  8
2
  6
Continuous
440
 16777216
370
    -2
100
AcDbLine
 10
23703.43743733066
 20
9452.903112538459
 30
0.0
 11
23703.43743733066
 21
9512.903112538458
 31
0.0
  0
LINE
  5
A8B1
330
5D5F
100
AcDbEntity
  8
2
  6
Continuous
440
 16777216
370
    -2
100
AcDbLine
 10
23703.43743733066
 20
9302.903112538457
 30
0.0
 11
23703.43743733066
 21
9242.903112538456
 31
0.0
  0
LINE
  5
A8B2
330
5D5F
100
AcDbEntity
  8
2
  6
Continuous
440
 16777216
370
    -2
100
AcDbLine
 10
23703.43743733066
 20
9392.90311253846
 30
0.0
 11
23703.43743733066
 21
9362.903112538457
 31
0.0
  0
SOLID
  5
A8B3
330
5D5F
100
AcDbEntity
  8
2
  6
Continuous
440
 16777216
100
AcDbTrace
 10
23693.43743733066
 20
9452.903112538459
 30
0.0
 11
23713.43743733066
 21
9452.903112538459
 31
0.0
 12
23703.43743733066
 22
9392.90311253846
 32
0.0
 13
23703.43743733066
 23
9392.90311253846
 33
0.0
  0
SOLID
  5
A8B4
330
5D5F
100
AcDbEntity
  8
2
  6
Continuous
440
 16777216
100
AcDbTrace
 10
23693.43743733066
 20
9302.903112538457
 30
0.0
 11
23713.43743733066
 21
9302.903112538457
 31
0.0
 12
23703.43743733066
 22
9362.903112538457
 32
0.0
 13
23703.43743733066
 23
9362.903112538457
 33
0.0
  0
MTEXT
  5
A8B5
330
5D5F
100
AcDbEntity
  8
2
  6
Continuous
 62
     7
440
 16777216
100
AcDbMText
 10
23653.43743733065
 20
9377.903112538463
 30
0.0
 40
60.0
 41
0.0
 46
0.0
 71
     5
 72
     1
  1
\A1;30
  7
JF3
 11
0.0000000000000001
 21
1.0
 31
0.0
 73
     1
 44
1.0
  0
POINT
  5
A8B6
330
5D5F
100
AcDbEntity
  8
DEFPOINTS
  6
Continuous
 62
     0
440
 16777216
100
AcDbPoint
 10
22350.82216910917
 20
9392.90311253846
 30
0.0
  0
POINT
  5
A8B7
330
5D5F
100
AcDbEntity
  8
DEFPOINTS
  6
Continuous
 62
     0
440
 16777216
100
AcDbPoint
 10
22350.82216910917
 20
9362.903112538457
 30
0.0
  0
POINT
  5
A8B8
330
5D5F
100
AcDbEntity
  8
DEFPOINTS
  6
Continuous
 62
     0
440
 16777216
100
AcDbPoint
 10
23703.43743733066
 20
9362.903112538457
 30
0.0
  0
ENDBLK
  5
5D6A
330
5D5F
100
AcDbEntity
  8
0
100
AcDbBlockEnd
  0
BLOCK
  5
5D75
330
5D6B
100
AcDbEntity
  8
0
100
AcDbBlockBegin
  2
*D6
 70
     1
 10
0.0
 20
0.0
 30
0.0
  3
*D6
  1

  0
LINE
  5
A8B9
330
5D6B
100
AcDbEntity
  8
2
  6
Continuous
440
 16777216
370
    -2
100
AcDbLine
 10
22410.82216910916
 20
9392.90311253846
 30
0.0
 11
23895.61000441794
 21
9392.90311253846
 31
0.0
  0
LINE
  5
A8BA
330
5D6B
100
AcDbEntity
  8
2
  6
Continuous
440
 16777216
370
    -2
100
AcDbLine
 10
22410.82216910916
 20
6992.903112538456
 30
0.0
 11
23895.61000441793
 21
6992.903112538456
 31
0.0
  0
LINE
  5
A8BB
330
5D6B
100
AcDbEntity
  8
2
  6
Continuous
440
 16777216
370
    -2
100
AcDbLine
 10
23855.61000441794
 20
9332.903112538458
 30
0.0
 11
23855.61000441793
 21
7052.903112538456
 31
0.0
  0
SOLID
  5
A8BC
330
5D6B
100
AcDbEntity
  8
2
  6
Continuous
440
 16777216
100
AcDbTrace
 10
23845.61000441794
 20
9332.903112538458
 30
0.0
 11
23865.61000441794
 21
9332.903112538458
 31
0.0
 12
23855.61000441794
 22
9392.90311253846
 32
0.0
 13
23855.61000441794
 23
9392.90311253846
 33
0.0
  0
SOLID
  5
A8BD
330
5D6B
100
AcDbEntity
  8
2
  6
Continuous
440
 16777216
100
AcDbTrace
 10
23845.61000441793
 20
7052.903112538456
 30
0.0
 11
23865.61000441793
 21
7052.903112538456
 31
0.0
 12
23855.61000441793
 22
6992.903112538456
 32
0.0
 13
23855.61000441793
 23
6992.903112538456
 33
0.0
  0
MTEXT
  5
A8BE
330
5D6B
100
AcDbEntity
  8
2
  6
Continuous
 62
     7
440
 16777216
100
AcDbMText
 10
23805.61000441793
 20
8192.903112538461
 30
0.0
 40
60.0
 41
0.0
 46
0.0
 71
     5
 72
     1
  1
\A1;2400
  7
JF3
 11
0.0000000000000001
 21
1.0
 31
0.0
 73
     1
 44
1.0
  0
POINT
  5
A8BF
330
5D6B
100
AcDbEntity
  8
DEFPOINTS
  6
Continuous
 62
     0
440
 16777216
100
AcDbPoint
 10
22350.82216910917
 20
9392.90311253846
 30
0.0
  0
POINT
  5
A8C0
330
5D6B
100
AcDbEntity
  8
DEFPOINTS
  6
Continuous
 62
     0
440
 16777216
100
AcDbPoint
 10
22350.82216910916
 20
6992.903112538456
 30
0.0
  0
POINT
  5
A8C1
330
5D6B
100
AcDbEntity
  8
DEFPOINTS
  6
Continuous
 62
     0
440
 16777216
100
AcDbPoint
 10
23855.61000441793
 20
6992.903112538456
 30
0.0
  0
ENDBLK
  5
5D76
330
5D6B
100
AcDbEntity
  8
0
100
AcDbBlockEnd
  0
BLOCK
  5
5D81
330
5D77
100
AcDbEntity
  8
0
100
AcDbBlockBegin
  2
*D7
 70
     1
 10
0.0
 20
0.0
 30
0.0
  3
*D7
  1

  0
LINE
  5
A8C2
330
5D77
100
AcDbEntity
  8
2
  6
Continuous
440
 16777216
370
    -2
100
AcDbLine
 10
23375.82216910917
 20
7957.903112538454
 30
0.0
 11
23375.82216910917
 21
6625.287844316957
 31
0.0
  0
LINE
  5
A8C3
330
5D77
100
AcDbEntity
  8
2
  6
Continuous
440
 16777216
370
    -2
100
AcDbLine
 10
23345.82216910917
 20
7957.903112538454
 30
0.0
 11
23345.82216910917
 21
6625.287844316957
 31
0.0
  0
LINE
  5
A8C4
330
5D77
100
AcDbEntity
  8
2
  6
Continuous
440
 16777216
370
    -2
100
AcDbLine
 10
23435.82216910917
 20
6665.287844316958
 30
0.0
 11
23495.82216910917
 21
6665.287844316958
 31
0.0
  0
LINE
  5
A8C5
330
5D77
100
AcDbEntity
  8
2
  6
Continuous
440
 16777216
370
    -2
100
AcDbLine
 10
23285.82216910917
 20
6665.287844316958
 30
0.0
 11
23225.82216910917
 21
6665.287844316958
 31
0.0
  0
LINE
  5
A8C6
330
5D77
100
AcDbEntity
  8
2
  6
Continuous
440
 16777216
370
    -2
100
AcDbLine
 10
23375.82216910917
 20
6665.287844316958
 30
0.0
 11
23345.82216910917
 21
6665.287844316958
 31
0.0
  0
SOLID
  5
A8C7
330
5D77
100
AcDbEntity
  8
2
  6
Continuous
440
 16777216
100
AcDbTrace
 10
23435.82216910917
 20
6675.287844316958
 30
0.0
 11
23435.82216910917
 21
6655.287844316958
 31
0.0
 12
23375.82216910917
 22
6665.287844316958
 32
0.0
 13
23375.82216910917
 23
6665.287844316958
 33
0.0
  0
SOLID
  5
A8C8
330
5D77
100
AcDbEntity
  8
2
  6
Continuous
440
 16777216
100
AcDbTrace
 10
23285.82216910917
 20
6675.287844316958
 30
0.0
 11
23285.82216910917
 21
6655.287844316958
 31
0.0
 12
23345.82216910917
 22
6665.287844316958
 32
0.0
 13
23345.82216910917
 23
6665.287844316958
 33
0.0
  0
MTEXT
  5
A8C9
330
5D77
100
AcDbEntity
  8
2
  6
Continuous
 62
     7
440
 16777216
100
AcDbMText
 10
23360.82216910917
 20
6715.287844316958
 30
0.0
 40
60.0
 41
0.0
 46
0.0
 71
     5
 72
     1
  1
\A1;30
  7
JF3
 73
     1
 44
1.0
  0
POINT
  5
A8CA
330
5D77
100
AcDbEntity
  8
DEFPOINTS
  6
Continuous
 62
     0
440
 16777216
100
AcDbPoint
 10
23375.82216910917
 20
8017.903112538453
 30
0.0
  0
POINT
  5
A8CB
330
5D77
100
AcDbEntity
  8
DEFPOINTS
  6
Continuous
 62
     0
440
 16777216
100
AcDbPoint
 10
23345.82216910917
 20
8017.903112538453
 30
0.0
  0
POINT
  5
A8CC
330
5D77
100
AcDbEntity
  8
DEFPOINTS
  6
Continuous
 62
     0
440
 16777216
100
AcDbPoint
 10
23345.82216910917
 20
6665.287844316958
 30
0.0
  0
ENDBLK
  5
5D82
330
5D77
100
AcDbEntity
  8
0
100
AcDbBlockEnd
  0
BLOCK
  5
5D8D
330
5D83
100
AcDbEntity
  8
0
100
AcDbBlockBegin
  2
*D8
 70
     1
 10
0.0
 20
0.0
 30
0.0
  3
*D8
  1

  0
LINE
  5
A8CD
330
5D83
100
AcDbEntity
  8
2
  6
Continuous
440
 16777216
370
    -2
100
AcDbLine
 10
22701.67747017764
 20
7892.903112538457
 30
0.0
 11
23743.43743733066
 21
7892.903112538457
 31
0.0
  0
LINE
  5
A8CE
330
5D83
100
AcDbEntity
  8
2
  6
Continuous
440
 16777216
370
    -2
100
AcDbLine
 10
22410.82216910916
 20
7022.903112538458
 30
0.0
 11
23743.43743733066
 21
7022.903112538457
 31
0.0
  0
LINE
  5
A8CF
330
5D83
100
AcDbEntity
  8
2
  6
Continuous
440
 16777216
370
    -2
100
AcDbLine
 10
23703.43743733066
 20
7832.903112538457
 30
0.0
 11
23703.43743733066
 21
7082.903112538456
 31
0.0
  0
SOLID
  5
A8D0
330
5D83
100
AcDbEntity
  8
2
  6
Continuous
440
 16777216
100
AcDbTrace
 10
23693.43743733066
 20
7832.903112538457
 30
0.0
 11
23713.43743733067
 21
7832.903112538457
 31
0.0
 12
23703.43743733066
 22
7892.903112538457
 32
0.0
 13
23703.43743733066
 23
7892.903112538457
 33
0.0
  0
SOLID
  5
A8D1
330
5D83
100
AcDbEntity
  8
2
  6
Continuous
440
 16777216
100
AcDbTrace
 10
23693.43743733066
 20
7082.903112538456
 30
0.0
 11
23713.43743733067
 21
7082.903112538456
 31
0.0
 12
23703.43743733066
 22
7022.903112538457
 32
0.0
 13
23703.43743733066
 23
7022.903112538457
 33
0.0
  0
MTEXT
  5
A8D2
330
5D83
100
AcDbEntity
  8
2
  6
Continuous
 62
     7
440
 16777216
100
AcDbMText
 10
23653.43743733066
 20
7457.903112538462
 30
0.0
 40
60.0
 41
0.0
 46
0.0
 71
     5
 72
     1
  1
\A1;870
  7
JF3
 11
0.0000000000000001
 21
1.0
 31
0.0
 73
     1
 44
1.0
  0
POINT
  5
A8D3
330
5D83
100
AcDbEntity
  8
DEFPOINTS
  6
Continuous
 62
     0
440
 16777216
100
AcDbPoint
 10
22641.67747017764
 20
7892.903112538457
 30
0.0
  0
POINT
  5
A8D4
330
5D83
100
AcDbEntity
  8
DEFPOINTS
  6
Continuous
 62
     0
440
 16777216
100
AcDbPoint
 10
22350.82216910916
 20
7022.903112538458
 30
0.0
  0
POINT
  5
A8D5
330
5D83
100
AcDbEntity
  8
DEFPOINTS
  6
Continuous
 62
     0
440
 16777216
100
AcDbPoint
 10
23703.43743733066
 20
7022.903112538457
 30
0.0
  0
ENDBLK
  5
5D8E
330
5D83
100
AcDbEntity
  8
0
100
AcDbBlockEnd
  0
BLOCK
  5
5D99
330
5D8F
100
AcDbEntity
  8
0
100
AcDbBlockBegin
  2
*D9
 70
     1
 10
0.0
 20
0.0
 30
0.0
  3
*D9
  1

  0
LINE
  5
A8D6
330
5D8F
100
AcDbEntity
  8
2
  6
Continuous
440
 16777216
370
    -2
100
AcDbLine
 10
23345.82216910917
 20
7957.903112538454
 30
0.0
 11
23345.82216910917
 21
6625.287844316959
 31
0.0
  0
LINE
  5
A8D7
330
5D8F
100
AcDbEntity
  8
2
  6
Continuous
440
 16777216
370
    -2
100
AcDbLine
 10
22475.82216910917
 20
7667.047811469986
 30
0.0
 11
22475.82216910917
 21
6625.287844316959
 31
0.0
  0
LINE
  5
A8D8
330
5D8F
100
AcDbEntity
  8
2
  6
Continuous
440
 16777216
370
    -2
100
AcDbLine
 10
23285.82216910917
 20
6665.28784431696
 30
0.0
 11
22535.82216910917
 21
6665.28784431696
 31
0.0
  0
SOLID
  5
A8D9
330
5D8F
100
AcDbEntity
  8
2
  6
Continuous
440
 16777216
100
AcDbTrace
 10
23285.82216910917
 20
6675.287844316959
 30
0.0
 11
23285.82216910917
 21
6655.287844316958
 31
0.0
 12
23345.82216910917
 22
6665.28784431696
 32
0.0
 13
23345.82216910917
 23
6665.28784431696
 33
0.0
  0
SOLID
  5
A8DA
330
5D8F
100
AcDbEntity
  8
2
  6
Continuous
440
 16777216
100
AcDbTrace
 10
22535.82216910917
 20
6675.287844316959
 30
0.0
 11
22535.82216910917
 21
6655.287844316958
 31
0.0
 12
22475.82216910917
 22
6665.28784431696
 32
0.0
 13
22475.82216910917
 23
6665.28784431696
 33
0.0
  0
MTEXT
  5
A8DB
330
5D8F
100
AcDbEntity
  8
2
  6
Continuous
 62
     7
440
 16777216
100
AcDbMText
 10
22910.82216910917
 20
6715.28784431696
 30
0.0
 40
60.0
 41
0.0
 46
0.0
 71
     5
 72
     1
  1
\A1;870
  7
JF3
 73
     1
 44
1.0
  0
POINT
  5
A8DC
330
5D8F
100
AcDbEntity
  8
DEFPOINTS
  6
Continuous
 62
     0
440
 16777216
100
AcDbPoint
 10
23345.82216910917
 20
8017.903112538453
 30
0.0
  0
POINT
  5
A8DD
330
5D8F
100
AcDbEntity
  8
DEFPOINTS
  6
Continuous
 62
     0
440
 16777216
100
AcDbPoint
 10
22475.82216910917
 20
7727.047811469986
 30
0.0
  0
POINT
  5
A8DE
330
5D8F
100
AcDbEntity
  8
DEFPOINTS
  6
Continuous
 62
     0
440
 16777216
100
AcDbPoint
 10
22475.82216910917
 20
6665.28784431696
 30
0.0
  0
ENDBLK
  5
5D9A
330
5D8F
100
AcDbEntity
  8
0
100
AcDbBlockEnd
  0
BLOCK
  5
5DA5
330
5D9B
100
AcDbEntity
  8
0
100
AcDbBlockBegin
  2
*D10
 70
     1
 10
0.0
 20
0.0
 30
0.0
  3
*D10
  1

  0
LINE
  5
A8DF
330
5D9B
100
AcDbEntity
  8
2
  6
Continuous
440
 16777216
370
    -2
100
AcDbLine
 10
22410.82216910916
 20
7022.903112538458
 30
0.0
 11
23743.43743733066
 21
7022.903112538457
 31
0.0
  0
LINE
  5
A8E0
330
5D9B
100
AcDbEntity
  8
2
  6
Continuous
440
 16777216
370
    -2
100
AcDbLine
 10
22410.82216910916
 20
6992.903112538456
 30
0.0
 11
23743.43743733066
 21
6992.903112538456
 31
0.0
  0
LINE
  5
A8E1
330
5D9B
100
AcDbEntity
  8
2
  6
Continuous
440
 16777216
370
    -2
100
AcDbLine
 10
23703.43743733066
 20
7082.903112538456
 30
0.0
 11
23703.43743733066
 21
7142.903112538457
 31
0.0
  0
LINE
  5
A8E2
330
5D9B
100
AcDbEntity
  8
2
  6
Continuous
440
 16777216
370
    -2
100
AcDbLine
 10
23703.43743733066
 20
6932.903112538456
 30
0.0
 11
23703.43743733066
 21
6872.903112538456
 31
0.0
  0
LINE
  5
A8E3
330
5D9B
100
AcDbEntity
  8
2
  6
Continuous
440
 16777216
370
    -2
100
AcDbLine
 10
23703.43743733066
 20
7022.903112538457
 30
0.0
 11
23703.43743733066
 21
6992.903112538456
 31
0.0
  0
SOLID
  5
A8E4
330
5D9B
100
AcDbEntity
  8
2
  6
Continuous
440
 16777216
100
AcDbTrace
 10
23693.43743733066
 20
7082.903112538456
 30
0.0
 11
23713.43743733067
 21
7082.903112538456
 31
0.0
 12
23703.43743733066
 22
7022.903112538457
 32
0.0
 13
23703.43743733066
 23
7022.903112538457
 33
0.0
  0
SOLID
  5
A8E5
330
5D9B
100
AcDbEntity
  8
2
  6
Continuous
440
 16777216
100
AcDbTrace
 10
23693.43743733066
 20
6932.903112538456
 30
0.0
 11
23713.43743733067
 21
6932.903112538456
 31
0.0
 12
23703.43743733066
 22
6992.903112538456
 32
0.0
 13
23703.43743733066
 23
6992.903112538456
 33
0.0
  0
MTEXT
  5
A8E6
330
5D9B
100
AcDbEntity
  8
2
  6
Continuous
 62
     7
440
 16777216
100
AcDbMText
 10
23653.43743733066
 20
7007.90311253846
 30
0.0
 40
60.0
 41
0.0
 46
0.0
 71
     5
 72
     1
  1
\A1;30
  7
JF3
 11
0.0000000000000001
 21
1.0
 31
0.0
 73
     1
 44
1.0
  0
POINT
  5
A8E7
330
5D9B
100
AcDbEntity
  8
DEFPOINTS
  6
Continuous
 62
     0
440
 16777216
100
AcDbPoint
 10
22350.82216910916
 20
7022.903112538458
 30
0.0
  0
POINT
  5
A8E8
330
5D9B
100
AcDbEntity
  8
DEFPOINTS
  6
Continuous
 62
     0
440
 16777216
100
AcDbPoint
 10
22350.82216910916
 20
6992.903112538456
 30
0.0
  0
POINT
  5
A8E9
330
5D9B
100
AcDbEntity
  8
DEFPOINTS
  6
Continuous
 62
     0
440
 16777216
100
AcDbPoint
 10
23703.43743733066
 20
6992.903112538456
 30
0.0
  0
ENDBLK
  5
5DA6
330
5D9B
100
AcDbEntity
  8
0
100
AcDbBlockEnd
  0
BLOCK
  5
5DB3
330
5DA7
100
AcDbEntity
  8
0
100
AcDbBlockBegin
  2
*D11
 70
     1
 10
0.0
 20
0.0
 30
0.0
  3
*D11
  1

  0
LINE
  5
A8EA
330
5DA7
100
AcDbEntity
  8
2
  6
Continuous
440
 16777216
370
    -2
100
AcDbLine
 10
22475.82216910917
 20
7667.047811469986
 30
0.0
 11
22475.82216910917
 21
6625.287844316959
 31
0.0
  0
LINE
  5
A8EB
330
5DA7
100
AcDbEntity
  8
2
  6
Continuous
440
 16777216
370
    -2
100
AcDbLine
 10
22350.82216910916
 20
6932.903112538456
 30
0.0
 11
22350.82216910916
 21
6625.287844316959
 31
0.0
  0
LINE
  5
A8EC
330
5DA7
100
AcDbEntity
  8
2
  6
Continuous
440
 16777216
370
    -2
100
AcDbLine
 10
22535.82216910917
 20
6665.28784431696
 30
0.0
 11
22595.82216910917
 21
6665.28784431696
 31
0.0
  0
LINE
  5
A8ED
330
5DA7
100
AcDbEntity
  8
2
  6
Continuous
440
 16777216
370
    -2
100
AcDbLine
 10
22290.82216910916
 20
6665.28784431696
 30
0.0
 11
22230.82216910916
 21
6665.28784431696
 31
0.0
  0
LINE
  5
A8EE
330
5DA7
100
AcDbEntity
  8
2
  6
Continuous
440
 16777216
370
    -2
100
AcDbLine
 10
22475.82216910917
 20
6665.28784431696
 30
0.0
 11
22350.82216910916
 21
6665.28784431696
 31
0.0
  0
SOLID
  5
A8EF
330
5DA7
100
AcDbEntity
  8
2
  6
Continuous
440
 16777216
100
AcDbTrace
 10
22535.82216910917
 20
6675.287844316959
 30
0.0
 11
22535.82216910917
 21
6655.287844316958
 31
0.0
 12
22475.82216910917
 22
6665.28784431696
 32
0.0
 13
22475.82216910917
 23
6665.28784431696
 33
0.0
  0
SOLID
  5
A8F0
330
5DA7
100
AcDbEntity
  8
2
  6
Continuous
440
 16777216
100
AcDbTrace
 10
22290.82216910916
 20
6675.287844316959
 30
0.0
 11
22290.82216910916
 21
6655.287844316958
 31
0.0
 12
22350.82216910916
 22
6665.28784431696
 32
0.0
 13
22350.82216910916
 23
6665.28784431696
 33
0.0
  0
MTEXT
  5
A8F1
330
5DA7
100
AcDbEntity
  8
2
  6
Continuous
 62
     7
440
 16777216
100
AcDbMText
 10
22413.32216910917
 20
6715.28784431696
 30
0.0
 40
60.0
 41
0.0
 46
0.0
 71
     5
 72
     1
  1
\A1;125
  7
JF3
 73
     1
 44
1.0
  0
POINT
  5
A8F2
330
5DA7
100
AcDbEntity
  8
DEFPOINTS
  6
Continuous
 62
     0
440
 16777216
100
AcDbPoint
 10
22475.82216910917
 20
7727.047811469986
 30
0.0
  0
POINT
  5
A8F3
330
5DA7
100
AcDbEntity
  8
DEFPOINTS
  6
Continuous
 62
     0
440
 16777216
100
AcDbPoint
 10
22350.82216910916
 20
6992.903112538455
 30
0.0
  0
POINT
  5
A8F4
330
5DA7
100
AcDbEntity
  8
DEFPOINTS
  6
Continuous
 62
     0
440
 16777216
100
AcDbPoint
 10
22350.82216910916
 20
6665.28784431696
 30
0.0
  0
ENDBLK
  5
5DB4
330
5DA7
100
AcDbEntity
  8
0
100
AcDbBlockEnd
  0
BLOCK
  5
5DBF
330
5DB5
100
AcDbEntity
  8
0
100
AcDbBlockBegin
  2
*D12
 70
     1
 10
0.0
 20
0.0
 30
0.0
  3
*D12
  1

  0
LINE
  5
A8F5
330
5DB5
100
AcDbEntity
  8
2
  6
Continuous
440
 16777216
370
    -2
100
AcDbLine
 10
22410.82216910916
 20
9362.903112538457
 30
0.0
 11
23743.43743733066
 21
9362.903112538457
 31
0.0
  0
LINE
  5
A8F6
330
5DB5
100
AcDbEntity
  8
2
  6
Continuous
440
 16777216
370
    -2
100
AcDbLine
 10
22701.67747017764
 20
8492.903112538456
 30
0.0
 11
23743.43743733066
 21
8492.903112538456
 31
0.0
  0
LINE
  5
A8F7
330
5DB5
100
AcDbEntity
  8
2
  6
Continuous
440
 16777216
370
    -2
100
AcDbLine
 10
23703.43743733066
 20
9302.903112538457
 30
0.0
 11
23703.43743733066
 21
8552.903112538457
 31
0.0
  0
SOLID
  5
A8F8
330
5DB5
100
AcDbEntity
  8
2
  6
Continuous
440
 16777216
100
AcDbTrace
 10
23693.43743733066
 20
9302.903112538457
 30
0.0
 11
23713.43743733067
 21
9302.903112538457
 31
0.0
 12
23703.43743733066
 22
9362.903112538457
 32
0.0
 13
23703.43743733066
 23
9362.903112538457
 33
0.0
  0
SOLID
  5
A8F9
330
5DB5
100
AcDbEntity
  8
2
  6
Continuous
440
 16777216
100
AcDbTrace
 10
23693.43743733066
 20
8552.903112538457
 30
0.0
 11
23713.43743733067
 21
8552.903112538457
 31
0.0
 12
23703.43743733066
 22
8492.903112538456
 32
0.0
 13
23703.43743733066
 23
8492.903112538456
 33
0.0
  0
MTEXT
  5
A8FA
330
5DB5
100
AcDbEntity
  8
2
  6
Continuous
 62
     7
440
 16777216
100
AcDbMText
 10
23653.43743733066
 20
8927.90311253846
 30
0.0
 40
60.0
 41
0.0
 46
0.0
 71
     5
 72
     1
  1
\A1;870
  7
JF3
 11
0.0000000000000001
 21
1.0
 31
0.0
 73
     1
 44
1.0
  0
POINT
  5
A8FB
330
5DB5
100
AcDbEntity
  8
DEFPOINTS
  6
Continuous
 62
     0
440
 16777216
100
AcDbPoint
 10
22350.82216910917
 20
9362.903112538457
 30
0.0
  0
POINT
  5
A8FC
330
5DB5
100
AcDbEntity
  8
DEFPOINTS
  6
Continuous
 62
     0
440
 16777216
100
AcDbPoint
 10
22641.67747017764
 20
8492.903112538456
 30
0.0
  0
POINT
  5
A8FD
330
5DB5
100
AcDbEntity
  8
DEFPOINTS
  6
Continuous
 62
     0
440
 16777216
100
AcDbPoint
 10
23703.43743733066
 20
8492.903112538456
 30
0.0
  0
ENDBLK
  5
5DC0
330
5DB5
100
AcDbEntity
  8
0
100
AcDbBlockEnd
  0
BLOCK
  5
5DCD
330
5DC1
100
AcDbEntity
  8
0
100
AcDbBlockBegin
  2
*D13
 70
     1
 10
0.0
 20
0.0
 30
0.0
  3
*D13
  1

  0
LINE
  5
A8FE
330
5DC1
100
AcDbEntity
  8
2
  6
Continuous
440
 16777216
370
    -2
100
AcDbLine
 10
22701.67747017764
 20
8492.903112538456
 30
0.0
 11
23743.43743733066
 21
8492.903112538456
 31
0.0
  0
LINE
  5
A8FF
330
5DC1
100
AcDbEntity
  8
2
  6
Continuous
440
 16777216
370
    -2
100
AcDbLine
 10
23435.82216910917
 20
8367.90311253846
 30
0.0
 11
23743.43743733066
 21
8367.90311253846
 31
0.0
  0
LINE
  5
A900
330
5DC1
100
AcDbEntity
  8
2
  6
Continuous
440
 16777216
370
    -2
100
AcDbLine
 10
23703.43743733066
 20
8552.903112538457
 30
0.0
 11
23703.43743733066
 21
8612.903112538457
 31
0.0
  0
LINE
  5
A901
330
5DC1
100
AcDbEntity
  8
2
  6
Continuous
440
 16777216
370
    -2
100
AcDbLine
 10
23703.43743733066
 20
8307.903112538459
 30
0.0
 11
23703.43743733066
 21
8247.903112538459
 31
0.0
  0
LINE
  5
A902
330
5DC1
100
AcDbEntity
  8
2
  6
Continuous
440
 16777216
370
    -2
100
AcDbLine
 10
23703.43743733066
 20
8492.903112538456
 30
0.0
 11
23703.43743733066
 21
8367.90311253846
 31
0.0
  0
SOLID
  5
A903
330
5DC1
100
AcDbEntity
  8
2
  6
Continuous
440
 16777216
100
AcDbTrace
 10
23693.43743733066
 20
8552.903112538457
 30
0.0
 11
23713.43743733067
 21
8552.903112538457
 31
0.0
 12
23703.43743733066
 22
8492.903112538456
 32
0.0
 13
23703.43743733066
 23
8492.903112538456
 33
0.0
  0
SOLID
  5
A904
330
5DC1
100
AcDbEntity
  8
2
  6
Continuous
440
 16777216
100
AcDbTrace
 10
23693.43743733066
 20
8307.903112538459
 30
0.0
 11
23713.43743733067
 21
8307.903112538459
 31
0.0
 12
23703.43743733066
 22
8367.90311253846
 32
0.0
 13
23703.43743733066
 23
8367.90311253846
 33
0.0
  0
MTEXT
  5
A905
330
5DC1
100
AcDbEntity
  8
2
  6
Continuous
 62
     7
440
 16777216
100
AcDbMText
 10
23653.43743733066
 20
8430.403112538462
 30
0.0
 40
60.0
 41
0.0
 46
0.0
 71
     5
 72
     1
  1
\A1;125
  7
JF3
 11
0.0000000000000001
 21
1.0
 31
0.0
 73
     1
 44
1.0
  0
POINT
  5
A906
330
5DC1
100
AcDbEntity
  8
DEFPOINTS
  6
Continuous
 62
     0
440
 16777216
100
AcDbPoint
 10
22641.67747017764
 20
8492.903112538456
 30
0.0
  0
POINT
  5
A907
330
5DC1
100
AcDbEntity
  8
DEFPOINTS
  6
Continuous
 62
     0
440
 16777216
100
AcDbPoint
 10
23375.82216910917
 20
8367.90311253846
 30
0.0
  0
POINT
  5
A908
330
5DC1
100
AcDbEntity
  8
DEFPOINTS
  6
Continuous
 62
     0
440
 16777216
100
AcDbPoint
 10
23703.43743733066
 20
8367.90311253846
 30
0.0
  0
ENDBLK
  5
5DCE
330
5DC1
100
AcDbEntity
  8
0
100
AcDbBlockEnd
  0
BLOCK
  5
5DDB
330
5DCF
100
AcDbEntity
  8
0
100
AcDbBlockBegin
  2
*D14
 70
     1
 10
0.0
 20
0.0
 30
0.0
  3
*D14
  1

  0
LINE
  5
A909
330
5DCF
100
AcDbEntity
  8
2
  6
Continuous
440
 16777216
370
    -2
100
AcDbLine
 10
23435.82216910917
 20
8017.903112538457
 30
0.0
 11
23743.43743733066
 21
8017.903112538457
 31
0.0
  0
LINE
  5
A90A
330
5DCF
100
AcDbEntity
  8
2
  6
Continuous
440
 16777216
370
    -2
100
AcDbLine
 10
22701.67747017764
 20
7892.903112538457
 30
0.0
 11
23743.43743733066
 21
7892.903112538457
 31
0.0
  0
LINE
  5
A90B
330
5DCF
100
AcDbEntity
  8
2
  6
Continuous
440
 16777216
370
    -2
100
AcDbLine
 10
23703.43743733066
 20
8077.903112538455
 30
0.0
 11
23703.43743733066
 21
8137.903112538458
 31
0.0
  0
LINE
  5
A90C
330
5DCF
100
AcDbEntity
  8
2
  6
Continuous
440
 16777216
370
    -2
100
AcDbLine
 10
23703.43743733066
 20
7832.903112538457
 30
0.0
 11
23703.43743733066
 21
7772.903112538458
 31
0.0
  0
LINE
  5
A90D
330
5DCF
100
AcDbEntity
  8
2
  6
Continuous
440
 16777216
370
    -2
100
AcDbLine
 10
23703.43743733066
 20
8017.903112538457
 30
0.0
 11
23703.43743733066
 21
7892.903112538457
 31
0.0
  0
SOLID
  5
A90E
330
5DCF
100
AcDbEntity
  8
2
  6
Continuous
440
 16777216
100
AcDbTrace
 10
23693.43743733066
 20
8077.903112538455
 30
0.0
 11
23713.43743733067
 21
8077.903112538455
 31
0.0
 12
23703.43743733066
 22
8017.903112538457
 32
0.0
 13
23703.43743733066
 23
8017.903112538457
 33
0.0
  0
SOLID
  5
A90F
330
5DCF
100
AcDbEntity
  8
2
  6
Continuous
440
 16777216
100
AcDbTrace
 10
23693.43743733066
 20
7832.903112538457
 30
0.0
 11
23713.43743733067
 21
7832.903112538457
 31
0.0
 12
23703.43743733066
 22
7892.903112538457
 32
0.0
 13
23703.43743733066
 23
7892.903112538457
 33
0.0
  0
MTEXT
  5
A910
330
5DCF
100
AcDbEntity
  8
2
  6
Continuous
 62
     7
440
 16777216
100
AcDbMText
 10
23653.43743733066
 20
7955.403112538461
 30
0.0
 40
60.0
 41
0.0
 46
0.0
 71
     5
 72
     1
  1
\A1;125
  7
JF3
 11
0.0000000000000001
 21
1.0
 31
0.0
 73
     1
 44
1.0
  0
POINT
  5
A911
330
5DCF
100
AcDbEntity
  8
DEFPOINTS
  6
Continuous
 62
     0
440
 16777216
100
AcDbPoint
 10
23375.82216910917
 20
8017.903112538457
 30
0.0
  0
POINT
  5
A912
330
5DCF
100
AcDbEntity
  8
DEFPOINTS
  6
Continuous
 62
     0
440
 16777216
100
AcDbPoint
 10
22641.67747017764
 20
7892.903112538457
 30
0.0
  0
POINT
  5
A913
330
5DCF
100
AcDbEntity
  8
DEFPOINTS
  6
Continuous
 62
     0
440
 16777216
100
AcDbPoint
 10
23703.43743733066
 20
7892.903112538457
 30
0.0
  0
ENDBLK
  5
5DDC
330
5DCF
100
AcDbEntity
  8
0
100
AcDbBlockEnd
  0
BLOCK
  5
5DEF
330
5DE5
100
AcDbEntity
  8
0
100
AcDbBlockBegin
  2
*D15
 70
     1
 10
0.0
 20
0.0
 30
0.0
  3
*D15
  1

  0
LINE
  5
A914
330
5DE5
100
AcDbEntity
  8
2
  6
Continuous
440
 16777216
370
    -2
100
AcDbLine
 10
23435.82216910917
 20
8367.90311253846
 30
0.0
 11
23743.43743733067
 21
8367.90311253846
 31
0.0
  0
LINE
  5
A915
330
5DE5
100
AcDbEntity
  8
2
  6
Continuous
440
 16777216
370
    -2
100
AcDbLine
 10
23435.82216910917
 20
8017.903112538457
 30
0.0
 11
23743.43743733066
 21
8017.903112538457
 31
0.0
  0
LINE
  5
A916
330
5DE5
100
AcDbEntity
  8
2
  6
Continuous
440
 16777216
370
    -2
100
AcDbLine
 10
23703.43743733067
 20
8307.903112538459
 30
0.0
 11
23703.43743733066
 21
8077.903112538455
 31
0.0
  0
SOLID
  5
A917
330
5DE5
100
AcDbEntity
  8
2
  6
Continuous
440
 16777216
100
AcDbTrace
 10
23693.43743733067
 20
8307.903112538459
 30
0.0
 11
23713.43743733067
 21
8307.903112538459
 31
0.0
 12
23703.43743733067
 22
8367.90311253846
 32
0.0
 13
23703.43743733067
 23
8367.90311253846
 33
0.0
  0
SOLID
  5
A918
330
5DE5
100
AcDbEntity
  8
2
  6
Continuous
440
 16777216
100
AcDbTrace
 10
23693.43743733066
 20
8077.903112538455
 30
0.0
 11
23713.43743733067
 21
8077.903112538455
 31
0.0
 12
23703.43743733066
 22
8017.903112538457
 32
0.0
 13
23703.43743733066
 23
8017.903112538457
 33
0.0
  0
MTEXT
  5
A919
330
5DE5
100
AcDbEntity
  8
2
  6
Continuous
 62
     7
440
 16777216
100
AcDbMText
 10
23653.43743733066
 20
8192.903112538461
 30
0.0
 40
60.0
 41
0.0
 46
0.0
 71
     5
 72
     1
  1
\A1;350
  7
JF3
 11
0.0000000000000001
 21
1.0
 31
0.0
 73
     1
 44
1.0
  0
POINT
  5
A91A
330
5DE5
100
AcDbEntity
  8
DEFPOINTS
  6
Continuous
 62
     0
440
 16777216
100
AcDbPoint
 10
23375.82216910917
 20
8367.90311253846
 30
0.0
  0
POINT
  5
A91B
330
5DE5
100
AcDbEntity
  8
DEFPOINTS
  6
Continuous
 62
     0
440
 16777216
100
AcDbPoint
 10
23375.82216910917
 20
8017.903112538457
 30
0.0
  0
POINT
  5
A91C
330
5DE5
100
AcDbEntity
  8
DEFPOINTS
  6
Continuous
 62
     0
440
 16777216
100
AcDbPoint
 10
23703.43743733066
 20
8017.903112538457
 30
0.0
  0
ENDBLK
  5
5DF0
330
5DE5
100
AcDbEntity
  8
0
100
AcDbBlockEnd
  0
BLOCK
  5
5F0D
330
5F03
100
AcDbEntity
  8
0
100
AcDbBlockBegin
  2
*D16
 70
     1
 10
0.0
 20
0.0
 30
0.0
  3
*D16
  1

  0
LINE
  5
AB30
330
5F03
100
AcDbEntity
  8
2
  6
Continuous
440
 16777216
370
    -2
100
AcDbLine
 10
31369.95275399101
 20
9227.407385954647
 30
0.0
 11
31369.95275399101
 21
9872.905229451347
 31
0.0
  0
LINE
  5
AB31
330
5F03
100
AcDbEntity
  8
2
  6
Continuous
440
 16777216
370
    -2
100
AcDbLine
 10
32769.95275399101
 20
9227.407385954677
 30
0.0
 11
32769.95275399101
 21
9872.905229451347
 31
0.0
  0
LINE
  5
AB32
330
5F03
100
AcDbEntity
  8
2
  6
Continuous
440
 16777216
370
    -2
100
AcDbLine
 10
31429.95275399101
 20
9832.905229451348
 30
0.0
 11
32709.952753991
 21
9832.905229451348
 31
0.0
  0
SOLID
  5
AB33
330
5F03
100
AcDbEntity
  8
2
  6
Continuous
440
 16777216
100
AcDbTrace
 10
31429.95275399101
 20
9842.905229451348
 30
0.0
 11
31429.95275399101
 21
9822.905229451349
 31
0.0
 12
31369.95275399101
 22
9832.905229451348
 32
0.0
 13
31369.95275399101
 23
9832.905229451348
 33
0.0
  0
SOLID
  5
AB34
330
5F03
100
AcDbEntity
  8
2
  6
Continuous
440
 16777216
100
AcDbTrace
 10
32709.952753991
 20
9842.905229451348
 30
0.0
 11
32709.952753991
 21
9822.905229451349
 31
0.0
 12
32769.95275399101
 22
9832.905229451348
 32
0.0
 13
32769.95275399101
 23
9832.905229451348
 33
0.0
  0
MTEXT
  5
AB35
330
5F03
100
AcDbEntity
  8
2
  6
Continuous
 62
     7
440
 16777216
100
AcDbMText
 10
32069.952753991
 20
9882.905229451347
 30
0.0
 40
60.0
 41
0.0
 46
0.0
 71
     5
 72
     1
  1
\A1;350
  7
JF3
 73
     1
 44
1.0
  0
POINT
  5
AB36
330
5F03
100
AcDbEntity
  8
DEFPOINTS
  6
Continuous
 62
     0
440
 16777216
100
AcDbPoint
 10
31369.95275399101
 20
9167.407385954648
 30
0.0
  0
POINT
  5
AB37
330
5F03
100
AcDbEntity
  8
DEFPOINTS
  6
Continuous
 62
     0
440
 16777216
100
AcDbPoint
 10
32769.95275399101
 20
9167.407385954676
 30
0.0
  0
POINT
  5
AB38
330
5F03
100
AcDbEntity
  8
DEFPOINTS
  6
Continuous
 62
     0
440
 16777216
100
AcDbPoint
 10
32769.95275399101
 20
9832.905229451348
 30
0.0
  0
ENDBLK
  5
5F0E
330
5F03
100
AcDbEntity
  8
0
100
AcDbBlockEnd
  0
BLOCK
  5
5F19
330
5F0F
100
AcDbEntity
  8
0
100
AcDbBlockBegin
  2
*D17
 70
     1
 10
0.0
 20
0.0
 30
0.0
  3
*D17
  1

  0
LINE
  5
AADF
330
5F0F
100
AcDbEntity
  8
2
  6
Continuous
440
 16777216
370
    -2
100
AcDbLine
 10
31469.952753991
 20
6489.65576863425
 30
0.0
 11
31469.952753991
 21
6809.592810832636
 31
0.0
  0
LINE
  5
AAE0
330
5F0F
100
AcDbEntity
  8
2
  6
Continuous
440
 16777216
370
    -2
100
AcDbLine
 10
32669.952753991
 20
6489.65576863425
 30
0.0
 11
32669.952753991
 21
6809.592810832636
 31
0.0
  0
LINE
  5
AAE1
330
5F0F
100
AcDbEntity
  8
2
  6
Continuous
440
 16777216
370
    -2
100
AcDbLine
 10
31529.952753991
 20
6769.592810832635
 30
0.0
 11
32609.952753991
 21
6769.592810832635
 31
0.0
  0
SOLID
  5
AAE2
330
5F0F
100
AcDbEntity
  8
2
  6
Continuous
440
 16777216
100
AcDbTrace
 10
31529.952753991
 20
6779.592810832636
 30
0.0
 11
31529.952753991
 21
6759.592810832636
 31
0.0
 12
31469.952753991
 22
6769.592810832635
 32
0.0
 13
31469.952753991
 23
6769.592810832635
 33
0.0
  0
SOLID
  5
AAE3
330
5F0F
100
AcDbEntity
  8
2
  6
Continuous
440
 16777216
100
AcDbTrace
 10
32609.952753991
 20
6779.592810832636
 30
0.0
 11
32609.952753991
 21
6759.592810832636
 31
0.0
 12
32669.952753991
 22
6769.592810832635
 32
0.0
 13
32669.952753991
 23
6769.592810832635
 33
0.0
  0
MTEXT
  5
AAE4
330
5F0F
100
AcDbEntity
  8
2
  6
Continuous
 62
     7
440
 16777216
100
AcDbMText
 10
32069.952753991
 20
6819.592810832635
 30
0.0
 40
60.0
 41
0.0
 46
0.0
 71
     5
 72
     1
  1
\A1;600
  7
JF3
 73
     1
 44
1.0
  0
POINT
  5
AAE5
330
5F0F
100
AcDbEntity
  8
DEFPOINTS
  6
Continuous
 62
     0
440
 16777216
100
AcDbPoint
 10
31469.952753991
 20
6429.655768634251
 30
0.0
  0
POINT
  5
AAE6
330
5F0F
100
AcDbEntity
  8
DEFPOINTS
  6
Continuous
 62
     0
440
 16777216
100
AcDbPoint
 10
32669.952753991
 20
6429.655768634251
 30
0.0
  0
POINT
  5
AAE7
330
5F0F
100
AcDbEntity
  8
DEFPOINTS
  6
Continuous
 62
     0
440
 16777216
100
AcDbPoint
 10
32669.952753991
 20
6769.592810832635
 30
0.0
  0
ENDBLK
  5
5F1A
330
5F0F
100
AcDbEntity
  8
0
100
AcDbBlockEnd
  0
BLOCK
  5
5F25
330
5F1B
100
AcDbEntity
  8
0
100
AcDbBlockBegin
  2
*D18
 70
     1
 10
0.0
 20
0.0
 30
0.0
  3
*D18
  1

  0
LINE
  5
AAE8
330
5F1B
100
AcDbEntity
  8
2
  6
Continuous
440
 16777216
370
    -2
100
AcDbLine
 10
31138.242151991
 20
6249.655768634251
 30
0.0
 11
31138.242151991
 21
6987.646057656732
 31
0.0
  0
LINE
  5
AAE9
330
5F1B
100
AcDbEntity
  8
2
  6
Continuous
440
 16777216
370
    -2
100
AcDbLine
 10
33001.663355991
 20
6249.655768634251
 30
0.0
 11
33001.663355991
 21
6987.646057656732
 31
0.0
  0
LINE
  5
AAEA
330
5F1B
100
AcDbEntity
  8
2
  6
Continuous
440
 16777216
370
    -2
100
AcDbLine
 10
31198.242151991
 20
6947.646057656732
 30
0.0
 11
32941.663355991
 21
6947.646057656732
 31
0.0
  0
SOLID
  5
AAEB
330
5F1B
100
AcDbEntity
  8
2
  6
Continuous
440
 16777216
100
AcDbTrace
 10
31198.242151991
 20
6957.646057656733
 30
0.0
 11
31198.242151991
 21
6937.646057656732
 31
0.0
 12
31138.242151991
 22
6947.646057656732
 32
0.0
 13
31138.242151991
 23
6947.646057656732
 33
0.0
  0
SOLID
  5
AAEC
330
5F1B
100
AcDbEntity
  8
2
  6
Continuous
440
 16777216
100
AcDbTrace
 10
32941.663355991
 20
6957.646057656733
 30
0.0
 11
32941.663355991
 21
6937.646057656732
 31
0.0
 12
33001.663355991
 22
6947.646057656732
 32
0.0
 13
33001.663355991
 23
6947.646057656732
 33
0.0
  0
MTEXT
  5
AAED
330
5F1B
100
AcDbEntity
  8
2
  6
Continuous
 62
     7
440
 16777216
100
AcDbMText
 10
32069.952753991
 20
6997.646057656732
 30
0.0
 40
60.0
 41
0.0
 46
0.0
 71
     5
 72
     1
  1
\A1;932
  7
JF3
 73
     1
 44
1.0
  0
POINT
  5
AAEE
330
5F1B
100
AcDbEntity
  8
DEFPOINTS
  6
Continuous
 62
     0
440
 16777216
100
AcDbPoint
 10
31138.242151991
 20
6189.655768634253
 30
0.0
  0
POINT
  5
AAEF
330
5F1B
100
AcDbEntity
  8
DEFPOINTS
  6
Continuous
 62
     0
440
 16777216
100
AcDbPoint
 10
33001.663355991
 20
6189.655768634253
 30
0.0
  0
POINT
  5
AAF0
330
5F1B
100
AcDbEntity
  8
DEFPOINTS
  6
Continuous
 62
     0
440
 16777216
100
AcDbPoint
 10
33001.663355991
 20
6947.646057656732
 30
0.0
  0
ENDBLK
  5
5F26
330
5F1B
100
AcDbEntity
  8
0
100
AcDbBlockEnd
  0
BLOCK
  5
9224
330
9223
100
AcDbEntity
  8
0
100
AcDbBlockBegin
  2
*D19
 70
     1
 10
0.0
 20
0.0
 30
0.0
  3
*D19
  1

  0
LINE
  5
AE15
330
9223
100
AcDbEntity
  8
2
  6
Continuous
440
 16777216
370
    -2
100
AcDbLine
 10
26792.52575782599
 20
3225.163509395012
 30
0.0
 11
26835.01649583018
 21
3466.140459340297
 31
0.0
  0
LINE
  5
AE16
330
9223
100
AcDbEntity
  8
2
  6
Continuous
440
 16777216
370
    -2
100
AcDbLine
 10
27619.76427074008
 20
3079.299040087104
 30
0.0
 11
27662.25500874427
 21
3320.275990032387
 31
0.0
  0
LINE
  5
AE17
330
9223
100
AcDbEntity
  8
2
  6
Continuous
440
 16777216
370
    -2
100
AcDbLine
 10
26887.15903390423
 20
3416.329258559792
 30
0.0
 11
27596.22061645686
 21
3291.302570571916
 31
0.0
  0
MTEXT
  5
AE18
330
9223
100
AcDbEntity
  8
2
  6
Continuous
 62
     7
440
 16777216
100
AcDbMText
 10
27379.02613714893
 20
3391.91068000193
 30
0.0
 40
60.0
 41
0.0
 46
0.0
 71
     5
 72
     1
  1
\A1;φ210
  7
JF3
 11
0.9848077530122068
 21
-0.173648177666938
 31
0.0
 73
     1
 44
1.0
  0
SOLID
  5
AE19
330
9223
100
AcDbEntity
  8
2
  6
Continuous
440
 16777216
100
AcDbTrace
 10
26888.8955156809
 20
3426.177336089914
 30
0.0
 11
26885.42255212756
 21
3406.481181029671
 31
0.0
 12
26828.0705687235
 22
3426.748149219809
 32
0.0
 13
26828.0705687235
 23
3426.748149219809
 33
0.0
  0
SOLID
  5
AE1A
330
9223
100
AcDbEntity
  8
2
  6
Continuous
440
 16777216
100
AcDbTrace
 10
27597.95709823353
 20
3301.150648102038
 30
0.0
 11
27594.48413468019
 21
3281.454493041795
 31
0.0
 12
27655.30908163759
 22
3280.883679911899
 32
0.0
 13
27655.30908163759
 23
3280.883679911899
 33
0.0
  0
POINT
  5
AE1B
330
9223
100
AcDbEntity
  8
DEFPOINTS
  6
Continuous
 62
     0
440
 16777216
100
AcDbPoint
 10
26782.10686716597
 20
3166.07504421428
 30
0.0
  0
POINT
  5
AE1C
330
9223
100
AcDbEntity
  8
DEFPOINTS
  6
Continuous
 62
     0
440
 16777216
100
AcDbPoint
 10
27609.34538008006
 20
3020.210574906372
 30
0.0
  0
POINT
  5
AE1D
330
9223
100
AcDbEntity
  8
DEFPOINTS
  6
Continuous
 62
     0
440
 16777216
100
AcDbPoint
 10
27655.30908163759
 20
3280.883679911899
 30
0.0
  0
ENDBLK
  5
9225
330
9223
100
AcDbEntity
  8
0
100
AcDbBlockEnd
  0
BLOCK
  5
9230
330
922F
100
AcDbEntity
  8
0
100
AcDbBlockBegin
  2
*D20
 70
     1
 10
0.0
 20
0.0
 30
0.0
  3
*D20
  1

  0
LINE
  5
AE1E
330
922F
100
AcDbEntity
  8
2
  6
Continuous
440
 16777216
370
    -2
100
AcDbLine
 10
26705.94871499255
 20
8675.126360820547
 30
0.0
 11
26705.94871499255
 21
8890.757654463788
 31
0.0
  0
LINE
  5
AE1F
330
922F
100
AcDbEntity
  8
2
  6
Continuous
440
 16777216
370
    -2
100
AcDbLine
 10
27545.94871538229
 20
8675.12636082054
 30
0.0
 11
27545.94871538229
 21
8890.757654463788
 31
0.0
  0
LINE
  5
AE20
330
922F
100
AcDbEntity
  8
2
  6
Continuous
440
 16777216
370
    -2
100
AcDbLine
 10
26765.94871499255
 20
8850.757654463789
 30
0.0
 11
27485.94871538229
 21
8850.757654463789
 31
0.0
  0
MTEXT
  5
AE21
330
922F
100
AcDbEntity
  8
2
  6
Continuous
 62
     7
440
 16777216
100
AcDbMText
 10
27257.25512982486
 20
8919.640771694638
 30
0.0
 40
60.0
 41
0.0
 46
0.0
 71
     5
 72
     1
  1
\A1;φ210
  7
JF3
 73
     1
 44
1.0
  0
SOLID
  5
AE22
330
922F
100
AcDbEntity
  8
2
  6
Continuous
440
 16777216
100
AcDbTrace
 10
26765.94871499255
 20
8860.757654463789
 30
0.0
 11
26765.94871499255
 21
8840.757654463789
 31
0.0
 12
26705.94871499255
 22
8850.757654463789
 32
0.0
 13
26705.94871499255
 23
8850.757654463789
 33
0.0
  0
SOLID
  5
AE23
330
922F
100
AcDbEntity
  8
2
  6
Continuous
440
 16777216
100
AcDbTrace
 10
27485.94871538229
 20
8860.757654463789
 30
0.0
 11
27485.94871538229
 21
8840.757654463789
 31
0.0
 12
27545.94871538229
 22
8850.757654463789
 32
0.0
 13
27545.94871538229
 23
8850.757654463789
 33
0.0
  0
POINT
  5
AE24
330
922F
100
AcDbEntity
  8
DEFPOINTS
  6
Continuous
 62
     0
440
 16777216
100
AcDbPoint
 10
26705.94871499255
 20
8615.126360820548
 30
0.0
  0
POINT
  5
AE25
330
922F
100
AcDbEntity
  8
DEFPOINTS
  6
Continuous
 62
     0
440
 16777216
100
AcDbPoint
 10
27545.94871538229
 20
8615.126360820541
 30
0.0
  0
POINT
  5
AE26
330
922F
100
AcDbEntity
  8
DEFPOINTS
  6
Continuous
 62
     0
440
 16777216
100
AcDbPoint
 10
27545.94871538229
 20
8850.757654463789
 30
0.0
  0
ENDBLK
  5
9231
330
922F
100
AcDbEntity
  8
0
100
AcDbBlockEnd
  0
BLOCK
  5
923C
330
923B
100
AcDbEntity
  8
0
100
AcDbBlockBegin
  2
*D21
 70
     1
 10
0.0
 20
0.0
 30
0.0
  3
*D21
  1

  0
LINE
  5
AE27
330
923B
100
AcDbEntity
  8
2
  6
Continuous
440
 16777216
370
    -2
100
AcDbLine
 10
26747.21628269491
 20
5977.354760082949
 30
0.0
 11
26768.54280555514
 21
6221.118031811419
 31
0.0
  0
LINE
  5
AE28
330
923B
100
AcDbEntity
  8
2
  6
Continuous
440
 16777216
370
    -2
100
AcDbLine
 10
27584.01982948024
 20
5904.143936140937
 30
0.0
 11
27605.34635234047
 21
6147.907207869408
 31
0.0
  0
LINE
  5
AE29
330
923B
100
AcDbEntity
  8
2
  6
Continuous
440
 16777216
370
    -2
100
AcDbLine
 10
26824.82825773074
 20
6176.040899322888
 30
0.0
 11
27542.08844074506
 21
6113.288764510599
 31
0.0
  0
MTEXT
  5
AE2A
330
923B
100
AcDbEntity
  8
2
  6
Continuous
 62
     7
440
 16777216
100
AcDbMText
 10
27295.37775619537
 20
6194.664120628144
 30
0.0
 40
60.0
 41
0.0
 46
0.0
 71
     5
 72
     1
  1
\A1;φ210
  7
JF3
 11
0.9961946980917446
 21
-0.0871557427476687
 31
0.0
 73
     1
 44
1.0
  0
SOLID
  5
AE2B
330
923B
100
AcDbEntity
  8
2
  6
Continuous
440
 16777216
100
AcDbTrace
 10
26825.69981515822
 20
6186.002846303807
 30
0.0
 11
26823.95670030326
 21
6166.078952341972
 31
0.0
 12
26765.05657584523
 22
6181.270243887748
 32
0.0
 13
26765.05657584523
 23
6181.270243887748
 33
0.0
  0
SOLID
  5
AE2C
330
923B
100
AcDbEntity
  8
2
  6
Continuous
440
 16777216
100
AcDbTrace
 10
27542.95999817254
 20
6123.250711491517
 30
0.0
 11
27541.21688331759
 21
6103.326817529682
 31
0.0
 12
27601.86012263057
 22
6108.059419945737
 32
0.0
 13
27601.86012263057
 23
6108.059419945737
 33
0.0
  0
POINT
  5
AE2D
330
923B
100
AcDbEntity
  8
DEFPOINTS
  6
Continuous
 62
     0
440
 16777216
100
AcDbPoint
 10
26741.98693813004
 20
5917.583078197445
 30
0.0
  0
POINT
  5
AE2E
330
923B
100
AcDbEntity
  8
DEFPOINTS
  6
Continuous
 62
     0
440
 16777216
100
AcDbPoint
 10
27578.79048491538
 20
5844.372254255433
 30
0.0
  0
POINT
  5
AE2F
330
923B
100
AcDbEntity
  8
DEFPOINTS
  6
Continuous
 62
     0
440
 16777216
100
AcDbPoint
 10
27601.86012263057
 20
6108.059419945737
 30
0.0
  0
ENDBLK
  5
923D
330
923B
100
AcDbEntity
  8
0
100
AcDbBlockEnd
  0
BLOCK
  5
9248
330
9247
100
AcDbEntity
  8
0
100
AcDbBlockBegin
  2
*D22
 70
     1
 10
0.0
 20
0.0
 30
0.0
  3
*D22
  1

  0
LINE
  5
AE30
330
9247
100
AcDbEntity
  8
2
  6
Continuous
440
 16777216
370
    -2
100
AcDbLine
 10
27235.36702547802
 20
6738.684701833022
 30
0.0
 11
27261.89896372769
 21
7041.945569703649
 31
0.0
  0
LINE
  5
AE31
330
9247
100
AcDbEntity
  8
2
  6
Continuous
440
 16777216
370
    -2
100
AcDbLine
 10
27125.94877435053
 20
6748.028368999595
 30
0.0
 11
27125.94882362894
 21
7047.881303393808
 31
0.0
  0
ARC
  5
AE32
330
9247
100
AcDbEntity
  8
2
  6
Continuous
440
 16777216
370
    -2
100
AcDbCircle
 10
27125.94856727968
 20
5488.028368999611
 30
0.0
 40
1529.852934394218
100
AcDbArc
 50
86.49810613200255
 51
88.50187503579791
  0
SOLID
  5
AE33
330
9247
100
AcDbEntity
  8
2
  6
Continuous
440
 16777216
100
AcDbTrace
 10
27219.88849539619
 20
7021.673057703075
 30
0.0
 11
27218.90016134552
 21
7008.376404982105
 31
0.0
 12
27259.28428653377
 22
7012.0597291906
 32
0.0
 13
27259.28428653377
 23
7012.0597291906
 33
0.0
  0
SOLID
  5
AE34
330
9247
100
AcDbEntity
  8
2
  6
Continuous
440
 16777216
100
AcDbTrace
 10
27165.8582448782
 20
7010.692273802373
 30
0.0
 11
27166.03255576301
 21
7024.024467676347
 31
0.0
 12
27125.94881869868
 22
7017.881303393808
 32
0.0
 13
27125.94881869868
 23
7017.881303393808
 33
0.0
  0
MTEXT
  5
AE35
330
9247
100
AcDbEntity
  8
2
  6
Continuous
 62
     7
440
 16777216
100
AcDbMText
 10
27194.86104379426
 20
7066.377622141846
 30
0.0
 40
60.0
 41
0.0
 46
0.0
 71
     5
 72
     1
  1
\A1;5°
  7
JF3
 11
0.9990482144133492
 21
-0.0436195515508634
 31
0.0
 73
     1
 44
1.0
  0
POINT
  5
AE36
330
9247
100
AcDbEntity
  8
DEFPOINTS
  6
Continuous
 62
     0
440
 16777216
100
AcDbPoint
 10
27214.90185540186
 20
7015.293019741863
 30
0.0
  0
POINT
  5
AE37
330
9247
100
AcDbEntity
  8
DEFPOINTS
  6
Continuous
 62
     0
440
 16777216
100
AcDbPoint
 10
27125.94846867451
 20
4888.028368999598
 30
0.0
  0
POINT
  5
AE38
330
9247
100
AcDbEntity
  8
DEFPOINTS
  6
Continuous
 62
     0
440
 16777216
100
AcDbPoint
 10
27073.85401537443
 20
4892.586043095933
 30
0.0
  0
POINT
  5
AE39
330
9247
100
AcDbEntity
  8
DEFPOINTS
  6
Continuous
 62
     0
440
 16777216
100
AcDbPoint
 10
27230.13767109017
 20
6678.91302080692
 30
0.0
  0
POINT
  5
AE3A
330
9247
100
AcDbEntity
  8
DEFPOINTS
  6
Continuous
 62
     0
440
 16777216
100
AcDbPoint
 10
27125.94876449001
 20
6688.028368999596
 30
0.0
  0
ENDBLK
  5
9249
330
9247
100
AcDbEntity
  8
0
100
AcDbBlockEnd
  0
BLOCK
  5
9256
330
9255
100
AcDbEntity
  8
0
100
AcDbBlockBegin
  2
*D23
 70
     1
 10
0.0
 20
0.0
 30
0.0
  3
*D23
  1

  0
LINE
  5
AE3B
330
9255
100
AcDbEntity
  8
2
  6
Continuous
440
 16777216
370
    -2
100
AcDbLine
 10
26641.0154657566
 20
3190.953288915389
 30
0.0
 11
26258.62420690355
 21
3258.379249835916
 31
0.0
  0
LINE
  5
AE3C
330
9255
100
AcDbEntity
  8
2
  6
Continuous
440
 16777216
370
    -2
100
AcDbLine
 10
26467.24589896717
 20
3668.381247322205
 30
0.0
 11
26335.02946666763
 21
3691.69459403421
 31
0.0
  0
LINE
  5
AE3D
330
9255
100
AcDbEntity
  8
2
  6
Continuous
440
 16777216
370
    -2
100
AcDbLine
 10
26308.43541625338
 20
3310.521779723791
 30
0.0
 11
26364.00287527573
 21
3625.660196985189
 31
0.0
  0
SOLID
  5
AE3E
330
9255
100
AcDbEntity
  8
2
  6
Continuous
440
 16777216
100
AcDbTrace
 10
26298.58733900864
 20
3312.258263118935
 30
0.0
 11
26318.28349349812
 21
3308.785296328648
 31
0.0
 12
26298.01651588252
 22
3251.433316255343
 32
0.0
 13
26298.01651588252
 23
3251.433316255343
 33
0.0
  0
SOLID
  5
AE3F
330
9255
100
AcDbEntity
  8
2
  6
Continuous
440
 16777216
100
AcDbTrace
 10
26354.15479803099
 20
3627.396680380333
 30
0.0
 11
26373.85095252048
 21
3623.923713590046
 31
0.0
 12
26374.42177564659
 22
3684.748660453637
 32
0.0
 13
26374.42177564659
 23
3684.748660453637
 33
0.0
  0
MTEXT
  5
AE40
330
9255
100
AcDbEntity
  8
2
  6
Continuous
 62
     7
440
 16777216
100
AcDbMText
 10
26286.97875954085
 20
3476.773405330204
 30
0.0
 40
60.0
 41
0.0
 46
0.0
 71
     5
 72
     1
  1
\A1;110
  7
JF3
 11
0.1736483395143295
 21
0.9848077244741311
 31
0.0
 73
     1
 44
1.0
  0
POINT
  5
AE41
330
9255
100
AcDbEntity
  8
DEFPOINTS
  6
Continuous
 62
     0
440
 16777216
100
AcDbPoint
 10
26700.10392922505
 20
3180.53438854453
 30
0.0
  0
POINT
  5
AE42
330
9255
100
AcDbEntity
  8
DEFPOINTS
  6
Continuous
 62
     0
440
 16777216
100
AcDbPoint
 10
26526.33436243562
 20
3657.962346951346
 30
0.0
  0
POINT
  5
AE43
330
9255
100
AcDbEntity
  8
DEFPOINTS
  6
Continuous
 62
     0
440
 16777216
100
AcDbPoint
 10
26374.42177564659
 20
3684.748660453637
 30
0.0
  0
ENDBLK
  5
9257
330
9255
100
AcDbEntity
  8
0
100
AcDbBlockEnd
  0
BLOCK
  5
9262
330
9261
100
AcDbEntity
  8
0
100
AcDbBlockBegin
  2
*D24
 70
     1
 10
0.0
 20
0.0
 30
0.0
  3
*D24
  1

  0
LINE
  5
AE44
330
9261
100
AcDbEntity
  8
2
  6
Continuous
440
 16777216
370
    -2
100
AcDbLine
 10
27341.57975085614
 20
3920.671524897946
 30
0.0
 11
27400.28626367489
 21
4253.612383781419
 31
0.0
  0
LINE
  5
AE45
330
9261
100
AcDbEntity
  8
2
  6
Continuous
440
 16777216
370
    -2
100
AcDbLine
 10
27125.94877435052
 20
3957.767488957932
 30
0.0
 11
27125.94882691469
 21
4277.613844908939
 31
0.0
  0
ARC
  5
AE46
330
9261
100
AcDbEntity
  8
2
  6
Continuous
440
 16777216
370
    -2
100
AcDbCircle
 10
27125.94856727967
 20
2697.767488957925
 30
0.0
 40
1549.846355951035
100
AcDbArc
 50
81.47877897142745
 51
88.52120219637292
  0
SOLID
  5
AE47
330
9261
100
AcDbEntity
  8
2
  6
Continuous
440
 16777216
100
AcDbTrace
 10
27356.67098690099
 20
4237.084946141556
 30
0.0
 11
27354.52531457787
 21
4223.925391891524
 31
0.0
 12
27395.07681348952
 22
4224.068152047184
 32
0.0
 13
27395.07681348952
 23
4224.068152047184
 33
0.0
  0
SOLID
  5
AE48
330
9261
100
AcDbEntity
  8
2
  6
Continuous
440
 16777216
100
AcDbTrace
 10
27165.85946010733
 20
4240.431546595167
 30
0.0
 11
27166.03152236461
 21
4253.76376967901
 31
0.0
 12
27125.94882198444
 22
4247.613844908939
 32
0.0
 13
27125.94882198444
 23
4247.613844908939
 33
0.0
  0
MTEXT
  5
AE49
330
9261
100
AcDbEntity
  8
2
  6
Continuous
 62
     7
440
 16777216
100
AcDbMText
 10
27265.38462663608
 20
4291.525923602574
 30
0.0
 40
60.0
 41
0.0
 46
0.0
 71
     5
 72
     1
  1
\A1;10°
  7
JF3
 11
0.9961946837683878
 21
-0.087155906464232
 31
0.0
 73
     1
 44
1.0
  0
POINT
  5
AE4A
330
9261
100
AcDbEntity
  8
DEFPOINTS
  6
Continuous
 62
     0
440
 16777216
100
AcDbPoint
 10
27305.87500017093
 20
4237.134308725626
 30
0.0
  0
POINT
  5
AE4B
330
9261
100
AcDbEntity
  8
DEFPOINTS
  6
Continuous
 62
     0
440
 16777216
100
AcDbPoint
 10
27125.94846867451
 20
2097.767488957932
 30
0.0
  0
POINT
  5
AE4C
330
9261
100
AcDbEntity
  8
DEFPOINTS
  6
Continuous
 62
     0
440
 16777216
100
AcDbPoint
 10
27023.3424256768
 20
2115.85970272216
 30
0.0
  0
POINT
  5
AE4D
330
9261
100
AcDbEntity
  8
DEFPOINTS
  6
Continuous
 62
     0
440
 16777216
100
AcDbPoint
 10
27331.16085048541
 20
3861.583061429474
 30
0.0
  0
POINT
  5
AE4E
330
9261
100
AcDbEntity
  8
DEFPOINTS
  6
Continuous
 62
     0
440
 16777216
100
AcDbPoint
 10
27125.94876449001
 20
3897.767488957932
 30
0.0
  0
ENDBLK
  5
9263
330
9261
100
AcDbEntity
  8
0
100
AcDbBlockEnd
  0
BLOCK
  5
9270
330
926F
100
AcDbEntity
  8
0
100
AcDbBlockBegin
  2
*D25
 70
     1
 10
0.0
 20
0.0
 30
0.0
  3
*D25
  1

  0
LINE
  5
AE4F
330
926F
100
AcDbEntity
  8
2
  6
Continuous
440
 16777216
370
    -2
100
AcDbLine
 10
26675.76938558967
 20
3095.467679443589
 30
0.0
 11
26243.34315210459
 21
3171.716164849423
 31
0.0
  0
LINE
  5
AE50
330
926F
100
AcDbEntity
  8
2
  6
Continuous
440
 16777216
370
    -2
100
AcDbLine
 10
26641.0154657566
 20
3190.953288915389
 30
0.0
 11
26258.62420690451
 21
3258.379249835748
 31
0.0
  0
LINE
  5
AE51
330
926F
100
AcDbEntity
  8
2
  6
Continuous
440
 16777216
370
    -2
100
AcDbLine
 10
26272.3165607127
 20
3105.681767800402
 30
0.0
 11
26261.89766034184
 21
3046.593304331954
 31
0.0
  0
LINE
  5
AE52
330
926F
100
AcDbEntity
  8
2
  6
Continuous
440
 16777216
370
    -2
100
AcDbLine
 10
26308.43541625433
 20
3310.521779723623
 30
0.0
 11
26318.85431662519
 21
3369.610243192071
 31
0.0
  0
LINE
  5
AE53
330
926F
100
AcDbEntity
  8
2
  6
Continuous
440
 16777216
370
    -2
100
AcDbLine
 10
26282.73546108356
 20
3164.77023126885
 30
0.0
 11
26298.01651588347
 21
3251.433316255175
 31
0.0
  0
SOLID
  5
AE54
330
926F
100
AcDbEntity
  8
2
  6
Continuous
440
 16777216
100
AcDbTrace
 10
26262.46848346796
 20
3107.418251195545
 30
0.0
 11
26282.16463795745
 21
3103.945284405259
 31
0.0
 12
26282.73546108356
 22
3164.77023126885
 32
0.0
 13
26282.73546108356
 23
3164.77023126885
 33
0.0
  0
SOLID
  5
AE55
330
926F
100
AcDbEntity
  8
2
  6
Continuous
440
 16777216
100
AcDbTrace
 10
26298.58733900959
 20
3312.258263118766
 30
0.0
 11
26318.28349349908
 21
3308.78529632848
 31
0.0
 12
26298.01651588347
 22
3251.433316255175
 32
0.0
 13
26298.01651588347
 23
3251.433316255175
 33
0.0
  0
MTEXT
  5
AE56
330
926F
100
AcDbEntity
  8
2
  6
Continuous
 62
     7
440
 16777216
100
AcDbMText
 10
26241.13560225981
 20
3216.784190737725
 30
0.0
 40
60.0
 41
0.0
 46
0.0
 71
     5
 72
     1
  1
\A1;22
  7
JF3
 11
0.1736483395143295
 21
0.9848077244741311
 31
0.0
 73
     1
 44
1.0
  0
POINT
  5
AE57
330
926F
100
AcDbEntity
  8
DEFPOINTS
  6
Continuous
 62
     0
440
 16777216
100
AcDbPoint
 10
26734.85784905812
 20
3085.048779072729
 30
0.0
  0
POINT
  5
AE58
330
926F
100
AcDbEntity
  8
DEFPOINTS
  6
Continuous
 62
     0
440
 16777216
100
AcDbPoint
 10
26700.10392922505
 20
3180.53438854453
 30
0.0
  0
POINT
  5
AE59
330
926F
100
AcDbEntity
  8
DEFPOINTS
  6
Continuous
 62
     0
440
 16777216
100
AcDbPoint
 10
26298.01651588347
 20
3251.433316255175
 30
0.0
  0
ENDBLK
  5
9271
330
926F
100
AcDbEntity
  8
0
100
AcDbBlockEnd
  0
BLOCK
  5
927E
330
927D
100
AcDbEntity
  8
0
100
AcDbBlockBegin
  2
*D26
 70
     1
 10
0.0
 20
0.0
 30
0.0
  3
*D26
  1

  0
LINE
  5
AE5A
330
927D
100
AcDbEntity
  8
2
  6
Continuous
440
 16777216
370
    -2
100
AcDbLine
 10
26642.20793923591
 20
5837.976463754683
 30
0.0
 11
26191.68722246866
 21
5877.391919154351
 31
0.0
  0
LINE
  5
AE5B
330
927D
100
AcDbEntity
  8
2
  6
Continuous
440
 16777216
370
    -2
100
AcDbLine
 10
26599.26415750237
 20
5930.069703529111
 30
0.0
 11
26199.35692783027
 21
5965.057052586557
 31
0.0
  0
LINE
  5
AE5C
330
927D
100
AcDbEntity
  8
2
  6
Continuous
440
 16777216
370
    -2
100
AcDbLine
 10
26226.30566582762
 20
5814.134007559021
 30
0.0
 11
26221.07632126289
 21
5754.362325673504
 31
0.0
  0
LINE
  5
AE5D
330
927D
100
AcDbEntity
  8
2
  6
Continuous
440
 16777216
370
    -2
100
AcDbLine
 10
26244.43406031867
 20
6021.342504762259
 30
0.0
 11
26249.66340488339
 21
6081.114186647775
 31
0.0
  0
LINE
  5
AE5E
330
927D
100
AcDbEntity
  8
2
  6
Continuous
440
 16777216
370
    -2
100
AcDbLine
 10
26231.53501039234
 20
5873.905689444537
 30
0.0
 11
26239.20471575394
 21
5961.570822876741
 31
0.0
  0
SOLID
  5
AE5F
330
927D
100
AcDbEntity
  8
2
  6
Continuous
440
 16777216
100
AcDbTrace
 10
26216.34371884669
 20
5815.005564986475
 30
0.0
 11
26236.26761280854
 21
5813.262450131567
 31
0.0
 12
26231.53501039234
 22
5873.905689444537
 32
0.0
 13
26231.53501039234
 23
5873.905689444537
 33
0.0
  0
SOLID
  5
AE60
330
927D
100
AcDbEntity
  8
2
  6
Continuous
440
 16777216
100
AcDbTrace
 10
26234.47211333775
 20
6022.214062189712
 30
0.0
 11
26254.39600729959
 21
6020.470947334804
 31
0.0
 12
26239.20471575394
 22
5961.570822876741
 32
0.0
 13
26239.20471575394
 23
5961.570822876741
 33
0.0
  0
MTEXT
  5
AE61
330
927D
100
AcDbEntity
  8
2
  6
Continuous
 62
     7
440
 16777216
100
AcDbMText
 10
26185.56012816855
 20
5922.096043297912
 30
0.0
 40
60.0
 41
0.0
 46
0.0
 71
     5
 72
     1
  1
\A1;22
  7
JF3
 11
0.0871557427453809
 21
0.9961946980919449
 31
0.0
 73
     1
 44
1.0
  0
POINT
  5
AE62
330
927D
100
AcDbEntity
  8
DEFPOINTS
  6
Continuous
 62
     0
440
 16777216
100
AcDbPoint
 10
26701.97962112142
 20
5832.74711918996
 30
0.0
  0
POINT
  5
AE63
330
927D
100
AcDbEntity
  8
DEFPOINTS
  6
Continuous
 62
     0
440
 16777216
100
AcDbPoint
 10
26659.03583938789
 20
5924.840358964388
 30
0.0
  0
POINT
  5
AE64
330
927D
100
AcDbEntity
  8
DEFPOINTS
  6
Continuous
 62
     0
440
 16777216
100
AcDbPoint
 10
26239.20471575394
 20
5961.570822876741
 30
0.0
  0
ENDBLK
  5
927F
330
927D
100
AcDbEntity
  8
0
100
AcDbBlockEnd
  0
BLOCK
  5
928C
330
928B
100
AcDbEntity
  8
0
100
AcDbBlockBegin
  2
*D27
 70
     1
 10
0.0
 20
0.0
 30
0.0
  3
*D27
  1

  0
LINE
  5
AE65
330
928B
100
AcDbEntity
  8
2
  6
Continuous
440
 16777216
370
    -2
100
AcDbLine
 10
26599.26415750237
 20
5930.069703529111
 30
0.0
 11
26199.3569278314
 21
5965.057052586458
 31
0.0
  0
LINE
  5
AE66
330
928B
100
AcDbEntity
  8
2
  6
Continuous
440
 16777216
370
    -2
100
AcDbLine
 10
26355.26538918835
 20
6453.326748442552
 30
0.0
 11
26242.93479920415
 21
6463.154401633089
 31
0.0
  0
LINE
  5
AE67
330
928B
100
AcDbEntity
  8
2
  6
Continuous
440
 16777216
370
    -2
100
AcDbLine
 10
26244.43406031981
 20
6021.342504762159
 30
0.0
 11
26277.55324256311
 21
6399.896490037757
 31
0.0
  0
SOLID
  5
AE68
330
928B
100
AcDbEntity
  8
2
  6
Continuous
440
 16777216
100
AcDbTrace
 10
26234.47211333889
 20
6022.214062189613
 30
0.0
 11
26254.39600730073
 21
6020.470947334706
 31
0.0
 12
26239.20471575508
 22
5961.570822876643
 32
0.0
 13
26239.20471575508
 23
5961.570822876643
 33
0.0
  0
SOLID
  5
AE69
330
928B
100
AcDbEntity
  8
2
  6
Continuous
440
 16777216
100
AcDbTrace
 10
26267.59129558219
 20
6400.76804746521
 30
0.0
 11
26287.51518954403
 21
6399.024932610303
 31
0.0
 12
26282.78258712783
 22
6459.668171923273
 32
0.0
 13
26282.78258712783
 23
6459.668171923273
 33
0.0
  0
MTEXT
  5
AE6A
330
928B
100
AcDbEntity
  8
2
  6
Continuous
 62
     7
440
 16777216
100
AcDbMText
 10
26211.18391653686
 20
6214.977284537231
 30
0.0
 40
60.0
 41
0.0
 46
0.0
 71
     5
 72
     1
  1
\A1;125
  7
JF3
 11
0.0871557427453809
 21
0.9961946980919449
 31
0.0
 73
     1
 44
1.0
  0
POINT
  5
AE6B
330
928B
100
AcDbEntity
  8
DEFPOINTS
  6
Continuous
 62
     0
440
 16777216
100
AcDbPoint
 10
26659.03583938789
 20
5924.840358964388
 30
0.0
  0
POINT
  5
AE6C
330
928B
100
AcDbEntity
  8
DEFPOINTS
  6
Continuous
 62
     0
440
 16777216
100
AcDbPoint
 10
26415.03707107387
 20
6448.097403877828
 30
0.0
  0
POINT
  5
AE6D
330
928B
100
AcDbEntity
  8
DEFPOINTS
  6
Continuous
 62
     0
440
 16777216
100
AcDbPoint
 10
26282.78258712783
 20
6459.668171923273
 30
0.0
  0
ENDBLK
  5
928D
330
928B
100
AcDbEntity
  8
0
100
AcDbBlockEnd
  0
BLOCK
  5
9298
330
9297
100
AcDbEntity
  8
0
100
AcDbBlockBegin
  2
*D28
 70
     1
 10
0.0
 20
0.0
 30
0.0
  3
*D28
  1

  0
LINE
  5
AE6E
330
9297
100
AcDbEntity
  8
2
  6
Continuous
440
 16777216
370
    -2
100
AcDbLine
 10
26304.13514077762
 20
9167.08788499641
 30
0.0
 11
26219.24410908899
 21
9314.123464408513
 31
0.0
  0
LINE
  5
AE6F
330
9297
100
AcDbEntity
  8
2
  6
Continuous
440
 16777216
370
    -2
100
AcDbLine
 10
26387.27358067188
 20
9167.08788499641
 30
0.0
 11
26281.5979388868
 21
9350.123464969177
 31
0.0
  0
LINE
  5
AE70
330
9297
100
AcDbEntity
  8
2
  6
Continuous
440
 16777216
370
    -2
100
AcDbLine
 10
26187.28258497225
 20
9249.482448202584
 30
0.0
 11
26135.32106079639
 21
9219.4824481139
 31
0.0
  0
LINE
  5
AE71
330
9297
100
AcDbEntity
  8
2
  6
Continuous
440
 16777216
370
    -2
100
AcDbLine
 10
26353.55946312178
 20
9345.482448940614
 30
0.0
 11
26405.52098729765
 21
9375.482449029298
 31
0.0
  0
LINE
  5
AE72
330
9297
100
AcDbEntity
  8
2
  6
Continuous
440
 16777216
370
    -2
100
AcDbLine
 10
26239.24410914811
 20
9279.482448291268
 30
0.0
 11
26301.59793894592
 21
9315.482448851932
 31
0.0
  0
SOLID
  5
AE73
330
9297
100
AcDbEntity
  8
2
  6
Continuous
440
 16777216
100
AcDbTrace
 10
26182.28258495747
 20
9258.142702231896
 30
0.0
 11
26192.28258498703
 21
9240.822194173274
 31
0.0
 12
26239.24410914811
 22
9279.482448291268
 32
0.0
 13
26239.24410914811
 23
9279.482448291268
 33
0.0
  0
SOLID
  5
AE74
330
9297
100
AcDbEntity
  8
2
  6
Continuous
440
 16777216
100
AcDbTrace
 10
26348.559463107
 20
9354.142702969927
 30
0.0
 11
26358.55946313657
 21
9336.822194911304
 31
0.0
 12
26301.59793894592
 22
9315.482448851932
 32
0.0
 13
26301.59793894592
 23
9315.482448851932
 33
0.0
  0
MTEXT
  5
AE75
330
9297
100
AcDbEntity
  8
2
  6
Continuous
 62
     7
440
 16777216
100
AcDbMText
 10
26245.42102397311
 20
9340.783718718155
 30
0.0
 40
60.0
 41
0.0
 46
0.0
 71
     5
 72
     1
  1
\A1;18
  7
JF3
 11
0.8660254029310763
 21
0.5000000014780667
 31
0.0
 73
     1
 44
1.0
  0
POINT
  5
AE76
330
9297
100
AcDbEntity
  8
DEFPOINTS
  6
Continuous
 62
     0
440
 16777216
100
AcDbPoint
 10
26334.13514086631
 20
9115.126360820546
 30
0.0
  0
POINT
  5
AE77
330
9297
100
AcDbEntity
  8
DEFPOINTS
  6
Continuous
 62
     0
440
 16777216
100
AcDbPoint
 10
26417.27358076056
 20
9115.126360820546
 30
0.0
  0
POINT
  5
AE78
330
9297
100
AcDbEntity
  8
DEFPOINTS
  6
Continuous
 62
     0
440
 16777216
100
AcDbPoint
 10
26301.59793894592
 20
9315.482448851932
 30
0.0
  0
ENDBLK
  5
9299
330
9297
100
AcDbEntity
  8
0
100
AcDbBlockEnd
  0
BLOCK
  5
92A6
330
92A5
100
AcDbEntity
  8
0
100
AcDbBlockBegin
  2
*D29
 70
     1
 10
0.0
 20
0.0
 30
0.0
  3
*D29
  1

  0
LINE
  5
AE79
330
92A5
100
AcDbEntity
  8
2
  6
Continuous
440
 16777216
370
    -2
100
AcDbLine
 10
28385.94873162164
 20
3697.767488957934
 30
0.0
 11
28872.93143915636
 21
3697.767488957934
 31
0.0
  0
LINE
  5
AE7A
330
92A5
100
AcDbEntity
  8
2
  6
Continuous
440
 16777216
370
    -2
100
AcDbLine
 10
28385.94873162164
 20
2297.767488957934
 30
0.0
 11
28872.93143915636
 21
2297.767488957934
 31
0.0
  0
LINE
  5
AE7B
330
92A5
100
AcDbEntity
  8
2
  6
Continuous
440
 16777216
370
    -2
100
AcDbLine
 10
28842.93143915636
 20
3657.767488957934
 30
0.0
 11
28842.93143915636
 21
2337.767488957934
 31
0.0
  0
SOLID
  5
AE7C
330
92A5
100
AcDbEntity
  8
2
  6
Continuous
440
 16777216
100
AcDbTrace
 10
28836.26477248969
 20
3657.767488957934
 30
0.0
 11
28849.59810582303
 21
3657.767488957934
 31
0.0
 12
28842.93143915636
 22
3697.767488957934
 32
0.0
 13
28842.93143915636
 23
3697.767488957934
 33
0.0
  0
SOLID
  5
AE7D
330
92A5
100
AcDbEntity
  8
2
  6
Continuous
440
 16777216
100
AcDbTrace
 10
28836.26477248969
 20
2337.767488957934
 30
0.0
 11
28849.59810582303
 21
2337.767488957934
 31
0.0
 12
28842.93143915636
 22
2297.767488957934
 32
0.0
 13
28842.93143915636
 23
2297.767488957934
 33
0.0
  0
MTEXT
  5
AE7E
330
92A5
100
AcDbEntity
  8
2
  6
Continuous
 62
     7
440
 16777216
100
AcDbMText
 10
28792.93143915636
 20
2997.767488957939
 30
0.0
 40
60.0
 41
0.0
 46
0.0
 71
     5
 72
     1
  1
\A1;350
  7
JF3
 11
0.0000000000000001
 21
1.0
 31
0.0
 73
     1
 44
1.0
  0
POINT
  5
AE7F
330
92A5
100
AcDbEntity
  8
DEFPOINTS
  6
Continuous
 62
     0
440
 16777216
100
AcDbPoint
 10
28325.94873162164
 20
3697.767488957934
 30
0.0
  0
POINT
  5
AE80
330
92A5
100
AcDbEntity
  8
DEFPOINTS
  6
Continuous
 62
     0
440
 16777216
100
AcDbPoint
 10
28325.94873162164
 20
2297.767488957934
 30
0.0
  0
POINT
  5
AE81
330
92A5
100
AcDbEntity
  8
DEFPOINTS
  6
Continuous
 62
     0
440
 16777216
100
AcDbPoint
 10
28842.93143915636
 20
2297.767488957934
 30
0.0
  0
ENDBLK
  5
92A7
330
92A5
100
AcDbEntity
  8
0
100
AcDbBlockEnd
  0
BLOCK
  5
92B2
330
92B1
100
AcDbEntity
  8
0
100
AcDbBlockBegin
  2
*D30
 70
     1
 10
0.0
 20
0.0
 30
0.0
  3
*D30
  1

  0
LINE
  5
AE82
330
92B1
100
AcDbEntity
  8
2
  6
Continuous
440
 16777216
370
    -2
100
AcDbLine
 10
28385.94873162163
 20
6488.028368999597
 30
0.0
 11
28872.93143915636
 21
6488.028368999597
 31
0.0
  0
LINE
  5
AE83
330
92B1
100
AcDbEntity
  8
2
  6
Continuous
440
 16777216
370
    -2
100
AcDbLine
 10
28385.94873162163
 20
5088.028368999598
 30
0.0
 11
28872.93143915636
 21
5088.028368999598
 31
0.0
  0
LINE
  5
AE84
330
92B1
100
AcDbEntity
  8
2
  6
Continuous
440
 16777216
370
    -2
100
AcDbLine
 10
28842.93143915635
 20
6448.028368999597
 30
0.0
 11
28842.93143915635
 21
5128.028368999597
 31
0.0
  0
SOLID
  5
AE85
330
92B1
100
AcDbEntity
  8
2
  6
Continuous
440
 16777216
100
AcDbTrace
 10
28836.26477248969
 20
6448.028368999597
 30
0.0
 11
28849.59810582302
 21
6448.028368999597
 31
0.0
 12
28842.93143915635
 22
6488.028368999597
 32
0.0
 13
28842.93143915635
 23
6488.028368999597
 33
0.0
  0
SOLID
  5
AE86
330
92B1
100
AcDbEntity
  8
2
  6
Continuous
440
 16777216
100
AcDbTrace
 10
28836.26477248969
 20
5128.028368999597
 30
0.0
 11
28849.59810582302
 21
5128.028368999597
 31
0.0
 12
28842.93143915635
 22
5088.028368999598
 32
0.0
 13
28842.93143915635
 23
5088.028368999598
 33
0.0
  0
MTEXT
  5
AE87
330
92B1
100
AcDbEntity
  8
2
  6
Continuous
 62
     7
440
 16777216
100
AcDbMText
 10
28792.93143915635
 20
5788.028368999602
 30
0.0
 40
60.0
 41
0.0
 46
0.0
 71
     5
 72
     1
  1
\A1;350
  7
JF3
 11
0.0000000000000001
 21
1.0
 31
0.0
 73
     1
 44
1.0
  0
POINT
  5
AE88
330
92B1
100
AcDbEntity
  8
DEFPOINTS
  6
Continuous
 62
     0
440
 16777216
100
AcDbPoint
 10
28325.94873162163
 20
6488.028368999597
 30
0.0
  0
POINT
  5
AE89
330
92B1
100
AcDbEntity
  8
DEFPOINTS
  6
Continuous
 62
     0
440
 16777216
100
AcDbPoint
 10
28325.94873162163
 20
5088.028368999598
 30
0.0
  0
POINT
  5
AE8A
330
92B1
100
AcDbEntity
  8
DEFPOINTS
  6
Continuous
 62
     0
440
 16777216
100
AcDbPoint
 10
28842.93143915635
 20
5088.028368999598
 30
0.0
  0
ENDBLK
  5
92B3
330
92B1
100
AcDbEntity
  8
0
100
AcDbBlockEnd
  0
BLOCK
  5
92BE
330
92BD
100
AcDbEntity
  8
0
100
AcDbBlockBegin
  2
*D31
 70
     1
 10
0.0
 20
0.0
 30
0.0
  3
*D31
  1

  0
LINE
  5
AE8B
330
92BD
100
AcDbEntity
  8
2
  6
Continuous
440
 16777216
370
    -2
100
AcDbLine
 10
28385.94873162163
 20
9215.126360820544
 30
0.0
 11
28872.93143915636
 21
9215.126360820542
 31
0.0
  0
LINE
  5
AE8C
330
92BD
100
AcDbEntity
  8
2
  6
Continuous
440
 16777216
370
    -2
100
AcDbLine
 10
28385.94873162163
 20
7815.126360820547
 30
0.0
 11
28872.93143915636
 21
7815.126360820547
 31
0.0
  0
LINE
  5
AE8D
330
92BD
100
AcDbEntity
  8
2
  6
Continuous
440
 16777216
370
    -2
100
AcDbLine
 10
28842.93143915636
 20
9175.126360820543
 30
0.0
 11
28842.93143915635
 21
7855.126360820546
 31
0.0
  0
SOLID
  5
AE8E
330
92BD
100
AcDbEntity
  8
2
  6
Continuous
440
 16777216
100
AcDbTrace
 10
28836.26477248969
 20
9175.126360820543
 30
0.0
 11
28849.59810582302
 21
9175.126360820543
 31
0.0
 12
28842.93143915636
 22
9215.126360820542
 32
0.0
 13
28842.93143915636
 23
9215.126360820542
 33
0.0
  0
SOLID
  5
AE8F
330
92BD
100
AcDbEntity
  8
2
  6
Continuous
440
 16777216
100
AcDbTrace
 10
28836.26477248969
 20
7855.126360820546
 30
0.0
 11
28849.59810582302
 21
7855.126360820546
 31
0.0
 12
28842.93143915635
 22
7815.126360820547
 32
0.0
 13
28842.93143915635
 23
7815.126360820547
 33
0.0
  0
MTEXT
  5
AE90
330
92BD
100
AcDbEntity
  8
2
  6
Continuous
 62
     7
440
 16777216
100
AcDbMText
 10
28792.93143915635
 20
8515.12636082055
 30
0.0
 40
60.0
 41
0.0
 46
0.0
 71
     5
 72
     1
  1
\A1;350
  7
JF3
 11
0.0000000000000001
 21
1.0
 31
0.0
 73
     1
 44
1.0
  0
POINT
  5
AE91
330
92BD
100
AcDbEntity
  8
DEFPOINTS
  6
Continuous
 62
     0
440
 16777216
100
AcDbPoint
 10
28325.94873162163
 20
9215.126360820544
 30
0.0
  0
POINT
  5
AE92
330
92BD
100
AcDbEntity
  8
DEFPOINTS
  6
Continuous
 62
     0
440
 16777216
100
AcDbPoint
 10
28325.94873162163
 20
7815.126360820547
 30
0.0
  0
POINT
  5
AE93
330
92BD
100
AcDbEntity
  8
DEFPOINTS
  6
Continuous
 62
     0
440
 16777216
100
AcDbPoint
 10
28842.93143915635
 20
7815.126360820547
 30
0.0
  0
ENDBLK
  5
92BF
330
92BD
100
AcDbEntity
  8
0
100
AcDbBlockEnd
  0
BLOCK
  5
92CA
330
92C9
100
AcDbEntity
  8
0
100
AcDbBlockBegin
  2
*D32
 70
     1
 10
0.0
 20
0.0
 30
0.0
  3
*D32
  1

  0
LINE
  5
AE94
330
92C9
100
AcDbEntity
  8
2
  6
Continuous
440
 16777216
370
    -2
100
AcDbLine
 10
28385.94873162163
 20
9215.126360820544
 30
0.0
 11
28725.08613908652
 21
9215.126360820542
 31
0.0
  0
LINE
  5
AE95
330
92C9
100
AcDbEntity
  8
2
  6
Continuous
440
 16777216
370
    -2
100
AcDbLine
 10
27977.76191500249
 20
9115.126360820545
 30
0.0
 11
28725.08613908652
 21
9115.126360820543
 31
0.0
  0
LINE
  5
AE96
330
92C9
100
AcDbEntity
  8
2
  6
Continuous
440
 16777216
370
    -2
100
AcDbLine
 10
28695.08613908652
 20
9255.126360820543
 30
0.0
 11
28695.08613908652
 21
9295.126360820542
 31
0.0
  0
LINE
  5
AE97
330
92C9
100
AcDbEntity
  8
2
  6
Continuous
440
 16777216
370
    -2
100
AcDbLine
 10
28695.08613908652
 20
9075.126360820544
 30
0.0
 11
28695.08613908652
 21
9035.126360820543
 31
0.0
  0
LINE
  5
AE98
330
92C9
100
AcDbEntity
  8
2
  6
Continuous
440
 16777216
370
    -2
100
AcDbLine
 10
28695.08613908652
 20
9215.126360820542
 30
0.0
 11
28695.08613908652
 21
9115.126360820543
 31
0.0
  0
SOLID
  5
AE99
330
92C9
100
AcDbEntity
  8
2
  6
Continuous
440
 16777216
100
AcDbTrace
 10
28688.41947241985
 20
9255.126360820543
 30
0.0
 11
28701.75280575319
 21
9255.126360820543
 31
0.0
 12
28695.08613908652
 22
9215.126360820542
 32
0.0
 13
28695.08613908652
 23
9215.126360820542
 33
0.0
  0
SOLID
  5
AE9A
330
92C9
100
AcDbEntity
  8
2
  6
Continuous
440
 16777216
100
AcDbTrace
 10
28688.41947241985
 20
9075.126360820544
 30
0.0
 11
28701.75280575319
 21
9075.126360820544
 31
0.0
 12
28695.08613908652
 22
9115.126360820543
 32
0.0
 13
28695.08613908652
 23
9115.126360820543
 33
0.0
  0
MTEXT
  5
AE9B
330
92C9
100
AcDbEntity
  8
2
  6
Continuous
 62
     7
440
 16777216
100
AcDbMText
 10
28645.08613908651
 20
9165.126360820549
 30
0.0
 40
60.0
 41
0.0
 46
0.0
 71
     5
 72
     1
  1
\A1;25
  7
JF3
 11
0.0000000000000001
 21
1.0
 31
0.0
 73
     1
 44
1.0
  0
POINT
  5
AE9C
330
92C9
100
AcDbEntity
  8
DEFPOINTS
  6
Continuous
 62
     0
440
 16777216
100
AcDbPoint
 10
28325.94873162163
 20
9215.126360820544
 30
0.0
  0
POINT
  5
AE9D
330
92C9
100
AcDbEntity
  8
DEFPOINTS
  6
Continuous
 62
     0
440
 16777216
100
AcDbPoint
 10
27917.76191500249
 20
9115.126360820545
 30
0.0
  0
POINT
  5
AE9E
330
92C9
100
AcDbEntity
  8
DEFPOINTS
  6
Continuous
 62
     0
440
 16777216
100
AcDbPoint
 10
28695.08613908652
 20
9115.126360820543
 30
0.0
  0
ENDBLK
  5
92CB
330
92C9
100
AcDbEntity
  8
0
100
AcDbBlockEnd
  0
BLOCK
  5
92D8
330
92D7
100
AcDbEntity
  8
0
100
AcDbBlockBegin
  2
*D33
 70
     1
 10
0.0
 20
0.0
 30
0.0
  3
*D33
  1

  0
LINE
  5
AE9F
330
92D7
100
AcDbEntity
  8
2
  6
Continuous
440
 16777216
370
    -2
100
AcDbLine
 10
27977.76191500249
 20
9115.126360820545
 30
0.0
 11
28725.08613908652
 21
9115.126360820543
 31
0.0
  0
LINE
  5
AEA0
330
92D7
100
AcDbEntity
  8
2
  6
Continuous
440
 16777216
370
    -2
100
AcDbLine
 10
27689.08678219776
 20
8615.126360820534
 30
0.0
 11
28725.08613908652
 21
8615.126360820532
 31
0.0
  0
LINE
  5
AEA1
330
92D7
100
AcDbEntity
  8
2
  6
Continuous
440
 16777216
370
    -2
100
AcDbLine
 10
28695.08613908652
 20
9075.126360820544
 30
0.0
 11
28695.08613908652
 21
8655.126360820531
 31
0.0
  0
SOLID
  5
AEA2
330
92D7
100
AcDbEntity
  8
2
  6
Continuous
440
 16777216
100
AcDbTrace
 10
28688.41947241985
 20
9075.126360820544
 30
0.0
 11
28701.75280575319
 21
9075.126360820544
 31
0.0
 12
28695.08613908652
 22
9115.126360820543
 32
0.0
 13
28695.08613908652
 23
9115.126360820543
 33
0.0
  0
SOLID
  5
AEA3
330
92D7
100
AcDbEntity
  8
2
  6
Continuous
440
 16777216
100
AcDbTrace
 10
28688.41947241985
 20
8655.126360820531
 30
0.0
 11
28701.75280575319
 21
8655.126360820531
 31
0.0
 12
28695.08613908652
 22
8615.126360820532
 32
0.0
 13
28695.08613908652
 23
8615.126360820532
 33
0.0
  0
MTEXT
  5
AEA4
330
92D7
100
AcDbEntity
  8
2
  6
Continuous
 62
     7
440
 16777216
100
AcDbMText
 10
28645.08613908651
 20
8865.126360820543
 30
0.0
 40
60.0
 41
0.0
 46
0.0
 71
     5
 72
     1
  1
\A1;125
  7
JF3
 11
0.0000000000000001
 21
1.0
 31
0.0
 73
     1
 44
1.0
  0
POINT
  5
AEA5
330
92D7
100
AcDbEntity
  8
DEFPOINTS
  6
Continuous
 62
     0
440
 16777216
100
AcDbPoint
 10
27917.76191500249
 20
9115.126360820545
 30
0.0
  0
POINT
  5
AEA6
330
92D7
100
AcDbEntity
  8
DEFPOINTS
  6
Continuous
 62
     0
440
 16777216
100
AcDbPoint
 10
27629.08678219776
 20
8615.126360820534
 30
0.0
  0
POINT
  5
AEA7
330
92D7
100
AcDbEntity
  8
DEFPOINTS
  6
Continuous
 62
     0
440
 16777216
100
AcDbPoint
 10
28695.08613908652
 20
8615.126360820532
 30
0.0
  0
ENDBLK
  5
92D9
330
92D7
100
AcDbEntity
  8
0
100
AcDbBlockEnd
  0
BLOCK
  5
92E4
330
92E3
100
AcDbEntity
  8
0
100
AcDbBlockBegin
  2
*D34
 70
     1
 10
0.0
 20
0.0
 30
0.0
  3
*D34
  1

  0
LINE
  5
AEA8
330
92E3
100
AcDbEntity
  8
2
  6
Continuous
440
 16777216
370
    -2
100
AcDbLine
 10
27689.08678219776
 20
8615.126360820534
 30
0.0
 11
28725.08613908652
 21
8615.126360820532
 31
0.0
  0
LINE
  5
AEA9
330
92E3
100
AcDbEntity
  8
2
  6
Continuous
440
 16777216
370
    -2
100
AcDbLine
 10
27638.27995882413
 20
8527.126360820533
 30
0.0
 11
28725.08613908652
 21
8527.126360820531
 31
0.0
  0
LINE
  5
AEAA
330
92E3
100
AcDbEntity
  8
2
  6
Continuous
440
 16777216
370
    -2
100
AcDbLine
 10
28695.08613908652
 20
8655.126360820531
 30
0.0
 11
28695.08613908652
 21
8695.126360820532
 31
0.0
  0
LINE
  5
AEAB
330
92E3
100
AcDbEntity
  8
2
  6
Continuous
440
 16777216
370
    -2
100
AcDbLine
 10
28695.08613908652
 20
8487.126360820532
 30
0.0
 11
28695.08613908652
 21
8447.126360820531
 31
0.0
  0
LINE
  5
AEAC
330
92E3
100
AcDbEntity
  8
2
  6
Continuous
440
 16777216
370
    -2
100
AcDbLine
 10
28695.08613908652
 20
8615.126360820532
 30
0.0
 11
28695.08613908652
 21
8527.126360820531
 31
0.0
  0
SOLID
  5
AEAD
330
92E3
100
AcDbEntity
  8
2
  6
Continuous
440
 16777216
100
AcDbTrace
 10
28688.41947241985
 20
8655.126360820531
 30
0.0
 11
28701.75280575319
 21
8655.126360820531
 31
0.0
 12
28695.08613908652
 22
8615.126360820532
 32
0.0
 13
28695.08613908652
 23
8615.126360820532
 33
0.0
  0
SOLID
  5
AEAE
330
92E3
100
AcDbEntity
  8
2
  6
Continuous
440
 16777216
100
AcDbTrace
 10
28688.41947241985
 20
8487.126360820532
 30
0.0
 11
28701.75280575319
 21
8487.126360820532
 31
0.0
 12
28695.08613908652
 22
8527.126360820531
 32
0.0
 13
28695.08613908652
 23
8527.126360820531
 33
0.0
  0
MTEXT
  5
AEAF
330
92E3
100
AcDbEntity
  8
2
  6
Continuous
 62
     7
440
 16777216
100
AcDbMText
 10
28645.08613908651
 20
8571.126360820537
 30
0.0
 40
60.0
 41
0.0
 46
0.0
 71
     5
 72
     1
  1
\A1;22
  7
JF3
 11
0.0000000000000001
 21
1.0
 31
0.0
 73
     1
 44
1.0
  0
POINT
  5
AEB0
330
92E3
100
AcDbEntity
  8
DEFPOINTS
  6
Continuous
 62
     0
440
 16777216
100
AcDbPoint
 10
27629.08678219776
 20
8615.126360820534
 30
0.0
  0
POINT
  5
AEB1
330
92E3
100
AcDbEntity
  8
DEFPOINTS
  6
Continuous
 62
     0
440
 16777216
100
AcDbPoint
 10
27578.27995882413
 20
8527.126360820533
 30
0.0
  0
POINT
  5
AEB2
330
92E3
100
AcDbEntity
  8
DEFPOINTS
  6
Continuous
 62
     0
440
 16777216
100
AcDbPoint
 10
28695.08613908652
 20
8527.126360820531
 30
0.0
  0
ENDBLK
  5
92E5
330
92E3
100
AcDbEntity
  8
0
100
AcDbBlockEnd
  0
BLOCK
  5
92F2
330
92F1
100
AcDbEntity
  8
0
100
AcDbBlockBegin
  2
*D35
 70
     1
 10
0.0
 20
0.0
 30
0.0
  3
*D35
  1

  0
LINE
  5
AEB3
330
92F1
100
AcDbEntity
  8
2
440
 16777216
370
    -2
100
AcDbLine
 10
27638.34873162158
 20
8527.126360820581
 30
0.0
 11
28735.08613908649
 21
8527.126360820583
 31
0.0
  0
LINE
  5
AEB4
330
92F1
100
AcDbEntity
  8
2
440
 16777216
370
    -2
100
AcDbLine
 10
28385.94873162161
 20
7815.126360820585
 30
0.0
 11
28735.0861390865
 21
7815.126360820585
 31
0.0
  0
LINE
  5
AEB5
330
92F1
100
AcDbEntity
  8
2
440
 16777216
370
    -2
100
AcDbLine
 10
28695.08613908649
 20
8467.126360820584
 30
0.0
 11
28695.0861390865
 21
7875.126360820584
 31
0.0
  0
SOLID
  5
AEB6
330
92F1
100
AcDbEntity
  8
2
440
 16777216
100
AcDbTrace
 10
28685.0861390865
 20
8467.126360820584
 30
0.0
 11
28705.08613908649
 21
8467.126360820584
 31
0.0
 12
28695.08613908649
 22
8527.126360820583
 32
0.0
 13
28695.08613908649
 23
8527.126360820583
 33
0.0
  0
SOLID
  5
AEB7
330
92F1
100
AcDbEntity
  8
2
440
 16777216
100
AcDbTrace
 10
28685.0861390865
 20
7875.126360820584
 30
0.0
 11
28705.0861390865
 21
7875.126360820584
 31
0.0
 12
28695.0861390865
 22
7815.126360820585
 32
0.0
 13
28695.0861390865
 23
7815.126360820585
 33
0.0
  0
MTEXT
  5
AEB8
330
92F1
100
AcDbEntity
  8
2
 62
     7
440
 16777216
100
AcDbMText
 10
28645.08613908649
 20
8171.126360820583
 30
0.0
 40
60.0
 41
0.0
 46
0.0
 71
     5
 72
     1
  1
\A1;178
  7
JF3
 11
-0.0000000000000011
 21
1.0
 31
0.0
 73
     1
 44
1.0
  0
POINT
  5
AEB9
330
92F1
100
AcDbEntity
  8
DEFPOINTS
 62
     0
440
 16777216
100
AcDbPoint
 10
27578.3487316216
 20
8527.126360820544
 30
0.0
  0
POINT
  5
AEBA
330
92F1
100
AcDbEntity
  8
DEFPOINTS
 62
     0
440
 16777216
100
AcDbPoint
 10
28325.94873162162
 20
7815.126360820547
 30
0.0
  0
POINT
  5
AEBB
330
92F1
100
AcDbEntity
  8
DEFPOINTS
 62
     0
440
 16777216
100
AcDbPoint
 10
28695.0861390865
 20
7815.126360820547
 30
0.0
  0
ENDBLK
  5
92F3
330
92F1
100
AcDbEntity
  8
0
100
AcDbBlockEnd
  0
BLOCK
  5
A184
330
A183
100
AcDbEntity
  8
0
100
AcDbBlockBegin
  2
*D36
 70
     1
 10
0.0
 20
0.0
 30
0.0
  3
*D36
  1

  0
LINE
  5
A9A9
330
A183
100
AcDbEntity
  8
2
  6
Continuous
440
 16777216
370
    -2
100
AcDbLine
 10
21881.13961529397
 20
2032.78086847489
 30
0.0
 11
21881.13961529397
 21
2278.030236132291
 31
0.0
  0
LINE
  5
A9AA
330
A183
100
AcDbEntity
  8
2
  6
Continuous
440
 16777216
370
    -2
100
AcDbLine
 10
22481.13961529397
 20
2032.78086847489
 30
0.0
 11
22481.13961529397
 21
2278.030236132291
 31
0.0
  0
LINE
  5
A9AB
330
A183
100
AcDbEntity
  8
2
  6
Continuous
440
 16777216
370
    -2
100
AcDbLine
 10
21941.13961529397
 20
2238.030236132291
 30
0.0
 11
22421.13961529397
 21
2238.030236132291
 31
0.0
  0
SOLID
  5
A9AC
330
A183
100
AcDbEntity
  8
2
  6
Continuous
440
 16777216
100
AcDbTrace
 10
21941.13961529397
 20
2248.030236132291
 30
0.0
 11
21941.13961529397
 21
2228.030236132291
 31
0.0
 12
21881.13961529397
 22
2238.030236132291
 32
0.0
 13
21881.13961529397
 23
2238.030236132291
 33
0.0
  0
SOLID
  5
A9AD
330
A183
100
AcDbEntity
  8
2
  6
Continuous
440
 16777216
100
AcDbTrace
 10
22421.13961529397
 20
2248.030236132291
 30
0.0
 11
22421.13961529397
 21
2228.030236132291
 31
0.0
 12
22481.13961529397
 22
2238.030236132291
 32
0.0
 13
22481.13961529397
 23
2238.030236132291
 33
0.0
  0
MTEXT
  5
A9AE
330
A183
100
AcDbEntity
  8
2
  6
Continuous
 62
     7
440
 16777216
100
AcDbMText
 10
22181.13961529397
 20
2288.030236132291
 30
0.0
 40
60.0
 41
0.0
 46
0.0
 71
     5
 72
     1
  1
\A1;600
  7
JF3
 73
     1
 44
1.0
  0
POINT
  5
A9AF
330
A183
100
AcDbEntity
  8
DEFPOINTS
  6
Continuous
 62
     0
440
 16777216
100
AcDbPoint
 10
21881.13961529397
 20
1972.780868474889
 30
0.0
  0
POINT
  5
A9B0
330
A183
100
AcDbEntity
  8
DEFPOINTS
  6
Continuous
 62
     0
440
 16777216
100
AcDbPoint
 10
22481.13961529397
 20
1972.78086847489
 30
0.0
  0
POINT
  5
A9B1
330
A183
100
AcDbEntity
  8
DEFPOINTS
  6
Continuous
 62
     0
440
 16777216
100
AcDbPoint
 10
22481.13961529397
 20
2238.030236132291
 30
0.0
  0
ENDBLK
  5
A185
330
A183
100
AcDbEntity
  8
0
100
AcDbBlockEnd
  0
BLOCK
  5
A190
330
A18F
100
AcDbEntity
  8
0
100
AcDbBlockBegin
  2
*D37
 70
     1
 10
0.0
 20
0.0
 30
0.0
  3
*D37
  1

  0
LINE
  5
A9B2
330
A18F
100
AcDbEntity
  8
2
  6
Continuous
440
 16777216
370
    -2
100
AcDbLine
 10
20981.13961529397
 20
1882.780868474888
 30
0.0
 11
20981.13961529397
 21
2391.438248906627
 31
0.0
  0
LINE
  5
A9B3
330
A18F
100
AcDbEntity
  8
2
  6
Continuous
440
 16777216
370
    -2
100
AcDbLine
 10
23381.13961529397
 20
1882.780868474891
 30
0.0
 11
23381.13961529397
 21
2391.438248906627
 31
0.0
  0
LINE
  5
A9B4
330
A18F
100
AcDbEntity
  8
2
  6
Continuous
440
 16777216
370
    -2
100
AcDbLine
 10
21041.13961529397
 20
2351.438248906627
 30
0.0
 11
23321.13961529397
 21
2351.438248906627
 31
0.0
  0
SOLID
  5
A9B5
330
A18F
100
AcDbEntity
  8
2
  6
Continuous
440
 16777216
100
AcDbTrace
 10
21041.13961529397
 20
2361.438248906627
 30
0.0
 11
21041.13961529397
 21
2341.438248906627
 31
0.0
 12
20981.13961529397
 22
2351.438248906627
 32
0.0
 13
20981.13961529397
 23
2351.438248906627
 33
0.0
  0
SOLID
  5
A9B6
330
A18F
100
AcDbEntity
  8
2
  6
Continuous
440
 16777216
100
AcDbTrace
 10
23321.13961529397
 20
2361.438248906627
 30
0.0
 11
23321.13961529397
 21
2341.438248906627
 31
0.0
 12
23381.13961529397
 22
2351.438248906627
 32
0.0
 13
23381.13961529397
 23
2351.438248906627
 33
0.0
  0
MTEXT
  5
A9B7
330
A18F
100
AcDbEntity
  8
2
  6
Continuous
 62
     7
440
 16777216
100
AcDbMText
 10
22181.13961529397
 20
2401.438248906627
 30
0.0
 40
60.0
 41
0.0
 46
0.0
 71
     5
 72
     1
  1
\A1;2400
  7
JF3
 73
     1
 44
1.0
  0
POINT
  5
A9B8
330
A18F
100
AcDbEntity
  8
DEFPOINTS
  6
Continuous
 62
     0
440
 16777216
100
AcDbPoint
 10
20981.13961529397
 20
1822.780868474888
 30
0.0
  0
POINT
  5
A9B9
330
A18F
100
AcDbEntity
  8
DEFPOINTS
  6
Continuous
 62
     0
440
 16777216
100
AcDbPoint
 10
23381.13961529397
 20
1822.780868474891
 30
0.0
  0
POINT
  5
A9BA
330
A18F
100
AcDbEntity
  8
DEFPOINTS
  6
Continuous
 62
     0
440
 16777216
100
AcDbPoint
 10
23381.13961529397
 20
2351.438248906627
 30
0.0
  0
ENDBLK
  5
A191
330
A18F
100
AcDbEntity
  8
0
100
AcDbBlockEnd
  0
BLOCK
  5
A1B4
330
A1B3
100
AcDbEntity
  8
0
100
AcDbBlockBegin
  2
*D38
 70
     1
 10
0.0
 20
0.0
 30
0.0
  3
*D38
  1

  0
LINE
  5
A9CD
330
A1B3
100
AcDbEntity
  8
2
  6
Continuous
440
 16777216
370
    -2
100
AcDbLine
 10
21011.13961529397
 20
1882.780868474888
 30
0.0
 11
21011.13961529397
 21
2278.030236132289
 31
0.0
  0
LINE
  5
A9CE
330
A1B3
100
AcDbEntity
  8
2
  6
Continuous
440
 16777216
370
    -2
100
AcDbLine
 10
21881.13961529397
 20
2032.78086847489
 30
0.0
 11
21881.13961529397
 21
2278.030236132289
 31
0.0
  0
LINE
  5
A9CF
330
A1B3
100
AcDbEntity
  8
2
  6
Continuous
440
 16777216
370
    -2
100
AcDbLine
 10
21071.13961529397
 20
2238.03023613229
 30
0.0
 11
21821.13961529397
 21
2238.03023613229
 31
0.0
  0
SOLID
  5
A9D0
330
A1B3
100
AcDbEntity
  8
2
  6
Continuous
440
 16777216
100
AcDbTrace
 10
21071.13961529397
 20
2248.03023613229
 30
0.0
 11
21071.13961529397
 21
2228.03023613229
 31
0.0
 12
21011.13961529397
 22
2238.03023613229
 32
0.0
 13
21011.13961529397
 23
2238.03023613229
 33
0.0
  0
SOLID
  5
A9D1
330
A1B3
100
AcDbEntity
  8
2
  6
Continuous
440
 16777216
100
AcDbTrace
 10
21821.13961529397
 20
2248.03023613229
 30
0.0
 11
21821.13961529397
 21
2228.03023613229
 31
0.0
 12
21881.13961529397
 22
2238.03023613229
 32
0.0
 13
21881.13961529397
 23
2238.03023613229
 33
0.0
  0
MTEXT
  5
A9D2
330
A1B3
100
AcDbEntity
  8
2
  6
Continuous
 62
     7
440
 16777216
100
AcDbMText
 10
21446.13961529397
 20
2288.03023613229
 30
0.0
 40
60.0
 41
0.0
 46
0.0
 71
     5
 72
     1
  1
\A1;870
  7
JF3
 73
     1
 44
1.0
  0
POINT
  5
A9D3
330
A1B3
100
AcDbEntity
  8
DEFPOINTS
  6
Continuous
 62
     0
440
 16777216
100
AcDbPoint
 10
21011.13961529397
 20
1822.780868474888
 30
0.0
  0
POINT
  5
A9D4
330
A1B3
100
AcDbEntity
  8
DEFPOINTS
  6
Continuous
 62
     0
440
 16777216
100
AcDbPoint
 10
21881.13961529397
 20
1972.780868474889
 30
0.0
  0
POINT
  5
A9D5
330
A1B3
100
AcDbEntity
  8
DEFPOINTS
  6
Continuous
 62
     0
440
 16777216
100
AcDbPoint
 10
21881.13961529397
 20
2238.03023613229
 30
0.0
  0
ENDBLK
  5
A1B5
330
A1B3
100
AcDbEntity
  8
0
100
AcDbBlockEnd
  0
BLOCK
  5
A1C0
330
A1BF
100
AcDbEntity
  8
0
100
AcDbBlockBegin
  2
*D39
 70
     1
 10
0.0
 20
0.0
 30
0.0
  3
*D39
  1

  0
LINE
  5
A9D6
330
A1BF
100
AcDbEntity
  8
2
  6
Continuous
440
 16777216
370
    -2
100
AcDbLine
 10
20981.13961529397
 20
1882.780868474888
 30
0.0
 11
20981.13961529397
 21
2278.030236132289
 31
0.0
  0
LINE
  5
A9D7
330
A1BF
100
AcDbEntity
  8
2
  6
Continuous
440
 16777216
370
    -2
100
AcDbLine
 10
21011.13961529397
 20
1882.780868474888
 30
0.0
 11
21011.13961529397
 21
2278.030236132289
 31
0.0
  0
LINE
  5
A9D8
330
A1BF
100
AcDbEntity
  8
2
  6
Continuous
440
 16777216
370
    -2
100
AcDbLine
 10
20921.13961529397
 20
2238.030236132289
 30
0.0
 11
20861.13961529397
 21
2238.030236132289
 31
0.0
  0
LINE
  5
A9D9
330
A1BF
100
AcDbEntity
  8
2
  6
Continuous
440
 16777216
370
    -2
100
AcDbLine
 10
21071.13961529397
 20
2238.030236132289
 30
0.0
 11
21131.13961529397
 21
2238.030236132289
 31
0.0
  0
LINE
  5
A9DA
330
A1BF
100
AcDbEntity
  8
2
  6
Continuous
440
 16777216
370
    -2
100
AcDbLine
 10
20981.13961529397
 20
2238.030236132289
 30
0.0
 11
21011.13961529397
 21
2238.030236132289
 31
0.0
  0
SOLID
  5
A9DB
330
A1BF
100
AcDbEntity
  8
2
  6
Continuous
440
 16777216
100
AcDbTrace
 10
20921.13961529397
 20
2248.030236132289
 30
0.0
 11
20921.13961529397
 21
2228.030236132289
 31
0.0
 12
20981.13961529397
 22
2238.030236132289
 32
0.0
 13
20981.13961529397
 23
2238.030236132289
 33
0.0
  0
SOLID
  5
A9DC
330
A1BF
100
AcDbEntity
  8
2
  6
Continuous
440
 16777216
100
AcDbTrace
 10
21071.13961529397
 20
2248.030236132289
 30
0.0
 11
21071.13961529397
 21
2228.030236132289
 31
0.0
 12
21011.13961529397
 22
2238.030236132289
 32
0.0
 13
21011.13961529397
 23
2238.030236132289
 33
0.0
  0
MTEXT
  5
A9DD
330
A1BF
100
AcDbEntity
  8
2
  6
Continuous
 62
     7
440
 16777216
100
AcDbMText
 10
20996.13961529397
 20
2288.030236132289
 30
0.0
 40
60.0
 41
0.0
 46
0.0
 71
     5
 72
     1
  1
\A1;30
  7
JF3
 73
     1
 44
1.0
  0
POINT
  5
A9DE
330
A1BF
100
AcDbEntity
  8
DEFPOINTS
  6
Continuous
 62
     0
440
 16777216
100
AcDbPoint
 10
20981.13961529397
 20
1822.780868474888
 30
0.0
  0
POINT
  5
A9DF
330
A1BF
100
AcDbEntity
  8
DEFPOINTS
  6
Continuous
 62
     0
440
 16777216
100
AcDbPoint
 10
21011.13961529397
 20
1822.780868474888
 30
0.0
  0
POINT
  5
A9E0
330
A1BF
100
AcDbEntity
  8
DEFPOINTS
  6
Continuous
 62
     0
440
 16777216
100
AcDbPoint
 10
21011.13961529397
 20
2238.030236132289
 30
0.0
  0
ENDBLK
  5
A1C1
330
A1BF
100
AcDbEntity
  8
0
100
AcDbBlockEnd
  0
BLOCK
  5
A210
330
A20F
100
AcDbEntity
  8
0
100
AcDbBlockBegin
  2
*D40
 70
     1
 10
0.0
 20
0.0
 30
0.0
  3
*D40
  1

  0
LINE
  5
A9F5
330
A20F
100
AcDbEntity
  8
2
  6
Continuous
440
 16777216
370
    -2
100
AcDbLine
 10
22541.13961529397
 20
1972.78086847489
 30
0.0
 11
23712.58107373283
 21
1972.78086847489
 31
0.0
  0
LINE
  5
A9F6
330
A20F
100
AcDbEntity
  8
2
  6
Continuous
440
 16777216
370
    -2
100
AcDbLine
 10
23441.13961529397
 20
1822.780868474891
 30
0.0
 11
23712.58107373283
 21
1822.780868474891
 31
0.0
  0
LINE
  5
A9F7
330
A20F
100
AcDbEntity
  8
2
  6
Continuous
440
 16777216
370
    -2
100
AcDbLine
 10
23672.58107373283
 20
2032.78086847489
 30
0.0
 11
23672.58107373283
 21
2092.78086847489
 31
0.0
  0
LINE
  5
A9F8
330
A20F
100
AcDbEntity
  8
2
  6
Continuous
440
 16777216
370
    -2
100
AcDbLine
 10
23672.58107373283
 20
1762.780868474891
 30
0.0
 11
23672.58107373283
 21
1702.780868474891
 31
0.0
  0
LINE
  5
A9F9
330
A20F
100
AcDbEntity
  8
2
  6
Continuous
440
 16777216
370
    -2
100
AcDbLine
 10
23672.58107373283
 20
1972.78086847489
 30
0.0
 11
23672.58107373283
 21
1822.780868474891
 31
0.0
  0
SOLID
  5
A9FA
330
A20F
100
AcDbEntity
  8
2
  6
Continuous
440
 16777216
100
AcDbTrace
 10
23662.58107373283
 20
2032.78086847489
 30
0.0
 11
23682.58107373283
 21
2032.78086847489
 31
0.0
 12
23672.58107373283
 22
1972.78086847489
 32
0.0
 13
23672.58107373283
 23
1972.78086847489
 33
0.0
  0
SOLID
  5
A9FB
330
A20F
100
AcDbEntity
  8
2
  6
Continuous
440
 16777216
100
AcDbTrace
 10
23662.58107373283
 20
1762.780868474891
 30
0.0
 11
23682.58107373283
 21
1762.780868474891
 31
0.0
 12
23672.58107373283
 22
1822.780868474891
 32
0.0
 13
23672.58107373283
 23
1822.780868474891
 33
0.0
  0
MTEXT
  5
A9FC
330
A20F
100
AcDbEntity
  8
2
  6
Continuous
 62
     7
440
 16777216
100
AcDbMText
 10
23622.58107373283
 20
1897.780868474894
 30
0.0
 40
60.0
 41
0.0
 46
0.0
 71
     5
 72
     1
  1
\A1;150
  7
JF3
 11
0.0000000000000001
 21
1.0
 31
0.0
 73
     1
 44
1.0
  0
POINT
  5
A9FD
330
A20F
100
AcDbEntity
  8
DEFPOINTS
  6
Continuous
 62
     0
440
 16777216
100
AcDbPoint
 10
22481.13961529397
 20
1972.78086847489
 30
0.0
  0
POINT
  5
A9FE
330
A20F
100
AcDbEntity
  8
DEFPOINTS
  6
Continuous
 62
     0
440
 16777216
100
AcDbPoint
 10
23381.13961529397
 20
1822.780868474891
 30
0.0
  0
POINT
  5
A9FF
330
A20F
100
AcDbEntity
  8
DEFPOINTS
  6
Continuous
 62
     0
440
 16777216
100
AcDbPoint
 10
23672.58107373283
 20
1822.780868474891
 30
0.0
  0
ENDBLK
  5
A211
330
A20F
100
AcDbEntity
  8
0
100
AcDbBlockEnd
  0
BLOCK
  5
A21E
330
A21D
100
AcDbEntity
  8
0
100
AcDbBlockBegin
  2
*D41
 70
     1
 10
0.0
 20
0.0
 30
0.0
  3
*D41
  1

  0
LINE
  5
AA00
330
A21D
100
AcDbEntity
  8
2
  6
Continuous
440
 16777216
370
    -2
100
AcDbLine
 10
23441.13961529397
 20
1822.780868474891
 30
0.0
 11
23712.58107373283
 21
1822.780868474891
 31
0.0
  0
LINE
  5
AA01
330
A21D
100
AcDbEntity
  8
2
  6
Continuous
440
 16777216
370
    -2
100
AcDbLine
 10
23441.13961529397
 20
1622.780868474891
 30
0.0
 11
23712.58107373283
 21
1622.780868474891
 31
0.0
  0
LINE
  5
AA02
330
A21D
100
AcDbEntity
  8
2
  6
Continuous
440
 16777216
370
    -2
100
AcDbLine
 10
23672.58107373283
 20
1762.780868474891
 30
0.0
 11
23672.58107373283
 21
1682.780868474891
 31
0.0
  0
SOLID
  5
AA03
330
A21D
100
AcDbEntity
  8
2
  6
Continuous
440
 16777216
100
AcDbTrace
 10
23662.58107373283
 20
1762.780868474891
 30
0.0
 11
23682.58107373283
 21
1762.780868474891
 31
0.0
 12
23672.58107373283
 22
1822.780868474891
 32
0.0
 13
23672.58107373283
 23
1822.780868474891
 33
0.0
  0
SOLID
  5
AA04
330
A21D
100
AcDbEntity
  8
2
  6
Continuous
440
 16777216
100
AcDbTrace
 10
23662.58107373283
 20
1682.780868474891
 30
0.0
 11
23682.58107373283
 21
1682.780868474891
 31
0.0
 12
23672.58107373283
 22
1622.780868474891
 32
0.0
 13
23672.58107373283
 23
1622.780868474891
 33
0.0
  0
MTEXT
  5
AA05
330
A21D
100
AcDbEntity
  8
2
  6
Continuous
 62
     7
440
 16777216
100
AcDbMText
 10
23622.58107373283
 20
1722.780868474895
 30
0.0
 40
60.0
 41
0.0
 46
0.0
 71
     5
 72
     1
  1
\A1;200
  7
JF3
 11
0.0000000000000001
 21
1.0
 31
0.0
 73
     1
 44
1.0
  0
POINT
  5
AA06
330
A21D
100
AcDbEntity
  8
DEFPOINTS
  6
Continuous
 62
     0
440
 16777216
100
AcDbPoint
 10
23381.13961529397
 20
1822.780868474891
 30
0.0
  0
POINT
  5
AA07
330
A21D
100
AcDbEntity
  8
DEFPOINTS
  6
Continuous
 62
     0
440
 16777216
100
AcDbPoint
 10
23381.13961529397
 20
1622.780868474891
 30
0.0
  0
POINT
  5
AA08
330
A21D
100
AcDbEntity
  8
DEFPOINTS
  6
Continuous
 62
     0
440
 16777216
100
AcDbPoint
 10
23672.58107373283
 20
1622.780868474891
 30
0.0
  0
ENDBLK
  5
A21F
330
A21D
100
AcDbEntity
  8
0
100
AcDbBlockEnd
  0
BLOCK
  5
A22A
330
A229
100
AcDbEntity
  8
0
100
AcDbBlockBegin
  2
*D42
 70
     1
 10
0.0
 20
0.0
 30
0.0
  3
*D42
  1

  0
LINE
  5
AA09
330
A229
100
AcDbEntity
  8
2
  6
Continuous
440
 16777216
370
    -2
100
AcDbLine
 10
23351.13961529397
 20
1882.780868474891
 30
0.0
 11
23351.13961529397
 21
2278.030236132292
 31
0.0
  0
LINE
  5
AA0A
330
A229
100
AcDbEntity
  8
2
  6
Continuous
440
 16777216
370
    -2
100
AcDbLine
 10
23381.13961529397
 20
1882.780868474891
 30
0.0
 11
23381.13961529397
 21
2278.030236132292
 31
0.0
  0
LINE
  5
AA0B
330
A229
100
AcDbEntity
  8
2
  6
Continuous
440
 16777216
370
    -2
100
AcDbLine
 10
23291.13961529397
 20
2238.030236132292
 30
0.0
 11
23231.13961529397
 21
2238.030236132292
 31
0.0
  0
LINE
  5
AA0C
330
A229
100
AcDbEntity
  8
2
  6
Continuous
440
 16777216
370
    -2
100
AcDbLine
 10
23441.13961529397
 20
2238.030236132292
 30
0.0
 11
23501.13961529397
 21
2238.030236132292
 31
0.0
  0
LINE
  5
AA0D
330
A229
100
AcDbEntity
  8
2
  6
Continuous
440
 16777216
370
    -2
100
AcDbLine
 10
23351.13961529397
 20
2238.030236132292
 30
0.0
 11
23381.13961529397
 21
2238.030236132292
 31
0.0
  0
SOLID
  5
AA0E
330
A229
100
AcDbEntity
  8
2
  6
Continuous
440
 16777216
100
AcDbTrace
 10
23291.13961529397
 20
2248.030236132292
 30
0.0
 11
23291.13961529397
 21
2228.030236132292
 31
0.0
 12
23351.13961529397
 22
2238.030236132292
 32
0.0
 13
23351.13961529397
 23
2238.030236132292
 33
0.0
  0
SOLID
  5
AA0F
330
A229
100
AcDbEntity
  8
2
  6
Continuous
440
 16777216
100
AcDbTrace
 10
23441.13961529397
 20
2248.030236132292
 30
0.0
 11
23441.13961529397
 21
2228.030236132292
 31
0.0
 12
23381.13961529397
 22
2238.030236132292
 32
0.0
 13
23381.13961529397
 23
2238.030236132292
 33
0.0
  0
MTEXT
  5
AA10
330
A229
100
AcDbEntity
  8
2
  6
Continuous
 62
     7
440
 16777216
100
AcDbMText
 10
23366.13961529397
 20
2288.030236132291
 30
0.0
 40
60.0
 41
0.0
 46
0.0
 71
     5
 72
     1
  1
\A1;30
  7
JF3
 73
     1
 44
1.0
  0
POINT
  5
AA11
330
A229
100
AcDbEntity
  8
DEFPOINTS
  6
Continuous
 62
     0
440
 16777216
100
AcDbPoint
 10
23351.13961529397
 20
1822.780868474891
 30
0.0
  0
POINT
  5
AA12
330
A229
100
AcDbEntity
  8
DEFPOINTS
  6
Continuous
 62
     0
440
 16777216
100
AcDbPoint
 10
23381.13961529397
 20
1822.780868474891
 30
0.0
  0
POINT
  5
AA13
330
A229
100
AcDbEntity
  8
DEFPOINTS
  6
Continuous
 62
     0
440
 16777216
100
AcDbPoint
 10
23381.13961529397
 20
2238.030236132292
 30
0.0
  0
ENDBLK
  5
A22B
330
A229
100
AcDbEntity
  8
0
100
AcDbBlockEnd
  0
BLOCK
  5
A238
330
A237
100
AcDbEntity
  8
0
100
AcDbBlockBegin
  2
*D43
 70
     1
 10
0.0
 20
0.0
 30
0.0
  3
*D43
  1

  0
LINE
  5
AA14
330
A237
100
AcDbEntity
  8
2
  6
Continuous
440
 16777216
370
    -2
100
AcDbLine
 10
22481.13961529397
 20
2032.78086847489
 30
0.0
 11
22481.13961529397
 21
2278.030236132292
 31
0.0
  0
LINE
  5
AA15
330
A237
100
AcDbEntity
  8
2
  6
Continuous
440
 16777216
370
    -2
100
AcDbLine
 10
23351.13961529397
 20
1882.780868474891
 30
0.0
 11
23351.13961529397
 21
2278.030236132292
 31
0.0
  0
LINE
  5
AA16
330
A237
100
AcDbEntity
  8
2
  6
Continuous
440
 16777216
370
    -2
100
AcDbLine
 10
22541.13961529397
 20
2238.030236132292
 30
0.0
 11
23291.13961529397
 21
2238.030236132292
 31
0.0
  0
SOLID
  5
AA17
330
A237
100
AcDbEntity
  8
2
  6
Continuous
440
 16777216
100
AcDbTrace
 10
22541.13961529397
 20
2248.030236132292
 30
0.0
 11
22541.13961529397
 21
2228.030236132292
 31
0.0
 12
22481.13961529397
 22
2238.030236132292
 32
0.0
 13
22481.13961529397
 23
2238.030236132292
 33
0.0
  0
SOLID
  5
AA18
330
A237
100
AcDbEntity
  8
2
  6
Continuous
440
 16777216
100
AcDbTrace
 10
23291.13961529397
 20
2248.030236132292
 30
0.0
 11
23291.13961529397
 21
2228.030236132292
 31
0.0
 12
23351.13961529397
 22
2238.030236132292
 32
0.0
 13
23351.13961529397
 23
2238.030236132292
 33
0.0
  0
MTEXT
  5
AA19
330
A237
100
AcDbEntity
  8
2
  6
Continuous
 62
     7
440
 16777216
100
AcDbMText
 10
22916.13961529397
 20
2288.030236132291
 30
0.0
 40
60.0
 41
0.0
 46
0.0
 71
     5
 72
     1
  1
\A1;870
  7
JF3
 73
     1
 44
1.0
  0
POINT
  5
AA1A
330
A237
100
AcDbEntity
  8
DEFPOINTS
  6
Continuous
 62
     0
440
 16777216
100
AcDbPoint
 10
22481.13961529397
 20
1972.78086847489
 30
0.0
  0
POINT
  5
AA1B
330
A237
100
AcDbEntity
  8
DEFPOINTS
  6
Continuous
 62
     0
440
 16777216
100
AcDbPoint
 10
23351.13961529397
 20
1822.780868474891
 30
0.0
  0
POINT
  5
AA1C
330
A237
100
AcDbEntity
  8
DEFPOINTS
  6
Continuous
 62
     0
440
 16777216
100
AcDbPoint
 10
23351.13961529397
 20
2238.030236132292
 30
0.0
  0
ENDBLK
  5
A239
330
A237
100
AcDbEntity
  8
0
100
AcDbBlockEnd
  0
BLOCK
  5
A244
330
A243
100
AcDbEntity
  8
0
100
AcDbBlockBegin
  2
*D44
 70
     1
 10
0.0
 20
0.0
 30
0.0
  3
*D44
  1

  0
LINE
  5
AA1D
330
A243
100
AcDbEntity
  8
2
  6
Continuous
440
 16777216
370
    -2
100
AcDbLine
 10
23772.58107373283
 20
1972.780868474891
 30
0.0
 11
23875.85067717671
 21
1972.780868474891
 31
0.0
  0
LINE
  5
AA1E
330
A243
100
AcDbEntity
  8
2
  6
Continuous
440
 16777216
370
    -2
100
AcDbLine
 10
23772.58107373283
 20
1622.780868474891
 30
0.0
 11
23875.85067717671
 21
1622.780868474891
 31
0.0
  0
LINE
  5
AA1F
330
A243
100
AcDbEntity
  8
2
  6
Continuous
440
 16777216
370
    -2
100
AcDbLine
 10
23835.85067717671
 20
1912.780868474891
 30
0.0
 11
23835.85067717671
 21
1682.780868474891
 31
0.0
  0
SOLID
  5
AA20
330
A243
100
AcDbEntity
  8
2
  6
Continuous
440
 16777216
100
AcDbTrace
 10
23825.85067717672
 20
1912.780868474891
 30
0.0
 11
23845.85067717671
 21
1912.780868474891
 31
0.0
 12
23835.85067717671
 22
1972.780868474891
 32
0.0
 13
23835.85067717671
 23
1972.780868474891
 33
0.0
  0
SOLID
  5
AA21
330
A243
100
AcDbEntity
  8
2
  6
Continuous
440
 16777216
100
AcDbTrace
 10
23825.85067717672
 20
1682.780868474891
 30
0.0
 11
23845.85067717671
 21
1682.780868474891
 31
0.0
 12
23835.85067717671
 22
1622.780868474891
 32
0.0
 13
23835.85067717671
 23
1622.780868474891
 33
0.0
  0
MTEXT
  5
AA22
330
A243
100
AcDbEntity
  8
2
  6
Continuous
 62
     7
440
 16777216
100
AcDbMText
 10
23785.85067717672
 20
1797.780868474895
 30
0.0
 40
60.0
 41
0.0
 46
0.0
 71
     5
 72
     1
  1
\A1;350
  7
JF3
 11
0.0000000000000001
 21
1.0
 31
0.0
 73
     1
 44
1.0
  0
POINT
  5
AA23
330
A243
100
AcDbEntity
  8
DEFPOINTS
  6
Continuous
 62
     0
440
 16777216
100
AcDbPoint
 10
23712.58107373283
 20
1972.780868474891
 30
0.0
  0
POINT
  5
AA24
330
A243
100
AcDbEntity
  8
DEFPOINTS
  6
Continuous
 62
     0
440
 16777216
100
AcDbPoint
 10
23712.58107373283
 20
1622.780868474891
 30
0.0
  0
POINT
  5
AA25
330
A243
100
AcDbEntity
  8
DEFPOINTS
  6
Continuous
 62
     0
440
 16777216
100
AcDbPoint
 10
23835.85067717671
 20
1622.780868474891
 30
0.0
  0
ENDBLK
  5
A245
330
A243
100
AcDbEntity
  8
0
100
AcDbBlockEnd
  0
BLOCK
  5
A722
330
A721
100
AcDbEntity
  8
0
100
AcDbBlockBegin
  2
*D45
 70
     1
 10
0.0
 20
0.0
 30
0.0
  3
*D45
  1

  0
LINE
  5
AA7F
330
A721
100
AcDbEntity
  8
2
  6
Continuous
440
 16777216
370
    -2
100
AcDbLine
 10
21881.13961529397
 20
3543.883160955786
 30
0.0
 11
21881.13961529397
 21
3789.132528613187
 31
0.0
  0
LINE
  5
AA80
330
A721
100
AcDbEntity
  8
2
  6
Continuous
440
 16777216
370
    -2
100
AcDbLine
 10
22481.13961529397
 20
3543.883160955787
 30
0.0
 11
22481.13961529397
 21
3789.132528613187
 31
0.0
  0
LINE
  5
AA81
330
A721
100
AcDbEntity
  8
2
  6
Continuous
440
 16777216
370
    -2
100
AcDbLine
 10
21941.13961529397
 20
3749.132528613187
 30
0.0
 11
22421.13961529397
 21
3749.132528613187
 31
0.0
  0
SOLID
  5
AA82
330
A721
100
AcDbEntity
  8
2
  6
Continuous
440
 16777216
100
AcDbTrace
 10
21941.13961529397
 20
3759.132528613187
 30
0.0
 11
21941.13961529397
 21
3739.132528613187
 31
0.0
 12
21881.13961529397
 22
3749.132528613187
 32
0.0
 13
21881.13961529397
 23
3749.132528613187
 33
0.0
  0
SOLID
  5
AA83
330
A721
100
AcDbEntity
  8
2
  6
Continuous
440
 16777216
100
AcDbTrace
 10
22421.13961529397
 20
3759.132528613187
 30
0.0
 11
22421.13961529397
 21
3739.132528613187
 31
0.0
 12
22481.13961529397
 22
3749.132528613187
 32
0.0
 13
22481.13961529397
 23
3749.132528613187
 33
0.0
  0
MTEXT
  5
AA84
330
A721
100
AcDbEntity
  8
2
  6
Continuous
 62
     7
440
 16777216
100
AcDbMText
 10
22181.13961529397
 20
3799.132528613187
 30
0.0
 40
60.0
 41
0.0
 46
0.0
 71
     5
 72
     1
  1
\A1;600
  7
JF3
 73
     1
 44
1.0
  0
POINT
  5
AA85
330
A721
100
AcDbEntity
  8
DEFPOINTS
  6
Continuous
 62
     0
440
 16777216
100
AcDbPoint
 10
21881.13961529397
 20
3483.883160955786
 30
0.0
  0
POINT
  5
AA86
330
A721
100
AcDbEntity
  8
DEFPOINTS
  6
Continuous
 62
     0
440
 16777216
100
AcDbPoint
 10
22481.13961529397
 20
3483.883160955786
 30
0.0
  0
POINT
  5
AA87
330
A721
100
AcDbEntity
  8
DEFPOINTS
  6
Continuous
 62
     0
440
 16777216
100
AcDbPoint
 10
22481.13961529397
 20
3749.132528613187
 30
0.0
  0
ENDBLK
  5
A723
330
A721
100
AcDbEntity
  8
0
100
AcDbBlockEnd
  0
BLOCK
  5
A72E
330
A72D
100
AcDbEntity
  8
0
100
AcDbBlockBegin
  2
*D46
 70
     1
 10
0.0
 20
0.0
 30
0.0
  3
*D46
  1

  0
LINE
  5
AA88
330
A72D
100
AcDbEntity
  8
2
  6
Continuous
440
 16777216
370
    -2
100
AcDbLine
 10
20981.13961529397
 20
3393.883160955784
 30
0.0
 11
20981.13961529397
 21
3902.540541387523
 31
0.0
  0
LINE
  5
AA89
330
A72D
100
AcDbEntity
  8
2
  6
Continuous
440
 16777216
370
    -2
100
AcDbLine
 10
23381.13961529397
 20
3393.883160955788
 30
0.0
 11
23381.13961529397
 21
3902.540541387523
 31
0.0
  0
LINE
  5
AA8A
330
A72D
100
AcDbEntity
  8
2
  6
Continuous
440
 16777216
370
    -2
100
AcDbLine
 10
21041.13961529397
 20
3862.540541387524
 30
0.0
 11
23321.13961529397
 21
3862.540541387524
 31
0.0
  0
SOLID
  5
AA8B
330
A72D
100
AcDbEntity
  8
2
  6
Continuous
440
 16777216
100
AcDbTrace
 10
21041.13961529397
 20
3872.540541387524
 30
0.0
 11
21041.13961529397
 21
3852.540541387524
 31
0.0
 12
20981.13961529397
 22
3862.540541387524
 32
0.0
 13
20981.13961529397
 23
3862.540541387524
 33
0.0
  0
SOLID
  5
AA8C
330
A72D
100
AcDbEntity
  8
2
  6
Continuous
440
 16777216
100
AcDbTrace
 10
23321.13961529397
 20
3872.540541387524
 30
0.0
 11
23321.13961529397
 21
3852.540541387524
 31
0.0
 12
23381.13961529397
 22
3862.540541387524
 32
0.0
 13
23381.13961529397
 23
3862.540541387524
 33
0.0
  0
MTEXT
  5
AA8D
330
A72D
100
AcDbEntity
  8
2
  6
Continuous
 62
     7
440
 16777216
100
AcDbMText
 10
22181.13961529397
 20
3912.540541387524
 30
0.0
 40
60.0
 41
0.0
 46
0.0
 71
     5
 72
     1
  1
\A1;2400
  7
JF3
 73
     1
 44
1.0
  0
POINT
  5
AA8E
330
A72D
100
AcDbEntity
  8
DEFPOINTS
  6
Continuous
 62
     0
440
 16777216
100
AcDbPoint
 10
20981.13961529397
 20
3333.883160955785
 30
0.0
  0
POINT
  5
AA8F
330
A72D
100
AcDbEntity
  8
DEFPOINTS
  6
Continuous
 62
     0
440
 16777216
100
AcDbPoint
 10
23381.13961529397
 20
3333.883160955787
 30
0.0
  0
POINT
  5
AA90
330
A72D
100
AcDbEntity
  8
DEFPOINTS
  6
Continuous
 62
     0
440
 16777216
100
AcDbPoint
 10
23381.13961529397
 20
3862.540541387524
 30
0.0
  0
ENDBLK
  5
A72F
330
A72D
100
AcDbEntity
  8
0
100
AcDbBlockEnd
  0
BLOCK
  5
A73A
330
A739
100
AcDbEntity
  8
0
100
AcDbBlockBegin
  2
*D47
 70
     1
 10
0.0
 20
0.0
 30
0.0
  3
*D47
  1

  0
LINE
  5
AA91
330
A739
100
AcDbEntity
  8
2
  6
Continuous
440
 16777216
370
    -2
100
AcDbLine
 10
21011.13961529397
 20
3393.883160955784
 30
0.0
 11
21011.13961529397
 21
3789.132528613186
 31
0.0
  0
LINE
  5
AA92
330
A739
100
AcDbEntity
  8
2
  6
Continuous
440
 16777216
370
    -2
100
AcDbLine
 10
21881.13961529397
 20
3543.883160955786
 30
0.0
 11
21881.13961529397
 21
3789.132528613186
 31
0.0
  0
LINE
  5
AA93
330
A739
100
AcDbEntity
  8
2
  6
Continuous
440
 16777216
370
    -2
100
AcDbLine
 10
21071.13961529397
 20
3749.132528613186
 30
0.0
 11
21821.13961529397
 21
3749.132528613186
 31
0.0
  0
SOLID
  5
AA94
330
A739
100
AcDbEntity
  8
2
  6
Continuous
440
 16777216
100
AcDbTrace
 10
21071.13961529397
 20
3759.132528613186
 30
0.0
 11
21071.13961529397
 21
3739.132528613186
 31
0.0
 12
21011.13961529397
 22
3749.132528613186
 32
0.0
 13
21011.13961529397
 23
3749.132528613186
 33
0.0
  0
SOLID
  5
AA95
330
A739
100
AcDbEntity
  8
2
  6
Continuous
440
 16777216
100
AcDbTrace
 10
21821.13961529397
 20
3759.132528613186
 30
0.0
 11
21821.13961529397
 21
3739.132528613186
 31
0.0
 12
21881.13961529397
 22
3749.132528613186
 32
0.0
 13
21881.13961529397
 23
3749.132528613186
 33
0.0
  0
MTEXT
  5
AA96
330
A739
100
AcDbEntity
  8
2
  6
Continuous
 62
     7
440
 16777216
100
AcDbMText
 10
21446.13961529397
 20
3799.132528613186
 30
0.0
 40
60.0
 41
0.0
 46
0.0
 71
     5
 72
     1
  1
\A1;870
  7
JF3
 73
     1
 44
1.0
  0
POINT
  5
AA97
330
A739
100
AcDbEntity
  8
DEFPOINTS
  6
Continuous
 62
     0
440
 16777216
100
AcDbPoint
 10
21011.13961529397
 20
3333.883160955785
 30
0.0
  0
POINT
  5
AA98
330
A739
100
AcDbEntity
  8
DEFPOINTS
  6
Continuous
 62
     0
440
 16777216
100
AcDbPoint
 10
21881.13961529397
 20
3483.883160955786
 30
0.0
  0
POINT
  5
AA99
330
A739
100
AcDbEntity
  8
DEFPOINTS
  6
Continuous
 62
     0
440
 16777216
100
AcDbPoint
 10
21881.13961529397
 20
3749.132528613186
 30
0.0
  0
ENDBLK
  5
A73B
330
A739
100
AcDbEntity
  8
0
100
AcDbBlockEnd
  0
BLOCK
  5
A746
330
A745
100
AcDbEntity
  8
0
100
AcDbBlockBegin
  2
*D48
 70
     1
 10
0.0
 20
0.0
 30
0.0
  3
*D48
  1

  0
LINE
  5
AA9A
330
A745
100
AcDbEntity
  8
2
  6
Continuous
440
 16777216
370
    -2
100
AcDbLine
 10
20981.13961529397
 20
3393.883160955784
 30
0.0
 11
20981.13961529397
 21
3789.132528613186
 31
0.0
  0
LINE
  5
AA9B
330
A745
100
AcDbEntity
  8
2
  6
Continuous
440
 16777216
370
    -2
100
AcDbLine
 10
21011.13961529397
 20
3393.883160955784
 30
0.0
 11
21011.13961529397
 21
3789.132528613186
 31
0.0
  0
LINE
  5
AA9C
330
A745
100
AcDbEntity
  8
2
  6
Continuous
440
 16777216
370
    -2
100
AcDbLine
 10
20921.13961529397
 20
3749.132528613186
 30
0.0
 11
20861.13961529397
 21
3749.132528613186
 31
0.0
  0
LINE
  5
AA9D
330
A745
100
AcDbEntity
  8
2
  6
Continuous
440
 16777216
370
    -2
100
AcDbLine
 10
21071.13961529397
 20
3749.132528613186
 30
0.0
 11
21131.13961529397
 21
3749.132528613186
 31
0.0
  0
LINE
  5
AA9E
330
A745
100
AcDbEntity
  8
2
  6
Continuous
440
 16777216
370
    -2
100
AcDbLine
 10
20981.13961529397
 20
3749.132528613186
 30
0.0
 11
21011.13961529397
 21
3749.132528613186
 31
0.0
  0
SOLID
  5
AA9F
330
A745
100
AcDbEntity
  8
2
  6
Continuous
440
 16777216
100
AcDbTrace
 10
20921.13961529397
 20
3759.132528613185
 30
0.0
 11
20921.13961529397
 21
3739.132528613185
 31
0.0
 12
20981.13961529397
 22
3749.132528613186
 32
0.0
 13
20981.13961529397
 23
3749.132528613186
 33
0.0
  0
SOLID
  5
AAA0
330
A745
100
AcDbEntity
  8
2
  6
Continuous
440
 16777216
100
AcDbTrace
 10
21071.13961529397
 20
3759.132528613185
 30
0.0
 11
21071.13961529397
 21
3739.132528613185
 31
0.0
 12
21011.13961529397
 22
3749.132528613186
 32
0.0
 13
21011.13961529397
 23
3749.132528613186
 33
0.0
  0
MTEXT
  5
AAA1
330
A745
100
AcDbEntity
  8
2
  6
Continuous
 62
     7
440
 16777216
100
AcDbMText
 10
20996.13961529397
 20
3799.132528613185
 30
0.0
 40
60.0
 41
0.0
 46
0.0
 71
     5
 72
     1
  1
\A1;30
  7
JF3
 73
     1
 44
1.0
  0
POINT
  5
AAA2
330
A745
100
AcDbEntity
  8
DEFPOINTS
  6
Continuous
 62
     0
440
 16777216
100
AcDbPoint
 10
20981.13961529397
 20
3333.883160955785
 30
0.0
  0
POINT
  5
AAA3
330
A745
100
AcDbEntity
  8
DEFPOINTS
  6
Continuous
 62
     0
440
 16777216
100
AcDbPoint
 10
21011.13961529397
 20
3333.883160955785
 30
0.0
  0
POINT
  5
AAA4
330
A745
100
AcDbEntity
  8
DEFPOINTS
  6
Continuous
 62
     0
440
 16777216
100
AcDbPoint
 10
21011.13961529397
 20
3749.132528613186
 30
0.0
  0
ENDBLK
  5
A747
330
A745
100
AcDbEntity
  8
0
100
AcDbBlockEnd
  0
BLOCK
  5
A754
330
A753
100
AcDbEntity
  8
0
100
AcDbBlockBegin
  2
*D49
 70
     1
 10
0.0
 20
0.0
 30
0.0
  3
*D49
  1

  0
LINE
  5
AAA5
330
A753
100
AcDbEntity
  8
2
  6
Continuous
440
 16777216
370
    -2
100
AcDbLine
 10
22541.13961529397
 20
3483.883160955786
 30
0.0
 11
23712.58107373283
 21
3483.883160955786
 31
0.0
  0
LINE
  5
AAA6
330
A753
100
AcDbEntity
  8
2
  6
Continuous
440
 16777216
370
    -2
100
AcDbLine
 10
23441.13961529397
 20
3333.883160955787
 30
0.0
 11
23712.58107373283
 21
3333.883160955787
 31
0.0
  0
LINE
  5
AAA7
330
A753
100
AcDbEntity
  8
2
  6
Continuous
440
 16777216
370
    -2
100
AcDbLine
 10
23672.58107373283
 20
3543.883160955786
 30
0.0
 11
23672.58107373283
 21
3603.883160955786
 31
0.0
  0
LINE
  5
AAA8
330
A753
100
AcDbEntity
  8
2
  6
Continuous
440
 16777216
370
    -2
100
AcDbLine
 10
23672.58107373283
 20
3273.883160955787
 30
0.0
 11
23672.58107373283
 21
3213.883160955787
 31
0.0
  0
LINE
  5
AAA9
330
A753
100
AcDbEntity
  8
2
  6
Continuous
440
 16777216
370
    -2
100
AcDbLine
 10
23672.58107373283
 20
3483.883160955786
 30
0.0
 11
23672.58107373283
 21
3333.883160955787
 31
0.0
  0
SOLID
  5
AAAA
330
A753
100
AcDbEntity
  8
2
  6
Continuous
440
 16777216
100
AcDbTrace
 10
23662.58107373283
 20
3543.883160955786
 30
0.0
 11
23682.58107373283
 21
3543.883160955786
 31
0.0
 12
23672.58107373283
 22
3483.883160955786
 32
0.0
 13
23672.58107373283
 23
3483.883160955786
 33
0.0
  0
SOLID
  5
AAAB
330
A753
100
AcDbEntity
  8
2
  6
Continuous
440
 16777216
100
AcDbTrace
 10
23662.58107373283
 20
3273.883160955787
 30
0.0
 11
23682.58107373283
 21
3273.883160955787
 31
0.0
 12
23672.58107373283
 22
3333.883160955787
 32
0.0
 13
23672.58107373283
 23
3333.883160955787
 33
0.0
  0
MTEXT
  5
AAAC
330
A753
100
AcDbEntity
  8
2
  6
Continuous
 62
     7
440
 16777216
100
AcDbMText
 10
23622.58107373283
 20
3408.883160955791
 30
0.0
 40
60.0
 41
0.0
 46
0.0
 71
     5
 72
     1
  1
\A1;150
  7
JF3
 11
0.0000000000000001
 21
1.0
 31
0.0
 73
     1
 44
1.0
  0
POINT
  5
AAAD
330
A753
100
AcDbEntity
  8
DEFPOINTS
  6
Continuous
 62
     0
440
 16777216
100
AcDbPoint
 10
22481.13961529397
 20
3483.883160955786
 30
0.0
  0
POINT
  5
AAAE
330
A753
100
AcDbEntity
  8
DEFPOINTS
  6
Continuous
 62
     0
440
 16777216
100
AcDbPoint
 10
23381.13961529397
 20
3333.883160955787
 30
0.0
  0
POINT
  5
AAAF
330
A753
100
AcDbEntity
  8
DEFPOINTS
  6
Continuous
 62
     0
440
 16777216
100
AcDbPoint
 10
23672.58107373283
 20
3333.883160955787
 30
0.0
  0
ENDBLK
  5
A755
330
A753
100
AcDbEntity
  8
0
100
AcDbBlockEnd
  0
BLOCK
  5
A762
330
A761
100
AcDbEntity
  8
0
100
AcDbBlockBegin
  2
*D50
 70
     1
 10
0.0
 20
0.0
 30
0.0
  3
*D50
  1

  0
LINE
  5
AAB0
330
A761
100
AcDbEntity
  8
2
  6
Continuous
440
 16777216
370
    -2
100
AcDbLine
 10
23441.13961529397
 20
3333.883160955787
 30
0.0
 11
23712.58107373283
 21
3333.883160955787
 31
0.0
  0
LINE
  5
AAB1
330
A761
100
AcDbEntity
  8
2
  6
Continuous
440
 16777216
370
    -2
100
AcDbLine
 10
23441.13961529397
 20
3133.883160955788
 30
0.0
 11
23712.58107373283
 21
3133.883160955787
 31
0.0
  0
LINE
  5
AAB2
330
A761
100
AcDbEntity
  8
2
  6
Continuous
440
 16777216
370
    -2
100
AcDbLine
 10
23672.58107373283
 20
3273.883160955787
 30
0.0
 11
23672.58107373283
 21
3193.883160955787
 31
0.0
  0
SOLID
  5
AAB3
330
A761
100
AcDbEntity
  8
2
  6
Continuous
440
 16777216
100
AcDbTrace
 10
23662.58107373283
 20
3273.883160955787
 30
0.0
 11
23682.58107373283
 21
3273.883160955787
 31
0.0
 12
23672.58107373283
 22
3333.883160955787
 32
0.0
 13
23672.58107373283
 23
3333.883160955787
 33
0.0
  0
SOLID
  5
AAB4
330
A761
100
AcDbEntity
  8
2
  6
Continuous
440
 16777216
100
AcDbTrace
 10
23662.58107373283
 20
3193.883160955787
 30
0.0
 11
23682.58107373283
 21
3193.883160955787
 31
0.0
 12
23672.58107373283
 22
3133.883160955787
 32
0.0
 13
23672.58107373283
 23
3133.883160955787
 33
0.0
  0
MTEXT
  5
AAB5
330
A761
100
AcDbEntity
  8
2
  6
Continuous
 62
     7
440
 16777216
100
AcDbMText
 10
23622.58107373283
 20
3233.883160955791
 30
0.0
 40
60.0
 41
0.0
 46
0.0
 71
     5
 72
     1
  1
\A1;200
  7
JF3
 11
0.0000000000000001
 21
1.0
 31
0.0
 73
     1
 44
1.0
  0
POINT
  5
AAB6
330
A761
100
AcDbEntity
  8
DEFPOINTS
  6
Continuous
 62
     0
440
 16777216
100
AcDbPoint
 10
23381.13961529397
 20
3333.883160955787
 30
0.0
  0
POINT
  5
AAB7
330
A761
100
AcDbEntity
  8
DEFPOINTS
  6
Continuous
 62
     0
440
 16777216
100
AcDbPoint
 10
23381.13961529397
 20
3133.883160955788
 30
0.0
  0
POINT
  5
AAB8
330
A761
100
AcDbEntity
  8
DEFPOINTS
  6
Continuous
 62
     0
440
 16777216
100
AcDbPoint
 10
23672.58107373283
 20
3133.883160955787
 30
0.0
  0
ENDBLK
  5
A763
330
A761
100
AcDbEntity
  8
0
100
AcDbBlockEnd
  0
BLOCK
  5
A76E
330
A76D
100
AcDbEntity
  8
0
100
AcDbBlockBegin
  2
*D51
 70
     1
 10
0.0
 20
0.0
 30
0.0
  3
*D51
  1

  0
LINE
  5
AAB9
330
A76D
100
AcDbEntity
  8
2
  6
Continuous
440
 16777216
370
    -2
100
AcDbLine
 10
23351.13961529397
 20
3393.883160955788
 30
0.0
 11
23351.13961529397
 21
3789.132528613188
 31
0.0
  0
LINE
  5
AABA
330
A76D
100
AcDbEntity
  8
2
  6
Continuous
440
 16777216
370
    -2
100
AcDbLine
 10
23381.13961529397
 20
3393.883160955788
 30
0.0
 11
23381.13961529397
 21
3789.132528613188
 31
0.0
  0
LINE
  5
AABB
330
A76D
100
AcDbEntity
  8
2
  6
Continuous
440
 16777216
370
    -2
100
AcDbLine
 10
23291.13961529397
 20
3749.132528613188
 30
0.0
 11
23231.13961529397
 21
3749.132528613188
 31
0.0
  0
LINE
  5
AABC
330
A76D
100
AcDbEntity
  8
2
  6
Continuous
440
 16777216
370
    -2
100
AcDbLine
 10
23441.13961529397
 20
3749.132528613188
 30
0.0
 11
23501.13961529397
 21
3749.132528613188
 31
0.0
  0
LINE
  5
AABD
330
A76D
100
AcDbEntity
  8
2
  6
Continuous
440
 16777216
370
    -2
100
AcDbLine
 10
23351.13961529397
 20
3749.132528613188
 30
0.0
 11
23381.13961529397
 21
3749.132528613188
 31
0.0
  0
SOLID
  5
AABE
330
A76D
100
AcDbEntity
  8
2
  6
Continuous
440
 16777216
100
AcDbTrace
 10
23291.13961529397
 20
3759.132528613188
 30
0.0
 11
23291.13961529397
 21
3739.132528613188
 31
0.0
 12
23351.13961529397
 22
3749.132528613188
 32
0.0
 13
23351.13961529397
 23
3749.132528613188
 33
0.0
  0
SOLID
  5
AABF
330
A76D
100
AcDbEntity
  8
2
  6
Continuous
440
 16777216
100
AcDbTrace
 10
23441.13961529397
 20
3759.132528613188
 30
0.0
 11
23441.13961529397
 21
3739.132528613188
 31
0.0
 12
23381.13961529397
 22
3749.132528613188
 32
0.0
 13
23381.13961529397
 23
3749.132528613188
 33
0.0
  0
MTEXT
  5
AAC0
330
A76D
100
AcDbEntity
  8
2
  6
Continuous
 62
     7
440
 16777216
100
AcDbMText
 10
23366.13961529397
 20
3799.132528613188
 30
0.0
 40
60.0
 41
0.0
 46
0.0
 71
     5
 72
     1
  1
\A1;30
  7
JF3
 73
     1
 44
1.0
  0
POINT
  5
AAC1
330
A76D
100
AcDbEntity
  8
DEFPOINTS
  6
Continuous
 62
     0
440
 16777216
100
AcDbPoint
 10
23351.13961529397
 20
3333.883160955787
 30
0.0
  0
POINT
  5
AAC2
330
A76D
100
AcDbEntity
  8
DEFPOINTS
  6
Continuous
 62
     0
440
 16777216
100
AcDbPoint
 10
23381.13961529397
 20
3333.883160955787
 30
0.0
  0
POINT
  5
AAC3
330
A76D
100
AcDbEntity
  8
DEFPOINTS
  6
Continuous
 62
     0
440
 16777216
100
AcDbPoint
 10
23381.13961529397
 20
3749.132528613188
 30
0.0
  0
ENDBLK
  5
A76F
330
A76D
100
AcDbEntity
  8
0
100
AcDbBlockEnd
  0
BLOCK
  5
A77C
330
A77B
100
AcDbEntity
  8
0
100
AcDbBlockBegin
  2
*D52
 70
     1
 10
0.0
 20
0.0
 30
0.0
  3
*D52
  1

  0
LINE
  5
AAC4
330
A77B
100
AcDbEntity
  8
2
  6
Continuous
440
 16777216
370
    -2
100
AcDbLine
 10
22481.13961529397
 20
3543.883160955787
 30
0.0
 11
22481.13961529397
 21
3789.132528613188
 31
0.0
  0
LINE
  5
AAC5
330
A77B
100
AcDbEntity
  8
2
  6
Continuous
440
 16777216
370
    -2
100
AcDbLine
 10
23351.13961529397
 20
3393.883160955788
 30
0.0
 11
23351.13961529397
 21
3789.132528613188
 31
0.0
  0
LINE
  5
AAC6
330
A77B
100
AcDbEntity
  8
2
  6
Continuous
440
 16777216
370
    -2
100
AcDbLine
 10
22541.13961529397
 20
3749.132528613188
 30
0.0
 11
23291.13961529397
 21
3749.132528613188
 31
0.0
  0
SOLID
  5
AAC7
330
A77B
100
AcDbEntity
  8
2
  6
Continuous
440
 16777216
100
AcDbTrace
 10
22541.13961529397
 20
3759.132528613188
 30
0.0
 11
22541.13961529397
 21
3739.132528613188
 31
0.0
 12
22481.13961529397
 22
3749.132528613188
 32
0.0
 13
22481.13961529397
 23
3749.132528613188
 33
0.0
  0
SOLID
  5
AAC8
330
A77B
100
AcDbEntity
  8
2
  6
Continuous
440
 16777216
100
AcDbTrace
 10
23291.13961529397
 20
3759.132528613188
 30
0.0
 11
23291.13961529397
 21
3739.132528613188
 31
0.0
 12
23351.13961529397
 22
3749.132528613188
 32
0.0
 13
23351.13961529397
 23
3749.132528613188
 33
0.0
  0
MTEXT
  5
AAC9
330
A77B
100
AcDbEntity
  8
2
  6
Continuous
 62
     7
440
 16777216
100
AcDbMText
 10
22916.13961529397
 20
3799.132528613188
 30
0.0
 40
60.0
 41
0.0
 46
0.0
 71
     5
 72
     1
  1
\A1;870
  7
JF3
 73
     1
 44
1.0
  0
POINT
  5
AACA
330
A77B
100
AcDbEntity
  8
DEFPOINTS
  6
Continuous
 62
     0
440
 16777216
100
AcDbPoint
 10
22481.13961529397
 20
3483.883160955786
 30
0.0
  0
POINT
  5
AACB
330
A77B
100
AcDbEntity
  8
DEFPOINTS
  6
Continuous
 62
     0
440
 16777216
100
AcDbPoint
 10
23351.13961529397
 20
3333.883160955787
 30
0.0
  0
POINT
  5
AACC
330
A77B
100
AcDbEntity
  8
DEFPOINTS
  6
Continuous
 62
     0
440
 16777216
100
AcDbPoint
 10
23351.13961529397
 20
3749.132528613188
 30
0.0
  0
ENDBLK
  5
A77D
330
A77B
100
AcDbEntity
  8
0
100
AcDbBlockEnd
  0
BLOCK
  5
A788
330
A787
100
AcDbEntity
  8
0
100
AcDbBlockBegin
  2
*D53
 70
     1
 10
0.0
 20
0.0
 30
0.0
  3
*D53
  1

  0
LINE
  5
AACD
330
A787
100
AcDbEntity
  8
2
  6
Continuous
440
 16777216
370
    -2
100
AcDbLine
 10
23772.58107373283
 20
3483.883160955787
 30
0.0
 11
23875.85067717671
 21
3483.883160955787
 31
0.0
  0
LINE
  5
AACE
330
A787
100
AcDbEntity
  8
2
  6
Continuous
440
 16777216
370
    -2
100
AcDbLine
 10
23772.58107373283
 20
3133.883160955788
 30
0.0
 11
23875.85067717671
 21
3133.883160955788
 31
0.0
  0
LINE
  5
AACF
330
A787
100
AcDbEntity
  8
2
  6
Continuous
440
 16777216
370
    -2
100
AcDbLine
 10
23835.85067717671
 20
3423.883160955788
 30
0.0
 11
23835.85067717671
 21
3193.883160955787
 31
0.0
  0
SOLID
  5
AAD0
330
A787
100
AcDbEntity
  8
2
  6
Continuous
440
 16777216
100
AcDbTrace
 10
23825.85067717672
 20
3423.883160955788
 30
0.0
 11
23845.85067717671
 21
3423.883160955788
 31
0.0
 12
23835.85067717671
 22
3483.883160955787
 32
0.0
 13
23835.85067717671
 23
3483.883160955787
 33
0.0
  0
SOLID
  5
AAD1
330
A787
100
AcDbEntity
  8
2
  6
Continuous
440
 16777216
100
AcDbTrace
 10
23825.85067717672
 20
3193.883160955787
 30
0.0
 11
23845.85067717671
 21
3193.883160955787
 31
0.0
 12
23835.85067717671
 22
3133.883160955788
 32
0.0
 13
23835.85067717671
 23
3133.883160955788
 33
0.0
  0
MTEXT
  5
AAD2
330
A787
100
AcDbEntity
  8
2
  6
Continuous
 62
     7
440
 16777216
100
AcDbMText
 10
23785.85067717672
 20
3308.883160955792
 30
0.0
 40
60.0
 41
0.0
 46
0.0
 71
     5
 72
     1
  1
\A1;350
  7
JF3
 11
0.0000000000000001
 21
1.0
 31
0.0
 73
     1
 44
1.0
  0
POINT
  5
AAD3
330
A787
100
AcDbEntity
  8
DEFPOINTS
  6
Continuous
 62
     0
440
 16777216
100
AcDbPoint
 10
23712.58107373283
 20
3483.883160955787
 30
0.0
  0
POINT
  5
AAD4
330
A787
100
AcDbEntity
  8
DEFPOINTS
  6
Continuous
 62
     0
440
 16777216
100
AcDbPoint
 10
23712.58107373283
 20
3133.883160955788
 30
0.0
  0
POINT
  5
AAD5
330
A787
100
AcDbEntity
  8
DEFPOINTS
  6
Continuous
 62
     0
440
 16777216
100
AcDbPoint
 10
23835.85067717671
 20
3133.883160955788
 30
0.0
  0
ENDBLK
  5
A789
330
A787
100
AcDbEntity
  8
0
100
AcDbBlockEnd
  0
BLOCK
  5
A7EE
330
A7ED
100
AcDbEntity
  8
0
100
AcDbBlockBegin
  2
*D54
 70
     1
 10
0.0
 20
0.0
 30
0.0
  3
*D54
  1

  0
LINE
  5
ABDE
330
A7ED
100
AcDbEntity
  8
2
440
 16777216
370
    -2
100
AcDbLine
 10
32629.952753991
 20
9367.407385954692
 30
0.0
 11
33490.93431433823
 21
9367.407385954692
 31
0.0
  0
LINE
  5
ABDF
330
A7ED
100
AcDbEntity
  8
2
440
 16777216
370
    -2
100
AcDbLine
 10
32889.95275399101
 20
8567.407385954693
 30
0.0
 11
33490.93431433823
 21
8567.407385954693
 31
0.0
  0
LINE
  5
ABE0
330
A7ED
100
AcDbEntity
  8
2
440
 16777216
370
    -2
100
AcDbLine
 10
33450.93431433823
 20
9307.407385954691
 30
0.0
 11
33450.93431433823
 21
8627.407385954692
 31
0.0
  0
SOLID
  5
ABE1
330
A7ED
100
AcDbEntity
  8
2
440
 16777216
100
AcDbTrace
 10
33440.93431433823
 20
9307.407385954691
 30
0.0
 11
33460.93431433823
 21
9307.407385954691
 31
0.0
 12
33450.93431433823
 22
9367.407385954692
 32
0.0
 13
33450.93431433823
 23
9367.407385954692
 33
0.0
  0
SOLID
  5
ABE2
330
A7ED
100
AcDbEntity
  8
2
440
 16777216
100
AcDbTrace
 10
33440.93431433823
 20
8627.407385954692
 30
0.0
 11
33460.93431433823
 21
8627.407385954692
 31
0.0
 12
33450.93431433823
 22
8567.407385954693
 32
0.0
 13
33450.93431433823
 23
8567.407385954693
 33
0.0
  0
MTEXT
  5
ABE3
330
A7ED
100
AcDbEntity
  8
2
 62
     7
440
 16777216
100
AcDbMText
 10
33400.93431433823
 20
8967.407385954691
 30
0.0
 40
60.0
 41
0.0
 46
0.0
 71
     5
 72
     1
  1
\A1;200
  7
JF3
 11
-0.0000000000000011
 21
1.0
 31
0.0
 73
     1
 44
1.0
  0
POINT
  5
ABE4
330
A7ED
100
AcDbEntity
  8
DEFPOINTS
 62
     0
440
 16777216
100
AcDbPoint
 10
32569.95275399101
 20
9367.407385954647
 30
0.0
  0
POINT
  5
ABE5
330
A7ED
100
AcDbEntity
  8
DEFPOINTS
 62
     0
440
 16777216
100
AcDbPoint
 10
32829.95275399101
 20
8567.407385954648
 30
0.0
  0
POINT
  5
ABE6
330
A7ED
100
AcDbEntity
  8
DEFPOINTS
 62
     0
440
 16777216
100
AcDbPoint
 10
33450.93431433824
 20
8567.407385954648
 30
0.0
  0
ENDBLK
  5
A7EF
330
A7ED
100
AcDbEntity
  8
0
100
AcDbBlockEnd
  0
BLOCK
  5
A806
330
A805
100
AcDbEntity
  8
0
100
AcDbBlockBegin
  2
*D55
 70
     1
 10
0.0
 20
0.0
 30
0.0
  3
*D55
  1

  0
LINE
  5
AE0C
330
A805
100
AcDbEntity
  8
2
440
 16777216
370
    -2
100
AcDbLine
 10
33061.663355991
 20
6089.655768634283
 30
0.0
 11
33295.02238001885
 21
6089.655768634285
 31
0.0
  0
LINE
  5
AE0D
330
A805
100
AcDbEntity
  8
2
440
 16777216
370
    -2
100
AcDbLine
 10
33086.89865010863
 20
5829.655768634284
 30
0.0
 11
33295.02238001885
 21
5829.655768634285
 31
0.0
  0
LINE
  5
AE0E
330
A805
100
AcDbEntity
  8
2
440
 16777216
370
    -2
100
AcDbLine
 10
33265.02238001885
 20
6049.655768634284
 30
0.0
 11
33265.02238001885
 21
5869.655768634284
 31
0.0
  0
SOLID
  5
AE0F
330
A805
100
AcDbEntity
  8
2
440
 16777216
100
AcDbTrace
 10
33258.35571335218
 20
6049.655768634284
 30
0.0
 11
33271.68904668551
 21
6049.655768634284
 31
0.0
 12
33265.02238001885
 22
6089.655768634285
 32
0.0
 13
33265.02238001885
 23
6089.655768634285
 33
0.0
  0
SOLID
  5
AE10
330
A805
100
AcDbEntity
  8
2
440
 16777216
100
AcDbTrace
 10
33258.35571335218
 20
5869.655768634284
 30
0.0
 11
33271.68904668551
 21
5869.655768634284
 31
0.0
 12
33265.02238001885
 22
5829.655768634285
 32
0.0
 13
33265.02238001885
 23
5829.655768634285
 33
0.0
  0
MTEXT
  5
AE11
330
A805
100
AcDbEntity
  8
2
 62
     7
440
 16777216
100
AcDbMText
 10
33215.02238001885
 20
5959.655768634283
 30
0.0
 40
60.0
 41
0.0
 46
0.0
 71
     5
 72
     1
  1
\A1;130
  7
JF3
 11
-0.0000000000000011
 21
1.0
 31
0.0
 73
     1
 44
1.0
  0
POINT
  5
AE12
330
A805
100
AcDbEntity
  8
DEFPOINTS
 62
     0
440
 16777216
100
AcDbPoint
 10
33001.663355991
 20
6089.655768634241
 30
0.0
  0
POINT
  5
AE13
330
A805
100
AcDbEntity
  8
DEFPOINTS
 62
     0
440
 16777216
100
AcDbPoint
 10
33026.89865010863
 20
5829.65576863424
 30
0.0
  0
POINT
  5
AE14
330
A805
100
AcDbEntity
  8
DEFPOINTS
 62
     0
440
 16777216
100
AcDbPoint
 10
33265.02238001885
 20
5829.65576863424
 30
0.0
  0
ENDBLK
  5
A807
330
A805
100
AcDbEntity
  8
0
100
AcDbBlockEnd
  0
BLOCK
  5
ADE2
330
ADE1
100
AcDbEntity
  8
0
100
AcDbBlockBegin
  2
*D56
 70
     1
 10
0.0
 20
0.0
 30
0.0
  3
*D56
  1

  0
LINE
  5
ADFA
330
ADE1
100
AcDbEntity
  8
2
440
 16777216
370
    -2
100
AcDbLine
 10
32629.95275399099
 20
6529.655768634298
 30
0.0
 11
33295.02238001884
 21
6529.655768634299
 31
0.0
  0
LINE
  5
ADFB
330
ADE1
100
AcDbEntity
  8
2
440
 16777216
370
    -2
100
AcDbLine
 10
33061.663355991
 20
6089.655768634283
 30
0.0
 11
33295.02238001884
 21
6089.655768634285
 31
0.0
  0
LINE
  5
ADFC
330
ADE1
100
AcDbEntity
  8
2
440
 16777216
370
    -2
100
AcDbLine
 10
33265.02238001884
 20
6489.655768634299
 30
0.0
 11
33265.02238001884
 21
6129.655768634285
 31
0.0
  0
SOLID
  5
ADFD
330
ADE1
100
AcDbEntity
  8
2
440
 16777216
100
AcDbTrace
 10
33258.35571335218
 20
6489.655768634299
 30
0.0
 11
33271.68904668551
 21
6489.655768634299
 31
0.0
 12
33265.02238001884
 22
6529.655768634299
 32
0.0
 13
33265.02238001884
 23
6529.655768634299
 33
0.0
  0
SOLID
  5
ADFE
330
ADE1
100
AcDbEntity
  8
2
440
 16777216
100
AcDbTrace
 10
33258.35571335218
 20
6129.655768634285
 30
0.0
 11
33271.68904668551
 21
6129.655768634285
 31
0.0
 12
33265.02238001884
 22
6089.655768634285
 32
0.0
 13
33265.02238001884
 23
6089.655768634285
 33
0.0
  0
MTEXT
  5
ADFF
330
ADE1
100
AcDbEntity
  8
2
 62
     7
440
 16777216
100
AcDbMText
 10
33215.02238001884
 20
6309.65576863429
 30
0.0
 40
60.0
 41
0.0
 46
0.0
 71
     5
 72
     1
  1
\A1;220
  7
JF3
 11
-0.0000000000000011
 21
1.0
 31
0.0
 73
     1
 44
1.0
  0
POINT
  5
AE00
330
ADE1
100
AcDbEntity
  8
DEFPOINTS
 62
     0
440
 16777216
100
AcDbPoint
 10
32569.952753991
 20
6529.655768634254
 30
0.0
  0
POINT
  5
AE01
330
ADE1
100
AcDbEntity
  8
DEFPOINTS
 62
     0
440
 16777216
100
AcDbPoint
 10
33001.663355991
 20
6089.655768634241
 30
0.0
  0
POINT
  5
AE02
330
ADE1
100
AcDbEntity
  8
DEFPOINTS
 62
     0
440
 16777216
100
AcDbPoint
 10
33265.02238001885
 20
6089.655768634241
 30
0.0
  0
ENDBLK
  5
ADE3
330
ADE1
100
AcDbEntity
  8
0
100
AcDbBlockEnd
  0
BLOCK
  5
ADEF
330
ADEE
100
AcDbEntity
  8
0
100
AcDbBlockBegin
  2
*D57
 70
     1
 10
0.0
 20
0.0
 30
0.0
  3
*D57
  1

  0
LINE
  5
AE03
330
ADEE
100
AcDbEntity
  8
2
440
 16777216
370
    -2
100
AcDbLine
 10
33355.02238001883
 20
6529.655768634343
 30
0.0
 11
33480.93431433823
 21
6529.655768634343
 31
0.0
  0
LINE
  5
AE04
330
ADEE
100
AcDbEntity
  8
2
440
 16777216
370
    -2
100
AcDbLine
 10
33355.02238001884
 20
5829.65576863433
 30
0.0
 11
33480.93431433823
 21
5829.65576863433
 31
0.0
  0
LINE
  5
AE05
330
ADEE
100
AcDbEntity
  8
2
440
 16777216
370
    -2
100
AcDbLine
 10
33450.93431433823
 20
6489.655768634342
 30
0.0
 11
33450.93431433823
 21
5869.65576863433
 31
0.0
  0
SOLID
  5
AE06
330
ADEE
100
AcDbEntity
  8
2
440
 16777216
100
AcDbTrace
 10
33444.26764767157
 20
6489.655768634342
 30
0.0
 11
33457.60098100489
 21
6489.655768634342
 31
0.0
 12
33450.93431433823
 22
6529.655768634343
 32
0.0
 13
33450.93431433823
 23
6529.655768634343
 33
0.0
  0
SOLID
  5
AE07
330
ADEE
100
AcDbEntity
  8
2
440
 16777216
100
AcDbTrace
 10
33444.26764767157
 20
5869.65576863433
 30
0.0
 11
33457.60098100489
 21
5869.65576863433
 31
0.0
 12
33450.93431433823
 22
5829.65576863433
 32
0.0
 13
33450.93431433823
 23
5829.65576863433
 33
0.0
  0
MTEXT
  5
AE08
330
ADEE
100
AcDbEntity
  8
2
 62
     7
440
 16777216
100
AcDbMText
 10
33400.93431433823
 20
6179.655768634335
 30
0.0
 40
60.0
 41
0.0
 46
0.0
 71
     5
 72
     1
  1
\A1;350
  7
JF3
 11
-0.0000000000000011
 21
1.0
 31
0.0
 73
     1
 44
1.0
  0
POINT
  5
AE09
330
ADEE
100
AcDbEntity
  8
DEFPOINTS
 62
     0
440
 16777216
100
AcDbPoint
 10
33295.02238001884
 20
6529.655768634299
 30
0.0
  0
POINT
  5
AE0A
330
ADEE
100
AcDbEntity
  8
DEFPOINTS
 62
     0
440
 16777216
100
AcDbPoint
 10
33295.02238001885
 20
5829.655768634285
 30
0.0
  0
POINT
  5
AE0B
330
ADEE
100
AcDbEntity
  8
DEFPOINTS
 62
     0
440
 16777216
100
AcDbPoint
 10
33450.93431433824
 20
5829.655768634285
 30
0.0
  0
ENDBLK
  5
ADF0
330
ADEE
100
AcDbEntity
  8
0
100
AcDbBlockEnd
  0
ENDSEC
  0
SECTION
  2
ENTITIES
  0
LWPOLYLINE
  5
59F2
330
18
100
AcDbEntity
  8
0
 62
     6
100
AcDbPolyline
 90
        4
 70
     1
 43
0.0
 10
19298.40245222889
 20
11600.37210327784
 10
34972.39819502674
 20
11600.37210327785
 10
34972.39819502675
 20
400.3619180361545
 10
19298.40245222889
 20
400.3619180361458
  0
LWPOLYLINE
  5
59F3
330
18
100
AcDbEntity
  8
0
 62
     6
100
AcDbPolyline
 90
        4
 70
     1
 43
0.0
 10
19308.4024522289
 20
11590.37210327784
 10
34962.39819502673
 20
11590.37210327785
 10
34962.39819502675
 20
410.3619180361527
 10
19308.40245222889
 20
410.3619180361459
  0
LINE
  5
59FE
330
18
100
AcDbEntity
  8
2
  6
Continuous
 62
     4
100
AcDbLine
 10
25810.6735501286
 20
10860.40565884888
 30
0.0
 11
28472.52266499692
 21
10860.40565884889
 31
0.0
  0
LINE
  5
59FF
330
18
100
AcDbEntity
  8
2
  6
Continuous
 62
     4
100
AcDbLine
 10
25810.6735501286
 20
10837.19084264592
 30
0.0
 11
28472.52266499692
 21
10837.19084264592
 31
0.0
  0
LINE
  5
5A00
330
18
100
AcDbEntity
  8
2
  6
Continuous
 62
     4
100
AcDbLine
 10
26011.41336586283
 20
10142.90311253845
 30
0.0
 11
28332.83088574942
 21
10142.90311253845
 31
0.0
  0
TEXT
  5
5A01
330
18
100
AcDbEntity
  8
2
  6
Continuous
 62
     7
100
AcDbText
 10
26064.86437362048
 20
10162.89665427241
 30
0.0
 40
180.0
  1
テーパーコーン配置図
 41
0.8
  7
JF3
100
AcDbText
  0
TEXT
  5
5A02
330
18
100
AcDbEntity
  8
2
  6
Continuous
 62
     7
100
AcDbText
 10
25816.97268513091
 20
10902.11165087557
 30
0.0
 40
230.0
  1
NRC250-36　構造図
 41
0.8
  7
JF3
100
AcDbText
  0
TEXT
  5
5A31
330
18
100
AcDbEntity
  8
2
  6
Continuous
 62
     7
100
AcDbText
 10
22100.96103728043
 20
6187.519801558647
 30
0.0
 40
110.0
  1
B'
 41
0.8
  7
JF3
100
AcDbText
  0
TEXT
  5
5A48
330
18
100
AcDbEntity
  8
2
  6
Continuous
 62
     7
100
AcDbText
 10
22077.91238364456
 20
4281.917953084377
 30
0.0
 40
90.0
  1
A-A'
 41
0.8
  7
JF3
100
AcDbText
  0
LINE
  5
5A49
330
18
100
AcDbEntity
  8
2
  6
Continuous
 62
     4
100
AcDbLine
 10
22036.63236226335
 20
4381.538595838523
 30
0.0
 11
22331.31136014845
 21
4381.538595838521
 31
0.0
  0
LINE
  5
5A4A
330
18
100
AcDbEntity
  8
2
  6
Continuous
 62
     4
100
AcDbLine
 10
22036.63236226335
 20
4262.745445721433
 30
0.0
 11
22331.31136014845
 21
4262.745445721431
 31
0.0
  0
TEXT
  5
5A4E
330
18
100
AcDbEntity
  8
2
  6
Continuous
 62
     7
100
AcDbText
 10
22077.91238364455
 20
2710.761071021918
 30
0.0
 40
90.0
  1
B-B'
 41
0.8
  7
JF3
100
AcDbText
  0
LINE
  5
5A4F
330
18
100
AcDbEntity
  8
2
  6
Continuous
 62
     4
100
AcDbLine
 10
22036.63236226335
 20
2691.588563658973
 30
0.0
 11
22331.31136014845
 21
2691.588563658973
 31
0.0
  0
LINE
  5
5A50
330
18
100
AcDbEntity
  8
2
  6
Continuous
 62
     4
100
AcDbLine
 10
22036.63236226335
 20
2810.381713776063
 30
0.0
 11
22331.31136014845
 21
2810.381713776063
 31
0.0
  0
LINE
  5
5A54
330
18
100
AcDbEntity
  8
2
  6
Continuous
 62
     4
100
AcDbLine
 10
21512.94620715678
 20
4851.167391589072
 30
0.0
 11
22769.6858498557
 21
4851.167391589073
 31
0.0
  0
TEXT
  5
5A82
330
18
100
AcDbEntity
  8
2
  6
Continuous
 62
     7
100
AcDbText
 10
21545.6739050668
 20
4871.167209538974
 30
0.0
 40
180.0
  1
側断面図
 41
0.8
  7
JF3
100
AcDbText
  0
TEXT
  5
5AAD
330
18
100
AcDbEntity
  8
2
  6
Continuous
 62
     7
100
AcDbText
 10
22293.0748071599
 20
4876.041677868737
 30
0.0
 40
90.0
  1
S=1/20
 41
0.8
  7
JF3
100
AcDbText
  0
LINE
  5
5AC0
330
18
100
AcDbEntity
  8
2
  6
Continuous
 62
     4
100
AcDbLine
 10
22377.27544483978
 20
9619.325896793421
 30
0.0
 11
22231.16078883904
 21
9659.930099785432
 31
0.0
  0
LINE
  5
5AC1
330
18
100
AcDbEntity
  8
2
  6
Continuous
 62
     4
100
AcDbLine
 10
22175.82216910916
 20
9619.325896793421
 30
0.0
 11
22377.27544483978
 21
9619.325896793421
 31
0.0
  0
LINE
  5
5AC2
330
18
100
AcDbEntity
  8
3
 62
     7
100
AcDbLine
 10
22000.82216910916
 20
9392.90311253846
 30
0.0
 11
22350.82216910917
 21
9392.90311253846
 31
0.0
  0
TEXT
  5
5AC3
330
18
100
AcDbEntity
  8
2
  6
Continuous
 62
     7
100
AcDbText
 10
21342.10141324854
 20
10162.90303065667
 30
0.0
 40
180.0
  1
構造一般平面図
 41
0.8
  7
JF3
100
AcDbText
  0
LINE
  5
5AC4
330
18
100
AcDbEntity
  8
3
  6
HIDDEN
 62
     9
100
AcDbLine
 10
21875.82216910917
 20
8492.90311253846
 30
0.0
 11
22475.82216910917
 21
8492.90311253846
 31
0.0
  0
LINE
  5
5AC5
330
18
100
AcDbEntity
  8
3
  6
HIDDEN
 62
     9
100
AcDbLine
 10
22475.82216910917
 20
7892.903112538457
 30
0.0
 11
21875.82216910917
 21
7892.903112538458
 31
0.0
  0
CIRCLE
  5
5AC6
330
18
100
AcDbEntity
  8
3
 62
     9
100
AcDbCircle
 10
22175.82216910917
 20
8192.903112538457
 30
0.0
 40
65.4
  0
CIRCLE
  5
5AC7
330
18
100
AcDbEntity
  8
3
 62
     9
100
AcDbCircle
 10
22175.82216910917
 20
8192.903112538457
 30
0.0
 40
105.0
  0
CIRCLE
  5
5AC8
330
18
100
AcDbEntity
  8
3
 62
     9
100
AcDbCircle
 10
22175.82216910917
 20
8192.903112538457
 30
0.0
 40
177.15
  0
CIRCLE
  5
5AC9
330
18
100
AcDbEntity
  8
3
 62
     9
100
AcDbCircle
 10
22175.82216910917
 20
8192.903112538457
 30
0.0
 40
197.95
  0
LINE
  5
5ACB
330
18
100
AcDbEntity
  8
3
 62
     7
100
AcDbLine
 10
22000.82216910916
 20
6992.903112538456
 30
0.0
 11
22350.82216910916
 21
6992.903112538456
 31
0.0
  0
LINE
  5
5ACC
330
18
100
AcDbEntity
  8
2
  6
Continuous
 62
     4
100
AcDbLine
 10
22175.82216910916
 20
6373.870134208781
 30
0.0
 11
22377.27544483977
 21
6373.870134208779
 31
0.0
  0
LINE
  5
5ACD
330
18
100
AcDbEntity
  8
2
  6
Continuous
 62
     4
100
AcDbLine
 10
22377.27544483977
 20
6373.870134208779
 30
0.0
 11
22231.16078883903
 21
6333.265931216771
 31
0.0
  0
DIMENSION
  5
5ACE
330
18
100
AcDbEntity
  8
2
  6
Continuous
 62
     4
100
AcDbDimension
280
     0
  2
*D0
 10
22000.82216910916
 20
6665.287844316958
 30
0.0
 11
22175.82216910916
 21
6715.287844316958
 31
0.0
 70
    32
 71
     5
 42
350.0
 73
     0
 74
     0
 75
     0
  3
ST20（詳細）
100
AcDbAlignedDimension
 13
22350.82216910916
 23
6992.903112538455
 33
0.0
 14
22000.82216910916
 24
6992.903112538454
 34
0.0
100
AcDbRotatedDimension
  0
LINE
  5
5ACF
330
18
100
AcDbEntity
  8
1
  6
CENTER
 62
     3
100
AcDbLine
 10
23475.82216910917
 20
8192.903112538459
 30
0.0
 11
20875.82216910917
 21
8192.903112538457
 31
0.0
  0
LINE
  5
5AD0
330
18
100
AcDbEntity
  8
2
  6
Continuous
 62
     4
100
AcDbLine
 10
21293.16274508408
 20
10142.90311253845
 30
0.0
 11
23109.76909671547
 21
10142.90311253845
 31
0.0
  0
DIMENSION
  5
5AD1
330
18
100
AcDbEntity
  8
2
  6
Continuous
 62
     4
100
AcDbDimension
280
     0
  2
*D1
 10
20975.82216910916
 20
6513.115277229683
 30
0.0
 11
22175.82216910916
 21
6563.115277229683
 31
0.0
 70
    32
 71
     5
 42
2400.000000000007
 73
     0
 74
     0
 75
     0
  3
ST20（詳細）
100
AcDbAlignedDimension
 13
23375.82216910917
 23
8017.903112538453
 33
0.0
 14
20975.82216910916
 24
8017.903112538457
 34
0.0
100
AcDbRotatedDimension
  0
LINE
  5
5AD5
330
18
100
AcDbEntity
  8
3
 62
     7
100
AcDbLine
 10
22000.82216910916
 20
9362.903112538457
 30
0.0
 11
22000.82216910916
 21
9392.90311253846
 31
0.0
  0
LINE
  5
5AD6
330
18
100
AcDbEntity
  8
3
  6
HIDDEN
 62
     9
100
AcDbLine
 10
22050.82216910916
 20
9359.329507158301
 30
0.0
 11
22050.82216910916
 21
9392.90311253846
 31
0.0
  0
LINE
  5
5AD7
330
18
100
AcDbEntity
  8
1
  6
CENTER
 62
     3
100
AcDbLine
 10
22175.82216910916
 20
6892.903112538459
 30
0.0
 11
22175.82216910916
 21
9492.90311253846
 31
0.0
  0
ARC
  5
5AD9
330
18
100
AcDbEntity
  8
3
 62
     7
100
AcDbCircle
 10
21522.48186310916
 20
7539.562805538456
 30
0.0
 40
400.0
100
AcDbArc
 50
8.176196999964346
 51
81.82380300014992
  0
LINE
  5
5ADA
330
18
100
AcDbEntity
  8
3
 62
     7
100
AcDbLine
 10
22000.82216910916
 20
7022.903112538457
 30
0.0
 11
21875.82216910917
 21
7892.903112538457
 31
0.0
  0
LINE
  5
5ADB
330
18
100
AcDbEntity
  8
3
  6
HIDDEN
 62
     9
100
AcDbLine
 10
22050.82216910916
 20
7026.476717918608
 30
0.0
 11
21926.37878538323
 21
7892.602668651069
 31
0.0
  0
DIMENSION
  5
5ADC
330
18
100
AcDbEntity
  8
2
  6
Continuous
 62
     4
100
AcDbDimension
280
     0
  2
*D2
 10
21005.82216910916
 20
6665.28784431696
 30
0.0
 11
21440.82216910916
 21
6715.28784431696
 31
0.0
 70
    32
 71
     5
 42
870.0
 73
     0
 74
     0
 75
     0
  3
ST20（詳細）
100
AcDbAlignedDimension
 13
21875.82216910916
 23
7727.047811469984
 33
0.0
 14
21005.82216910916
 24
8017.903112538457
 34
0.0
100
AcDbRotatedDimension
  0
DIMENSION
  5
5ADD
330
18
100
AcDbEntity
  8
2
  6
Continuous
 62
     4
100
AcDbDimension
280
     0
  2
*D3
 10
20975.82216910916
 20
6665.28784431696
 30
0.0
 11
20990.82216910916
 21
6715.28784431696
 31
0.0
 70
    32
 71
     5
 42
30.0
 73
     0
 74
     0
 75
     0
  3
ST20（詳細）
100
AcDbAlignedDimension
 13
21005.82216910916
 23
8017.903112538457
 33
0.0
 14
20975.82216910916
 24
8017.903112538457
 34
0.0
100
AcDbRotatedDimension
  0
LINE
  5
5AE0
330
18
100
AcDbEntity
  8
3
 62
     7
100
AcDbLine
 10
22000.82216910916
 20
7022.903112538457
 30
0.0
 11
22000.82216910916
 21
6992.903112538456
 31
0.0
  0
LINE
  5
5AE1
330
18
100
AcDbEntity
  8
3
  6
HIDDEN
 62
     9
100
AcDbLine
 10
22050.82216910916
 20
7026.476717918608
 30
0.0
 11
22050.82216910916
 21
6992.903112538458
 31
0.0
  0
DIMENSION
  5
5AE2
330
18
100
AcDbEntity
  8
2
  6
Continuous
 62
     4
100
AcDbDimension
280
     0
  2
*D4
 10
21875.82216910916
 20
6665.287844316958
 30
0.0
 11
21938.32216910916
 21
6715.287844316958
 31
0.0
 70
    32
 71
     5
 42
125.0
 73
     0
 74
     0
 75
     0
  3
ST20（詳細）
100
AcDbAlignedDimension
 13
22000.82216910916
 23
6992.903112538454
 33
0.0
 14
21875.82216910916
 24
7727.047811469984
 34
0.0
100
AcDbRotatedDimension
  0
LINE
  5
5AE3
330
18
100
AcDbEntity
  8
2
  6
Continuous
 62
     4
100
AcDbLine
 10
22231.16078883903
 20
6333.265931216771
 30
0.0
 11
22231.16078883903
 21
6393.16214232231
 31
0.0
  0
LINE
  5
5AE4
330
18
100
AcDbEntity
  8
2
  6
Continuous
 62
     4
100
AcDbLine
 10
22175.82216910916
 20
6449.645229321472
 30
0.0
 11
22175.82216910916
 21
6373.870134208781
 31
0.0
  0
LINE
  5
5AEF
330
18
100
AcDbEntity
  8
3
 62
     7
100
AcDbLine
 10
21005.82216910917
 20
8367.90311253846
 30
0.0
 11
21875.82216910917
 21
8492.90311253846
 31
0.0
  0
LINE
  5
5AF0
330
18
100
AcDbEntity
  8
3
 62
     7
100
AcDbLine
 10
21005.82216910916
 20
8017.903112538457
 30
0.0
 11
21875.82216910917
 21
7892.903112538457
 31
0.0
  0
LINE
  5
5AF1
330
18
100
AcDbEntity
  8
3
  6
HIDDEN
 62
     9
100
AcDbLine
 10
21009.39577448931
 20
8317.903112538459
 30
0.0
 11
21875.52172522178
 21
8442.34649626439
 31
0.0
  0
LINE
  5
5AF2
330
18
100
AcDbEntity
  8
3
  6
HIDDEN
 62
     9
100
AcDbLine
 10
21009.39577448932
 20
8067.903112538457
 30
0.0
 11
21875.52172522178
 21
7943.459728812531
 31
0.0
  0
TEXT
  5
5AF3
330
18
100
AcDbEntity
  8
2
  6
Continuous
 62
     7
100
AcDbText
 10
20624.78888486131
 20
8350.972602293301
 30
0.0
 40
110.0
  1
A
 41
0.8
  7
JF3
100
AcDbText
  0
LINE
  5
5AF7
330
18
100
AcDbEntity
  8
3
 62
     7
100
AcDbLine
 10
20975.82216910917
 20
8367.90311253846
 30
0.0
 11
20975.82216910916
 21
8017.903112538457
 31
0.0
  0
LINE
  5
5AF8
330
18
100
AcDbEntity
  8
3
 62
     7
100
AcDbLine
 10
21005.82216910916
 20
8017.903112538457
 30
0.0
 11
20975.82216910916
 21
8017.903112538457
 31
0.0
  0
LINE
  5
5AF9
330
18
100
AcDbEntity
  8
3
  6
HIDDEN
 62
     9
100
AcDbLine
 10
21009.39577448932
 20
8067.903112538457
 30
0.0
 11
20975.82216910916
 21
8067.903112538459
 31
0.0
  0
LINE
  5
5AFE
330
18
100
AcDbEntity
  8
2
  6
Continuous
 62
     4
100
AcDbLine
 10
20827.62147004204
 20
8192.903112538459
 30
0.0
 11
20751.84637492935
 21
8192.903112538459
 31
0.0
  0
LINE
  5
5AFF
330
18
100
AcDbEntity
  8
2
  6
Continuous
 62
     4
100
AcDbLine
 10
20711.24217193735
 20
8248.241732268335
 30
0.0
 11
20771.13838304288
 21
8248.241732268335
 31
0.0
  0
LINE
  5
5B00
330
18
100
AcDbEntity
  8
2
  6
Continuous
 62
     4
100
AcDbLine
 10
20751.84637492935
 20
8192.903112538459
 30
0.0
 11
20751.84637492935
 21
8394.356388269072
 31
0.0
  0
LINE
  5
5B01
330
18
100
AcDbEntity
  8
2
  6
Continuous
 62
     4
100
AcDbLine
 10
20751.84637492935
 20
8394.356388269072
 30
0.0
 11
20711.24217193735
 21
8248.241732268335
 31
0.0
  0
LINE
  5
5B02
330
18
100
AcDbEntity
  8
3
 62
     7
100
AcDbLine
 10
21005.82216910917
 20
8367.90311253846
 30
0.0
 11
20975.82216910917
 21
8367.90311253846
 31
0.0
  0
LINE
  5
5B03
330
18
100
AcDbEntity
  8
3
  6
HIDDEN
 62
     9
100
AcDbLine
 10
21009.39577448931
 20
8317.903112538459
 30
0.0
 11
20975.82216910917
 21
8317.903112538459
 31
0.0
  0
ARC
  5
5B08
330
18
100
AcDbEntity
  8
3
 62
     7
100
AcDbCircle
 10
21522.48186310916
 20
8846.243419538458
 30
0.0
 40
400.0
100
AcDbArc
 50
278.1761969998501
 51
351.8238030000357
  0
LINE
  5
5B09
330
18
100
AcDbEntity
  8
3
 62
     7
100
AcDbLine
 10
22000.82216910916
 20
9362.903112538457
 30
0.0
 11
21875.82216910917
 21
8492.90311253846
 31
0.0
  0
LINE
  5
5B0A
330
18
100
AcDbEntity
  8
3
  6
HIDDEN
 62
     9
100
AcDbLine
 10
22050.82216910916
 20
9359.329507158301
 30
0.0
 11
21926.37878538324
 21
8493.203556425848
 31
0.0
  0
LINE
  5
5B13
330
18
100
AcDbEntity
  8
3
  6
HIDDEN
 62
     9
100
AcDbLine
 10
21875.82216910917
 20
7892.903112538458
 30
0.0
 11
21875.82216910917
 21
8492.90311253846
 31
0.0
  0
ARC
  5
5B14
330
18
100
AcDbEntity
  8
3
  6
HIDDEN
 62
     9
100
AcDbCircle
 10
21866.9886614363
 20
7884.069604865591
 30
0.0
 40
60.0
100
AcDbArc
 50
8.176197098454437
 51
81.82380290159807
  0
ARC
  5
5B15
330
18
100
AcDbEntity
  8
3
  6
HIDDEN
 62
     9
100
AcDbCircle
 10
21866.9886614363
 20
8501.736620211328
 30
0.0
 40
60.0
100
AcDbArc
 50
278.1761970984019
 51
351.8238029015456
  0
MTEXT
  5
5B16
330
18
100
AcDbEntity
  8
2
  6
Continuous
 62
     7
100
AcDbMText
 10
21739.84911860694
 20
9297.202423798259
 30
0.0
 40
60.0
 41
0.0
 46
0.0
 71
     6
 72
     1
  1
吊りインサートM16
  7
JF3
 73
     1
 44
1.0
  0
TEXT
  5
5B1B
330
18
100
AcDbEntity
  8
2
  6
Continuous
 62
     7
100
AcDbText
 10
22100.96103728043
 20
9679.235636324834
 30
0.0
 40
110.0
  1
B
 41
0.8
  7
JF3
100
AcDbText
  0
LINE
  5
5B22
330
18
100
AcDbEntity
  8
2
  6
Continuous
 62
     4
100
AcDbLine
 10
22231.16078883904
 20
9659.930099785432
 30
0.0
 11
22231.16078883904
 21
9600.033888679893
 31
0.0
  0
LINE
  5
5B23
330
18
100
AcDbEntity
  8
2
  6
Continuous
 62
     4
100
AcDbLine
 10
22175.82216910916
 20
9543.55080168073
 30
0.0
 11
22175.82216910916
 21
9619.325896793421
 31
0.0
  0
LINE
  5
5B25
330
18
100
AcDbEntity
  8
3
 62
     7
100
AcDbLine
 10
22350.82216910917
 20
9362.903112538457
 30
0.0
 11
22350.82216910917
 21
9392.90311253846
 31
0.0
  0
LINE
  5
5B26
330
18
100
AcDbEntity
  8
3
  6
HIDDEN
 62
     9
100
AcDbLine
 10
22300.82216910917
 20
9359.329507158308
 30
0.0
 11
22300.82216910917
 21
9392.90311253846
 31
0.0
  0
DIMENSION
  5
5B27
330
18
100
AcDbEntity
  8
2
  6
Continuous
 62
     4
100
AcDbDimension
280
     0
  2
*D5
 10
23703.43743733066
 20
9362.903112538457
 30
0.0
 11
23653.43743733065
 21
9377.903112538463
 31
0.0
 70
    32
 71
     5
 42
30.00000000000182
 73
     0
 74
     0
 75
     0
  3
ST20（詳細）
100
AcDbAlignedDimension
 13
22350.82216910917
 23
9392.90311253846
 33
0.0
 14
22350.82216910917
 24
9362.903112538457
 34
0.0
 50
90.0
100
AcDbRotatedDimension
  0
DIMENSION
  5
5B28
330
18
100
AcDbEntity
  8
2
  6
Continuous
 62
     4
100
AcDbDimension
280
     0
  2
*D6
 10
23855.61000441793
 20
6992.903112538456
 30
0.0
 11
23805.61000441793
 21
8192.903112538461
 31
0.0
 70
    32
 71
     5
 42
2400.000000000003
 73
     0
 74
     0
 75
     0
  3
ST20（詳細）
100
AcDbAlignedDimension
 13
22350.82216910917
 23
9392.90311253846
 33
0.0
 14
22350.82216910916
 24
6992.903112538456
 34
0.0
 50
90.0
100
AcDbRotatedDimension
  0
DIMENSION
  5
5B29
330
18
100
AcDbEntity
  8
2
  6
Continuous
 62
     4
100
AcDbDimension
280
     0
  2
*D7
 10
23345.82216910917
 20
6665.287844316958
 30
0.0
 11
23360.82216910917
 21
6715.287844316958
 31
0.0
 70
    32
 71
     5
 42
30.0
 73
     0
 74
     0
 75
     0
  3
ST20（詳細）
100
AcDbAlignedDimension
 13
23375.82216910917
 23
8017.903112538453
 33
0.0
 14
23345.82216910917
 24
8017.903112538453
 34
0.0
100
AcDbRotatedDimension
  0
LINE
  5
5B2A
330
18
100
AcDbEntity
  8
3
 62
     7
100
AcDbLine
 10
22350.82216910916
 20
7022.903112538458
 30
0.0
 11
22475.82216910917
 21
7892.903112538457
 31
0.0
  0
LINE
  5
5B2B
330
18
100
AcDbEntity
  8
3
  6
HIDDEN
 62
     9
100
AcDbLine
 10
22300.82216910916
 20
7026.476717918616
 30
0.0
 11
22425.2655528351
 21
7892.602668651071
 31
0.0
  0
ARC
  5
5B2C
330
18
100
AcDbEntity
  8
3
 62
     7
100
AcDbCircle
 10
22829.16247610917
 20
7539.562805538456
 30
0.0
 40
400.0
100
AcDbArc
 50
98.17619699985009
 51
171.8238030000356
  0
DIMENSION
  5
5B2D
330
18
100
AcDbEntity
  8
2
  6
Continuous
 62
     4
100
AcDbDimension
280
     0
  2
*D8
 10
23703.43743733066
 20
7022.903112538457
 30
0.0
 11
23653.43743733066
 21
7457.903112538462
 31
0.0
 70
    32
 71
     5
 42
870.0000000000009
 73
     0
 74
     0
 75
     0
  3
ST20（詳細）
100
AcDbAlignedDimension
 13
22641.67747017764
 23
7892.903112538457
 33
0.0
 14
22350.82216910916
 24
7022.903112538458
 34
0.0
 50
90.0
100
AcDbRotatedDimension
  0
DIMENSION
  5
5B2E
330
18
100
AcDbEntity
  8
2
  6
Continuous
 62
     4
100
AcDbDimension
280
     0
  2
*D9
 10
22475.82216910917
 20
6665.28784431696
 30
0.0
 11
22910.82216910917
 21
6715.28784431696
 31
0.0
 70
    32
 71
     5
 42
870.0
 73
     0
 74
     0
 75
     0
  3
ST20（詳細）
100
AcDbAlignedDimension
 13
23345.82216910917
 23
8017.903112538453
 33
0.0
 14
22475.82216910917
 24
7727.047811469986
 34
0.0
100
AcDbRotatedDimension
  0
DIMENSION
  5
5B2F
330
18
100
AcDbEntity
  8
2
  6
Continuous
 62
     4
100
AcDbDimension
280
     0
  2
*D10
 10
23703.43743733066
 20
6992.903112538456
 30
0.0
 11
23653.43743733066
 21
7007.90311253846
 31
0.0
 70
    32
 71
     5
 42
30.0
 73
     0
 74
     0
 75
     0
  3
ST20（詳細）
100
AcDbAlignedDimension
 13
22350.82216910916
 23
7022.903112538458
 33
0.0
 14
22350.82216910916
 24
6992.903112538456
 34
0.0
 50
90.0
100
AcDbRotatedDimension
  0
LINE
  5
5B30
330
18
100
AcDbEntity
  8
3
 62
     7
100
AcDbLine
 10
22350.82216910916
 20
7022.903112538458
 30
0.0
 11
22350.82216910916
 21
6992.903112538456
 31
0.0
  0
LINE
  5
5B31
330
18
100
AcDbEntity
  8
3
  6
HIDDEN
 62
     9
100
AcDbLine
 10
22300.82216910916
 20
7026.476717918616
 30
0.0
 11
22300.82216910917
 21
6992.903112538456
 31
0.0
  0
DIMENSION
  5
5B32
330
18
100
AcDbEntity
  8
2
  6
Continuous
 62
     4
100
AcDbDimension
280
     0
  2
*D11
 10
22350.82216910916
 20
6665.28784431696
 30
0.0
 11
22413.32216910917
 21
6715.28784431696
 31
0.0
 70
    32
 71
     5
 42
125.0000000000073
 73
     0
 74
     0
 75
     0
  3
ST20（詳細）
100
AcDbAlignedDimension
 13
22475.82216910917
 23
7727.047811469986
 33
0.0
 14
22350.82216910916
 24
6992.903112538455
 34
0.0
100
AcDbRotatedDimension
  0
LINE
  5
5B39
330
18
100
AcDbEntity
  8
3
 62
     7
100
AcDbLine
 10
23345.82216910917
 20
8367.90311253846
 30
0.0
 11
23375.82216910917
 21
8367.90311253846
 31
0.0
  0
LINE
  5
5B3A
330
18
100
AcDbEntity
  8
3
 62
     7
100
AcDbLine
 10
23345.82216910917
 20
8017.903112538457
 30
0.0
 11
23375.82216910917
 21
8017.903112538457
 31
0.0
  0
LINE
  5
5B3B
330
18
100
AcDbEntity
  8
3
  6
HIDDEN
 62
     9
100
AcDbLine
 10
23342.24856372901
 20
8317.903112538461
 30
0.0
 11
23375.82216910917
 21
8317.903112538459
 31
0.0
  0
LINE
  5
5B3C
330
18
100
AcDbEntity
  8
3
  6
HIDDEN
 62
     9
100
AcDbLine
 10
23342.24856372902
 20
8067.903112538457
 30
0.0
 11
23375.82216910917
 21
8067.903112538457
 31
0.0
  0
DIMENSION
  5
5B3D
330
18
100
AcDbEntity
  8
2
  6
Continuous
 62
     4
100
AcDbDimension
280
     0
  2
*D12
 10
23703.43743733066
 20
8492.903112538456
 30
0.0
 11
23653.43743733066
 21
8927.90311253846
 31
0.0
 70
    32
 71
     5
 42
870.0
 73
     0
 74
     0
 75
     0
  3
ST20（詳細）
100
AcDbAlignedDimension
 13
22350.82216910917
 23
9362.903112538457
 33
0.0
 14
22641.67747017764
 24
8492.903112538456
 34
0.0
 50
90.0
100
AcDbRotatedDimension
  0
DIMENSION
  5
5B3E
330
18
100
AcDbEntity
  8
2
  6
Continuous
 62
     4
100
AcDbDimension
280
     0
  2
*D13
 10
23703.43743733066
 20
8367.90311253846
 30
0.0
 11
23653.43743733066
 21
8430.403112538462
 31
0.0
 70
    32
 71
     5
 42
124.9999999999982
 73
     0
 74
     0
 75
     0
  3
ST20（詳細）
100
AcDbAlignedDimension
 13
22641.67747017764
 23
8492.903112538456
 33
0.0
 14
23375.82216910917
 24
8367.90311253846
 34
0.0
 50
90.0
100
AcDbRotatedDimension
  0
DIMENSION
  5
5B3F
330
18
100
AcDbEntity
  8
2
  6
Continuous
 62
     4
100
AcDbDimension
280
     0
  2
*D14
 10
23703.43743733066
 20
7892.903112538457
 30
0.0
 11
23653.43743733066
 21
7955.403112538461
 31
0.0
 70
    32
 71
     5
 42
124.9999999999991
 73
     0
 74
     0
 75
     0
  3
ST20（詳細）
100
AcDbAlignedDimension
 13
23375.82216910917
 23
8017.903112538457
 33
0.0
 14
22641.67747017764
 24
7892.903112538457
 34
0.0
 50
90.0
100
AcDbRotatedDimension
  0
LINE
  5
5B40
330
18
100
AcDbEntity
  8
3
 62
     7
100
AcDbLine
 10
22350.82216910917
 20
9362.903112538457
 30
0.0
 11
22475.82216910917
 21
8492.90311253846
 31
0.0
  0
LINE
  5
5B41
330
18
100
AcDbEntity
  8
3
  6
HIDDEN
 62
     9
100
AcDbLine
 10
22300.82216910917
 20
9359.329507158308
 30
0.0
 11
22425.2655528351
 21
8493.203556425848
 31
0.0
  0
ARC
  5
5B42
330
18
100
AcDbEntity
  8
3
 62
     7
100
AcDbCircle
 10
22829.16247610916
 20
8846.243419538458
 30
0.0
 40
400.0
100
AcDbArc
 50
188.1761969999644
 51
261.8238030001499
  0
LINE
  5
5B43
330
18
100
AcDbEntity
  8
3
 62
     7
100
AcDbLine
 10
23345.82216910917
 20
8017.903112538457
 30
0.0
 11
22475.82216910917
 21
7892.903112538457
 31
0.0
  0
LINE
  5
5B44
330
18
100
AcDbEntity
  8
3
 62
     7
100
AcDbLine
 10
23345.82216910917
 20
8367.90311253846
 30
0.0
 11
22475.82216910917
 21
8492.90311253846
 31
0.0
  0
LINE
  5
5B45
330
18
100
AcDbEntity
  8
3
  6
HIDDEN
 62
     9
100
AcDbLine
 10
23342.24856372901
 20
8317.903112538461
 30
0.0
 11
22476.12261299655
 21
8442.34649626439
 31
0.0
  0
LINE
  5
5B46
330
18
100
AcDbEntity
  8
3
  6
HIDDEN
 62
     9
100
AcDbLine
 10
23342.24856372902
 20
8067.903112538457
 30
0.0
 11
22476.12261299655
 21
7943.459728812531
 31
0.0
  0
LINE
  5
5B47
330
18
100
AcDbEntity
  8
3
  6
HIDDEN
 62
     9
100
AcDbLine
 10
22475.82216910917
 20
8492.90311253846
 30
0.0
 11
22475.82216910917
 21
7892.903112538457
 31
0.0
  0
ARC
  5
5B48
330
18
100
AcDbEntity
  8
3
 62
     9
100
AcDbCircle
 10
22484.65567678203
 20
7884.06960486559
 30
0.0
 40
60.0
100
AcDbArc
 50
98.17619709840194
 51
171.8238029015456
  0
ARC
  5
5B49
330
18
100
AcDbEntity
  8
3
  6
HIDDEN
 62
     9
100
AcDbCircle
 10
22484.65567678203
 20
8501.736620211328
 30
0.0
 40
60.0
100
AcDbArc
 50
188.1761970984544
 51
261.8238029015981
  0
LINE
  5
5B57
330
18
100
AcDbEntity
  8
3
 62
     7
100
AcDbLine
 10
23375.82216910917
 20
8367.90311253846
 30
0.0
 11
23375.82216910917
 21
8017.903112538457
 31
0.0
  0
DIMENSION
  5
5B58
330
18
100
AcDbEntity
  8
2
  6
Continuous
 62
     4
100
AcDbDimension
280
     0
  2
*D15
 10
23703.43743733066
 20
8017.903112538457
 30
0.0
 11
23653.43743733066
 21
8192.903112538461
 31
0.0
 70
    32
 71
     5
 42
350.0000000000027
 73
     0
 74
     0
 75
     0
  3
ST20（詳細）
100
AcDbAlignedDimension
 13
23375.82216910917
 23
8367.90311253846
 33
0.0
 14
23375.82216910917
 24
8017.903112538457
 34
0.0
 50
90.0
100
AcDbRotatedDimension
  0
TEXT
  5
5B61
330
18
100
AcDbEntity
  8
2
  6
Continuous
 62
     7
100
AcDbText
 10
24032.14514711659
 20
8350.972602293301
 30
0.0
 40
110.0
  1
A'
 41
0.8
  7
JF3
100
AcDbText
  0
LINE
  5
5B62
330
18
100
AcDbEntity
  8
2
  6
Continuous
 62
     4
100
AcDbLine
 10
24008.39446392121
 20
8248.241732268331
 30
0.0
 11
23948.49825281567
 21
8248.241732268335
 31
0.0
  0
LINE
  5
5B63
330
18
100
AcDbEntity
  8
2
  6
Continuous
 62
     4
100
AcDbLine
 10
23967.7902609292
 20
8394.356388269072
 30
0.0
 11
24008.39446392121
 21
8248.241732268331
 31
0.0
  0
LINE
  5
5B64
330
18
100
AcDbEntity
  8
2
  6
Continuous
 62
     4
100
AcDbLine
 10
23892.01516581651
 20
8192.903112538459
 30
0.0
 11
23967.7902609292
 21
8192.903112538459
 31
0.0
  0
LINE
  5
5B65
330
18
100
AcDbEntity
  8
2
  6
Continuous
 62
     4
100
AcDbLine
 10
23967.7902609292
 20
8192.903112538459
 30
0.0
 11
23967.7902609292
 21
8394.356388269072
 31
0.0
  0
TEXT
  5
5B6E
330
18
100
AcDbEntity
  8
2
  6
Continuous
 62
     7
100
AcDbText
 10
22668.08200664172
 20
10172.90303065667
 30
0.0
 40
90.0
  1
S=1/20
 41
0.8
  7
JF3
100
AcDbText
  0
LINE
  5
5B77
330
18
100
AcDbEntity
  8
1
  6
CENTER
 62
     3
100
AcDbLine
 10
32069.952753991
 20
5791.563419261158
 30
0.0
 11
32069.952753991
 21
6564.287426339925
 31
0.0
  0
LWPOLYLINE
  5
5B7C
330
18
100
AcDbEntity
  8
2
 62
     4
100
AcDbPolyline
 90
        4
 70
     1
 43
0.0
 10
31842.39819502675
 20
1110.361918036151
 10
34962.39819502675
 20
1110.361918036151
 10
34962.39819502675
 20
410.3619180361527
 10
31842.39819502675
 20
410.361918036151
  0
LINE
  5
5B8A
330
18
100
AcDbEntity
  8
2
 62
     4
100
AcDbLine
 10
31842.39819502675
 20
910.361918036151
 30
0.0
 11
33282.39819502675
 21
910.3619180361508
 31
0.0
  0
LINE
  5
5B8B
330
18
100
AcDbEntity
  8
2
 62
     4
100
AcDbLine
 10
33282.39819502675
 20
610.3619180361508
 30
0.0
 11
31842.39819502675
 21
610.3619180361511
 31
0.0
  0
TEXT
  5
5B8C
330
18
100
AcDbEntity
  8
2
 62
     7
100
AcDbText
 10
31955.56992742873
 20
431.5382183240036
 30
0.0
 40
140.0
  1
斜面受圧板協会
 41
1.076703676915292
  7
JF
 72
     5
 11
33181.57651420961
 21
431.5382183240031
 31
0.0
100
AcDbText
  0
TEXT
  5
5B8E
330
18
100
AcDbEntity
  8
2
  6
Continuous
 62
     7
100
AcDbText
 10
28236.629058773
 20
1538.351475803168
 30
0.0
 40
90.0
  1
コンクリート設計基準強度 　50 N/mm
 41
0.8
  7
JF3
100
AcDbText
  0
TEXT
  5
5B8F
330
18
100
AcDbEntity
  8
2
  6
Continuous
 62
     7
100
AcDbText
 10
28236.629058773
 20
1398.351475803168
 30
0.0
 40
90.0
  1
許容最大設計アンカー力　　360 kN
 41
0.8
  7
JF3
100
AcDbText
  0
TEXT
  5
5B90
330
18
100
AcDbEntity
  8
2
  6
Continuous
 62
     7
100
AcDbText
 10
28236.63101177301
 20
1274.821344731476
 30
0.0
 40
90.0
  1
支圧面積　　　　　　　 　2.12m
 41
0.8
  7
JF3
100
AcDbText
  0
TEXT
  5
5B91
330
18
100
AcDbEntity
  8
2
  6
Continuous
 62
     7
100
AcDbText
 10
28236.63101177301
 20
1134.820978731476
 30
0.0
 40
90.0
  1
参考製品重量　　　　 　　1.56t
 41
0.8
  7
JF3
100
AcDbText
  0
LINE
  5
5B93
330
18
100
AcDbEntity
  8
2
  6
HIDDEN
 62
     4
100
AcDbLine
 10
28841.23820525744
 20
1760.788905899058
 30
0.0
 11
30238.82237545313
 21
1760.788905899057
 31
0.0
  0
LINE
  5
5B94
330
18
100
AcDbEntity
  8
2
  6
HIDDEN
 62
     4
100
AcDbLine
 10
28841.23820525744
 20
1780.788905899058
 30
0.0
 11
30238.82237545313
 21
1780.788905899058
 31
0.0
  0
LINE
  5
5B95
330
18
100
AcDbEntity
  8
2
  6
HIDDEN
 62
     4
100
AcDbLine
 10
28236.64340534021
 20
1081.455171980106
 30
0.0
 11
30238.82377554376
 21
1081.455171980106
 31
0.0
  0
LINE
  5
5B96
330
18
100
AcDbEntity
  8
2
  6
HIDDEN
 62
     4
100
AcDbLine
 10
28236.64340534021
 20
1061.455171980106
 30
0.0
 11
30238.82377554376
 21
1061.455171980106
 31
0.0
  0
TEXT
  5
5B97
330
18
100
AcDbEntity
  8
2
  6
Continuous
 62
     7
100
AcDbText
 10
28236.629058773
 20
1738.351475803168
 30
0.0
 40
100.0
  1
設 計 条 件
 41
0.8
  7
JF3
100
AcDbText
  0
TEXT
  5
5B98
330
18
100
AcDbEntity
  8
2
 62
     7
100
AcDbText
 10
31900.41808429118
 20
851.1975206247443
 30
0.0
 40
70.0
  1
承認
  7
JF2
100
AcDbText
  0
LINE
  5
5B99
330
18
100
AcDbEntity
  8
2
 62
     4
100
AcDbLine
 10
31962.39819502675
 20
610.3619180361512
 30
0.0
 11
31962.39819502675
 21
1110.361918036151
 31
0.0
  0
TEXT
  5
5B9A
330
18
100
AcDbEntity
  8
2
  6
Continuous
 62
     7
100
AcDbText
 10
29944.19663687162
 20
1592.308027683633
 30
0.0
 40
45.0
  1
2
 41
0.8
  7
JF3
100
AcDbText
  0
TEXT
  5
5B9B
330
18
100
AcDbEntity
  8
2
  6
Continuous
 62
     7
100
AcDbText
 10
29676.00316903366
 20
1328.777652611942
 30
0.0
 40
45.0
  1
2
 41
0.8
  7
JF3
100
AcDbText
  0
TEXT
  5
5B9C
330
18
100
AcDbEntity
  8
2
 62
     7
100
AcDbText
 10
31900.41808429118
 20
1084.70754776322
 30
0.0
 40
70.0
  1
形式
  7
JF2
100
AcDbText
  0
LINE
  5
5BBA
330
18
100
AcDbEntity
  8
2
 62
     4
100
AcDbLine
 10
33482.39819502675
 20
870.3619180361512
 30
0.0
 11
34962.39819502675
 21
870.3619180361526
 31
0.0
  0
LINE
  5
5BBB
330
18
100
AcDbEntity
  8
2
 62
     4
100
AcDbLine
 10
34962.39819502675
 20
650.3619180361527
 30
0.0
 11
33482.39819502675
 21
650.3619180361511
 31
0.0
  0
TEXT
  5
5BBC
330
18
100
AcDbEntity
  8
2
 62
     7
100
AcDbText
 10
33724.11965893448
 20
692.7125885408461
 30
0.0
 40
100.0
  1
平成　　年　　月　　日
 50
360.0
 41
0.8587330618616022
  7
JF
 72
     5
 11
34823.29797811733
 21
692.7125885408456
 31
0.0
100
AcDbText
  0
TEXT
  5
5BBD
330
18
100
AcDbEntity
  8
2
 62
     7
100
AcDbText
 10
33535.57355169936
 20
834.2765041654329
 30
0.0
 40
70.0
  1
日付
  7
JF2
100
AcDbText
  0
LINE
  5
5BBE
330
18
100
AcDbEntity
  8
2
 62
     4
100
AcDbLine
 10
33042.39819502675
 20
610.3619180361524
 30
0.0
 11
33042.39819502675
 21
910.3619180361524
 31
0.0
  0
LINE
  5
5BBF
330
18
100
AcDbEntity
  8
2
 62
     4
100
AcDbLine
 10
32922.39819502675
 20
610.3619180361522
 30
0.0
 11
32922.39819502675
 21
910.3619180361523
 31
0.0
  0
TEXT
  5
5BC0
330
18
100
AcDbEntity
  8
2
 62
     7
100
AcDbText
 10
32978.13418781021
 20
844.4291140410198
 30
0.0
 40
70.0
  1
写図
  7
JF2
100
AcDbText
  0
LINE
  5
5BC1
330
18
100
AcDbEntity
  8
2
 62
     4
100
AcDbLine
 10
32562.39819502675
 20
610.3619180361519
 30
0.0
 11
32562.39819502675
 21
910.3619180361517
 31
0.0
  0
LINE
  5
5BC2
330
18
100
AcDbEntity
  8
2
 62
     4
100
AcDbLine
 10
32682.39819502675
 20
610.361918036152
 30
0.0
 11
32682.39819502675
 21
910.3619180361519
 31
0.0
  0
TEXT
  5
5BC3
330
18
100
AcDbEntity
  8
2
 62
     7
100
AcDbText
 10
32620.02162676627
 20
841.0449107491576
 30
0.0
 40
70.0
  1
設計
  7
JF2
100
AcDbText
  0
LINE
  5
5BC4
330
18
100
AcDbEntity
  8
2
 62
     4
100
AcDbLine
 10
32202.39819502675
 20
610.3619180361514
 30
0.0
 11
32202.39819502675
 21
910.3619180361514
 31
0.0
  0
LINE
  5
5BC5
330
18
100
AcDbEntity
  8
2
 62
     4
100
AcDbLine
 10
32322.39819502675
 20
610.3619180361516
 30
0.0
 11
32322.39819502675
 21
910.3619180361516
 31
0.0
  0
TEXT
  5
5BC6
330
18
100
AcDbEntity
  8
2
 62
     7
100
AcDbText
 10
32255.15222494792
 20
847.813317332881
 30
0.0
 40
70.0
  1
査図
  7
JF2
100
AcDbText
  0
LINE
  5
5BC7
330
18
100
AcDbEntity
  8
2
 62
     4
100
AcDbLine
 10
33282.39819502675
 20
410.3619180361508
 30
0.0
 11
33282.39819502675
 21
1110.361918036151
 31
0.0
  0
LINE
  5
5BC8
330
18
100
AcDbEntity
  8
2
 62
     4
100
AcDbLine
 10
33482.39819502675
 20
410.361918036151
 30
0.0
 11
33482.39819502675
 21
1110.361918036151
 31
0.0
  0
LINE
  5
5BC9
330
18
100
AcDbEntity
  8
2
 62
     4
100
AcDbLine
 10
33602.39819502675
 20
410.3619180361512
 30
0.0
 11
33602.39819502675
 21
1110.361918036151
 31
0.0
  0
TEXT
  5
5BCA
330
18
100
AcDbEntity
  8
2
 62
     9
100
AcDbText
 10
33535.57355169936
 20
614.3032901944043
 30
0.0
 40
70.0
  1
図番
  7
JF2
100
AcDbText
  0
LINE
  5
5BCB
330
18
100
AcDbEntity
  8
2
 62
     4
100
AcDbLine
 10
33282.39819502675
 20
710.3619180361508
 30
0.0
 11
33482.39819502675
 21
710.3619180361511
 31
0.0
  0
LINE
  5
5BCC
330
18
100
AcDbEntity
  8
2
 62
     4
100
AcDbLine
 10
33482.39819502675
 20
690.3619180361511
 30
0.0
 11
33282.39819502675
 21
690.3619180361508
 31
0.0
  0
TEXT
  5
5BCD
330
18
100
AcDbEntity
  8
2
  6
Continuous
 62
     7
100
AcDbText
 10
33913.14213930705
 20
483.7934310512844
 30
0.0
 40
80.0
  1
260220-KD
 41
0.8
  7
JF3
100
AcDbText
  0
TEXT
  5
5BCE
330
18
100
AcDbEntity
  8
2
  6
Continuous
 62
     7
100
AcDbText
 10
32118.61994267682
 20
951.7345733493701
 30
0.0
 40
100.0
  1
NRC250-36
 41
0.8
  7
JF3
100
AcDbText
  0
TEXT
  5
5BCF
330
18
100
AcDbEntity
  8
2
  6
Continuous
 62
     7
100
AcDbText
 10
33673.97332363946
 20
936.5037848290233
 30
0.0
 40
110.0
  1
構造図
 41
0.8
  7
JF3
100
AcDbText
  0
TEXT
  5
5BD0
330
18
100
AcDbEntity
  8
2
 62
     7
100
AcDbText
 10
33535.57355169936
 20
1084.70754776322
 30
0.0
 40
70.0
  1
名称
  7
JF2
100
AcDbText
  0
TEXT
  5
5BD1
330
18
100
AcDbEntity
  8
2
 62
     7
100
AcDbText
 10
33315.9762265309
 20
1003.486668758532
 30
0.0
 40
70.0
  1
尺度
 50
0.0000000000000964
 41
0.9049340322875909
  7
JF
 72
     5
 11
33451.11304201918
 21
1003.486668758532
 31
0.0
100
AcDbText
  0
LINE
  5
5BD2
330
18
100
AcDbEntity
  8
2
 62
     4
100
AcDbLine
 10
33282.39819502675
 20
990.3619180361509
 30
0.0
 11
33482.39819502675
 21
990.3619180361511
 31
0.0
  0
TEXT
  5
5BE0
330
18
100
AcDbEntity
  8
2
  6
Continuous
 62
     7
100
AcDbText
 10
31361.35464967331
 20
10162.90056227241
 30
0.0
 40
180.0
  1
先端部断面図
 41
0.8
  7
JF3
100
AcDbText
  0
TEXT
  5
5BE3
330
18
100
AcDbEntity
  8
2
  6
Continuous
 62
     7
100
AcDbText
 10
31333.20530423759
 20
7396.072036590886
 30
0.0
 40
180.0
  1
付根部断面図
 41
0.8
  7
JF3
100
AcDbText
  0
LINE
  5
5BE4
330
18
100
AcDbEntity
  8
2
  6
Continuous
 62
     4
100
AcDbLine
 10
31294.4243557827
 20
10142.90311253845
 30
0.0
 11
32929.58553169342
 21
10142.90311253845
 31
0.0
  0
LINE
  5
5BE5
330
18
100
AcDbEntity
  8
2
  6
Continuous
 62
     4
100
AcDbLine
 10
31288.2507378519
 20
7376.067012728947
 30
0.0
 11
32957.67683112579
 21
7376.067012728947
 31
0.0
  0
DIMENSION
  5
5BEC
330
18
100
AcDbEntity
  8
2
  6
Continuous
 62
     4
100
AcDbDimension
280
     0
  2
*D16
 10
32769.95275399101
 20
9832.905229451348
 30
0.0
 11
32069.952753991
 21
9882.905229451347
 31
0.0
 70
    32
 71
     5
 42
350.0
 73
     0
 74
     0
 75
     0
  3
ST20-5
100
AcDbAlignedDimension
 13
31369.95275399101
 23
9167.407385954648
 33
0.0
 14
32769.95275399101
 24
9167.407385954676
 34
0.0
100
AcDbRotatedDimension
  0
DIMENSION
  5
5BED
330
18
100
AcDbEntity
  8
2
  6
Continuous
 62
     4
100
AcDbDimension
280
     0
  2
*D17
 10
32669.952753991
 20
6769.592810832635
 30
0.0
 11
32069.952753991
 21
6819.592810832635
 31
0.0
 70
    32
 71
     5
 42
600.0
 73
     0
 74
     0
 75
     0
  3
ST20-10
100
AcDbAlignedDimension
 13
31469.952753991
 23
6429.655768634251
 33
0.0
 14
32669.952753991
 24
6429.655768634251
 34
0.0
100
AcDbRotatedDimension
  0
DIMENSION
  5
5BEE
330
18
100
AcDbEntity
  8
2
  6
Continuous
 62
     4
100
AcDbDimension
280
     0
  2
*D18
 10
33001.663355991
 20
6947.646057656732
 30
0.0
 11
32069.952753991
 21
6997.646057656732
 31
0.0
 70
    32
 71
     5
 42
931.7106019999991
 73
     0
 74
     0
 75
     0
  3
ST20-10
100
AcDbAlignedDimension
 13
31138.242151991
 23
6189.655768634253
 33
0.0
 14
33001.663355991
 24
6189.655768634253
 34
0.0
100
AcDbRotatedDimension
  0
TEXT
  5
5C0C
330
18
100
AcDbEntity
  8
2
  6
Continuous
 62
     7
100
AcDbText
 10
27911.53962879118
 20
10162.89665427241
 30
0.0
 40
90.0
  1
S=1/5
 41
0.8
  7
JF3
100
AcDbText
  0
LINE
  5
5C0F
330
18
100
AcDbEntity
  8
1
  6
CENTER
 62
     3
100
AcDbLine
 10
32069.952753991
 20
8367.407385954647
 30
0.0
 11
32069.952753991
 21
9567.407385954648
 31
0.0
  0
TEXT
  5
5C15
330
18
100
AcDbEntity
  8
2
  6
Continuous
 62
     7
100
AcDbText
 10
32487.83952961944
 20
7396.072036590886
 30
0.0
 40
90.0
  1
S=1/10
 41
0.8
  7
JF3
100
AcDbText
  0
TEXT
  5
5C24
330
18
100
AcDbEntity
  8
2
  6
Continuous
 62
     7
100
AcDbText
 10
32525.24630995799
 20
10162.90056227241
 30
0.0
 40
90.0
  1
S=1/5
 41
0.8
  7
JF3
100
AcDbText
  0
LINE
  5
89EB
330
18
100
AcDbEntity
  8
3
  6
HIDDEN
 62
     9
100
AcDbLine
 10
22399.17619722688
 20
9026.359076839147
 30
0.0
 11
22300.19265731531
 21
9012.137303863346
 31
0.0
  0
LINE
  5
89EC
330
18
100
AcDbEntity
  8
3
  6
Continuous
 62
     9
100
AcDbLine
 10
22393.48748803656
 20
9065.95249280377
 30
0.0
 11
22399.17619722688
 21
9026.359076839147
 31
0.0
  0
LINE
  5
89ED
330
18
100
AcDbEntity
  8
3
  6
Continuous
 62
     9
100
AcDbLine
 10
21958.15685018176
 20
9065.95249280377
 30
0.0
 11
21952.46814099145
 21
9026.359076839147
 31
0.0
  0
LINE
  5
89EE
330
18
100
AcDbEntity
  8
3
  6
HIDDEN
 62
     9
100
AcDbLine
 10
22057.14039009333
 20
9051.730719827972
 30
0.0
 11
22051.45168090301
 21
9012.137303863346
 31
0.0
  0
LINE
  5
89EF
330
18
100
AcDbEntity
  8
3
  6
HIDDEN
 62
     9
100
AcDbLine
 10
22294.50394812499
 20
9051.730719827972
 30
0.0
 11
22300.19265731531
 21
9012.137303863346
 31
0.0
  0
LINE
  5
89F0
330
18
100
AcDbEntity
  8
3
  6
HIDDEN
 62
     9
100
AcDbLine
 10
21952.46814099145
 20
9026.359076839147
 30
0.0
 11
22051.45168090301
 21
9012.137303863346
 31
0.0
  0
LINE
  5
89F1
330
18
100
AcDbEntity
  8
3
  6
HIDDEN
 62
     9
100
AcDbLine
 10
21958.15685018176
 20
9065.95249280377
 30
0.0
 11
22057.14039009333
 21
9051.730719827972
 31
0.0
  0
LINE
  5
89F2
330
18
100
AcDbEntity
  8
3
  6
HIDDEN
 62
     9
100
AcDbLine
 10
22393.48748803656
 20
9065.95249280377
 30
0.0
 11
22294.50394812499
 21
9051.730719827972
 31
0.0
  0
LINE
  5
89F3
330
18
100
AcDbEntity
  8
3
  6
HIDDEN
 62
     9
100
AcDbLine
 10
23009.27813340985
 20
7969.549084420738
 30
0.0
 11
22995.05636043405
 21
8068.532624332307
 31
0.0
  0
LINE
  5
89F4
330
18
100
AcDbEntity
  8
3
  6
HIDDEN
 62
     9
100
AcDbLine
 10
23034.64977639868
 20
8074.221333522627
 30
0.0
 11
22995.05636043405
 21
8068.532624332307
 31
0.0
  0
LINE
  5
89F5
330
18
100
AcDbEntity
  8
3
  6
HIDDEN
 62
     9
100
AcDbLine
 10
23048.87154937448
 20
7975.237793611061
 30
0.0
 11
23034.64977639868
 21
8074.221333522627
 31
0.0
  0
LINE
  5
89F6
330
18
100
AcDbEntity
  8
3
  6
Continuous
 62
     9
100
AcDbLine
 10
23048.87154937448
 20
7975.237793611061
 30
0.0
 11
23009.27813340985
 21
7969.549084420738
 31
0.0
  0
LINE
  5
89F7
330
18
100
AcDbEntity
  8
3
  6
HIDDEN
 62
     9
100
AcDbLine
 10
23009.27813340985
 20
8416.257140656176
 30
0.0
 11
22995.05636043405
 21
8317.273600744611
 31
0.0
  0
LINE
  5
89F8
330
18
100
AcDbEntity
  8
3
  6
HIDDEN
 62
     9
100
AcDbLine
 10
23034.64977639868
 20
8311.584891554288
 30
0.0
 11
22995.05636043405
 21
8317.273600744611
 31
0.0
  0
LINE
  5
89F9
330
18
100
AcDbEntity
  8
3
  6
HIDDEN
 62
     9
100
AcDbLine
 10
23048.87154937447
 20
8410.568431465858
 30
0.0
 11
23034.64977639868
 21
8311.584891554288
 31
0.0
  0
LINE
  5
89FA
330
18
100
AcDbEntity
  8
3
  6
Continuous
 62
     9
100
AcDbLine
 10
23048.87154937447
 20
8410.568431465858
 30
0.0
 11
23009.27813340985
 21
8416.257140656176
 31
0.0
  0
LINE
  5
89FB
330
18
100
AcDbEntity
  8
3
  6
HIDDEN
 62
     9
100
AcDbLine
 10
22399.17619722689
 20
7359.447148237769
 30
0.0
 11
22300.19265731532
 21
7373.668921213571
 31
0.0
  0
LINE
  5
89FC
330
18
100
AcDbEntity
  8
3
  6
Continuous
 62
     9
100
AcDbLine
 10
22393.48748803656
 20
7319.853732273147
 30
0.0
 11
22399.17619722689
 21
7359.447148237769
 31
0.0
  0
LINE
  5
89FD
330
18
100
AcDbEntity
  8
3
  6
HIDDEN
 62
     9
100
AcDbLine
 10
21958.15685018177
 20
7319.853732273147
 30
0.0
 11
22057.14039009334
 21
7334.075505248944
 31
0.0
  0
LINE
  5
89FE
330
18
100
AcDbEntity
  8
3
  6
HIDDEN
 62
     9
100
AcDbLine
 10
21952.46814099145
 20
7359.447148237769
 30
0.0
 11
22051.45168090301
 21
7373.668921213571
 31
0.0
  0
LINE
  5
89FF
330
18
100
AcDbEntity
  8
3
  6
Continuous
 62
     9
100
AcDbLine
 10
21958.15685018177
 20
7319.853732273147
 30
0.0
 11
21952.46814099145
 21
7359.447148237769
 31
0.0
  0
LINE
  5
8A00
330
18
100
AcDbEntity
  8
3
  6
HIDDEN
 62
     9
100
AcDbLine
 10
22057.14039009334
 20
7334.075505248944
 30
0.0
 11
22051.45168090301
 21
7373.668921213571
 31
0.0
  0
LINE
  5
8A01
330
18
100
AcDbEntity
  8
3
  6
HIDDEN
 62
     9
100
AcDbLine
 10
22393.48748803656
 20
7319.853732273147
 30
0.0
 11
22294.503948125
 21
7334.075505248944
 31
0.0
  0
LINE
  5
8A02
330
18
100
AcDbEntity
  8
3
  6
HIDDEN
 62
     9
100
AcDbLine
 10
22294.503948125
 20
7334.075505248944
 30
0.0
 11
22300.19265731532
 21
7373.668921213571
 31
0.0
  0
LINE
  5
8A03
330
18
100
AcDbEntity
  8
3
  6
Continuous
 62
     9
100
AcDbLine
 10
21302.77278884385
 20
7975.237793611059
 30
0.0
 11
21342.36620480848
 21
7969.549084420738
 31
0.0
  0
LINE
  5
8A04
330
18
100
AcDbEntity
  8
3
  6
HIDDEN
 62
     9
100
AcDbLine
 10
21316.99456181965
 20
8074.221333522627
 30
0.0
 11
21356.58797778428
 21
8068.532624332307
 31
0.0
  0
LINE
  5
8A05
330
18
100
AcDbEntity
  8
3
  6
HIDDEN
 62
     9
100
AcDbLine
 10
21302.77278884385
 20
7975.237793611059
 30
0.0
 11
21316.99456181965
 21
8074.221333522627
 31
0.0
  0
LINE
  5
8A06
330
18
100
AcDbEntity
  8
3
  6
HIDDEN
 62
     9
100
AcDbLine
 10
21342.36620480848
 20
7969.549084420738
 30
0.0
 11
21356.58797778428
 21
8068.532624332307
 31
0.0
  0
LINE
  5
8A07
330
18
100
AcDbEntity
  8
3
  6
HIDDEN
 62
     9
100
AcDbLine
 10
21342.36620480847
 20
8416.257140656176
 30
0.0
 11
21356.58797778428
 21
8317.273600744611
 31
0.0
  0
LINE
  5
8A08
330
18
100
AcDbEntity
  8
3
  6
HIDDEN
 62
     9
100
AcDbLine
 10
21302.77278884385
 20
8410.568431465856
 30
0.0
 11
21316.99456181965
 21
8311.584891554288
 31
0.0
  0
LINE
  5
8A09
330
18
100
AcDbEntity
  8
3
  6
HIDDEN
 62
     9
100
AcDbLine
 10
21316.99456181965
 20
8311.584891554288
 30
0.0
 11
21356.58797778428
 21
8317.273600744611
 31
0.0
  0
LINE
  5
8A0A
330
18
100
AcDbEntity
  8
3
  6
Continuous
 62
     9
100
AcDbLine
 10
21302.77278884385
 20
8410.568431465856
 30
0.0
 11
21342.36620480847
 21
8416.257140656176
 31
0.0
  0
LINE
  5
8B97
330
18
100
AcDbEntity
  8
3
  6
CENTER
 62
     9
100
AcDbLine
 10
22349.06333049986
 20
8366.14427392916
 30
0.0
 11
22377.34760174732
 21
8394.428545176623
 31
0.0
  0
LINE
  5
8B98
330
18
100
AcDbEntity
  8
3
  6
CENTER
 62
     9
100
AcDbLine
 10
22002.58100771844
 20
8366.144273929158
 30
0.0
 11
21974.29673647099
 21
8394.428545176619
 31
0.0
  0
LINE
  5
8B99
330
18
100
AcDbEntity
  8
3
  6
CENTER
 62
     9
100
AcDbLine
 10
22349.06333049986
 20
8019.661951147751
 30
0.0
 11
22377.34760174732
 21
7991.377679900288
 31
0.0
  0
LINE
  5
8B9A
330
18
100
AcDbEntity
  8
3
  6
CENTER
 62
     9
100
AcDbLine
 10
22002.58100771844
 20
8019.66195114775
 30
0.0
 11
21974.29673647098
 21
7991.377679900288
 31
0.0
  0
CIRCLE
  5
8B9B
330
18
100
AcDbEntity
  8
3
  6
CENTER
 62
     9
100
AcDbCircle
 10
22363.20546612359
 20
8380.286409552889
 30
0.0
 40
8.0
  0
CIRCLE
  5
8B9C
330
18
100
AcDbEntity
  8
3
  6
CENTER
 62
     9
100
AcDbCircle
 10
21988.43887209472
 20
8380.286409552889
 30
0.0
 40
8.0
  0
CIRCLE
  5
8B9D
330
18
100
AcDbEntity
  8
3
  6
CENTER
 62
     9
100
AcDbCircle
 10
21988.43887209472
 20
8005.519815524019
 30
0.0
 40
8.0
  0
CIRCLE
  5
8B9E
330
18
100
AcDbEntity
  8
3
  6
CENTER
 62
     9
100
AcDbCircle
 10
22363.2054661236
 20
8005.519815524023
 30
0.0
 40
8.0
  0
MTEXT
  5
8B9F
102
{ACAD_REACTORS
330
8BA0
102
}
330
18
100
AcDbEntity
  8
2
  6
Continuous
 62
     7
100
AcDbMText
 10
21769.92131667405
 20
8610.075966580367
 30
0.0
 40
60.0
 41
0.0
 46
0.0
 71
     6
 72
     1
  1
Ｍ１２　ｽﾃﾝﾚｽｲﾝｻｰﾄ
  7
JF3
 73
     1
 44
1.0
  0
LEADER
  5
8BA0
330
18
100
AcDbEntity
  8
2
  6
Continuous
 62
     4
100
AcDbLeader
  3
ST20$7
 73
     0
 75
     1
 76
     3
 10
21988.43887209471
 20
8380.286409552892
 30
0.0
 10
21829.92131667405
 20
8560.075966580368
 30
0.0
 10
21789.92131667405
 20
8560.075966580368
 30
0.0
1001
ACAD
1000
DSTYLE
1002
{
1070
     5
1000

1070
    77
1070
     1
1070
   147
1040
1.0
1002
}
  0
LINE
  5
8BA1
330
18
100
AcDbEntity
  8
2
100
AcDbLine
 10
21829.92131667406
 20
8560.075966580368
 30
0.0
 11
21219.54652702488
 21
8560.075966580368
 31
0.0
  0
SOLID
  5
8BA2
330
18
100
AcDbEntity
  8
2
  6
Continuous
 62
     4
100
AcDbTrace
 10
21936.91367563089
 20
9101.825267213577
 30
0.0
 11
21958.3666740276
 21
9067.412866770785
 31
0.0
 12
21926.91251864386
 22
9093.007408250167
 32
0.0
 13
21926.91251864386
 23
9093.007408250167
 33
0.0
1001
ACAD
1000
DSTYLE
1002
{
1070
     5
1000

1070
    77
1070
     1
1070
   147
1040
1.0
1002
}
  0
LWPOLYLINE
  5
8BA3
330
18
100
AcDbEntity
  8
2
  6
Continuous
 62
     4
100
AcDbPolyline
 90
        3
 70
     0
 43
0.0
 10
21931.91309713737
 20
9097.416337731873
 10
21799.84911860694
 20
9247.20242379826
 10
21182.61570265634
 20
9247.20242379826
1001
ACAD
1000
DSTYLE
1002
{
1070
     5
1000

1070
    77
1070
     1
1070
   147
1040
1.0
1002
}
  0
DIMENSION
  5
91E9
330
18
100
AcDbEntity
  8
2
  6
Continuous
 62
     4
100
AcDbDimension
280
     0
  2
*D19
 10
27655.30908163759
 20
3280.883679911899
 30
0.0
 11
27379.02613714893
 21
3391.91068000193
 31
0.0
 70
   161
  1
φ<>
 71
     5
 42
210.0000000974396
 73
     0
 74
     0
 75
     0
  3
ST20-5
100
AcDbAlignedDimension
 13
26782.10686716597
 23
3166.07504421428
 33
0.0
 14
27609.34538008006
 24
3020.210574906371
 34
0.0
  0
LWPOLYLINE
  5
91EA
330
18
100
AcDbEntity
  8
3
  6
Continuous
 62
     9
100
AcDbPolyline
 90
        6
 70
     0
 43
0.0
 10
27935.86495002874
 20
3409.424074224824
 10
28017.73538792196
 20
3394.988107101833
 10
27625.91190398356
 20
2927.931907919688
 10
26734.85784905811
 20
3085.048779072728
 10
26526.40684073598
 20
3657.949567071475
 10
26608.2772786292
 20
3643.513599948482
  0
LWPOLYLINE
  5
91EB
330
18
100
AcDbEntity
  8
3
  6
Continuous
 62
     9
100
AcDbPolyline
 90
        4
 70
     0
 43
0.0
 10
27935.86495002874
 20
3409.424074224823
 10
27609.34538008006
 20
3020.210574906371
 10
26781.98645223099
 20
3166.09627661619
 10
26608.2772786292
 20
3643.513599948485
  0
LWPOLYLINE
  5
91EC
330
18
100
AcDbEntity
  8
3
  6
Continuous
 62
     9
100
AcDbPolyline
 90
        4
 70
     1
 43
0.0
 10
26938.04020796751
 20
3138.579789038952
 10
27453.2916243435
 20
3047.727062483614
 10
27438.01058470881
 20
2961.063980218541
 10
26922.75916833282
 20
3051.916706773879
  0
LWPOLYLINE
  5
91ED
330
18
100
AcDbEntity
  8
3
  6
Continuous
 62
     9
100
AcDbPolyline
 90
        4
 70
     0
 43
0.0
 10
26795.0461644023
 20
2431.345261252579
 10
26905.02115005213
 20
3055.044397981089
 10
27455.72564553655
 20
2957.940337029738
 10
27346.08806571996
 20
2333.849633444593
  0
LWPOLYLINE
  5
91EE
330
18
100
AcDbEntity
  8
3
  6
Continuous
 62
     9
100
AcDbPolyline
 90
        4
 70
     0
 43
0.0
 10
26812.77270395652
 20
2428.21959405457
 10
26922.74768960634
 20
3051.918730783081
 10
27437.99910598232
 20
2961.066004227706
 10
27328.02412033251
 20
2337.366867499195
  0
LWPOLYLINE
  5
91EF
330
18
100
AcDbEntity
  8
3
  6
Continuous
 62
     9
100
AcDbPolyline
 90
        6
 70
     0
 43
0.0
 10
26608.2772786292
 20
3643.513599948484
 10
26583.11051298691
 20
3647.951179748388
 10
26574.32655359396
 20
3697.767488957933
 10
28012.65690444587
 20
3697.767488957933
 10
27961.03171567105
 20
3404.986494424914
 10
27935.86495002874
 20
3409.424074224821
  0
LWPOLYLINE
  5
91F0
330
18
100
AcDbEntity
  8
3
  6
Continuous
 62
     9
100
AcDbPolyline
 90
        4
 70
     0
 43
0.0
 10
26818.34238959289
 20
5180.122000064475
 10
26874.1220649514
 20
5817.686606843193
 10
27431.1941401243
 20
5768.949115498703
 10
27375.4144647658
 20
5131.384508719984
  0
LWPOLYLINE
  5
91F1
330
18
100
AcDbEntity
  8
3
  6
Continuous
 62
     9
100
AcDbPolyline
 90
        4
 70
     0
 43
0.0
 10
26836.27389415854
 20
5178.553196695019
 10
26892.05356951704
 20
5816.117803473609
 10
27413.26263555866
 20
5770.517918868283
 10
27357.48296020015
 20
5132.953312089443
  0
DIMENSION
  5
91F2
330
18
100
AcDbEntity
  8
2
  6
Continuous
 62
     4
100
AcDbDimension
280
     0
  2
*D20
 10
27545.94871538229
 20
8850.757654463789
 30
0.0
 11
27257.25512982486
 21
8919.640771694638
 31
0.0
 70
   160
  1
φ<>
 71
     5
 42
210.000000097436
 73
     0
 74
     0
 75
     0
  3
ST20-5
100
AcDbAlignedDimension
 13
26705.94871499255
 23
8615.126360820548
 33
0.0
 14
27545.94871538229
 24
8615.126360820541
 34
0.0
100
AcDbRotatedDimension
  0
DIMENSION
  5
91F3
330
18
100
AcDbEntity
  8
2
  6
Continuous
 62
     4
100
AcDbDimension
280
     0
  2
*D21
 10
27601.86012263057
 20
6108.059419945737
 30
0.0
 11
27295.37775619537
 21
6194.664120628144
 31
0.0
 70
   161
  1
φ<>
 71
     5
 42
210.0000000974378
 73
     0
 74
     0
 75
     0
  3
ST20-5
100
AcDbAlignedDimension
 13
26741.98693813004
 23
5917.583078197444
 33
0.0
 14
27578.79048491538
 24
5844.372254255433
 34
0.0
  0
LWPOLYLINE
  5
91F4
330
18
100
AcDbEntity
  8
3
  6
Continuous
 62
     9
100
AcDbPolyline
 90
        4
 70
     0
 43
0.0
 10
27834.61531025808
 20
9115.126360820552
 10
27546.00986808122
 20
8615.126360820545
 10
26705.887595162
 20
8615.126360820559
 10
26417.28215298514
 20
9115.126360820543
  0
LWPOLYLINE
  5
91F5
330
18
100
AcDbEntity
  8
3
  6
Continuous
 62
     9
100
AcDbPolyline
 90
        6
 70
     0
 43
0.0
 10
27834.61531025808
 20
9115.126360820545
 10
27917.74873162161
 20
9115.126360820545
 10
27578.34873162162
 20
8527.126360820544
 10
26673.54873162161
 20
8527.126360820544
 10
26334.14873162161
 20
9115.126360820543
 10
26417.28215298514
 20
9115.126360820543
  0
LWPOLYLINE
  5
91F6
330
18
100
AcDbEntity
  8
3
  6
Continuous
 62
     9
100
AcDbPolyline
 90
        6
 70
     0
 43
0.0
 10
26417.28215298514
 20
9115.126360820543
 10
26385.94873162161
 20
9115.126360820543
 10
26325.94873162161
 20
9215.126360820542
 10
27925.94873162161
 20
9215.126360820544
 10
27865.94873162161
 20
9115.126360820545
 10
27834.61531025808
 20
9115.126360820545
  0
LWPOLYLINE
  5
91F7
330
18
100
AcDbEntity
  8
3
  6
Continuous
 62
     9
100
AcDbPolyline
 90
        4
 70
     1
 43
0.0
 10
26809.94873162161
 20
7815.126360820544
 10
26845.94873162161
 20
7851.126360820545
 10
27405.94873162161
 20
7851.126360820543
 10
27441.94873162161
 20
7815.126360820542
  0
LWPOLYLINE
  5
91F8
330
18
100
AcDbEntity
  8
3
  6
Continuous
 62
     9
100
AcDbPolyline
 90
        4
 70
     0
 43
0.0
 10
27909.87556762623
 20
6317.315981627377
 10
27578.79048491538
 20
5844.372254255433
 10
26741.86513088447
 20
5917.593734950571
 10
26497.93579092129
 20
6440.844705670372
  0
LWPOLYLINE
  5
91F9
330
18
100
AcDbEntity
  8
3
  6
Continuous
 62
     9
100
AcDbPolyline
 90
        4
 70
     1
 43
0.0
 10
26899.72327487912
 20
5903.782936905797
 10
27420.93234092072
 20
5858.183052300223
 10
27413.26263555893
 20
5770.517918868134
 10
26892.05356951733
 20
5816.117803473708
  0
LWPOLYLINE
  5
91FA
330
18
100
AcDbEntity
  8
3
  6
Continuous
 62
     9
100
AcDbPolyline
 90
        6
 70
     0
 43
0.0
 10
27909.87556762623
 20
6317.315981627367
 10
27992.6926412228
 20
6310.070426541277
 10
27603.33658395484
 20
5753.88860315188
 10
26701.97962112143
 20
5832.747119189963
 10
26415.11871732471
 20
6448.090260756467
 10
26497.93579092129
 20
6440.844705670373
  0
LWPOLYLINE
  5
91FB
330
18
100
AcDbEntity
  8
3
  6
Continuous
 62
     9
100
AcDbPolyline
 90
        4
 70
     1
 43
0.0
 10
26708.14944876924
 20
5088.028368999609
 10
26817.94391171366
 20
5180.156862361573
 10
27375.81294264503
 20
5131.349646422886
 10
27412.16381055304
 20
5088.028368999609
  0
LWPOLYLINE
  5
91FC
330
18
100
AcDbEntity
  8
3
  6
Continuous
 62
     9
100
AcDbPolyline
 90
        6
 70
     0
 43
0.0
 10
26497.93579092145
 20
6440.844705670016
 10
26466.72160268583
 20
6443.575593281784
 10
26446.20166914459
 20
6488.028368999225
 10
28061.53998074417
 20
6488.028369000005
 10
27941.08975586168
 20
6314.585094015958
 10
27909.87556762645
 20
6317.31598162769
  0
LEADER
  5
91FD
330
18
100
AcDbEntity
  8
2
  6
Continuous
100
AcDbLeader
  3
ST20-5（詳細）
 73
     0
 74
     0
 75
     1
 40
60.00000000000001
 41
248.2285714285714
 76
     3
 10
27405.54853164387
 20
7996.987436020877
 30
0.0
 10
27687.99994935878
 20
7621.593558669829
 30
0.0
 10
27727.99994935878
 20
7621.593558669829
 30
0.0
340
91FE
211
1.0
221
0.0000000000000011
231
0.0
1001
ACAD
1000
DSTYLE
1002
{
1070
   147
1040
1.0
1070
    77
1070
     1
1002
}
  0
MTEXT
  5
91FE
102
{ACAD_REACTORS
330
91FD
102
}
330
18
100
AcDbEntity
  8
2
  6
Continuous
 62
     7
100
AcDbMText
 10
27747.99994935878
 20
7671.59355866983
 30
0.0
 40
60.0
 41
0.0
 46
0.0
 71
     4
 72
     1
  1
VU 125
  7
JF3
 73
     1
 44
1.0
  0
LINE
  5
91FF
330
18
100
AcDbEntity
  8
3
 62
     7
100
AcDbLine
 10
25925.9487316216
 20
2297.767488957931
 30
0.0
 11
28325.94873162164
 21
2297.767488957934
 31
0.0
  0
LINE
  5
9200
330
18
100
AcDbEntity
  8
3
 62
     7
100
AcDbLine
 10
25925.9487316216
 20
3697.767488957931
 30
0.0
 11
28325.94873162164
 21
3697.767488957934
 31
0.0
  0
LINE
  5
9201
330
18
100
AcDbEntity
  8
3
 62
     7
100
AcDbLine
 10
25925.9487316216
 20
9215.126360820544
 30
0.0
 11
28325.94873162163
 21
9215.126360820544
 31
0.0
  0
LINE
  5
9202
330
18
100
AcDbEntity
  8
3
 62
     7
100
AcDbLine
 10
25925.9487316216
 20
7815.126360820541
 30
0.0
 11
28325.94873162163
 21
7815.126360820547
 31
0.0
  0
LINE
  5
9203
330
18
100
AcDbEntity
  8
3
 62
     7
100
AcDbLine
 10
25925.9487316216
 20
5088.028368999594
 30
0.0
 11
28325.94873162163
 21
5088.028368999598
 31
0.0
  0
LINE
  5
9204
330
18
100
AcDbEntity
  8
3
 62
     7
100
AcDbLine
 10
25925.9487316216
 20
6488.028368999593
 30
0.0
 11
28325.94873162163
 21
6488.028368999597
 31
0.0
  0
LINE
  5
9205
330
18
100
AcDbEntity
  8
1
  6
CENTER
 62
     3
100
AcDbLine
 10
27125.94846867451
 20
4888.028368999596
 30
0.0
 11
27125.94876449001
 21
6688.028368999596
 31
0.0
  0
LINE
  5
9206
330
18
100
AcDbEntity
  8
1
  6
CENTER
 62
     3
100
AcDbLine
 10
27073.85401537443
 20
4892.586043095933
 30
0.0
 11
27230.13767109017
 21
6678.91302080692
 31
0.0
  0
DIMENSION
  5
9207
330
18
100
AcDbEntity
  8
2
  6
Continuous
 62
     4
100
AcDbDimension
280
     0
  2
*D22
 10
27125.94876449001
 20
6688.028368999596
 30
0.0
 11
27194.86104379427
 21
7066.377622141847
 31
0.0
 70
    34
 71
     5
 42
0.0872664625997162
 73
     0
 74
     0
 75
     0
  3
ST20-5（詳細）
100
AcDb2LineAngularDimension
 13
27073.85401537443
 23
4892.586043095933
 33
0.0
 14
27230.13767109017
 24
6678.91302080692
 34
0.0
 15
27125.94846867451
 25
4888.028368999596
 35
0.0
 16
27214.90185540186
 26
7015.293019741863
 36
0.0
  0
DIMENSION
  5
9208
330
18
100
AcDbEntity
  8
2
  6
Continuous
 62
     4
100
AcDbDimension
280
     0
  2
*D23
 10
26374.42177564659
 20
3684.748660453637
 30
0.0
 11
26286.97875954085
 21
3476.773405330204
 31
0.0
 70
    32
 71
     5
 42
109.9999861469598
 73
     0
 74
     0
 75
     0
  3
ST20-5
100
AcDbAlignedDimension
 13
26700.10392922504
 23
3180.53438854453
 33
0.0
 14
26526.33436243562
 24
3657.962346951346
 34
0.0
 50
79.99999058377333
100
AcDbRotatedDimension
  0
DIMENSION
  5
9209
330
18
100
AcDbEntity
  8
2
  6
Continuous
 62
     4
100
AcDbDimension
280
     0
  2
*D24
 10
27125.94876449001
 20
3897.767488957933
 30
0.0
 11
27265.38462663608
 21
4291.525923602574
 31
0.0
 70
    34
 71
     5
 42
0.1745329251994323
 73
     0
 74
     0
 75
     0
  3
ST20-5（詳細）
100
AcDb2LineAngularDimension
 13
27023.34242567681
 23
2115.859702722159
 33
0.0
 14
27331.16085048542
 24
3861.583061429474
 34
0.0
 15
27125.94846867451
 25
2097.767488957932
 35
0.0
 16
27305.87500017093
 26
4237.134308725626
 36
0.0
  0
LINE
  5
920A
330
18
100
AcDbEntity
  8
1
  6
CENTER
 62
     3
100
AcDbLine
 10
27023.34242567681
 20
2115.859702722159
 30
0.0
 11
27331.16085048542
 21
3861.583061429474
 31
0.0
  0
LINE
  5
920B
330
18
100
AcDbEntity
  8
1
  6
CENTER
 62
     3
100
AcDbLine
 10
27125.94846867451
 20
2097.767488957932
 30
0.0
 11
27125.94876449001
 21
3897.767488957933
 31
0.0
  0
LWPOLYLINE
  5
920C
330
18
100
AcDbEntity
  8
3
  6
Continuous
 62
     9
100
AcDbPolyline
 90
        4
 70
     1
 43
0.0
 10
26794.4665705228
 20
2431.447459291387
 10
26682.29575672021
 20
2297.767488957958
 10
27359.22089230159
 20
2297.767488957912
 10
27345.95891220962
 20
2334.204479797868
  0
DIMENSION
  5
920D
330
18
100
AcDbEntity
  8
2
  6
Continuous
 62
     4
100
AcDbDimension
280
     0
  2
*D25
 10
26298.01651588347
 20
3251.433316255175
 30
0.0
 11
26241.13560225981
 21
3216.784190737725
 31
0.0
 70
    32
 71
     5
 42
22.00000132833088
 73
     0
 74
     0
 75
     0
  3
ST20-5
100
AcDbAlignedDimension
 13
26734.85784905811
 23
3085.048779072728
 33
0.0
 14
26700.10392922504
 24
3180.53438854453
 34
0.0
 50
79.99999058377333
100
AcDbRotatedDimension
  0
TEXT
  5
920E
330
18
100
AcDbEntity
  8
2
  6
Continuous
 62
     7
100
AcDbText
 10
25791.40268939179
 20
4143.11379208135
 30
0.0
 40
180.0
  1
10゜
 41
0.8
  7
JF3
100
AcDbText
  0
DIMENSION
  5
920F
330
18
100
AcDbEntity
  8
2
  6
Continuous
 62
     4
100
AcDbDimension
280
     0
  2
*D26
 10
26239.20471575394
 20
5961.570822876741
 30
0.0
 11
26185.56012816855
 21
5922.096043297912
 31
0.0
 70
    32
 71
     5
 42
22.00000000002865
 73
     0
 74
     0
 75
     0
  3
ST20-5
100
AcDbAlignedDimension
 13
26701.97962112143
 23
5832.747119189963
 33
0.0
 14
26659.0358393879
 24
5924.840358964389
 34
0.0
 50
85.00000000013098
100
AcDbRotatedDimension
  0
DIMENSION
  5
9210
330
18
100
AcDbEntity
  8
2
  6
Continuous
 62
     4
100
AcDbDimension
280
     0
  2
*D27
 10
26282.78258712783
 20
6459.668171923273
 30
0.0
 11
26211.18391653686
 21
6214.977284537231
 31
0.0
 70
    32
 71
     5
 42
125.000000000165
 73
     0
 74
     0
 75
     0
  3
ST20-5
100
AcDbAlignedDimension
 13
26659.0358393879
 23
5924.840358964389
 33
0.0
 14
26415.03707107388
 24
6448.09740387783
 34
0.0
 50
85.00000000013098
100
AcDbRotatedDimension
  0
TEXT
  5
9211
330
18
100
AcDbEntity
  8
2
  6
Continuous
 62
     7
100
AcDbText
 10
25791.40268939178
 20
9660.472663943965
 30
0.0
 40
180.0
  1
0゜
 41
0.8
  7
JF3
100
AcDbText
  0
LINE
  5
9212
330
18
100
AcDbEntity
  8
1
  6
CENTER
 62
     3
100
AcDbLine
 10
27125.9484686745
 20
7615.126360820544
 30
0.0
 11
27125.94876449
 21
9415.126360820543
 31
0.0
  0
TEXT
  5
9213
330
18
100
AcDbEntity
  8
2
  6
Continuous
 62
     7
100
AcDbText
 10
25791.40268939178
 20
6933.374672123014
 30
0.0
 40
180.0
  1
5゜
 41
0.8
  7
JF3
100
AcDbText
  0
DIMENSION
  5
9214
330
18
100
AcDbEntity
  8
2
  6
Continuous
 62
     4
100
AcDbDimension
280
     0
  2
*D28
 10
26301.59793894592
 20
9315.482448851932
 30
0.0
 11
26245.42102397311
 21
9340.783718718155
 31
0.0
 70
    32
 71
     5
 42
18.00000022712083
 73
     0
 74
     0
 75
     0
  3
ST20-5
100
AcDbAlignedDimension
 13
26334.13514086631
 23
9115.126360820546
 33
0.0
 14
26417.27358076056
 24
9115.126360820545
 34
0.0
 50
30.0000000977881
100
AcDbRotatedDimension
  0
LWPOLYLINE
  5
9215
330
18
100
AcDbEntity
  8
3
  6
Continuous
 62
     9
100
AcDbPolyline
 90
        4
 70
     0
 43
0.0
 10
26846.34873162161
 20
7851.126360820545
 10
26846.34873162161
 20
8527.126360820544
 10
27405.54873162161
 20
8527.126360820544
 10
27405.54873162161
 20
7851.126360820543
  0
LWPOLYLINE
  5
9216
330
18
100
AcDbEntity
  8
3
  6
Continuous
 62
     9
100
AcDbPolyline
 90
        4
 70
     0
 43
0.0
 10
26864.34873162161
 20
7851.126360820545
 10
26864.34873162161
 20
8527.126360820544
 10
27387.54873162161
 20
8527.126360820544
 10
27387.54873162161
 20
7851.126360820543
  0
LWPOLYLINE
  5
9217
330
18
100
AcDbEntity
  8
3
  6
Continuous
 62
     9
100
AcDbPolyline
 90
        4
 70
     1
 43
0.0
 10
26864.34873162161
 20
8615.126360820559
 10
27387.5487316216
 20
8615.126360820559
 10
27387.5487316216
 20
8527.126360820544
 10
26864.34873162161
 20
8527.126360820544
  0
DIMENSION
  5
9218
330
18
100
AcDbEntity
  8
2
  6
Continuous
 62
     4
100
AcDbDimension
280
     0
  2
*D29
 10
28842.93143915636
 20
2297.767488957934
 30
0.0
 11
28792.93143915636
 21
2997.767488957939
 31
0.0
 70
    32
 71
     5
 42
350.0
 73
     0
 74
     0
 75
     0
  3
ST20-5（詳細）
100
AcDbAlignedDimension
 13
28325.94873162164
 23
3697.767488957934
 33
0.0
 14
28325.94873162164
 24
2297.767488957934
 34
0.0
 50
90.0
100
AcDbRotatedDimension
  0
DIMENSION
  5
9219
330
18
100
AcDbEntity
  8
2
  6
Continuous
 62
     4
100
AcDbDimension
280
     0
  2
*D30
 10
28842.93143915635
 20
5088.028368999598
 30
0.0
 11
28792.93143915635
 21
5788.028368999602
 31
0.0
 70
    32
 71
     5
 42
350.0
 73
     0
 74
     0
 75
     0
  3
ST20-5（詳細）
100
AcDbAlignedDimension
 13
28325.94873162163
 23
6488.028368999597
 33
0.0
 14
28325.94873162163
 24
5088.028368999598
 34
0.0
 50
90.0
100
AcDbRotatedDimension
  0
DIMENSION
  5
921A
330
18
100
AcDbEntity
  8
2
  6
Continuous
 62
     4
100
AcDbDimension
280
     0
  2
*D31
 10
28842.93143915635
 20
7815.126360820547
 30
0.0
 11
28792.93143915635
 21
8515.12636082055
 31
0.0
 70
    32
 71
     5
 42
349.9999999999993
 73
     0
 74
     0
 75
     0
  3
ST20-5（詳細）
100
AcDbAlignedDimension
 13
28325.94873162163
 23
9215.126360820544
 33
0.0
 14
28325.94873162163
 24
7815.126360820547
 34
0.0
 50
90.0
100
AcDbRotatedDimension
  0
DIMENSION
  5
921B
330
18
100
AcDbEntity
  8
2
  6
Continuous
 62
     4
100
AcDbDimension
280
     0
  2
*D32
 10
28695.08613908652
 20
9115.126360820543
 30
0.0
 11
28645.08613908651
 21
9165.126360820549
 31
0.0
 70
    32
 71
     5
 42
25.0
 73
     0
 74
     0
 75
     0
  3
ST20-5（詳細）
100
AcDbAlignedDimension
 13
28325.94873162163
 23
9215.126360820544
 33
0.0
 14
27917.76191500249
 24
9115.126360820545
 34
0.0
 50
90.0
100
AcDbRotatedDimension
  0
DIMENSION
  5
921C
330
18
100
AcDbEntity
  8
2
  6
Continuous
 62
     4
100
AcDbDimension
280
     0
  2
*D33
 10
28695.08613908652
 20
8615.126360820532
 30
0.0
 11
28645.08613908651
 21
8865.126360820543
 31
0.0
 70
    32
 71
     5
 42
125.0000000000027
 73
     0
 74
     0
 75
     0
  3
ST20-5（詳細）
100
AcDbAlignedDimension
 13
27917.76191500249
 23
9115.126360820545
 33
0.0
 14
27629.08678219776
 24
8615.126360820534
 34
0.0
 50
90.0
100
AcDbRotatedDimension
  0
DIMENSION
  5
921D
330
18
100
AcDbEntity
  8
2
  6
Continuous
 62
     4
100
AcDbDimension
280
     0
  2
*D34
 10
28695.08613908652
 20
8527.126360820531
 30
0.0
 11
28645.08613908651
 21
8571.126360820537
 31
0.0
 70
    32
 71
     5
 42
22.0
 73
     0
 74
     0
 75
     0
  3
ST20-5（詳細）
100
AcDbAlignedDimension
 13
27629.08678219776
 23
8615.126360820534
 33
0.0
 14
27578.27995882413
 24
8527.126360820533
 34
0.0
 50
90.0
100
AcDbRotatedDimension
  0
LEADER
  5
921E
330
18
100
AcDbEntity
  8
2
  6
Continuous
100
AcDbLeader
  3
ST20-5（詳細）
 73
     0
 74
     0
 75
     1
 40
60.00000000000001
 41
248.2285714285714
 76
     3
 10
27382.89038343234
 20
5277.21072162322
 30
0.0
 10
27665.34180114726
 20
4901.816844272171
 30
0.0
 10
27705.34180114726
 20
4901.816844272171
 30
0.0
340
921F
211
1.0
221
0.0000000000000011
231
0.0
1001
ACAD
1000
DSTYLE
1002
{
1070
   147
1040
1.0
1070
    77
1070
     1
1002
}
  0
MTEXT
  5
921F
102
{ACAD_REACTORS
330
921E
102
}
330
18
100
AcDbEntity
  8
2
  6
Continuous
 62
     7
100
AcDbMText
 10
27725.34180114726
 20
4951.816844272171
 30
0.0
 40
60.0
 41
0.0
 46
0.0
 71
     4
 72
     1
  1
VU 125
  7
JF3
 73
     1
 44
1.0
  0
LEADER
  5
9220
330
18
100
AcDbEntity
  8
2
  6
Continuous
100
AcDbLeader
  3
ST20-5（詳細）
 73
     0
 74
     0
 75
     1
 40
60.00000000000001
 41
248.2285714285714
 76
     3
 10
27366.11190667543
 20
2480.065554998201
 30
0.0
 10
27648.56332439035
 20
2104.671677647153
 30
0.0
 10
27688.56332439035
 20
2104.671677647153
 30
0.0
340
9221
211
1.0
221
0.0000000000000011
231
0.0
1001
ACAD
1000
DSTYLE
1002
{
1070
   147
1040
1.0
1070
    77
1070
     1
1002
}
  0
MTEXT
  5
9221
102
{ACAD_REACTORS
330
9220
102
}
330
18
100
AcDbEntity
  8
2
  6
Continuous
 62
     7
100
AcDbMText
 10
27708.56332439035
 20
2154.671677647153
 30
0.0
 40
60.0
 41
0.0
 46
0.0
 71
     4
 72
     1
  1
VU 125
  7
JF3
 73
     1
 44
1.0
  0
DIMENSION
  5
9222
330
18
100
AcDbEntity
  8
2
100
AcDbDimension
280
     0
  2
*D35
 10
28695.0861390865
 20
7815.126360820547
 30
0.0
 11
28645.0861390865
 21
8171.126360820549
 31
0.0
 70
    32
 71
     5
 42
177.9999999999993
 73
     0
 74
     0
 75
     0
 51
360.0
  3
ST20-5
100
AcDbAlignedDimension
 13
27578.3487316216
 23
8527.126360820544
 33
0.0
 14
28325.94873162162
 24
7815.126360820547
 34
0.0
 50
90.0
100
AcDbRotatedDimension
  0
LINE
  5
9BB0
330
18
100
AcDbEntity
  8
3
100
AcDbLine
 10
21881.13961529397
 20
1972.780868474889
 30
0.0
 11
22481.13961529397
 21
1972.78086847489
 31
0.0
  0
DIMENSION
  5
9BB1
330
18
100
AcDbEntity
  8
2
  6
Continuous
 62
     4
100
AcDbDimension
280
     0
  2
*D36
 10
22481.13961529397
 20
2238.030236132291
 30
0.0
 11
22181.13961529397
 21
2288.030236132291
 31
0.0
 70
    32
 71
     5
 42
600.0
 73
     0
 74
     0
 75
     0
  3
ST20（詳細）
100
AcDbAlignedDimension
 13
21881.13961529397
 23
1972.780868474889
 33
0.0
 14
22481.13961529397
 24
1972.78086847489
 34
0.0
100
AcDbRotatedDimension
  0
LINE
  5
9BB2
330
18
100
AcDbEntity
  8
3
 62
     7
100
AcDbLine
 10
20981.13961529397
 20
1622.780868474888
 30
0.0
 11
23381.13961529397
 21
1622.780868474891
 31
0.0
  0
DIMENSION
  5
9BB3
330
18
100
AcDbEntity
  8
2
  6
Continuous
 62
     4
100
AcDbDimension
280
     0
  2
*D37
 10
23381.13961529397
 20
2351.438248906627
 30
0.0
 11
22181.13961529397
 21
2401.438248906627
 31
0.0
 70
    32
 71
     5
 42
2400.0
 73
     0
 74
     0
 75
     0
  3
ST20（詳細）
100
AcDbAlignedDimension
 13
20981.13961529397
 23
1822.780868474888
 33
0.0
 14
23381.13961529397
 24
1822.780868474891
 34
0.0
100
AcDbRotatedDimension
  0
LINE
  5
9BC2
330
18
100
AcDbEntity
  8
3
 62
     7
100
AcDbLine
 10
21011.13961529397
 20
1822.780868474888
 30
0.0
 11
21881.13961529397
 21
1972.780868474889
 31
0.0
  0
DIMENSION
  5
9BC3
330
18
100
AcDbEntity
  8
2
  6
Continuous
 62
     4
100
AcDbDimension
280
     0
  2
*D38
 10
21881.13961529397
 20
2238.03023613229
 30
0.0
 11
21446.13961529397
 21
2288.03023613229
 31
0.0
 70
    32
 71
     5
 42
870.0
 73
     0
 74
     0
 75
     0
  3
ST20（詳細）
100
AcDbAlignedDimension
 13
21011.13961529397
 23
1822.780868474888
 33
0.0
 14
21881.13961529397
 24
1972.780868474889
 34
0.0
100
AcDbRotatedDimension
  0
DIMENSION
  5
9BC4
330
18
100
AcDbEntity
  8
2
  6
Continuous
 62
     4
100
AcDbDimension
280
     0
  2
*D39
 10
21011.13961529397
 20
2238.030236132289
 30
0.0
 11
20996.13961529397
 21
2288.030236132289
 31
0.0
 70
    32
 71
     5
 42
30.0
 73
     0
 74
     0
 75
     0
  3
ST20（詳細）
100
AcDbAlignedDimension
 13
20981.13961529397
 23
1822.780868474888
 33
0.0
 14
21011.13961529397
 24
1822.780868474888
 34
0.0
100
AcDbRotatedDimension
  0
LINE
  5
9BC7
330
18
100
AcDbEntity
  8
3
 62
     7
100
AcDbLine
 10
20981.13961529397
 20
1622.780868474888
 30
0.0
 11
20981.13961529397
 21
1822.780868474888
 31
0.0
  0
LINE
  5
9BC8
330
18
100
AcDbEntity
  8
3
 62
     7
100
AcDbLine
 10
20981.13961529397
 20
1822.780868474888
 30
0.0
 11
21011.13961529397
 21
1822.780868474888
 31
0.0
  0
DIMENSION
  5
9BD2
330
18
100
AcDbEntity
  8
2
  6
Continuous
 62
     4
100
AcDbDimension
280
     0
  2
*D40
 10
23672.58107373283
 20
1822.780868474891
 30
0.0
 11
23622.58107373283
 21
1897.780868474894
 31
0.0
 70
    32
 71
     5
 42
149.9999999999988
 73
     0
 74
     0
 75
     0
  3
ST20（詳細）
100
AcDbAlignedDimension
 13
22481.13961529397
 23
1972.78086847489
 33
0.0
 14
23381.13961529397
 24
1822.780868474891
 34
0.0
 50
90.0
100
AcDbRotatedDimension
  0
DIMENSION
  5
9BD3
330
18
100
AcDbEntity
  8
2
  6
Continuous
 62
     4
100
AcDbDimension
280
     0
  2
*D41
 10
23672.58107373283
 20
1622.780868474891
 30
0.0
 11
23622.58107373283
 21
1722.780868474895
 31
0.0
 70
    32
 71
     5
 42
200.0
 73
     0
 74
     0
 75
     0
  3
ST20（詳細）
100
AcDbAlignedDimension
 13
23381.13961529397
 23
1822.780868474891
 33
0.0
 14
23381.13961529397
 24
1622.780868474891
 34
0.0
 50
90.0
100
AcDbRotatedDimension
  0
DIMENSION
  5
9BD4
330
18
100
AcDbEntity
  8
2
  6
Continuous
 62
     4
100
AcDbDimension
280
     0
  2
*D42
 10
23381.13961529397
 20
2238.030236132292
 30
0.0
 11
23366.13961529397
 21
2288.030236132291
 31
0.0
 70
    32
 71
     5
 42
30.0
 73
     0
 74
     0
 75
     0
  3
ST20（詳細）
100
AcDbAlignedDimension
 13
23351.13961529397
 23
1822.780868474891
 33
0.0
 14
23381.13961529397
 24
1822.780868474891
 34
0.0
100
AcDbRotatedDimension
  0
DIMENSION
  5
9BD5
330
18
100
AcDbEntity
  8
2
  6
Continuous
 62
     4
100
AcDbDimension
280
     0
  2
*D43
 10
23351.13961529397
 20
2238.030236132292
 30
0.0
 11
22916.13961529397
 21
2288.030236132291
 31
0.0
 70
    32
 71
     5
 42
870.0
 73
     0
 74
     0
 75
     0
  3
ST20（詳細）
100
AcDbAlignedDimension
 13
22481.13961529397
 23
1972.78086847489
 33
0.0
 14
23351.13961529397
 24
1822.780868474891
 34
0.0
100
AcDbRotatedDimension
  0
LINE
  5
9BD6
330
18
100
AcDbEntity
  8
3
 62
     7
100
AcDbLine
 10
22481.13961529397
 20
1972.78086847489
 30
0.0
 11
23351.13961529397
 21
1822.780868474891
 31
0.0
  0
LINE
  5
9BD7
330
18
100
AcDbEntity
  8
3
 62
     7
100
AcDbLine
 10
23381.13961529397
 20
1622.780868474891
 30
0.0
 11
23381.13961529397
 21
1822.780868474891
 31
0.0
  0
LINE
  5
9BD8
330
18
100
AcDbEntity
  8
3
 62
     7
100
AcDbLine
 10
23351.13961529397
 20
1822.780868474891
 30
0.0
 11
23381.13961529397
 21
1822.780868474891
 31
0.0
  0
DIMENSION
  5
9BD9
330
18
100
AcDbEntity
  8
2
  6
Continuous
 62
     4
100
AcDbDimension
280
     0
  2
*D44
 10
23835.85067717671
 20
1622.780868474891
 30
0.0
 11
23785.85067717672
 21
1797.780868474895
 31
0.0
 70
    32
 71
     5
 42
350.0
 73
     0
 74
     0
 75
     0
  3
ST20（詳細）
100
AcDbAlignedDimension
 13
23712.58107373283
 23
1972.780868474891
 33
0.0
 14
23712.58107373283
 24
1622.780868474891
 34
0.0
 50
90.0
100
AcDbRotatedDimension
  0
LWPOLYLINE
  5
9CFB
330
18
100
AcDbEntity
  8
3
  6
Continuous
 62
     7
100
AcDbPolyline
 90
        4
 70
     0
 43
0.0
 10
21881.13961529397
 20
1975.080868474888
 10
21881.13961529397
 20
1972.780868474889
 10
22481.13961529397
 20
1972.78086847489
 10
22481.13961529397
 20
1975.08086847489
  0
LWPOLYLINE
  5
9CFC
330
18
100
AcDbEntity
  8
3
  6
Continuous
 62
     9
100
AcDbPolyline
 90
        6
 70
     0
 43
0.0
 10
21881.13961529397
 20
1972.780868474889
 10
21931.13961529397
 20
1972.780868474889
 10
22031.13961529397
 20
2082.780868474889
 10
22331.13961529397
 20
2082.78086847489
 10
22431.13961529397
 20
1972.78086847489
 10
22481.13961529397
 20
1972.78086847489
  0
LWPOLYLINE
  5
9CFD
330
18
100
AcDbEntity
  8
3
  6
Continuous
 62
     9
100
AcDbPolyline
 90
        6
 70
     0
 43
0.0
 10
21881.13961529397
 20
1975.080868474888
 10
21930.1221645559
 20
1975.08086847489
 10
22030.1221645559
 20
2085.080868474889
 10
22332.15706603205
 20
2085.080868474891
 10
22432.15706603205
 20
1975.08086847489
 10
22481.13961529397
 20
1975.08086847489
  0
LWPOLYLINE
  5
9D87
330
18
100
AcDbEntity
  8
3
  6
Continuous
 62
     9
100
AcDbPolyline
 90
        4
 70
     1
 43
0.0
 10
22003.97297063485
 20
1947.780868474889
 10
22358.30625995308
 20
1947.780868474892
 10
22286.15489940886
 20
1822.78086847489
 10
22076.12433117907
 20
1822.780868474893
  0
LWPOLYLINE
  5
9D88
330
18
100
AcDbEntity
  8
3
  6
Continuous
 62
     9
100
AcDbPolyline
 90
        4
 70
     1
 43
0.0
 10
21983.18961529396
 20
1947.780868474889
 10
22379.08961529397
 20
1947.78086847489
 10
22294.23961529397
 20
1800.78086847489
 10
22068.03961529396
 20
1800.780868474889
  0
LWPOLYLINE
  5
9D89
330
18
100
AcDbEntity
  8
3
  6
Continuous
 62
     9
100
AcDbPolyline
 90
        4
 70
     1
 43
0.0
 10
21981.13961529397
 20
1972.780868474889
 10
22381.13961529397
 20
1972.78086847489
 10
22366.13961529397
 20
1947.78086847489
 10
21996.13961529397
 20
1947.780868474889
  0
LWPOLYLINE
  5
9D8A
330
18
100
AcDbEntity
  8
3
  6
Continuous
 62
     9
100
AcDbPolyline
 90
        4
 70
     1
 43
0.0
 10
22115.73961529397
 20
1800.780868474889
 10
22246.53961529397
 20
1800.78086847489
 10
22246.53961529396
 20
1631.78086847489
 10
22115.73961529396
 20
1631.780868474889
  0
LWPOLYLINE
  5
9D8B
330
18
100
AcDbEntity
  8
3
  6
Continuous
 62
     9
100
AcDbPolyline
 90
        4
 70
     1
 43
0.0
 10
22111.23961529397
 20
1800.780868474889
 10
22251.03961529397
 20
1800.78086847489
 10
22251.03961529396
 20
1631.78086847489
 10
22111.23961529396
 20
1631.780868474889
  0
LWPOLYLINE
  5
9D8C
330
18
100
AcDbEntity
  8
3
  6
Continuous
 62
     9
100
AcDbPolyline
 90
        4
 70
     1
 43
0.0
 10
22102.13961529397
 20
1622.780868474889
 10
22111.13961529397
 20
1631.780868474889
 10
22251.13961529397
 20
1631.78086847489
 10
22260.13961529397
 20
1622.78086847489
  0
LWPOLYLINE
  5
9D8D
330
18
100
AcDbEntity
  8
3
  6
Continuous
 62
     9
100
AcDbPolyline
 90
        4
 70
     1
 43
0.0
 10
22115.73961529397
 20
1822.780868474891
 10
22246.53961529396
 20
1822.780868474892
 10
22246.53961529396
 20
1800.780868474888
 10
22115.73961529397
 20
1800.780868474888
  0
LINE
  5
9DB3
330
18
100
AcDbEntity
  8
1
  6
CENTER
 62
     3
 48
0.5
100
AcDbLine
 10
22181.13961529397
 20
2129.37127640325
 30
0.0
 11
22181.13961529396
 21
1579.63937129546
 31
0.0
  0
LEADER
  5
9DB4
330
18
100
AcDbEntity
  8
2
  6
Continuous
 62
     4
100
AcDbLeader
  3
ST20
 76
     3
 10
22053.25546367976
 20
2085.080868474889
 30
0.0
 10
22152.08496980551
 20
2161.773089068934
 30
0.0
 10
22414.55020877483
 20
2161.773089068934
 30
0.0
211
1.0
221
0.0000000000000011
231
0.0
1001
ACAD
1000
DSTYLE
1002
{
1070
   147
1040
0.7
1070
    77
1070
     0
1002
}
  0
MTEXT
  5
9DB5
330
18
100
AcDbEntity
  8
2
  6
Continuous
 62
     7
100
AcDbMText
 10
22167.87963258901
 20
2198.275041860836
 30
0.0
 40
60.0
 41
0.0
 46
0.0
 71
     4
 72
     1
  1
ｾｰﾌﾃｨｷｬｯﾌﾟ
  7
JF3
 73
     1
 44
1.0
  0
LINE
  5
A703
330
18
100
AcDbEntity
  8
3
100
AcDbLine
 10
21881.13961529397
 20
3483.883160955786
 30
0.0
 11
22481.13961529397
 21
3483.883160955786
 31
0.0
  0
DIMENSION
  5
A704
330
18
100
AcDbEntity
  8
2
  6
Continuous
 62
     4
100
AcDbDimension
280
     0
  2
*D45
 10
22481.13961529397
 20
3749.132528613187
 30
0.0
 11
22181.13961529397
 21
3799.132528613187
 31
0.0
 70
    32
 71
     5
 42
600.0
 73
     0
 74
     0
 75
     0
  3
ST20（詳細）
100
AcDbAlignedDimension
 13
21881.13961529397
 23
3483.883160955786
 33
0.0
 14
22481.13961529397
 24
3483.883160955786
 34
0.0
100
AcDbRotatedDimension
  0
LINE
  5
A705
330
18
100
AcDbEntity
  8
3
 62
     7
100
AcDbLine
 10
20981.13961529397
 20
3133.883160955785
 30
0.0
 11
23381.13961529397
 21
3133.883160955788
 31
0.0
  0
DIMENSION
  5
A706
330
18
100
AcDbEntity
  8
2
  6
Continuous
 62
     4
100
AcDbDimension
280
     0
  2
*D46
 10
23381.13961529397
 20
3862.540541387524
 30
0.0
 11
22181.13961529397
 21
3912.540541387524
 31
0.0
 70
    32
 71
     5
 42
2400.0
 73
     0
 74
     0
 75
     0
  3
ST20（詳細）
100
AcDbAlignedDimension
 13
20981.13961529397
 23
3333.883160955785
 33
0.0
 14
23381.13961529397
 24
3333.883160955787
 34
0.0
100
AcDbRotatedDimension
  0
LINE
  5
A707
330
18
100
AcDbEntity
  8
3
 62
     7
100
AcDbLine
 10
21011.13961529397
 20
3333.883160955785
 30
0.0
 11
21881.13961529397
 21
3483.883160955786
 31
0.0
  0
DIMENSION
  5
A708
330
18
100
AcDbEntity
  8
2
  6
Continuous
 62
     4
100
AcDbDimension
280
     0
  2
*D47
 10
21881.13961529397
 20
3749.132528613186
 30
0.0
 11
21446.13961529397
 21
3799.132528613186
 31
0.0
 70
    32
 71
     5
 42
870.0
 73
     0
 74
     0
 75
     0
  3
ST20（詳細）
100
AcDbAlignedDimension
 13
21011.13961529397
 23
3333.883160955785
 33
0.0
 14
21881.13961529397
 24
3483.883160955786
 34
0.0
100
AcDbRotatedDimension
  0
DIMENSION
  5
A709
330
18
100
AcDbEntity
  8
2
  6
Continuous
 62
     4
100
AcDbDimension
280
     0
  2
*D48
 10
21011.13961529397
 20
3749.132528613186
 30
0.0
 11
20996.13961529397
 21
3799.132528613185
 31
0.0
 70
    32
 71
     5
 42
30.0
 73
     0
 74
     0
 75
     0
  3
ST20（詳細）
100
AcDbAlignedDimension
 13
20981.13961529397
 23
3333.883160955785
 33
0.0
 14
21011.13961529397
 24
3333.883160955785
 34
0.0
100
AcDbRotatedDimension
  0
LINE
  5
A70A
330
18
100
AcDbEntity
  8
3
 62
     7
100
AcDbLine
 10
20981.13961529397
 20
3133.883160955785
 30
0.0
 11
20981.13961529397
 21
3333.883160955785
 31
0.0
  0
LINE
  5
A70B
330
18
100
AcDbEntity
  8
3
 62
     7
100
AcDbLine
 10
20981.13961529397
 20
3333.883160955785
 30
0.0
 11
21011.13961529397
 21
3333.883160955785
 31
0.0
  0
DIMENSION
  5
A70C
330
18
100
AcDbEntity
  8
2
  6
Continuous
 62
     4
100
AcDbDimension
280
     0
  2
*D49
 10
23672.58107373283
 20
3333.883160955787
 30
0.0
 11
23622.58107373283
 21
3408.883160955791
 31
0.0
 70
    32
 71
     5
 42
149.9999999999991
 73
     0
 74
     0
 75
     0
  3
ST20（詳細）
100
AcDbAlignedDimension
 13
22481.13961529397
 23
3483.883160955786
 33
0.0
 14
23381.13961529397
 24
3333.883160955787
 34
0.0
 50
90.0
100
AcDbRotatedDimension
  0
DIMENSION
  5
A70D
330
18
100
AcDbEntity
  8
2
  6
Continuous
 62
     4
100
AcDbDimension
280
     0
  2
*D50
 10
23672.58107373283
 20
3133.883160955787
 30
0.0
 11
23622.58107373283
 21
3233.883160955791
 31
0.0
 70
    32
 71
     5
 42
200.0
 73
     0
 74
     0
 75
     0
  3
ST20（詳細）
100
AcDbAlignedDimension
 13
23381.13961529397
 23
3333.883160955787
 33
0.0
 14
23381.13961529397
 24
3133.883160955788
 34
0.0
 50
90.0
100
AcDbRotatedDimension
  0
DIMENSION
  5
A70E
330
18
100
AcDbEntity
  8
2
  6
Continuous
 62
     4
100
AcDbDimension
280
     0
  2
*D51
 10
23381.13961529397
 20
3749.132528613188
 30
0.0
 11
23366.13961529397
 21
3799.132528613188
 31
0.0
 70
    32
 71
     5
 42
30.0
 73
     0
 74
     0
 75
     0
  3
ST20（詳細）
100
AcDbAlignedDimension
 13
23351.13961529397
 23
3333.883160955787
 33
0.0
 14
23381.13961529397
 24
3333.883160955787
 34
0.0
100
AcDbRotatedDimension
  0
DIMENSION
  5
A70F
330
18
100
AcDbEntity
  8
2
  6
Continuous
 62
     4
100
AcDbDimension
280
     0
  2
*D52
 10
23351.13961529397
 20
3749.132528613188
 30
0.0
 11
22916.13961529397
 21
3799.132528613188
 31
0.0
 70
    32
 71
     5
 42
870.0
 73
     0
 74
     0
 75
     0
  3
ST20（詳細）
100
AcDbAlignedDimension
 13
22481.13961529397
 23
3483.883160955786
 33
0.0
 14
23351.13961529397
 24
3333.883160955787
 34
0.0
100
AcDbRotatedDimension
  0
LINE
  5
A710
330
18
100
AcDbEntity
  8
3
 62
     7
100
AcDbLine
 10
22481.13961529397
 20
3483.883160955786
 30
0.0
 11
23351.13961529397
 21
3333.883160955787
 31
0.0
  0
LINE
  5
A711
330
18
100
AcDbEntity
  8
3
 62
     7
100
AcDbLine
 10
23381.13961529397
 20
3133.883160955788
 30
0.0
 11
23381.13961529397
 21
3333.883160955787
 31
0.0
  0
LINE
  5
A712
330
18
100
AcDbEntity
  8
3
 62
     7
100
AcDbLine
 10
23351.13961529397
 20
3333.883160955787
 30
0.0
 11
23381.13961529397
 21
3333.883160955787
 31
0.0
  0
DIMENSION
  5
A713
330
18
100
AcDbEntity
  8
2
  6
Continuous
 62
     4
100
AcDbDimension
280
     0
  2
*D53
 10
23835.85067717671
 20
3133.883160955788
 30
0.0
 11
23785.85067717672
 21
3308.883160955792
 31
0.0
 70
    32
 71
     5
 42
350.0
 73
     0
 74
     0
 75
     0
  3
ST20（詳細）
100
AcDbAlignedDimension
 13
23712.58107373283
 23
3483.883160955787
 33
0.0
 14
23712.58107373283
 24
3133.883160955788
 34
0.0
 50
90.0
100
AcDbRotatedDimension
  0
LWPOLYLINE
  5
A714
330
18
100
AcDbEntity
  8
3
  6
Continuous
 62
     7
100
AcDbPolyline
 90
        4
 70
     0
 43
0.0
 10
21881.13961529397
 20
3486.183160955785
 10
21881.13961529397
 20
3483.883160955786
 10
22481.13961529397
 20
3483.883160955786
 10
22481.13961529397
 20
3486.183160955786
  0
LWPOLYLINE
  5
A715
330
18
100
AcDbEntity
  8
3
  6
Continuous
 62
     9
100
AcDbPolyline
 90
        6
 70
     0
 43
0.0
 10
21881.13961529397
 20
3483.883160955786
 10
21931.13961529397
 20
3483.883160955786
 10
22031.13961529397
 20
3593.883160955786
 10
22331.13961529397
 20
3593.883160955787
 10
22431.13961529397
 20
3483.883160955786
 10
22481.13961529397
 20
3483.883160955786
  0
LWPOLYLINE
  5
A716
330
18
100
AcDbEntity
  8
3
  6
Continuous
 62
     9
100
AcDbPolyline
 90
        6
 70
     0
 43
0.0
 10
21881.13961529397
 20
3486.183160955785
 10
21930.1221645559
 20
3486.183160955787
 10
22030.1221645559
 20
3596.183160955785
 10
22332.15706603205
 20
3596.183160955788
 10
22432.15706603205
 20
3486.183160955786
 10
22481.13961529397
 20
3486.183160955786
  0
LWPOLYLINE
  5
A717
330
18
100
AcDbEntity
  8
3
  6
Continuous
 62
     9
100
AcDbPolyline
 90
        4
 70
     1
 43
0.0
 10
22003.97297063485
 20
3458.883160955786
 10
22358.30625995308
 20
3458.883160955789
 10
22286.15489940886
 20
3333.883160955787
 10
22076.12433117907
 20
3333.883160955789
  0
LWPOLYLINE
  5
A718
330
18
100
AcDbEntity
  8
3
  6
Continuous
 62
     9
100
AcDbPolyline
 90
        4
 70
     1
 43
0.0
 10
21983.18961529396
 20
3458.883160955786
 10
22379.08961529397
 20
3458.883160955787
 10
22294.23961529397
 20
3311.883160955787
 10
22068.03961529396
 20
3311.883160955786
  0
LWPOLYLINE
  5
A719
330
18
100
AcDbEntity
  8
3
  6
Continuous
 62
     9
100
AcDbPolyline
 90
        4
 70
     1
 43
0.0
 10
21981.13961529397
 20
3483.883160955786
 10
22381.13961529397
 20
3483.883160955786
 10
22366.13961529397
 20
3458.883160955787
 10
21996.13961529397
 20
3458.883160955786
  0
LWPOLYLINE
  5
A71A
330
18
100
AcDbEntity
  8
3
  6
Continuous
 62
     9
100
AcDbPolyline
 90
        4
 70
     1
 43
0.0
 10
22115.73961529397
 20
3311.883160955786
 10
22246.53961529397
 20
3311.883160955787
 10
22246.53961529396
 20
3142.883160955787
 10
22115.73961529396
 20
3142.883160955786
  0
LWPOLYLINE
  5
A71B
330
18
100
AcDbEntity
  8
3
  6
Continuous
 62
     9
100
AcDbPolyline
 90
        4
 70
     1
 43
0.0
 10
22111.23961529397
 20
3311.883160955786
 10
22251.03961529397
 20
3311.883160955787
 10
22251.03961529396
 20
3142.883160955787
 10
22111.23961529396
 20
3142.883160955786
  0
LWPOLYLINE
  5
A71C
330
18
100
AcDbEntity
  8
3
  6
Continuous
 62
     9
100
AcDbPolyline
 90
        4
 70
     1
 43
0.0
 10
22102.13961529397
 20
3133.883160955786
 10
22111.13961529397
 20
3142.883160955786
 10
22251.13961529397
 20
3142.883160955787
 10
22260.13961529397
 20
3133.883160955786
  0
LWPOLYLINE
  5
A71D
330
18
100
AcDbEntity
  8
3
  6
Continuous
 62
     9
100
AcDbPolyline
 90
        4
 70
     1
 43
0.0
 10
22115.73961529397
 20
3333.883160955787
 10
22246.53961529396
 20
3333.883160955789
 10
22246.53961529396
 20
3311.883160955785
 10
22115.73961529397
 20
3311.883160955784
  0
LINE
  5
A71E
330
18
100
AcDbEntity
  8
1
  6
CENTER
 62
     3
 48
0.5
100
AcDbLine
 10
22181.13961529397
 20
3640.473568884146
 30
0.0
 11
22181.13961529396
 21
3090.741663776356
 31
0.0
  0
LEADER
  5
A71F
330
18
100
AcDbEntity
  8
2
  6
Continuous
 62
     4
100
AcDbLeader
  3
ST20
 76
     3
 10
22053.25546367976
 20
3596.183160955785
 30
0.0
 10
22152.08496980551
 20
3672.87538154983
 30
0.0
 10
22414.55020877483
 20
3672.87538154983
 30
0.0
211
1.0
221
0.0000000000000011
231
0.0
1001
ACAD
1000
DSTYLE
1002
{
1070
   147
1040
0.7
1070
    77
1070
     0
1002
}
  0
MTEXT
  5
A720
330
18
100
AcDbEntity
  8
2
  6
Continuous
 62
     7
100
AcDbMText
 10
22167.87963258901
 20
3709.377334341733
 30
0.0
 40
60.0
 41
0.0
 46
0.0
 71
     4
 72
     1
  1
ｾｰﾌﾃｨｷｬｯﾌﾟ
  7
JF3
 73
     1
 44
1.0
  0
LWPOLYLINE
  5
A7EB
330
18
100
AcDbEntity
  8
3
  6
Continuous
 62
     7
100
AcDbPolyline
 90
        6
 70
     1
 43
0.0
 10
31309.95275399101
 20
8567.407385954647
 10
32829.95275399101
 20
8567.407385954648
 10
32769.95275399101
 20
9167.407385954646
 42
0.4142135623730951
 10
32569.95275399101
 20
9367.407385954647
 10
31569.95275399101
 20
9367.407385954647
 42
0.4142135623730951
 10
31369.95275399101
 20
9167.407385954646
  0
DIMENSION
  5
A7EC
330
18
100
AcDbEntity
  8
2
100
AcDbDimension
280
     0
  2
*D54
 10
33450.93431433824
 20
8567.407385954648
 30
0.0
 11
33400.93431433824
 21
8967.407385954654
 31
0.0
 70
    32
 71
     5
 42
200.0
 73
     0
 74
     0
 75
     0
 51
360.0
  3
ST20-5
100
AcDbAlignedDimension
 13
32569.95275399101
 23
9367.407385954647
 33
0.0
 14
32829.95275399101
 24
8567.407385954648
 34
0.0
 50
90.00000000000005
100
AcDbRotatedDimension
  0
LWPOLYLINE
  5
A7FA
330
18
100
AcDbEntity
  8
3
 62
     7
100
AcDbPolyline
 90
       11
 70
     0
 43
0.0
 10
31119.5829669506
 20
5829.655768634239
 10
33026.89865010863
 20
5829.65576863424
 10
33001.663355991
 20
6089.655768634241
 10
32698.12216851587
 20
6089.655768634241
 10
32669.952753991
 20
6429.655768634241
 42
0.4142135623730951
 10
32569.95275399101
 20
6529.655768634241
 10
31569.95275399101
 20
6529.655768634238
 42
0.4142135623730951
 10
31469.95275399101
 20
6429.655768634238
 10
31441.78333946614
 20
6089.655768634238
 10
31138.24215199101
 20
6089.655768634238
 10
31113.00685787337
 20
5829.655768634239
  0
DIMENSION
  5
A804
330
18
100
AcDbEntity
  8
2
100
AcDbDimension
280
     0
  2
*D55
 10
33265.02238001885
 20
5829.65576863424
 30
0.0
 11
33215.02238001885
 21
5959.655768634245
 31
0.0
 70
    32
 71
     5
 42
130.0
 73
     0
 74
     0
 75
     0
 51
360.0
  3
ST20-10（詳細）
100
AcDbAlignedDimension
 13
33001.663355991
 23
6089.655768634241
 33
0.0
 14
33026.89865010863
 24
5829.65576863424
 34
0.0
 50
90.00000000000005
100
AcDbRotatedDimension
  0
DIMENSION
  5
ADE0
330
18
100
AcDbEntity
  8
2
100
AcDbDimension
280
     0
  2
*D56
 10
33265.02238001885
 20
6089.655768634241
 30
0.0
 11
33215.02238001885
 21
6309.655768634253
 31
0.0
 70
    32
 71
     5
 42
220.0000000000068
 73
     0
 74
     0
 75
     0
 51
360.0
  3
ST20-10（詳細）
100
AcDbAlignedDimension
 13
32569.952753991
 23
6529.655768634254
 33
0.0
 14
33001.663355991
 24
6089.655768634241
 34
0.0
 50
90.00000000000005
100
AcDbRotatedDimension
  0
DIMENSION
  5
ADED
330
18
100
AcDbEntity
  8
2
100
AcDbDimension
280
     0
  2
*D57
 10
33450.93431433824
 20
5829.655768634285
 30
0.0
 11
33400.93431433824
 21
6179.655768634297
 31
0.0
 70
    32
 71
     5
 42
350.0000000000068
 73
     0
 74
     0
 75
     0
 51
360.0
  3
ST20-10（詳細）
100
AcDbAlignedDimension
 13
33295.02238001884
 23
6529.655768634299
 33
0.0
 14
33295.02238001885
 24
5829.655768634285
 34
0.0
 50
90.00000000000005
100
AcDbRotatedDimension
  0
ENDSEC
  0
SECTION
  2
OBJECTS
  0
DICTIONARY
  5
C
330
0
100
AcDbDictionary
281
     1
  3
ACAD_CIP_PREVIOUS_PRODUCT_INFO
350
8B79
  3
ACAD_COLOR
350
8B5D
  3
ACAD_GROUP
350
D
  3
ACAD_LAYOUT
350
7CA
  3
ACAD_MATERIAL
350
8B2B
  3
ACAD_MLEADERSTYLE
350
8B72
  3
ACAD_MLINESTYLE
350
1B
  3
ACAD_PLOTSETTINGS
350
7CB
  3
ACAD_PLOTSTYLENAME
350
7C8
  3
ACAD_SCALELIST
350
8B60
  3
ACAD_TABLESTYLE
350
8B5E
  3
ACAD_VISUALSTYLE
350
8B44
  3
AcadDim
350
1E45
  3
ACDB_RECOMPOSE_DATA
350
AF5F
  3
AcDbVariableDictionary
350
24A5
  0
DICTIONARY
  5
AF0D
330
8
100
AcDbDictionary
280
     1
281
     1
  0
DICTIONARY
  5
39AC
330
2
100
AcDbDictionary
280
     1
281
     1
  3
ACAD_LAYERFILTERS
360
39AD
  3
ACAD_LAYERSTATES
360
3A5F
  0
DICTIONARY
  5
8D30
330
E
100
AcDbDictionary
280
     1
281
     1
  3
ADSK_XREC_LAYER_RECONCILED
360
8D31
  0
DICTIONARY
  5
8D32
330
57B5
100
AcDbDictionary
280
     1
281
     1
  3
ADSK_XREC_LAYER_RECONCILED
360
8D33
  0
DICTIONARY
  5
8D34
330
57B6
100
AcDbDictionary
280
     1
281
     1
  3
ADSK_XREC_LAYER_RECONCILED
360
8D35
  0
DICTIONARY
  5
8D36
330
57B7
100
AcDbDictionary
280
     1
281
     1
  3
ADSK_XREC_LAYER_RECONCILED
360
8D37
  0
DICTIONARY
  5
7F6
330
18
100
AcDbDictionary
280
     1
281
     1
  3
ACAD_LAYOUTSELFREF
360
2472
  3
ACAD_SORTENTS
360
8BA4
  0
DICTIONARY
  5
7F4
330
15
100
AcDbDictionary
280
     1
281
     1
  3
ACAD_LAYOUTSELFREF
360
2471
  0
XRECORD
  5
8B79
102
{ACAD_REACTORS
330
C
102
}
330
C
100
AcDbXrecord
280
     1
300
ACDLT
300
2012
300
ACDLT_F_S
  0
DICTIONARY
  5
8B5D
102
{ACAD_REACTORS
330
C
102
}
330
C
100
AcDbDictionary
281
     1
  0
DICTIONARY
  5
D
102
{ACAD_REACTORS
330
C
102
}
330
C
100
AcDbDictionary
281
     1
  0
DICTIONARY
  5
7CA
102
{ACAD_REACTORS
330
C
102
}
330
C
100
AcDbDictionary
281
     1
  3
Model
350
7CC
  3
ﾚｲｱｳﾄ1
350
7CD
  0
DICTIONARY
  5
8B2B
102
{ACAD_REACTORS
330
C
102
}
330
C
100
AcDbDictionary
281
     1
  3
ByBlock
350
8B34
  3
ByLayer
350
8B2C
  3
Global
350
8B3C
  0
DICTIONARY
  5
8B72
102
{ACAD_REACTORS
330
C
102
}
330
C
100
AcDbDictionary
281
     1
  3
Standard
350
8B73
  0
DICTIONARY
  5
1B
102
{ACAD_REACTORS
330
C
102
}
330
C
100
AcDbDictionary
281
     1
  3
STANDARD
350
1C
  0
DICTIONARY
  5
7CB
102
{ACAD_REACTORS
330
C
102
}
330
C
100
AcDbDictionary
281
     1
  3
PrinterEPSON
350
838
  3
ProterHP
350
839
  0
ACDBDICTIONARYWDFLT
  5
7C8
102
{ACAD_REACTORS
330
C
102
}
330
C
100
AcDbDictionary
281
     1
  3
Normal
350
7C9
100
AcDbDictionaryWithDefault
340
7C9
  0
DICTIONARY
  5
8B60
102
{ACAD_REACTORS
330
C
102
}
330
C
100
AcDbDictionary
281
     1
  3
A0
350
8B61
  3
A1
350
8B62
  3
A2
350
8B63
  3
A3
350
8B64
  3
A4
350
8B65
  3
A5
350
8B66
  3
A6
350
8B67
  3
A7
350
8B68
  3
A8
350
8B69
  3
A9
350
8B6A
  3
B0
350
8B6B
  3
B1
350
8B6C
  3
B2
350
8B6D
  3
B3
350
8B6E
  3
B4
350
8B6F
  3
B5
350
8B70
  3
B6
350
8B71
  0
DICTIONARY
  5
8B5E
102
{ACAD_REACTORS
330
C
102
}
330
C
100
AcDbDictionary
281
     1
  3
Standard
350
8B5F
  0
DICTIONARY
  5
8B44
102
{ACAD_REACTORS
330
C
102
}
330
C
100
AcDbDictionary
281
     1
  3
2dWireframe
350
8B4A
  3
Basic
350
8B49
  3
Brighten
350
8B50
  3
ColorChange
350
8B54
  3
Conceptual
350
8B4D
  3
Dim
350
8B4F
  3
EdgeColorOff
350
8B5C
  3
Facepattern
350
8B53
  3
Flat
350
8B45
  3
FlatWithEdges
350
8B46
  3
Gouraud
350
8B47
  3
GouraudWithEdges
350
8B48
  3
Hidden
350
8B4C
  3
JitterOff
350
8B5A
  3
Linepattern
350
8B52
  3
OverhangOff
350
8B5B
  3
Realistic
350
8B4E
  3
Shaded
350
8B59
  3
Shaded with edges
350
8B58
  3
Shades of Gray
350
8B55
  3
Sketchy
350
8B56
  3
Thicken
350
8B51
  3
Wireframe
350
8B4B
  3
X-Ray
350
8B57
  0
XRECORD
  5
1E45
102
{ACAD_REACTORS
330
C
102
}
330
C
100
AcDbXrecord
280
     1
 90
   990106
  3

 60
     1
 61
     0
 62
     4
 63
     4
 64
     1
 65
     0
 66
     0
 67
     3
 68
     1
 69
     0
 70
     0
 71
     0
 72
     0
 40
0.0
170
     0
  0
XRECORD
  5
AF5F
102
{ACAD_REACTORS
330
C
102
}
330
C
100
AcDbXrecord
280
     1
 90
        1
330
8B5F
  0
DICTIONARY
  5
24A5
102
{ACAD_REACTORS
330
C
102
}
330
C
100
AcDbDictionary
281
     1
  3
CANNOSCALE
350
AF4E
  3
CMLEADERSTYLE
350
AF4D
  3
CTABLESTYLE
350
AF4C
  3
DIMASSOC
350
24A6
  3
INDEXCTL
350
AF50
  3
LAYEREVAL
350
AF5A
  3
LAYERNOTIFY
350
AF5B
  3
LIGHTINGUNITS
350
AF59
  3
MSLTSCALE
350
AF58
  3
SORTENTS
350
AF4F
  0
DICTIONARY
  5
39AD
102
{ACAD_REACTORS
330
39AC
102
}
330
39AC
100
AcDbDictionary
280
     1
281
     1
  3
-c
360
39AE
  3
-C2
360
39AF
  3
-cc
360
39B0
  3
-ccc
360
39B1
  3
-cccC
360
39B2
  3
-図面
360
39B3
  3
0
360
5267
  3
01-teitai
360
39B4
  3
02-zentai
360
39B5
  3
03-zentai+kussaku
360
39B6
  3
04-chikei
360
39B7
  3
05-chikei-5m
360
39B8
  3
06-kussaku
360
39B9
  3
1
360
39BA
  3
1-交差点処理図（最新1案）
360
5268
  3
100
360
39BB
  3
100ban
360
39BC
  3
160ban
360
39BD
  3
180
360
39BE
  3
180-240
360
39BF
  3
181
360
39C0
  3
1mtoukousenn
360
39C1
  3
2
360
39C2
  3
2-線形図1
360
5269
  3
2100
360
39C3
  3
240ban
360
39C4
  3
25-C
360
39C5
  3
252
360
39C6
  3
2600
360
39C7
  3
3
360
39C8
  3
3-線形図2
360
526A
  3
3dC
360
526B
  3
3dC5
360
526C
  3
44
360
39C9
  3
5-C
360
39CA
  3
5-C2
360
39CB
  3
50
360
39CC
  3
5m
360
39CD
  3
60
360
39CE
  3
7-専用部北行
360
39CF
  3
8-ONﾗﾝﾌﾟ
360
39D0
  3
9-OFFﾗﾝﾌﾟ
360
39D1
  3
_図面
360
39D2
  3
a
360
39D3
  3
a-
360
39D4
  3
a-（埋設）
360
39D5
  3
aaa
360
39D6
  3
all-DIM -TXT -MTXT OFF
360
526D
  3
all-DIM -TXT OFF
360
526E
  3
all-DIM OFF
360
526F
  3
all-MTXT OFF
360
5270
  3
all-TXT OFF
360
5271
  3
all_tikei
360
39D7
  3
all_tikei2
360
39D8
  3
a、シビ
360
39D9
  3
BASIC
360
39DA
  3
BGD
360
39DB
  3
blue
360
39DC
  3
B北
360
5272
  3
c
360
39DD
  3
chihyou
360
39DE
  3
chihyou-cc
360
39DF
  3
chikei
360
39E0
  3
chikei 5 0
360
39E1
  3
chikei-5m
360
39E2
  3
chikei2
360
39E3
  3
chikei5m
360
39E4
  3
chishitsu
360
39E5
  3
chishitu
360
39E6
  3
ckeiall
360
39E7
  3
cl
360
39E8
  3
cl-konta
360
39E9
  3
cld
360
39EA
  3
cld^ konta
360
39EB
  3
cm
360
39EC
  3
cm-konta
360
39ED
  3
CONTER1m
360
39EE
  3
CONTER5m
360
39EF
  3
cyan
360
5273
  3
D-BAR-treeOFF
360
5274
  3
D-BGD-treeOFF
360
5275
  3
D-BGM-treeOFF
360
5276
  3
D-BMK-treeOFF
360
5277
  3
D-BYP-treeOFF
360
5278
  3
D-MTR-ｔｒｅｅOFF
360
5279
  3
D-OTRS-treeOFF
360
527A
  3
D-PC-treeOFF
360
527B
  3
D-STR-treeOFF
360
527C
  3
D-STRC-treeOFF
360
527D
  3
D-TTL-treeOFF
360
527E
  3
dh-konta
360
39F0
  3
DIM
360
527F
  3
doro
360
5280
  3
douro
360
5281
  3
douro-r
360
39F1
  3
EL30
360
39F2
  3
EL35
360
39F3
  3
EL40
360
39F4
  3
EL45
360
39F5
  3
EL50
360
39F6
  3
EL55
360
39F7
  3
EL60
360
39F8
  3
EL65
360
39F9
  3
EL70
360
39FA
  3
EL75
360
39FB
  3
EL80
360
39FC
  3
E南
360
5282
  3
fault
360
39FD
  3
frize
360
39FE
  3
gankyu
360
39FF
  3
gannkyu-ch
360
3A00
  3
gannkyu-cl
360
3A01
  3
gannkyu-cm
360
3A02
  3
gannkyu-cmh
360
3A03
  3
gound
360
3A04
  3
green
360
3A05
  3
gutter
360
3A06
  3
hidden
360
3A07
  3
hihyouji
360
3A08
  3
hyouji
360
3A09
  3
katen
360
3A0A
  3
KF
360
5283
  3
kfl
360
3A0B
  3
kfl2
360
3A0C
  3
konta
360
3A0D
  3
kouzuibaki
360
3A0E
  3
KU
360
5284
  3
kussaku
360
3A0F
  3
kussaku-k
360
3A10
  3
Live
360
5285
  3
m
360
5286
  3
mage
360
3A11
  3
mennseki-ak
360
3A12
  3
mennseki-at
360
3A13
  3
mｺﾝﾀ
360
3A14
  3
new
360
3A15
  3
new1
360
3A16
  3
new2
360
3A17
  3
new4
360
3A18
  3
NO_Xref
360
5287
  3
norisen
360
3A19
  3
off
360
3A1A
  3
on
360
3A1B
  3
oudan-cl
360
3A1C
  3
oudan-cld
360
3A1D
  3
oudan-cm
360
3A1E
  3
oudan-f
360
3A1F
  3
oudanzu
360
3A20
  3
red
360
3A21
  3
S
360
3A22
  3
sed
360
3A23
  3
sokuti
360
3A24
  3
south
360
3A25
  3
ST
360
5288
  3
STR
360
3A26
  3
syuturyokusurumono_11_1
360
3A27
  3
sｺﾝﾀ
360
3A28
  3
T
360
3A29
  3
teitai
360
3A2A
  3
teitai-t
360
3A2B
  3
text
360
5289
  3
Thaw
360
3A2C
  3
tsuurou
360
3A2D
  3
tt
360
3A2E
  3
TTL
360
3A2F
  3
TU
360
3A30
  3
tyakugan
360
3A31
  3
vec2
360
3A32
  3
waku
360
3A33
  3
White
360
528A
  3
yana
360
3A34
  3
yellow
360
3A35
  3
YM
360
528B
  3
シビ
360
3A37
  3
デッキレイヤ
360
5290
  3
ハッチ
360
5291
  3
フリーズ
360
3A38
  3
ペーパー空間
360
5292
  3
ランプ
360
5293
  3
ロック
360
3A39
  3
ロックされていない画層を表示
360
3A3A
  3
ロック以外
360
3A3B
  3
一般
360
5294
  3
上田坂城BP
360
3A44
  3
両方
360
3A5D
  3
丸森横断
360
5299
  3
作業用
360
52A8
  3
使用中の画層
360
52A9
  3
側面
360
52B5
  3
元図面レイヤ
360
52A5
  3
先行１
360
3A45
  3
先行２
360
3A46
  3
先行３
360
3A47
  3
先行４
360
3A48
  3
全帯
360
3A49
  3
共通
360
529C
  3
副道
360
52C0
  3
協議用添付図形レイヤ
360
529D
  3
和の画層のみ
360
3A5E
  3
圏央道排水計画縦断図
360
3A3E
  3
圏央道縦断図
360
3A3D
  3
土留板
360
52BB
  3
土留板取付詳細図
360
52BC
  3
地形レイヤ
360
52B8
  3
地形以外
360
52B9
  3
地形線等
360
3A4B
  3
埋設
360
3A5C
  3
塗り
360
3A4C
  3
壁
360
3A5B
  3
外部
360
5297
  3
外部参照
360
3A3C
  3
外部参照の非表示画層
360
5298
  3
寸法
360
52B0
  3
対策工
360
3A4A
  3
専北
360
52B2
  3
専用
360
52B3
  3
平面
360
52C1
  3
平面図
360
3A5A
  3
床止工
360
3A43
  3
後ろ
360
3A40
  3
支柱取付部
360
52AA
  3
数量
360
52AF
  3
断面
360
52B6
  3
断面図
360
52B7
  3
新規作成
360
52AD
  3
新規書き込み
360
52AE
  3
旗
360
529A
  3
旗上
360
529B
  3
杭頭詳細図
360
52A7
  3
枠
360
52C2
  3
枠Or文字
360
52C3
  3
桟橋
360
3A42
  3
横断
360
5295
  3
横断図
360
5296
  3
正面図
360
52B1
  3
現況
360
3A3F
  3
現況平面図-
360
52A6
  3
白
360
3A4F
  3
線形
360
52B4
  3
縦断
360
52AB
  3
背面図
360
52BD
  3
色
360
52AC
  3
表枠
360
3A59
  3
表示
360
52BF
  3
表示-日技作成画層のみ
360
3A56
  3
表示-東電作成画層のみ
360
3A55
  3
表示-福山作成画層のみ
360
3A57
  3
表示-近代作成画層のみ
360
3A54
  3
表示-ﾊﾟｼｺﾝ作成画層のみ
360
3A53
  3
表示層のみ表示
360
3A58
  3
見える
360
52A4
  3
計画
360
529F
  3
計画１レイヤ
360
52A0
  3
計画２レイヤ
360
52A1
  3
計画３レイヤ
360
52A2
  3
計画４レイヤ
360
52A3
  3
読み込み時表示層
360
3A4E
  3
護岸
360
3A41
  3
躯体
360
529E
  3
道路
360
3A4D
  3
配筋図
360
52BE
  3
鉄筋
360
52BA
  3
非表示
360
3A50
  3
非表示の画層
360
3A51
  3
非表示層のみ表示
360
3A52
  3
２－
360
3A36
  3
Ａ断面
360
528D
  3
Ｂ断面
360
528E
  3
Ｃ断面
360
528F
  3
ﾊｯﾁ
360
528C
  0
DICTIONARY
  5
3A5F
102
{ACAD_REACTORS
330
39AC
102
}
330
39AC
100
AcDbDictionary
281
     1
  0
XRECORD
  5
8D31
102
{ACAD_REACTORS
330
8D30
102
}
330
8D30
100
AcDbXrecord
280
     1
290
     1
  0
XRECORD
  5
8D33
102
{ACAD_REACTORS
330
8D32
102
}
330
8D32
100
AcDbXrecord
280
     1
290
     1
  0
XRECORD
  5
8D35
102
{ACAD_REACTORS
330
8D34
102
}
330
8D34
100
AcDbXrecord
280
     1
290
     1
  0
XRECORD
  5
8D37
102
{ACAD_REACTORS
330
8D36
102
}
330
8D36
100
AcDbXrecord
280
     1
290
     1
  0
XRECORD
  5
2472
102
{ACAD_REACTORS
330
7F6
102
}
330
7F6
100
AcDbXrecord
280
     1
340
18
  0
SORTENTSTABLE
  5
8BA4
102
{ACAD_REACTORS
330
7F6
102
}
330
7F6
100
AcDbSortentsTable
330
18
331
5AE3
  5
5AE3
331
5A48
  5
5A48
331
89FF
  5
8A03
331
5ADB
  5
5ADB
331
5C0F
  5
5C11
331
5B9C
  5
5BBB
331
89FB
  5
89FF
331
5B98
  5
5B9A
331
89F7
  5
89FB
331
91F4
  5
91F4
331
89F3
  5
89F7
331
A715
  5
A717
331
9BC4
  5
9BC4
331
91F0
  5
91F0
331
9DB3
  5
9DB5
331
A711
  5
A713
331
A70D
  5
A70F
331
A709
  5
A70B
331
5B16
  5
5B16
331
5AD7
  5
5AD7
331
5B94
  5
5B96
331
5ACF
  5
5ACF
331
5B0A
  5
5B0A
331
5B90
  5
5B93
331
5ACB
  5
5ACB
331
89EF
  5
89F3
331
5B49
  5
5B58
331
5A00
  5
5A00
331
5B8C
  5
5B8F
331
91EC
  5
91EC
331
89EB
  5
89EF
331
5B45
  5
5B47
331
5BE3
  5
5BE5
331
5B41
  5
5B43
331
921F
  5
921F
331
9D8B
  5
9D8D
331
9BB0
  5
9BB0
331
921B
  5
921B
331
A705
  5
A707
331
9D87
  5
9D89
331
A7EB
  5
9CDD
331
5AC7
  5
5AC7
331
5B02
  5
5B02
331
5AC3
  5
5AC3
331
5AFE
  5
5AFE
331
5B3D
  5
5B3F
331
5B7C
  5
5B8A
331
5B39
  5
5B3B
331
9217
  5
9217
331
5BCF
  5
5BD1
331
5BCB
  5
5BCD
331
5B31
  5
5B39
331
9213
  5
9213
331
920F
  5
920F
331
9CFB
  5
9CFD
331
920B
  5
920B
331
5AF2
  5
5AF2
331
5BC7
  5
5BC9
331
5B2D
  5
5B2F
331
5B29
  5
5B2B
331
5BC3
  5
5BC5
331
5B64
  5
5B6E
331
5B25
  5
5B27
331
8A0A
  5
8B09
331
9207
  5
9207
331
5BBF
  5
5BC1
331
8BA0
  5
8BA9
331
8A06
  5
8A0A
331
9BD7
  5
9BD7
331
9203
  5
9203
331
5BBB
  5
5BBD
331
8A02
  5
8A06
331
91FF
  5
91FF
331
8B9C
  5
8BA5
331
9BD3
  5
9BD3
331
8B98
  5
8BA0
331
91FB
  5
91FB
331
A720
  5
A7EC
331
A71C
  5
A71E
331
A718
  5
A71A
331
5AE2
  5
5AE2
331
5A4F
  5
5A4F
331
5ADA
  5
5ADA
331
89FE
  5
8A02
331
5B58
  5
5B62
331
5B9B
  5
5BBA
331
89FA
  5
89FE
331
91F7
  5
91F7
331
89F6
  5
89FA
331
9BC7
  5
9BC7
331
91F3
  5
91F3
331
89F2
  5
89F6
331
A714
  5
A716
331
9BC3
  5
9BC3
331
A710
  5
A712
331
A70C
  5
A70E
331
A708
  5
A70A
331
5B15
  5
5B15
331
5AD6
  5
5AD6
331
5B97
  5
5B99
331
5BEE
  5
5BFC
331
5B93
  5
5B95
331
5ACE
  5
5ACE
331
5B09
  5
5B09
331
5B8F
  5
5B91
331
91EF
  5
91EF
331
89EE
  5
89F2
331
5B48
  5
5B57
331
5B8B
  5
5B8E
331
91EB
  5
91EB
331
5B44
  5
5B46
331
9222
  5
9222
331
9BB3
  5
9BB3
331
5B40
  5
5B42
331
921E
  5
921E
331
9D8A
  5
9D8C
331
921A
  5
921A
331
A704
  5
A706
331
A7FA
  5
9C6D
331
59FF
  5
59FF
331
5AC6
  5
5AC6
331
5B01
  5
5B01
331
5AC2
  5
5AC2
331
5B3C
  5
5B3E
331
59F3
  5
59F3
331
5AF9
  5
5AF9
331
5B77
  5
5B7C
331
5BD2
  5
5BE3
331
9216
  5
9216
331
5BCE
  5
5BD0
331
5BCA
  5
5BCC
331
5B30
  5
5B32
331
9212
  5
9212
331
920E
  5
920E
331
920A
  5
920A
331
5AF1
  5
5AF1
331
5A82
  5
5A82
331
5B2C
  5
5B2E
331
5BC6
  5
5BC8
331
5B28
  5
5B2A
331
5BC2
  5
5BC4
331
5B63
  5
5B65
331
8BA3
  5
5B22
331
8A09
  5
8B08
331
9206
  5
9206
331
5BBE
  5
5BC0
331
5BBA
  5
5BBC
331
8B9F
  5
8BA8
331
8A05
  5
8A09
331
9BD6
  5
9BD6
331
9202
  5
9202
331
8A01
  5
8A05
331
91FE
  5
91FE
331
8B9B
  5
8BA3
331
9BD2
  5
9BD2
331
91FA
  5
91FA
331
A71F
  5
A7EA
331
A71B
  5
A71D
331
5AE1
  5
5AE1
331
5A4E
  5
5A4E
331
5ADD
  5
5ADD
331
5C15
  5
5C1B
331
5A4A
  5
5A4A
331
5AD9
  5
5AD9
331
8B97
  5
8B9F
331
89FD
  5
8A01
331
5B57
  5
5B61
331
5B9A
  5
5B9C
331
89F9
  5
89FD
331
91F6
  5
91F6
331
89F5
  5
89F9
331
89F1
  5
89F5
331
A717
  5
A719
331
91F2
  5
91F2
331
9DB5
  5
9DB7
331
A713
  5
A715
331
9BC2
  5
9BC2
331
A70F
  5
A711
331
A70B
  5
A70D
331
5B14
  5
5B14
331
5AD5
  5
5AD5
331
5B96
  5
5B98
331
5AD1
  5
5AD1
331
5ACD
  5
5ACD
331
5A02
  5
5A02
331
5BED
  5
5BF1
331
5B08
  5
5B08
331
5B8E
  5
5B90
331
5AC9
  5
5AC9
331
91EE
  5
91EE
331
89ED
  5
89F1
331
5B47
  5
5B49
331
5B8A
  5
5B8C
331
5B43
  5
5B45
331
91EA
  5
91EA
331
5BE5
  5
5BEA
331
9221
  5
9221
331
9D8D
  5
9D8F
331
9BB2
  5
9BB2
331
921D
  5
921D
331
A707
  5
A709
331
9D89
  5
9D8B
331
9219
  5
9219
331
A703
  5
A705
331
59FE
  5
59FE
331
5AC5
  5
5AC5
331
5B00
  5
5B00
331
5AC1
  5
5AC1
331
5B3F
  5
5B41
331
59F2
  5
59F2
331
5B3B
  5
5B3D
331
5AAD
  5
5AAD
331
5AF8
  5
5AF8
331
5BD1
  5
5BE0
331
9215
  5
9215
331
5BCD
  5
5BCF
331
9211
  5
9211
331
5BC9
  5
5BCB
331
9CFD
  5
9CFF
331
920D
  5
920D
331
9209
  5
9209
331
9BD9
  5
9BD9
331
5AF0
  5
5AF0
331
5B6E
  5
5B75
331
5B2F
  5
5B31
331
5B2B
  5
5B2D
331
5BC5
  5
5BC7
331
5B27
  5
5B29
331
5BC1
  5
5BC3
331
5B62
  5
5B64
331
5B23
  5
5B26
331
8BA2
  5
5B1B
331
8A08
  5
8B07
331
9205
  5
9205
331
5BBD
  5
5BBF
331
5C24
  5
6A34
331
8B9E
  5
8BA7
331
8A04
  5
8A08
331
9BD5
  5
9BD5
331
9201
  5
9201
331
8A00
  5
8A04
331
91FD
  5
91FD
331
8B9A
  5
8BA2
331
91F9
  5
91F9
331
A71E
  5
A720
331
A71A
  5
A71C
331
5AE4
  5
5AE4
331
5AE0
  5
5AE0
331
5B1B
  5
5B23
331
5ADC
  5
5ADC
331
5A49
  5
5A49
331
89FC
  5
8A00
331
5C0C
  5
5C10
331
5B99
  5
5B9B
331
89F8
  5
89FC
331
91F5
  5
91F5
331
89F4
  5
89F8
331
89F0
  5
89F4
331
A716
  5
A718
331
91F1
  5
91F1
331
9DB4
  5
9DB6
331
A712
  5
A714
331
A70E
  5
A710
331
A70A
  5
A70C
331
5A31
  5
5A31
331
5B13
  5
5B13
331
5B95
  5
5B97
331
5AD0
  5
5AD0
331
5B91
  5
5B94
331
5ACC
  5
5ACC
331
5A01
  5
5A01
331
5BEC
  5
5BEE
331
5AC8
  5
5AC8
331
91ED
  5
91ED
331
89EC
  5
89F0
331
5B46
  5
5B48
331
5BE4
  5
5BE6
331
91E9
  5
91E9
331
5B42
  5
5B44
331
9220
  5
9220
331
5BE0
  5
5BE4
331
9D8C
  5
9D8E
331
9BB1
  5
9BB1
331
921C
  5
921C
331
A706
  5
A708
331
9D88
  5
9D8A
331
9218
  5
9218
331
A7EC
  5
A7F9
331
5B03
  5
5B03
331
5AC4
  5
5AC4
331
5AFF
  5
5AFF
331
5AC0
  5
5AC0
331
5B3E
  5
5B40
331
5B3A
  5
5B3C
331
5BD0
  5
5BD2
331
5B32
  5
5B3A
331
9214
  5
9214
331
5BCC
  5
5BCE
331
9210
  5
9210
331
5BC8
  5
5BCA
331
9CFC
  5
9CFE
331
920C
  5
920C
331
9208
  5
9208
331
9BD8
  5
9BD8
331
5AF7
  5
5AF7
331
5AF3
  5
5AF3
331
5AEF
  5
5AEF
331
5B2E
  5
5B30
331
5B2A
  5
5B2C
331
5A54
  5
5A54
331
5BC4
  5
5BC6
331
5B65
  5
5B74
331
5B26
  5
5B28
331
5A50
  5
5A50
331
5BC0
  5
5BC2
331
5B61
  5
5B63
331
5B22
  5
5B25
331
8BA1
  5
8BAA
331
8A07
  5
8B06
331
9204
  5
9204
331
5BBC
  5
5BBE
331
9200
  5
9200
331
8B9D
  5
8BA6
331
9BD4
  5
9BD4
331
8A03
  5
8A07
331
91FC
  5
91FC
331
8B99
  5
8BA1
331
91F8
  5
91F8
331
A71D
  5
A71F
331
9BC8
  5
9BC8
331
A719
  5
A71B
  0
XRECORD
  5
2471
102
{ACAD_REACTORS
330
7F4
102
}
330
7F4
100
AcDbXrecord
280
     1
340
15
  0
LAYOUT
  5
7CC
102
{ACAD_REACTORS
330
7CA
102
}
330
7CA
100
AcDbPlotSettings
  1

  2
RICOH IPSiO SP C720 RPCS
  4
A3
  6

 40
5.873749732971191
 41
5.873748779296875
 42
5.873748779296875
 43
5.873748779296875
 44
296.9259948730469
 45
419.9466552734374
 46
0.0
 47
5.76968760152306
 48
0.0
 49
0.0
140
0.0
141
0.0
142
1.0
143
39.76057125304694
 70
 11956
 72
     1
 73
     1
 74
     2
  7
描画.ctb
 75
     0
147
0.0251505440813647
 76
     0
 77
     2
 78
   300
148
-19226.82194673353
149
-296.0967856342831
100
AcDbLayout
  1
Model
 70
     1
 71
     0
 10
0.0
 20
0.0
 11
12.0
 21
9.0
 12
0.0
 22
0.0
 32
0.0
 14
0.0
 24
0.0
 34
0.0
 15
0.0
 25
0.0
 35
0.0
146
0.0
 13
0.0
 23
0.0
 33
0.0
 16
1.0
 26
0.0
 36
0.0
 17
0.0
 27
1.0
 37
0.0
 76
     0
330
18
331
8B29
1001
ACAD_PSEXT
1000
RICOH IPSiO SP C720 RPCS
1000
RICOH IPSiO SP C720 RPCS
1000
192.168.19.239_1
1000
RPCS Driver (Windows XP/2003/2008/Vista/7 64-bit)
1070
     0
  0
LAYOUT
  5
7CD
102
{ACAD_REACTORS
330
7CA
102
}
330
7CA
100
AcDbPlotSettings
  1

  2
EPSON LASER LP-9200S
  4

  6

 40
0.0
 41
0.0
 42
0.0
 43
0.0
 44
0.0
 45
0.0
 46
0.0
 47
0.0
 48
0.0
 49
0.0
140
0.0
141
0.0
142
1.0
143
1.0
 70
   688
 72
     0
 73
     0
 74
     5
  7
描画.ctb
 75
    16
147
1.0
 76
     0
 77
     2
 78
   300
148
0.0
149
0.0
100
AcDbLayout
  1
ﾚｲｱｳﾄ1
 70
     1
 71
     1
 10
0.0
 20
0.0
 11
12.0
 21
9.0
 12
0.0
 22
0.0
 32
0.0
 14
1.000000000000000E+20
 24
1.000000000000000E+20
 34
1.000000000000000E+20
 15
-1.000000000000000E+20
 25
-1.000000000000000E+20
 35
-1.000000000000000E+20
146
0.0
 13
0.0
 23
0.0
 33
0.0
 16
1.0
 26
0.0
 36
0.0
 17
0.0
 27
1.0
 37
0.0
 76
     0
330
15
  0
MATERIAL
  5
8B34
102
{ACAD_XDICTIONARY
360
8B35
102
}
102
{ACAD_REACTORS
330
8B2B
102
}
330
8B2B
100
AcDbMaterial
  1
ByBlock
 72
     0
 43
0.0208333333333333
 43
0.0
 43
0.0
 43
0.0
 43
0.0
 43
0.0208333333333333
 43
0.0
 43
0.0
 43
0.0
 43
0.0
 43
1.0
 43
0.0
 43
0.0
 43
0.0
 43
0.0
 43
1.0
 77
     0
 47
0.0208333333333333
 47
0.0
 47
0.0
 47
0.0
 47
0.0
 47
0.0208333333333333
 47
0.0
 47
0.0
 47
0.0
 47
0.0
 47
1.0
 47
0.0
 47
0.0
 47
0.0
 47
0.0
 47
1.0
171
     0
 49
0.0208333333333333
 49
0.0
 49
0.0
 49
0.0
 49
0.0
 49
0.0208333333333333
 49
0.0
 49
0.0
 49
0.0
 49
0.0
 49
1.0
 49
0.0
 49
0.0
 49
0.0
 49
0.0
 49
1.0
175
     0
142
0.0208333333333333
142
0.0
142
0.0
142
0.0
142
0.0
142
0.0208333333333333
142
0.0
142
0.0
142
0.0
142
0.0
142
1.0
142
0.0
142
0.0
142
0.0
142
0.0
142
1.0
179
     0
144
0.0208333333333333
144
0.0
144
0.0
144
0.0
144
0.0
144
0.0208333333333333
144
0.0
144
0.0
144
0.0
144
0.0
144
1.0
144
0.0
144
0.0
144
0.0
144
0.0
144
1.0
147
0.0208333333333333
147
0.0
147
0.0
147
0.0
147
0.0
147
0.0208333333333333
147
0.0
147
0.0
147
0.0
147
0.0
147
1.0
147
0.0
147
0.0
147
0.0
147
0.0
147
1.0
  0
MATERIAL
  5
8B2C
102
{ACAD_XDICTIONARY
360
8B2D
102
}
102
{ACAD_REACTORS
330
8B2B
102
}
330
8B2B
100
AcDbMaterial
  1
ByLayer
 72
     0
 43
0.0208333333333333
 43
0.0
 43
0.0
 43
0.0
 43
0.0
 43
0.0208333333333333
 43
0.0
 43
0.0
 43
0.0
 43
0.0
 43
1.0
 43
0.0
 43
0.0
 43
0.0
 43
0.0
 43
1.0
 77
     0
 47
0.0208333333333333
 47
0.0
 47
0.0
 47
0.0
 47
0.0
 47
0.0208333333333333
 47
0.0
 47
0.0
 47
0.0
 47
0.0
 47
1.0
 47
0.0
 47
0.0
 47
0.0
 47
0.0
 47
1.0
171
     0
 49
0.0208333333333333
 49
0.0
 49
0.0
 49
0.0
 49
0.0
 49
0.0208333333333333
 49
0.0
 49
0.0
 49
0.0
 49
0.0
 49
1.0
 49
0.0
 49
0.0
 49
0.0
 49
0.0
 49
1.0
175
     0
142
0.0208333333333333
142
0.0
142
0.0
142
0.0
142
0.0
142
0.0208333333333333
142
0.0
142
0.0
142
0.0
142
0.0
142
1.0
142
0.0
142
0.0
142
0.0
142
0.0
142
1.0
179
     0
144
0.0208333333333333
144
0.0
144
0.0
144
0.0
144
0.0
144
0.0208333333333333
144
0.0
144
0.0
144
0.0
144
0.0
144
1.0
144
0.0
144
0.0
144
0.0
144
0.0
144
1.0
147
0.0208333333333333
147
0.0
147
0.0
147
0.0
147
0.0
147
0.0208333333333333
147
0.0
147
0.0
147
0.0
147
0.0
147
1.0
147
0.0
147
0.0
147
0.0
147
0.0
147
1.0
  0
MATERIAL
  5
8B3C
102
{ACAD_XDICTIONARY
360
8B3D
102
}
102
{ACAD_REACTORS
330
8B2B
102
}
330
8B2B
100
AcDbMaterial
  1
Global
 72
     0
 43
0.0208333333333333
 43
0.0
 43
0.0
 43
0.0
 43
0.0
 43
0.0208333333333333
 43
0.0
 43
0.0
 43
0.0
 43
0.0
 43
1.0
 43
0.0
 43
0.0
 43
0.0
 43
0.0
 43
1.0
 77
     0
 47
0.0208333333333333
 47
0.0
 47
0.0
 47
0.0
 47
0.0
 47
0.0208333333333333
 47
0.0
 47
0.0
 47
0.0
 47
0.0
 47
1.0
 47
0.0
 47
0.0
 47
0.0
 47
0.0
 47
1.0
171
     0
 49
0.0208333333333333
 49
0.0
 49
0.0
 49
0.0
 49
0.0
 49
0.0208333333333333
 49
0.0
 49
0.0
 49
0.0
 49
0.0
 49
1.0
 49
0.0
 49
0.0
 49
0.0
 49
0.0
 49
1.0
175
     0
142
0.0208333333333333
142
0.0
142
0.0
142
0.0
142
0.0
142
0.0208333333333333
142
0.0
142
0.0
142
0.0
142
0.0
142
1.0
142
0.0
142
0.0
142
0.0
142
0.0
142
1.0
179
     0
144
0.0208333333333333
144
0.0
144
0.0
144
0.0
144
0.0
144
0.0208333333333333
144
0.0
144
0.0
144
0.0
144
0.0
144
1.0
144
0.0
144
0.0
144
0.0
144
0.0
144
1.0
147
0.0208333333333333
147
0.0
147
0.0
147
0.0
147
0.0
147
0.0208333333333333
147
0.0
147
0.0
147
0.0
147
0.0
147
1.0
147
0.0
147
0.0
147
0.0
147
0.0
147
1.0
  0
MLEADERSTYLE
  5
8B73
102
{ACAD_XDICTIONARY
360
AF5D
102
}
102
{ACAD_REACTORS
330
8B72
102
}
330
8B72
100
AcDbMLeaderStyle
179
     2
170
     2
171
     1
172
     0
 90
        2
 40
0.0
 41
0.0
173
     1
 91
-1056964608
340
12
 92
       -2
290
     1
 42
0.09
291
     1
 43
0.36
  3
Standard
 44
0.18
300

342
F
174
     1
178
     6
175
     1
176
     0
 93
-1056964608
 45
0.18
292
     0
297
     0
 46
0.18
 94
-1056964608
 47
1.0
 49
1.0
140
1.0
293
     1
141
0.0
294
     1
177
     0
142
1.0
295
     0
296
     0
143
0.125
271
     0
272
     9
273
     9
  0
MLINESTYLE
  5
1C
102
{ACAD_REACTORS
330
1B
102
}
330
1B
100
AcDbMlineStyle
  2
STANDARD
 70
     0
  3

 62
   256
 51
90.0
 52
90.0
 71
     2
 49
0.5
 62
   256
  6
BYLAYER
 49
-0.5
 62
   256
  6
BYLAYER
  0
PLOTSETTINGS
  5
838
102
{ACAD_REACTORS
330
7CB
102
}
330
7CB
100
AcDbPlotSettings
  1
PrinterEPSON
  2
EPSON LP-9200S
  4
A3
  6

 40
5.873749732971191
 41
5.873747825622558
 42
5.873748779296875
 43
5.873748779296875
 44
297.0106506347656
 45
419.9466552734374
 46
0.0
 47
0.63
 48
0.0
 49
0.0
140
0.0
141
0.0
142
1.0
143
1.907088125961155
 70
  1716
 72
     1
 73
     1
 74
     1
  7
ZenithPrinter.ctb
 75
     0
147
0.5243596173595854
 76
     0
 77
     2
 78
   300
148
-19.45759484557811
149
-6.493153191710916
  0
PLOTSETTINGS
  5
839
102
{ACAD_REACTORS
330
7CB
102
}
330
7CB
100
AcDbPlotSettings
  1
ProterHP
  2
HP DesignJet 430 (D/A1) by HP
  4
User621
  6

 40
0.0
 41
0.0
 42
0.0
 43
0.0
 44
594.0
 45
841.0
 46
2.229999999999999
 47
0.0
 48
0.0
 49
0.0
140
0.0
141
0.0
142
1.0
143
0.9227801962806559
 70
  1716
 72
     1
 73
     1
 74
     1
  7
ZenithPrinter.ctb
 75
     0
147
1.083681687178143
 76
     0
 77
     2
 78
   300
148
-19.45759484557811
149
-6.493153191710916
  0
ACDBPLACEHOLDER
  5
7C9
102
{ACAD_REACTORS
330
7C8
102
}
330
7C8
  0
SCALE
  5
8B61
102
{ACAD_REACTORS
330
8B60
102
}
330
8B60
100
AcDbScale
 70
     0
300
1:1
140
1.0
141
1.0
290
     1
  0
SCALE
  5
8B62
102
{ACAD_REACTORS
330
8B60
102
}
330
8B60
100
AcDbScale
 70
     0
300
1/128" = 1'-0"
140
0.0078125
141
12.0
290
     0
  0
SCALE
  5
8B63
102
{ACAD_REACTORS
330
8B60
102
}
330
8B60
100
AcDbScale
 70
     0
300
1/64" = 1'-0"
140
0.015625
141
12.0
290
     0
  0
SCALE
  5
8B64
102
{ACAD_REACTORS
330
8B60
102
}
330
8B60
100
AcDbScale
 70
     0
300
1/32" = 1'-0"
140
0.03125
141
12.0
290
     0
  0
SCALE
  5
8B65
102
{ACAD_REACTORS
330
8B60
102
}
330
8B60
100
AcDbScale
 70
     0
300
1/16" = 1'-0"
140
0.0625
141
12.0
290
     0
  0
SCALE
  5
8B66
102
{ACAD_REACTORS
330
8B60
102
}
330
8B60
100
AcDbScale
 70
     0
300
3/32" = 1'-0"
140
0.09375
141
12.0
290
     0
  0
SCALE
  5
8B67
102
{ACAD_REACTORS
330
8B60
102
}
330
8B60
100
AcDbScale
 70
     0
300
1/8" = 1'-0"
140
0.125
141
12.0
290
     0
  0
SCALE
  5
8B68
102
{ACAD_REACTORS
330
8B60
102
}
330
8B60
100
AcDbScale
 70
     0
300
3/16" = 1'-0"
140
0.1875
141
12.0
290
     0
  0
SCALE
  5
8B69
102
{ACAD_REACTORS
330
8B60
102
}
330
8B60
100
AcDbScale
 70
     0
300
1/4" = 1'-0"
140
0.25
141
12.0
290
     0
  0
SCALE
  5
8B6A
102
{ACAD_REACTORS
330
8B60
102
}
330
8B60
100
AcDbScale
 70
     0
300
3/8" = 1'-0"
140
0.375
141
12.0
290
     0
  0
SCALE
  5
8B6B
102
{ACAD_REACTORS
330
8B60
102
}
330
8B60
100
AcDbScale
 70
     0
300
1/2" = 1'-0"
140
0.5
141
12.0
290
     0
  0
SCALE
  5
8B6C
102
{ACAD_REACTORS
330
8B60
102
}
330
8B60
100
AcDbScale
 70
     0
300
3/4" = 1'-0"
140
0.75
141
12.0
290
     0
  0
SCALE
  5
8B6D
102
{ACAD_REACTORS
330
8B60
102
}
330
8B60
100
AcDbScale
 70
     0
300
1" = 1'-0"
140
1.0
141
12.0
290
     0
  0
SCALE
  5
8B6E
102
{ACAD_REACTORS
330
8B60
102
}
330
8B60
100
AcDbScale
 70
     0
300
1-1/2" = 1'-0"
140
1.5
141
12.0
290
     0
  0
SCALE
  5
8B6F
102
{ACAD_REACTORS
330
8B60
102
}
330
8B60
100
AcDbScale
 70
     0
300
3" = 1'-0"
140
3.0
141
12.0
290
     0
  0
SCALE
  5
8B70
102
{ACAD_REACTORS
330
8B60
102
}
330
8B60
100
AcDbScale
 70
     0
300
6" = 1'-0"
140
6.0
141
12.0
290
     0
  0
SCALE
  5
8B71
102
{ACAD_REACTORS
330
8B60
102
}
330
8B60
100
AcDbScale
 70
     0
300
1'-0" = 1'-0"
140
12.0
141
12.0
290
     0
  0
TABLESTYLE
  5
8B5F
102
{ACAD_XDICTIONARY
360
AF07
102
}
102
{ACAD_REACTORS
330
8B5E
102
}
330
8B5E
100
AcDbTableStyle
280
     0
  3
Standard
 70
     0
 71
     0
 40
0.06
 41
0.06
280
     0
281
     0
  7
STANDARD
140
0.18
170
     2
 62
     0
 63
     7
283
     0
 90
      512
 91
        0
  1

274
    -2
284
     1
 64
     0
275
    -2
285
     1
 65
     0
276
    -2
286
     1
 66
     0
277
    -2
287
     1
 67
     0
278
    -2
288
     1
 68
     0
279
    -2
289
     1
 69
     0
  7
STANDARD
140
0.25
170
     5
 62
     0
 63
     7
283
     0
 90
      512
 91
        0
  1

274
    -2
284
     1
 64
     0
275
    -2
285
     1
 65
     0
276
    -2
286
     1
 66
     0
277
    -2
287
     1
 67
     0
278
    -2
288
     1
 68
     0
279
    -2
289
     1
 69
     0
  7
STANDARD
140
0.18
170
     5
 62
     0
 63
     7
283
     0
 90
      512
 91
        0
  1

274
    -2
284
     1
 64
     0
275
    -2
285
     1
 65
     0
276
    -2
286
     1
 66
     0
277
    -2
287
     1
 67
     0
278
    -2
288
     1
 68
     0
279
    -2
289
     1
 69
     0
  0
VISUALSTYLE
  5
8B4A
102
{ACAD_REACTORS
330
8B44
102
}
330
8B44
100
AcDbVisualStyle
  2
2dWireframe
 70
     4
177
     2
291
     0
 71
     0
176
     1
 72
     2
176
     1
 73
     0
176
     1
 90
        0
176
     1
 40
0.6
176
     1
 41
30.0
176
     1
 63
     7
176
     1
 74
     1
176
     1
 91
        4
176
     1
 64
     7
176
     1
 65
   257
176
     1
 75
     1
176
     1
175
     1
176
     1
 42
1.0
176
     1
 92
        0
176
     1
 66
   257
176
     1
 43
1.0
176
     1
 76
     1
176
     1
 77
     6
176
     1
 78
     2
176
     1
 67
     7
176
     1
 79
     5
176
     1
170
     0
176
     1
171
     0
176
     1
290
     0
176
     1
 93
        1
176
     1
 44
0.0
176
     1
173
     0
176
     1
  0
VISUALSTYLE
  5
8B49
102
{ACAD_REACTORS
330
8B44
102
}
330
8B44
100
AcDbVisualStyle
  2
Basic
 70
     7
177
     2
291
     1
 71
     1
176
     1
 72
     0
176
     1
 73
     1
176
     1
 90
        0
176
     1
 40
0.6
176
     1
 41
30.0
176
     1
 63
     7
176
     1
 74
     0
176
     1
 91
        4
176
     1
 64
     7
176
     1
 65
   257
176
     1
 75
     1
176
     1
175
     1
176
     1
 42
1.0
176
     1
 92
        8
176
     1
 66
     7
176
     1
 43
1.0
176
     1
 76
     1
176
     1
 77
     6
176
     1
 78
     2
176
     1
 67
     7
176
     1
 79
     5
176
     1
170
     0
176
     1
171
     0
176
     1
290
     0
176
     1
 93
        1
176
     1
 44
0.0
176
     1
173
     0
176
     1
  0
VISUALSTYLE
  5
8B50
102
{ACAD_REACTORS
330
8B44
102
}
330
8B44
100
AcDbVisualStyle
  2
Brighten
 70
    12
177
     2
291
     1
 71
     2
176
     1
 72
     2
176
     1
 73
     0
176
     1
 90
        0
176
     1
 40
0.6
176
     1
 41
30.0
176
     1
 63
     7
176
     1
 74
     1
176
     1
 91
        4
176
     1
 64
     7
176
     1
 65
   257
176
     1
 75
     1
176
     1
175
     1
176
     1
 42
1.0
176
     1
 92
        8
176
     1
 66
     7
176
     1
 43
1.0
176
     1
 76
     1
176
     1
 77
     6
176
     1
 78
     2
176
     1
 67
     7
176
     1
 79
     5
176
     1
170
     0
176
     1
171
     0
176
     1
290
     0
176
     1
 93
        1
176
     1
 44
50.0
176
     1
173
     0
176
     1
  0
VISUALSTYLE
  5
8B54
102
{ACAD_REACTORS
330
8B44
102
}
330
8B44
100
AcDbVisualStyle
  2
ColorChange
 70
    16
177
     2
291
     1
 71
     2
176
     1
 72
     2
176
     1
 73
     3
176
     1
 90
        0
176
     1
 40
0.6
176
     1
 41
30.0
176
     1
 63
     8
176
     1
 74
     1
176
     1
 91
        4
176
     1
 64
     7
176
     1
 65
   257
176
     1
 75
     1
176
     1
175
     1
176
     1
 42
1.0
176
     1
 92
        8
176
     1
 66
     8
176
     1
 43
1.0
176
     1
 76
     1
176
     1
 77
     6
176
     1
 78
     2
176
     1
 67
     7
176
     1
 79
     5
176
     1
170
     0
176
     1
171
     0
176
     1
290
     0
176
     1
 93
        1
176
     1
 44
0.0
176
     1
173
     0
176
     1
  0
VISUALSTYLE
  5
8B4D
102
{ACAD_REACTORS
330
8B44
102
}
330
8B44
100
AcDbVisualStyle
  2
Conceptual
 70
     9
177
     2
291
     0
 71
     3
176
     1
 72
     2
176
     1
 73
     0
176
     1
 90
        0
176
     1
 40
0.6
176
     1
 41
30.0
176
     1
 63
     7
176
     1
 74
     2
176
     1
 91
        2
176
     1
 64
     7
176
     1
 65
   257
176
     1
 75
     1
176
     1
175
     1
176
     1
 42
179.0
176
     1
 92
        8
176
     1
 66
     7
176
     1
 43
1.0
176
     1
 76
     1
176
     1
 77
     6
176
     1
 78
     2
176
     1
 67
     7
176
     1
 79
     3
176
     1
170
     0
176
     1
171
     0
176
     1
290
     0
176
     1
 93
        1
176
     1
 44
0.0
176
     1
173
     0
176
     1
  0
VISUALSTYLE
  5
8B4F
102
{ACAD_REACTORS
330
8B44
102
}
330
8B44
100
AcDbVisualStyle
  2
Dim
 70
    11
177
     2
291
     1
 71
     2
176
     1
 72
     2
176
     1
 73
     0
176
     1
 90
        0
176
     1
 40
0.6
176
     1
 41
30.0
176
     1
 63
     7
176
     1
 74
     1
176
     1
 91
        4
176
     1
 64
     7
176
     1
 65
   257
176
     1
 75
     1
176
     1
175
     1
176
     1
 42
1.0
176
     1
 92
        8
176
     1
 66
     7
176
     1
 43
1.0
176
     1
 76
     1
176
     1
 77
     6
176
     1
 78
     2
176
     1
 67
     7
176
     1
 79
     5
176
     1
170
     0
176
     1
171
     0
176
     1
290
     0
176
     1
 93
        1
176
     1
 44
-50.0
176
     1
173
     0
176
     1
  0
VISUALSTYLE
  5
8B5C
102
{ACAD_REACTORS
330
8B44
102
}
330
8B44
100
AcDbVisualStyle
  2
EdgeColorOff
 70
    22
177
     2
291
     1
 71
     2
176
     0
 72
     2
176
     0
 73
     0
176
     0
 90
        0
176
     0
 40
0.6
176
     0
 41
30.0
176
     0
 63
     7
176
     0
 74
     1
176
     0
 91
        4
176
     0
 64
     7
176
     0
 65
   257
176
     0
 75
     1
176
     0
175
     1
176
     0
 42
1.0
176
     0
 92
        8
176
     2
 66
     7
176
     0
 43
1.0
176
     0
 76
     1
176
     0
 77
     6
176
     0
 78
     2
176
     0
 67
     7
176
     0
 79
     5
176
     0
170
     0
176
     0
171
     0
176
     0
290
     0
176
     0
 93
        1
176
     0
 44
0.0
176
     0
173
     0
176
     0
  0
VISUALSTYLE
  5
8B53
102
{ACAD_REACTORS
330
8B44
102
}
330
8B44
100
AcDbVisualStyle
  2
Facepattern
 70
    15
177
     2
291
     1
 71
     2
176
     1
 72
     2
176
     1
 73
     0
176
     1
 90
        0
176
     1
 40
0.6
176
     1
 41
30.0
176
     1
 63
     7
176
     1
 74
     1
176
     1
 91
        4
176
     1
 64
     7
176
     1
 65
   257
176
     1
 75
     1
176
     1
175
     1
176
     1
 42
1.0
176
     1
 92
        8
176
     1
 66
     7
176
     1
 43
1.0
176
     1
 76
     1
176
     1
 77
     6
176
     1
 78
     2
176
     1
 67
     7
176
     1
 79
     5
176
     1
170
     0
176
     1
171
     0
176
     1
290
     0
176
     1
 93
        1
176
     1
 44
0.0
176
     1
173
     0
176
     1
  0
VISUALSTYLE
  5
8B45
102
{ACAD_REACTORS
330
8B44
102
}
330
8B44
100
AcDbVisualStyle
  2
Flat
 70
     0
177
     2
291
     1
 71
     2
176
     1
 72
     1
176
     1
 73
     1
176
     1
 90
        2
176
     1
 40
0.6
176
     1
 41
30.0
176
     1
 63
     7
176
     1
 74
     0
176
     1
 91
        0
176
     1
 64
     7
176
     1
 65
   257
176
     1
 75
     1
176
     1
175
     1
176
     1
 42
1.0
176
     1
 92
        8
176
     1
 66
     7
176
     1
 43
1.0
176
     1
 76
     1
176
     1
 77
     6
176
     1
 78
     2
176
     1
 67
     7
176
     1
 79
     5
176
     1
170
     0
176
     1
171
     0
176
     1
290
     0
176
     1
 93
       13
176
     1
 44
0.0
176
     1
173
     0
176
     1
  0
VISUALSTYLE
  5
8B46
102
{ACAD_REACTORS
330
8B44
102
}
330
8B44
100
AcDbVisualStyle
  2
FlatWithEdges
 70
     1
177
     2
291
     1
 71
     2
176
     1
 72
     1
176
     1
 73
     1
176
     1
 90
        2
176
     1
 40
0.6
176
     1
 41
30.0
176
     1
 63
     7
176
     1
 74
     1
176
     1
 91
        0
176
     1
 64
     7
176
     1
 65
   257
176
     1
 75
     1
176
     1
175
     1
176
     1
 42
1.0
176
     1
 92
        0
176
     1
 66
   257
176
     1
 43
1.0
176
     1
 76
     1
176
     1
 77
     6
176
     1
 78
     2
176
     1
 67
     7
176
     1
 79
     5
176
     1
170
     0
176
     1
171
     0
176
     1
290
     0
176
     1
 93
       13
176
     1
 44
0.0
176
     1
173
     0
176
     1
  0
VISUALSTYLE
  5
8B47
102
{ACAD_REACTORS
330
8B44
102
}
330
8B44
100
AcDbVisualStyle
  2
Gouraud
 70
     2
177
     2
291
     1
 71
     2
176
     1
 72
     2
176
     1
 73
     1
176
     1
 90
        2
176
     1
 40
0.6
176
     1
 41
30.0
176
     1
 63
     7
176
     1
 74
     0
176
     1
 91
        0
176
     1
 64
     7
176
     1
 65
   257
176
     1
 75
     1
176
     1
175
     1
176
     1
 42
1.0
176
     1
 92
        0
176
     1
 66
     7
176
     1
 43
1.0
176
     1
 76
     1
176
     1
 77
     6
176
     1
 78
     2
176
     1
 67
     7
176
     1
 79
     5
176
     1
170
     0
176
     1
171
     0
176
     1
290
     0
176
     1
 93
       13
176
     1
 44
0.0
176
     1
173
     0
176
     1
  0
VISUALSTYLE
  5
8B48
102
{ACAD_REACTORS
330
8B44
102
}
330
8B44
100
AcDbVisualStyle
  2
GouraudWithEdges
 70
     3
177
     2
291
     1
 71
     2
176
     1
 72
     2
176
     1
 73
     1
176
     1
 90
        2
176
     1
 40
0.6
176
     1
 41
30.0
176
     1
 63
     7
176
     1
 74
     1
176
     1
 91
        0
176
     1
 64
     7
176
     1
 65
   257
176
     1
 75
     1
176
     1
175
     1
176
     1
 42
1.0
176
     1
 92
        0
176
     1
 66
   257
176
     1
 43
1.0
176
     1
 76
     1
176
     1
 77
     6
176
     1
 78
     2
176
     1
 67
     7
176
     1
 79
     5
176
     1
170
     0
176
     1
171
     0
176
     1
290
     0
176
     1
 93
       13
176
     1
 44
0.0
176
     1
173
     0
176
     1
  0
VISUALSTYLE
  5
8B4C
102
{ACAD_REACTORS
330
8B44
102
}
330
8B44
100
AcDbVisualStyle
  2
Hidden
 70
     6
177
     2
291
     0
 71
     1
176
     1
 72
     2
176
     1
 73
     2
176
     1
 90
        0
176
     1
 40
0.6
176
     1
 41
30.0
176
     1
 63
     7
176
     1
 74
     2
176
     1
 91
        2
176
     1
 64
     7
176
     1
 65
   257
176
     1
 75
     2
176
     1
175
     1
176
     1
 42
40.0
176
     1
 92
        0
176
     1
 66
   257
176
     1
 43
1.0
176
     1
 76
     1
176
     1
 77
     6
176
     1
 78
     2
176
     1
 67
     7
176
     1
 79
     3
176
     1
170
     0
176
     1
171
     0
176
     1
290
     0
176
     1
 93
        1
176
     1
 44
0.0
176
     1
173
     0
176
     1
  0
VISUALSTYLE
  5
8B5A
102
{ACAD_REACTORS
330
8B44
102
}
330
8B44
100
AcDbVisualStyle
  2
JitterOff
 70
    20
177
     2
291
     1
 71
     2
176
     0
 72
     2
176
     0
 73
     0
176
     0
 90
        0
176
     0
 40
0.6
176
     0
 41
30.0
176
     0
 63
     7
176
     0
 74
     1
176
     0
 91
        4
176
     0
 64
     7
176
     0
 65
   257
176
     0
 75
     1
176
     0
175
     1
176
     0
 42
1.0
176
     0
 92
       10
176
     2
 66
     7
176
     0
 43
1.0
176
     0
 76
     1
176
     0
 77
     6
176
     0
 78
     2
176
     0
 67
     7
176
     0
 79
     5
176
     0
170
     0
176
     0
171
     0
176
     0
290
     0
176
     0
 93
        1
176
     0
 44
0.0
176
     0
173
     0
176
     0
  0
VISUALSTYLE
  5
8B52
102
{ACAD_REACTORS
330
8B44
102
}
330
8B44
100
AcDbVisualStyle
  2
Linepattern
 70
    14
177
     2
291
     1
 71
     2
176
     1
 72
     2
176
     1
 73
     0
176
     1
 90
        0
176
     1
 40
0.6
176
     1
 41
30.0
176
     1
 63
     7
176
     1
 74
     1
176
     1
 91
        4
176
     1
 64
     7
176
     1
 65
   257
176
     1
 75
     7
176
     1
175
     7
176
     1
 42
1.0
176
     1
 92
        8
176
     1
 66
     7
176
     1
 43
1.0
176
     1
 76
     1
176
     1
 77
     6
176
     1
 78
     2
176
     1
 67
     7
176
     1
 79
     5
176
     1
170
     0
176
     1
171
     0
176
     1
290
     0
176
     1
 93
        1
176
     1
 44
0.0
176
     1
173
     0
176
     1
  0
VISUALSTYLE
  5
8B5B
102
{ACAD_REACTORS
330
8B44
102
}
330
8B44
100
AcDbVisualStyle
  2
OverhangOff
 70
    21
177
     2
291
     1
 71
     2
176
     0
 72
     2
176
     0
 73
     0
176
     0
 90
        0
176
     0
 40
0.6
176
     0
 41
30.0
176
     0
 63
     7
176
     0
 74
     1
176
     0
 91
        4
176
     0
 64
     7
176
     0
 65
   257
176
     0
 75
     1
176
     0
175
     1
176
     0
 42
1.0
176
     0
 92
        9
176
     2
 66
     7
176
     0
 43
1.0
176
     0
 76
     1
176
     0
 77
     6
176
     0
 78
     2
176
     0
 67
     7
176
     0
 79
     5
176
     0
170
     0
176
     0
171
     0
176
     0
290
     0
176
     0
 93
        1
176
     0
 44
0.0
176
     0
173
     0
176
     0
  0
VISUALSTYLE
  5
8B4E
102
{ACAD_REACTORS
330
8B44
102
}
330
8B44
100
AcDbVisualStyle
  2
Realistic
 70
     8
177
     2
291
     0
 71
     2
176
     1
 72
     2
176
     1
 73
     0
176
     1
 90
        2
176
     1
 40
0.6
176
     1
 41
30.0
176
     1
 63
     7
176
     1
 74
     0
176
     1
 91
        0
176
     1
 64
     7
176
     1
 65
   257
176
     1
 75
     1
176
     1
175
     1
176
     1
 42
1.0
176
     1
 92
        8
176
     1
 66
   257
176
     1
 43
1.0
176
     1
 76
     1
176
     1
 77
     6
176
     1
 78
     2
176
     1
 67
     7
176
     1
 79
     3
176
     1
170
     0
176
     1
171
     0
176
     1
290
     0
176
     1
 93
       13
176
     1
 44
0.0
176
     1
173
     0
176
     1
  0
VISUALSTYLE
  5
8B59
102
{ACAD_REACTORS
330
8B44
102
}
330
8B44
100
AcDbVisualStyle
  2
Shaded
 70
    27
177
     2
291
     0
 71
     2
176
     1
 72
     2
176
     1
 73
     1
176
     1
 90
        2
176
     1
 40
0.6
176
     1
 41
30.0
176
     1
 63
     7
176
     1
 74
     0
176
     1
 91
        4
176
     1
 64
     7
176
     1
 65
   257
176
     1
 75
     1
176
     1
175
     1
176
     1
 42
1.0
176
     1
 92
        8
176
     1
 66
   257
176
     1
 43
1.0
176
     1
 76
     1
176
     1
 77
     6
176
     1
 78
     2
176
     1
 67
     8
176
     1
 79
     3
176
     1
170
     0
176
     1
171
     0
176
     1
290
     0
176
     1
 93
        5
176
     1
 44
0.0
176
     1
173
     0
176
     1
  0
VISUALSTYLE
  5
8B58
102
{ACAD_REACTORS
330
8B44
102
}
330
8B44
100
AcDbVisualStyle
  2
Shaded with edges
 70
    26
177
     2
291
     0
 71
     2
176
     1
 72
     2
176
     1
 73
     1
176
     1
 90
        2
176
     1
 40
0.6
176
     1
 41
30.0
176
     1
 63
     7
176
     1
 74
     1
176
     1
 91
       10
176
     1
 64
     7
176
     1
 65
   257
176
     1
 75
     2
176
     1
175
     1
176
     1
 42
1.0
176
     1
 92
        8
176
     1
 66
   257
176
     1
 43
1.0
176
     1
 76
     1
176
     1
 77
     6
176
     1
 78
     2
176
     1
 67
     7
176
     1
 79
     3
176
     1
170
     0
176
     1
171
     0
176
     1
290
     0
176
     1
 93
        5
176
     1
 44
0.0
176
     1
173
     0
176
     1
  0
VISUALSTYLE
  5
8B55
102
{ACAD_REACTORS
330
8B44
102
}
330
8B44
100
AcDbVisualStyle
  2
Shades of Gray
 70
    23
177
     2
291
     0
 71
     2
176
     1
 72
     2
176
     1
 73
     3
176
     1
 90
        0
176
     1
 40
0.6
176
     1
 41
30.0
176
     1
 63
     7
176
     1
 74
     2
176
     1
 91
        2
176
     1
 64
     7
176
     1
 65
     7
176
     1
 75
     1
176
     1
175
     1
176
     1
 42
40.0
176
     1
 92
        8
176
     1
 66
     7
176
     1
 43
1.0
176
     1
 76
     1
176
     1
 77
     6
176
     1
 78
     2
176
     1
 67
     7
176
     1
 79
     3
176
     1
170
     0
176
     1
171
     0
176
     1
290
     0
176
     1
 93
        1
176
     1
 44
0.0
176
     1
173
     0
176
     1
  0
VISUALSTYLE
  5
8B56
102
{ACAD_REACTORS
330
8B44
102
}
330
8B44
100
AcDbVisualStyle
  2
Sketchy
 70
    24
177
     2
291
     0
 71
     1
176
     1
 72
     2
176
     1
 73
     2
176
     1
 90
        0
176
     1
 40
0.6
176
     1
 41
30.0
176
     1
 63
     7
176
     1
 74
     2
176
     1
 91
        2
176
     1
 64
     7
176
     1
 65
     7
176
     1
 75
     1
176
     1
175
     1
176
     1
 42
40.0
176
     1
 92
       11
176
     1
 66
     7
176
     1
 43
1.0
176
     1
 76
     1
176
     1
 77
     6
176
     1
 78
     2
176
     1
 67
     7
176
     1
 79
     6
176
     1
170
     0
176
     1
171
     0
176
     1
290
     0
176
     1
 93
        1
176
     1
 44
0.0
176
     1
173
     0
176
     1
  0
VISUALSTYLE
  5
8B51
102
{ACAD_REACTORS
330
8B44
102
}
330
8B44
100
AcDbVisualStyle
  2
Thicken
 70
    13
177
     2
291
     1
 71
     2
176
     1
 72
     2
176
     1
 73
     0
176
     1
 90
        0
176
     1
 40
0.6
176
     1
 41
30.0
176
     1
 63
     7
176
     1
 74
     1
176
     1
 91
        4
176
     1
 64
     7
176
     1
 65
   257
176
     1
 75
     1
176
     1
175
     1
176
     1
 42
1.0
176
     1
 92
       12
176
     1
 66
     7
176
     1
 43
1.0
176
     1
 76
     1
176
     1
 77
     6
176
     1
 78
     2
176
     1
 67
     7
176
     1
 79
     5
176
     1
170
     0
176
     1
171
     0
176
     1
290
     0
176
     1
 93
        1
176
     1
 44
0.0
176
     1
173
     0
176
     1
  0
VISUALSTYLE
  5
8B4B
102
{ACAD_REACTORS
330
8B44
102
}
330
8B44
100
AcDbVisualStyle
  2
Wireframe
 70
     5
177
     2
291
     0
 71
     0
176
     1
 72
     2
176
     1
 73
     0
176
     1
 90
        0
176
     1
 40
0.6
176
     1
 41
30.0
176
     1
 63
     7
176
     1
 74
     1
176
     1
 91
        4
176
     1
 64
     7
176
     1
 65
   257
176
     1
 75
     1
176
     1
175
     1
176
     1
 42
1.0
176
     1
 92
        0
176
     1
 66
   257
176
     1
 43
1.0
176
     1
 76
     1
176
     1
 77
     6
176
     1
 78
     2
176
     1
 67
     7
176
     1
 79
     3
176
     1
170
     0
176
     1
171
     0
176
     1
290
     0
176
     1
 93
        1
176
     1
 44
0.0
176
     1
173
     0
176
     1
  0
VISUALSTYLE
  5
8B57
102
{ACAD_REACTORS
330
8B44
102
}
330
8B44
100
AcDbVisualStyle
  2
X-Ray
 70
    25
177
     2
291
     0
 71
     2
176
     1
 72
     2
176
     1
 73
     1
176
     1
 90
        1
176
     1
 40
0.5
176
     1
 41
30.0
176
     1
 63
     7
176
     1
 74
     1
176
     1
 91
        0
176
     1
 64
     7
176
     1
 65
   257
176
     1
 75
     1
176
     1
175
     1
176
     1
 42
1.0
176
     1
 92
        8
176
     1
 66
     7
176
     1
 43
1.0
176
     1
 76
     1
176
     1
 77
     6
176
     1
 78
     2
176
     1
 67
     7
176
     1
 79
     3
176
     1
170
     0
176
     1
171
     0
176
     1
290
     0
176
     1
 93
       13
176
     1
 44
0.0
176
     1
173
     0
176
     1
  0
DICTIONARYVAR
  5
AF4E
102
{ACAD_REACTORS
330
24A5
102
}
330
24A5
100
DictionaryVariables
280
     0
  1
1:1
  0
DICTIONARYVAR
  5
AF4D
102
{ACAD_REACTORS
330
24A5
102
}
330
24A5
100
DictionaryVariables
280
     0
  1
STANDARD
  0
DICTIONARYVAR
  5
AF4C
102
{ACAD_REACTORS
330
24A5
102
}
330
24A5
100
DictionaryVariables
280
     0
  1
STANDARD
  0
DICTIONARYVAR
  5
24A6
102
{ACAD_REACTORS
330
24A5
102
}
330
24A5
100
DictionaryVariables
280
     0
  1
1
  0
DICTIONARYVAR
  5
AF50
102
{ACAD_REACTORS
330
24A5
102
}
330
24A5
100
DictionaryVariables
280
     0
  1
0
  0
DICTIONARYVAR
  5
AF5A
102
{ACAD_REACTORS
330
24A5
102
}
330
24A5
100
DictionaryVariables
280
     0
  1
1
  0
DICTIONARYVAR
  5
AF5B
102
{ACAD_REACTORS
330
24A5
102
}
330
24A5
100
DictionaryVariables
280
     0
  1
15
  0
DICTIONARYVAR
  5
AF59
102
{ACAD_REACTORS
330
24A5
102
}
330
24A5
100
DictionaryVariables
280
     0
  1
0
  0
DICTIONARYVAR
  5
AF58
102
{ACAD_REACTORS
330
24A5
102
}
330
24A5
100
DictionaryVariables
280
     0
  1
0
  0
DICTIONARYVAR
  5
AF4F
102
{ACAD_REACTORS
330
24A5
102
}
330
24A5
100
DictionaryVariables
280
     0
  1
127
  0
XRECORD
  5
39AE
102
{ACAD_REACTORS
330
39AD
102
}
330
39AD
100
AcDbXrecord
280
     1
  1
-c
  1
*-c
  1
*
  1
*
 70
     0
  1
*
  1
*
  0
XRECORD
  5
39AF
102
{ACAD_REACTORS
330
39AD
102
}
330
39AD
100
AcDbXrecord
280
     1
  1
-C2
  1
*-c,vec,kigou,touko25
  1
*
  1
*
 70
     0
  1
*
  1
*
  0
XRECORD
  5
39B0
102
{ACAD_REACTORS
330
39AD
102
}
330
39AD
100
AcDbXrecord
280
     1
  1
-cc
  1
*-cc
  1
*
  1
*
 70
     0
  1
*
  1
*
  0
XRECORD
  5
39B1
102
{ACAD_REACTORS
330
39AD
102
}
330
39AD
100
AcDbXrecord
280
     1
  1
-ccc
  1
*-c,*-cc
  1
*
  1
*
 70
     0
  1
*
  1
*
  0
XRECORD
  5
39B2
102
{ACAD_REACTORS
330
39AD
102
}
330
39AD
100
AcDbXrecord
280
     1
  1
-cccC
  1
*-c,*-cc,c_*
  1
*
  1
*
 70
     0
  1
*
  1
*
  0
XRECORD
  5
39B3
102
{ACAD_REACTORS
330
39AD
102
}
330
39AD
100
AcDbXrecord
280
     1
  1
-図面
  1
-*
  1
*
  1
*
 70
     0
  1
*
  1
*
  0
XRECORD
  5
5267
102
{ACAD_REACTORS
330
39AD
102
}
330
39AD
100
AcDbXrecord
280
     1
  1
0
  1
*0*
  1
*
  1
*
 70
     0
  1
*
  1
*
  0
XRECORD
  5
39B4
102
{ACAD_REACTORS
330
39AD
102
}
330
39AD
100
AcDbXrecord
280
     1
  1
01-teitai
  1
teitai-block,teitai-douryuu,teitai-genseiko,teitai-umemodoshi
  1
*
  1
*
 70
     0
  1
*
  1
*
  0
XRECORD
  5
39B5
102
{ACAD_REACTORS
330
39AD
102
}
330
39AD
100
AcDbXrecord
280
     1
  1
02-zentai
  1
teitai-block,teitai-douryuu,teitai-genseiko,teitai-umemodoshi,surface-kussaku,???-c,map-l3
  1
*
  1
*
 70
     0
  1
*
  1
*
  0
XRECORD
  5
39B6
102
{ACAD_REACTORS
330
39AD
102
}
330
39AD
100
AcDbXrecord
280
     1
  1
03-zentai+kussaku
  1
teitai-block,teitai-douryuu,teitai-genseiko,teitai-umemodoshi,surface-kussaku
  1
*
  1
*
 70
     0
  1
*
  1
*
  0
XRECORD
  5
39B7
102
{ACAD_REACTORS
330
39AD
102
}
330
39AD
100
AcDbXrecord
280
     1
  1
04-chikei
  1
*-c
  1
*
  1
*
 70
     0
  1
*
  1
*
  0
XRECORD
  5
39B8
102
{ACAD_REACTORS
330
39AD
102
}
330
39AD
100
AcDbXrecord
280
     1
  1
05-chikei-5m
  1
??5-c,??0-c
  1
*
  1
*
 70
     0
  1
*
  1
*
  0
XRECORD
  5
39B9
102
{ACAD_REACTORS
330
39AD
102
}
330
39AD
100
AcDbXrecord
280
     1
  1
06-kussaku
  1
*-k
  1
*
  1
*
 70
     0
  1
*
  1
*
  0
XRECORD
  5
39BA
102
{ACAD_REACTORS
330
39AD
102
}
330
39AD
100
AcDbXrecord
280
     1
  1
1
  1
*
  1
*
  1
*
 70
   256
  1
*
  1
*
  0
XRECORD
  5
5268
102
{ACAD_REACTORS
330
39AD
102
}
330
39AD
100
AcDbXrecord
280
     1
  1
1-交差点処理図（最新1案）
  1
*交差点処理図（最新1案）*
  1
*
  1
*
 70
     0
  1
*
  1
*
  0
XRECORD
  5
39BB
102
{ACAD_REACTORS
330
39AD
102
}
330
39AD
100
AcDbXrecord
280
     1
  1
100
  1
z1-*
  1
*
  1
*
 70
     0
  1
*
  1
*
  0
XRECORD
  5
39BC
102
{ACAD_REACTORS
330
39AD
102
}
330
39AD
100
AcDbXrecord
280
     1
  1
100ban
  1
*
  1
100
  1
*
 70
     0
  1
*
  1
*
  0
XRECORD
  5
39BD
102
{ACAD_REACTORS
330
39AD
102
}
330
39AD
100
AcDbXrecord
280
     1
  1
160ban
  1
*
  1
160
  1
*
 70
     0
  1
*
  1
*
  0
XRECORD
  5
39BE
102
{ACAD_REACTORS
330
39AD
102
}
330
39AD
100
AcDbXrecord
280
     1
  1
180
  1
*
  1
180
  1
*
 70
     0
  1
*
  1
*
  0
XRECORD
  5
39BF
102
{ACAD_REACTORS
330
39AD
102
}
330
39AD
100
AcDbXrecord
280
     1
  1
180-240
  1
180,240,190,200,210,220,230
  1
*
  1
*
 70
     0
  1
*
  1
*
  0
XRECORD
  5
39C0
102
{ACAD_REACTORS
330
39AD
102
}
330
39AD
100
AcDbXrecord
280
     1
  1
181
  1
*
  1
181
  1
*
 70
     0
  1
*
  1
*
  0
XRECORD
  5
39C1
102
{ACAD_REACTORS
330
39AD
102
}
330
39AD
100
AcDbXrecord
280
     1
  1
1mtoukousenn
  1
*-c
  1
6
  1
*
 70
     0
  1
*
  1
*
  0
XRECORD
  5
39C2
102
{ACAD_REACTORS
330
39AD
102
}
330
39AD
100
AcDbXrecord
280
     1
  1
2
  1
*-c
  1
*
  1
*
 70
     0
  1
*
  1
*
  0
XRECORD
  5
5269
102
{ACAD_REACTORS
330
39AD
102
}
330
39AD
100
AcDbXrecord
280
     1
  1
2-線形図1
  1
*線形図1*
  1
*
  1
*
 70
     0
  1
*
  1
*
  0
XRECORD
  5
39C3
102
{ACAD_REACTORS
330
39AD
102
}
330
39AD
100
AcDbXrecord
280
     1
  1
2100
  1
*2100*
  1
*
  1
*
 70
     0
  1
*
  1
*
  0
XRECORD
  5
39C4
102
{ACAD_REACTORS
330
39AD
102
}
330
39AD
100
AcDbXrecord
280
     1
  1
240ban
  1
*
  1
240
  1
*
 70
     0
  1
*
  1
*
  0
XRECORD
  5
39C5
102
{ACAD_REACTORS
330
39AD
102
}
330
39AD
100
AcDbXrecord
280
     1
  1
25-C
  1
**00-c,**25-c,**50-c,**75-c
  1
*
  1
*
 70
     0
  1
*
  1
*
  0
XRECORD
  5
39C6
102
{ACAD_REACTORS
330
39AD
102
}
330
39AD
100
AcDbXrecord
280
     1
  1
252
  1
*
  1
252
  1
*
 70
     0
  1
*
  1
*
  0
XRECORD
  5
39C7
102
{ACAD_REACTORS
330
39AD
102
}
330
39AD
100
AcDbXrecord
280
     1
  1
2600
  1
*2600*
  1
*
  1
*
 70
     0
  1
*
  1
*
  0
XRECORD
  5
39C8
102
{ACAD_REACTORS
330
39AD
102
}
330
39AD
100
AcDbXrecord
280
     1
  1
3
  1
*-c
  1
green
  1
*
 70
     0
  1
*
  1
*
  0
XRECORD
  5
526A
102
{ACAD_REACTORS
330
39AD
102
}
330
39AD
100
AcDbXrecord
280
     1
  1
3-線形図2
  1
*線形図2*
  1
*
  1
*
 70
     0
  1
*
  1
*
  0
XRECORD
  5
526B
102
{ACAD_REACTORS
330
39AD
102
}
330
39AD
100
AcDbXrecord
280
     1
  1
3dC
  1
***C
  1
*
  1
*
 70
     0
  1
*
  1
*
  0
XRECORD
  5
526C
102
{ACAD_REACTORS
330
39AD
102
}
330
39AD
100
AcDbXrecord
280
     1
  1
3dC5
  1
**5C
  1
*
  1
*
 70
     0
  1
*
  1
*
  0
XRECORD
  5
39C9
102
{ACAD_REACTORS
330
39AD
102
}
330
39AD
100
AcDbXrecord
280
     1
  1
44
  1
*-c
  1
6
  1
*
 70
     0
  1
*
  1
*
  0
XRECORD
  5
39CA
102
{ACAD_REACTORS
330
39AD
102
}
330
39AD
100
AcDbXrecord
280
     1
  1
5-C
  1
**5-c,**10-c,**15-c,**20-c,**30-c,**35-c,**40-c,**45-c,**55-c,**60-c,**65-c,**70-c,**80-c,**85-c,**90-c,**95-c
  1
*
  1
*
 70
     0
  1
*
  1
*
  0
XRECORD
  5
39CB
102
{ACAD_REACTORS
330
39AD
102
}
330
39AD
100
AcDbXrecord
280
     1
  1
5-C2
  1
**05-c,**10-c,**15-c,**20-c,**30-c,**35-c,**40-c,**45-c,**55-c,**60-c,**65-c,**70-c,**80-c,**85-c,**90-c,**95-c
  1
*
  1
*
 70
     0
  1
*
  1
*
  0
XRECORD
  5
39CC
102
{ACAD_REACTORS
330
39AD
102
}
330
39AD
100
AcDbXrecord
280
     1
  1
50
  1
*
  1
50
  1
*
 70
     0
  1
*
  1
*
  0
XRECORD
  5
39CD
102
{ACAD_REACTORS
330
39AD
102
}
330
39AD
100
AcDbXrecord
280
     1
  1
5m
  1
*5-c,*0-c
  1
*
  1
*
 70
     0
  1
*
  1
*
  0
XRECORD
  5
39CE
102
{ACAD_REACTORS
330
39AD
102
}
330
39AD
100
AcDbXrecord
280
     1
  1
60
  1
*
  1
60
  1
*
 70
     0
  1
*
  1
*
  0
XRECORD
  5
39CF
102
{ACAD_REACTORS
330
39AD
102
}
330
39AD
100
AcDbXrecord
280
     1
  1
7-専用部北行
  1
80*,90*,A0*,B0*,
  1
*
  1
*
 70
     0
  1
*
  1
*
  0
XRECORD
  5
39D0
102
{ACAD_REACTORS
330
39AD
102
}
330
39AD
100
AcDbXrecord
280
     1
  1
8-ONﾗﾝﾌﾟ
  1
70*,90*,A0*,B0*,
  1
*
  1
*
 70
     0
  1
*
  1
*
  0
XRECORD
  5
39D1
102
{ACAD_REACTORS
330
39AD
102
}
330
39AD
100
AcDbXrecord
280
     1
  1
9-OFFﾗﾝﾌﾟ
  1
70*,80*,A0*B0*,
  1
*
  1
*
 70
     0
  1
*
  1
*
  0
XRECORD
  5
39D2
102
{ACAD_REACTORS
330
39AD
102
}
330
39AD
100
AcDbXrecord
280
     1
  1
_図面
  1
_*
  1
*
  1
*
 70
     0
  1
*
  1
*
  0
XRECORD
  5
39D3
102
{ACAD_REACTORS
330
39AD
102
}
330
39AD
100
AcDbXrecord
280
     1
  1
a
  1
a-*
  1
*
  1
*
 70
     0
  1
*
  1
*
  0
XRECORD
  5
39D4
102
{ACAD_REACTORS
330
39AD
102
}
330
39AD
100
AcDbXrecord
280
     1
  1
a-
  1
a-*
  1
*
  1
*
 70
     0
  1
*
  1
*
  0
XRECORD
  5
39D5
102
{ACAD_REACTORS
330
39AD
102
}
330
39AD
100
AcDbXrecord
280
     1
  1
a-（埋設）
  1
a-（埋設）*
  1
*
  1
*
 70
     0
  1
*
  1
*
  0
XRECORD
  5
39D6
102
{ACAD_REACTORS
330
39AD
102
}
330
39AD
100
AcDbXrecord
280
     1
  1
aaa
  1
*-c
  1
*
  1
*
 70
     0
  1
*
  1
*
  0
XRECORD
  5
526D
102
{ACAD_REACTORS
330
39AD
102
}
330
39AD
100
AcDbXrecord
280
     1
  1
all-DIM -TXT -MTXT OFF
  1
*-DIM,*-TXT,*-MTXT
  1
*
  1
*
 70
     0
  1
*
  1
*
  0
XRECORD
  5
526E
102
{ACAD_REACTORS
330
39AD
102
}
330
39AD
100
AcDbXrecord
280
     1
  1
all-DIM -TXT OFF
  1
*-DIM,*-TXT
  1
*
  1
*
 70
     0
  1
*
  1
*
  0
XRECORD
  5
526F
102
{ACAD_REACTORS
330
39AD
102
}
330
39AD
100
AcDbXrecord
280
     1
  1
all-DIM OFF
  1
*-DIM
  1
*
  1
*
 70
     0
  1
*
  1
*
  0
XRECORD
  5
5270
102
{ACAD_REACTORS
330
39AD
102
}
330
39AD
100
AcDbXrecord
280
     1
  1
all-MTXT OFF
  1
*-MTXT
  1
*
  1
*
 70
     0
  1
*
  1
*
  0
XRECORD
  5
5271
102
{ACAD_REACTORS
330
39AD
102
}
330
39AD
100
AcDbXrecord
280
     1
  1
all-TXT OFF
  1
*-TXT
  1
*
  1
*
 70
     0
  1
*
  1
*
  0
XRECORD
  5
39D7
102
{ACAD_REACTORS
330
39AD
102
}
330
39AD
100
AcDbXrecord
280
     1
  1
all_tikei
  1
***-cc,c_*
  1
*
  1
*
 70
     0
  1
*
  1
*
  0
XRECORD
  5
39D8
102
{ACAD_REACTORS
330
39AD
102
}
330
39AD
100
AcDbXrecord
280
     1
  1
all_tikei2
  1
***-cc,c_*,***-c
  1
*
  1
*
 70
     0
  1
*
  1
*
  0
XRECORD
  5
39D9
102
{ACAD_REACTORS
330
39AD
102
}
330
39AD
100
AcDbXrecord
280
     1
  1
a、シビ
  1
a*,シビ*
  1
*
  1
*
 70
     0
  1
*
  1
*
  0
XRECORD
  5
39DA
102
{ACAD_REACTORS
330
39AD
102
}
330
39AD
100
AcDbXrecord
280
     1
  1
BASIC
  1
*
  1
*
  1
*
 70
    12
  1
*
  1
*
  0
XRECORD
  5
39DB
102
{ACAD_REACTORS
330
39AD
102
}
330
39AD
100
AcDbXrecord
280
     1
  1
BGD
  1
D-BGD*
  1
*
  1
*
 70
     0
  1
*
  1
*
  0
XRECORD
  5
39DC
102
{ACAD_REACTORS
330
39AD
102
}
330
39AD
100
AcDbXrecord
280
     1
  1
blue
  1
*
  1
blue
  1
*
 70
     0
  1
*
  1
*
  0
XRECORD
  5
5272
102
{ACAD_REACTORS
330
39AD
102
}
330
39AD
100
AcDbXrecord
280
     1
  1
B北
  1
*B北*
  1
*
  1
*
 70
     0
  1
*
  1
*
  0
XRECORD
  5
39DD
102
{ACAD_REACTORS
330
39AD
102
}
330
39AD
100
AcDbXrecord
280
     1
  1
c
  1
*c
  1
*
  1
*
 70
     0
  1
*
  1
*
  0
XRECORD
  5
39DE
102
{ACAD_REACTORS
330
39AD
102
}
330
39AD
100
AcDbXrecord
280
     1
  1
chihyou
  1
****-c
  1
*
  1
*
 70
     0
  1
*
  1
*
  0
XRECORD
  5
39DF
102
{ACAD_REACTORS
330
39AD
102
}
330
39AD
100
AcDbXrecord
280
     1
  1
chihyou-cc
  1
***-cc
  1
*
  1
*
 70
     0
  1
*
  1
*
  0
XRECORD
  5
39E0
102
{ACAD_REACTORS
330
39AD
102
}
330
39AD
100
AcDbXrecord
280
     1
  1
chikei
  1
*-c
  1
*
  1
*
 70
     0
  1
*
  1
*
  0
XRECORD
  5
39E1
102
{ACAD_REACTORS
330
39AD
102
}
330
39AD
100
AcDbXrecord
280
     1
  1
chikei 5 0
  1
*5-c,*0-c
  1
*
  1
*
 70
     0
  1
*
  1
*
  0
XRECORD
  5
39E2
102
{ACAD_REACTORS
330
39AD
102
}
330
39AD
100
AcDbXrecord
280
     1
  1
chikei-5m
  1
??5-c,??0-c
  1
*
  1
*
 70
     0
  1
*
  1
*
  0
XRECORD
  5
39E3
102
{ACAD_REACTORS
330
39AD
102
}
330
39AD
100
AcDbXrecord
280
     1
  1
chikei2
  1
*-c
  1
252
  1
*
 70
     0
  1
*
  1
*
  0
XRECORD
  5
39E4
102
{ACAD_REACTORS
330
39AD
102
}
330
39AD
100
AcDbXrecord
280
     1
  1
chikei5m
  1
*5-c,*0-c
  1
*
  1
*
 70
     0
  1
*
  1
*
  0
XRECORD
  5
39E5
102
{ACAD_REACTORS
330
39AD
102
}
330
39AD
100
AcDbXrecord
280
     1
  1
chishitsu
  1
*chishitsu*
  1
*
  1
*
 70
     0
  1
*
  1
*
  0
XRECORD
  5
39E6
102
{ACAD_REACTORS
330
39AD
102
}
330
39AD
100
AcDbXrecord
280
     1
  1
chishitu
  1
???-chishitsu,???-chishitsu-1,???-chishitsu-2
  1
*
  1
*
 70
     0
  1
*
  1
*
  0
XRECORD
  5
39E7
102
{ACAD_REACTORS
330
39AD
102
}
330
39AD
100
AcDbXrecord
280
     1
  1
ckeiall
  1
c_*,*-c,*-cc
  1
*
  1
*
 70
     0
  1
*
  1
*
  0
XRECORD
  5
39E8
102
{ACAD_REACTORS
330
39AD
102
}
330
39AD
100
AcDbXrecord
280
     1
  1
cl
  1
z1-??cl-l
  1
*
  1
*
 70
     0
  1
*
  1
*
  0
XRECORD
  5
39E9
102
{ACAD_REACTORS
330
39AD
102
}
330
39AD
100
AcDbXrecord
280
     1
  1
cl-konta
  1
*-cl
  1
*
  1
*
 70
     0
  1
*
  1
*
  0
XRECORD
  5
39EA
102
{ACAD_REACTORS
330
39AD
102
}
330
39AD
100
AcDbXrecord
280
     1
  1
cld
  1
z1-??cld-l
  1
*
  1
*
 70
     0
  1
*
  1
*
  0
XRECORD
  5
39EB
102
{ACAD_REACTORS
330
39AD
102
}
330
39AD
100
AcDbXrecord
280
     1
  1
cld^ konta
  1
*-cld
  1
*
  1
*
 70
     0
  1
*
  1
*
  0
XRECORD
  5
39EC
102
{ACAD_REACTORS
330
39AD
102
}
330
39AD
100
AcDbXrecord
280
     1
  1
cm
  1
z1-??cm-l
  1
*
  1
*
 70
     0
  1
*
  1
*
  0
XRECORD
  5
39ED
102
{ACAD_REACTORS
330
39AD
102
}
330
39AD
100
AcDbXrecord
280
     1
  1
cm-konta
  1
*-cm
  1
*
  1
*
 70
     0
  1
*
  1
*
  0
XRECORD
  5
39EE
102
{ACAD_REACTORS
330
39AD
102
}
330
39AD
100
AcDbXrecord
280
     1
  1
CONTER1m
  1
*
  1
8
  1
*
 70
     0
  1
*
  1
*
  0
XRECORD
  5
39EF
102
{ACAD_REACTORS
330
39AD
102
}
330
39AD
100
AcDbXrecord
280
     1
  1
CONTER5m
  1
*
  1
9
  1
*
 70
     0
  1
*
  1
*
  0
XRECORD
  5
5273
102
{ACAD_REACTORS
330
39AD
102
}
330
39AD
100
AcDbXrecord
280
     1
  1
cyan
  1
*
  1
cyan
  1
*
 70
     0
  1
*
  1
*
  0
XRECORD
  5
5274
102
{ACAD_REACTORS
330
39AD
102
}
330
39AD
100
AcDbXrecord
280
     1
  1
D-BAR-treeOFF
  1
D-BAR-*
  1
*
  1
*
 70
     0
  1
*
  1
*
  0
XRECORD
  5
5275
102
{ACAD_REACTORS
330
39AD
102
}
330
39AD
100
AcDbXrecord
280
     1
  1
D-BGD-treeOFF
  1
D-BGD-*
  1
*
  1
*
 70
     0
  1
*
  1
*
  0
XRECORD
  5
5276
102
{ACAD_REACTORS
330
39AD
102
}
330
39AD
100
AcDbXrecord
280
     1
  1
D-BGM-treeOFF
  1
D-BGM-*
  1
*
  1
*
 70
     0
  1
*
  1
*
  0
XRECORD
  5
5277
102
{ACAD_REACTORS
330
39AD
102
}
330
39AD
100
AcDbXrecord
280
     1
  1
D-BMK-treeOFF
  1
D-BMK-*
  1
*
  1
*
 70
     0
  1
*
  1
*
  0
XRECORD
  5
5278
102
{ACAD_REACTORS
330
39AD
102
}
330
39AD
100
AcDbXrecord
280
     1
  1
D-BYP-treeOFF
  1
D-BYP-*
  1
*
  1
*
 70
     0
  1
*
  1
*
  0
XRECORD
  5
5279
102
{ACAD_REACTORS
330
39AD
102
}
330
39AD
100
AcDbXrecord
280
     1
  1
D-MTR-ｔｒｅｅOFF
  1
D-MTR-*
  1
*
  1
*
 70
     0
  1
*
  1
*
  0
XRECORD
  5
527A
102
{ACAD_REACTORS
330
39AD
102
}
330
39AD
100
AcDbXrecord
280
     1
  1
D-OTRS-treeOFF
  1
D-OTRS-*
  1
*
  1
*
 70
     0
  1
*
  1
*
  0
XRECORD
  5
527B
102
{ACAD_REACTORS
330
39AD
102
}
330
39AD
100
AcDbXrecord
280
     1
  1
D-PC-treeOFF
  1
D-PC-*
  1
*
  1
*
 70
     0
  1
*
  1
*
  0
XRECORD
  5
527C
102
{ACAD_REACTORS
330
39AD
102
}
330
39AD
100
AcDbXrecord
280
     1
  1
D-STR-treeOFF
  1
D-STR-*
  1
*
  1
*
 70
     0
  1
*
  1
*
  0
XRECORD
  5
527D
102
{ACAD_REACTORS
330
39AD
102
}
330
39AD
100
AcDbXrecord
280
     1
  1
D-STRC-treeOFF
  1
D-STRC-*
  1
*
  1
*
 70
     0
  1
*
  1
*
  0
XRECORD
  5
527E
102
{ACAD_REACTORS
330
39AD
102
}
330
39AD
100
AcDbXrecord
280
     1
  1
D-TTL-treeOFF
  1
D-TTL-*
  1
*
  1
*
 70
     0
  1
*
  1
*
  0
XRECORD
  5
39F0
102
{ACAD_REACTORS
330
39AD
102
}
330
39AD
100
AcDbXrecord
280
     1
  1
dh-konta
  1
*-dh
  1
*
  1
*
 70
     0
  1
*
  1
*
  0
XRECORD
  5
527F
102
{ACAD_REACTORS
330
39AD
102
}
330
39AD
100
AcDbXrecord
280
     1
  1
DIM
  1
*DIM
  1
*
  1
*
 70
     0
  1
*
  1
*
  0
XRECORD
  5
5280
102
{ACAD_REACTORS
330
39AD
102
}
330
39AD
100
AcDbXrecord
280
     1
  1
doro
  1
doro***
  1
*
  1
*
 70
     0
  1
*
  1
*
  0
XRECORD
  5
5281
102
{ACAD_REACTORS
330
39AD
102
}
330
39AD
100
AcDbXrecord
280
     1
  1
douro
  1
douro***
  1
*
  1
*
 70
     0
  1
*
  1
*
  0
XRECORD
  5
39F1
102
{ACAD_REACTORS
330
39AD
102
}
330
39AD
100
AcDbXrecord
280
     1
  1
douro-r
  1
road*
  1
*
  1
*
 70
     0
  1
*
  1
*
  0
XRECORD
  5
39F2
102
{ACAD_REACTORS
330
39AD
102
}
330
39AD
100
AcDbXrecord
280
     1
  1
EL30
  1
30-*
  1
*
  1
*
 70
     0
  1
*
  1
*
  0
XRECORD
  5
39F3
102
{ACAD_REACTORS
330
39AD
102
}
330
39AD
100
AcDbXrecord
280
     1
  1
EL35
  1
35-*
  1
*
  1
*
 70
     0
  1
*
  1
*
  0
XRECORD
  5
39F4
102
{ACAD_REACTORS
330
39AD
102
}
330
39AD
100
AcDbXrecord
280
     1
  1
EL40
  1
40-*
  1
*
  1
*
 70
     0
  1
*
  1
*
  0
XRECORD
  5
39F5
102
{ACAD_REACTORS
330
39AD
102
}
330
39AD
100
AcDbXrecord
280
     1
  1
EL45
  1
45-*
  1
*
  1
*
 70
     0
  1
*
  1
*
  0
XRECORD
  5
39F6
102
{ACAD_REACTORS
330
39AD
102
}
330
39AD
100
AcDbXrecord
280
     1
  1
EL50
  1
50-*
  1
*
  1
*
 70
     0
  1
*
  1
*
  0
XRECORD
  5
39F7
102
{ACAD_REACTORS
330
39AD
102
}
330
39AD
100
AcDbXrecord
280
     1
  1
EL55
  1
55-*
  1
*
  1
*
 70
     0
  1
*
  1
*
  0
XRECORD
  5
39F8
102
{ACAD_REACTORS
330
39AD
102
}
330
39AD
100
AcDbXrecord
280
     1
  1
EL60
  1
60-*
  1
*
  1
*
 70
     0
  1
*
  1
*
  0
XRECORD
  5
39F9
102
{ACAD_REACTORS
330
39AD
102
}
330
39AD
100
AcDbXrecord
280
     1
  1
EL65
  1
65-*
  1
*
  1
*
 70
     0
  1
*
  1
*
  0
XRECORD
  5
39FA
102
{ACAD_REACTORS
330
39AD
102
}
330
39AD
100
AcDbXrecord
280
     1
  1
EL70
  1
70-*
  1
*
  1
*
 70
     0
  1
*
  1
*
  0
XRECORD
  5
39FB
102
{ACAD_REACTORS
330
39AD
102
}
330
39AD
100
AcDbXrecord
280
     1
  1
EL75
  1
75-*
  1
*
  1
*
 70
     0
  1
*
  1
*
  0
XRECORD
  5
39FC
102
{ACAD_REACTORS
330
39AD
102
}
330
39AD
100
AcDbXrecord
280
     1
  1
EL80
  1
80-*
  1
*
  1
*
 70
     0
  1
*
  1
*
  0
XRECORD
  5
5282
102
{ACAD_REACTORS
330
39AD
102
}
330
39AD
100
AcDbXrecord
280
     1
  1
E南
  1
*E*南*
  1
*
  1
*
 70
     0
  1
*
  1
*
  0
XRECORD
  5
39FD
102
{ACAD_REACTORS
330
39AD
102
}
330
39AD
100
AcDbXrecord
280
     1
  1
fault
  1
*-fault
  1
*
  1
*
 70
     0
  1
*
  1
*
  0
XRECORD
  5
39FE
102
{ACAD_REACTORS
330
39AD
102
}
330
39AD
100
AcDbXrecord
280
     1
  1
frize
  1
*
  1
*
  1
*
 70
     4
  1
*
  1
*
  0
XRECORD
  5
39FF
102
{ACAD_REACTORS
330
39AD
102
}
330
39AD
100
AcDbXrecord
280
     1
  1
gankyu
  1
*-d-cl,*-cl-cm,*-cm-ch
  1
*
  1
*
 70
     0
  1
*
  1
*
  0
XRECORD
  5
3A00
102
{ACAD_REACTORS
330
39AD
102
}
330
39AD
100
AcDbXrecord
280
     1
  1
gannkyu-ch
  1
***-ch
  1
*
  1
*
 70
     0
  1
*
  1
*
  0
XRECORD
  5
3A01
102
{ACAD_REACTORS
330
39AD
102
}
330
39AD
100
AcDbXrecord
280
     1
  1
gannkyu-cl
  1
****-cl
  1
*
  1
*
 70
     0
  1
*
  1
*
  0
XRECORD
  5
3A02
102
{ACAD_REACTORS
330
39AD
102
}
330
39AD
100
AcDbXrecord
280
     1
  1
gannkyu-cm
  1
****-cm
  1
*
  1
*
 70
     0
  1
*
  1
*
  0
XRECORD
  5
3A03
102
{ACAD_REACTORS
330
39AD
102
}
330
39AD
100
AcDbXrecord
280
     1
  1
gannkyu-cmh
  1
***-cmh
  1
*
  1
*
 70
     0
  1
*
  1
*
  0
XRECORD
  5
3A04
102
{ACAD_REACTORS
330
39AD
102
}
330
39AD
100
AcDbXrecord
280
     1
  1
gound
  1
g*
  1
*
  1
*
 70
     0
  1
*
  1
*
  0
XRECORD
  5
3A05
102
{ACAD_REACTORS
330
39AD
102
}
330
39AD
100
AcDbXrecord
280
     1
  1
green
  1
*
  1
green
  1
*
 70
     0
  1
*
  1
*
  0
XRECORD
  5
3A06
102
{ACAD_REACTORS
330
39AD
102
}
330
39AD
100
AcDbXrecord
280
     1
  1
gutter
  1
*gutter*
  1
*
  1
*
 70
     0
  1
*
  1
*
  0
XRECORD
  5
3A07
102
{ACAD_REACTORS
330
39AD
102
}
330
39AD
100
AcDbXrecord
280
     1
  1
hidden
  1
*
  1
*
  1
hidden
 70
     0
  1
*
  1
*
  0
XRECORD
  5
3A08
102
{ACAD_REACTORS
330
39AD
102
}
330
39AD
100
AcDbXrecord
280
     1
  1
hihyouji
  1
*
  1
*
  1
*
 70
     3
  1
*
  1
*
  0
XRECORD
  5
3A09
102
{ACAD_REACTORS
330
39AD
102
}
330
39AD
100
AcDbXrecord
280
     1
  1
hyouji
  1
*
  1
*
  1
*
 70
     1
  1
*
  1
*
  0
XRECORD
  5
3A0A
102
{ACAD_REACTORS
330
39AD
102
}
330
39AD
100
AcDbXrecord
280
     1
  1
katen
  1
katen*
  1
*
  1
*
 70
     0
  1
*
  1
*
  0
XRECORD
  5
5283
102
{ACAD_REACTORS
330
39AD
102
}
330
39AD
100
AcDbXrecord
280
     1
  1
KF
  1
KF*
  1
*
  1
*
 70
     0
  1
*
  1
*
  0
XRECORD
  5
3A0B
102
{ACAD_REACTORS
330
39AD
102
}
330
39AD
100
AcDbXrecord
280
     1
  1
kfl
  1
***-k
  1
*
  1
*
 70
     4
  1
*
  1
*
  0
XRECORD
  5
3A0C
102
{ACAD_REACTORS
330
39AD
102
}
330
39AD
100
AcDbXrecord
280
     1
  1
kfl2
  1
***-k
  1
*
  1
*
 70
     0
  1
*
  1
*
  0
XRECORD
  5
3A0D
102
{ACAD_REACTORS
330
39AD
102
}
330
39AD
100
AcDbXrecord
280
     1
  1
konta
  1
*-cl,*-cm,*-cld
  1
*
  1
*
 70
     0
  1
*
  1
*
  0
XRECORD
  5
3A0E
102
{ACAD_REACTORS
330
39AD
102
}
330
39AD
100
AcDbXrecord
280
     1
  1
kouzuibaki
  1
kouzui*
  1
*
  1
*
 70
     0
  1
*
  1
*
  0
XRECORD
  5
5284
102
{ACAD_REACTORS
330
39AD
102
}
330
39AD
100
AcDbXrecord
280
     1
  1
KU
  1
KU*
  1
*
  1
*
 70
     0
  1
*
  1
*
  0
XRECORD
  5
3A0F
102
{ACAD_REACTORS
330
39AD
102
}
330
39AD
100
AcDbXrecord
280
     1
  1
kussaku
  1
*-k
  1
*
  1
*
 70
     0
  1
*
  1
*
  0
XRECORD
  5
3A10
102
{ACAD_REACTORS
330
39AD
102
}
330
39AD
100
AcDbXrecord
280
     1
  1
kussaku-k
  1
****-k
  1
*
  1
*
 70
     0
  1
*
  1
*
  0
XRECORD
  5
5285
102
{ACAD_REACTORS
330
39AD
102
}
330
39AD
100
AcDbXrecord
280
     1
  1
Live
  1
*
  1
*
  1
*
 70
    12
  1
*
  1
*
  0
XRECORD
  5
5286
102
{ACAD_REACTORS
330
39AD
102
}
330
39AD
100
AcDbXrecord
280
     1
  1
m
  1
***m
  1
*
  1
*
 70
     0
  1
*
  1
*
  0
XRECORD
  5
3A11
102
{ACAD_REACTORS
330
39AD
102
}
330
39AD
100
AcDbXrecord
280
     1
  1
mage
  1
*
  1
magenta
  1
*
 70
     0
  1
*
  1
*
  0
XRECORD
  5
3A12
102
{ACAD_REACTORS
330
39AD
102
}
330
39AD
100
AcDbXrecord
280
     1
  1
mennseki-ak
  1
***-ak
  1
*
  1
*
 70
     0
  1
*
  1
*
  0
XRECORD
  5
3A13
102
{ACAD_REACTORS
330
39AD
102
}
330
39AD
100
AcDbXrecord
280
     1
  1
mennseki-at
  1
***-at
  1
*
  1
*
 70
     0
  1
*
  1
*
  0
XRECORD
  5
3A14
102
{ACAD_REACTORS
330
39AD
102
}
330
39AD
100
AcDbXrecord
280
     1
  1
mｺﾝﾀ
  1
*-cc
  1
*
  1
*
 70
     0
  1
*
  1
*
  0
XRECORD
  5
3A15
102
{ACAD_REACTORS
330
39AD
102
}
330
39AD
100
AcDbXrecord
280
     1
  1
new
  1
*
  1
*
  1
*
 70
    12
  1
*
  1
*
  0
XRECORD
  5
3A16
102
{ACAD_REACTORS
330
39AD
102
}
330
39AD
100
AcDbXrecord
280
     1
  1
new1
  1
*
  1
*
  1
*
 70
     1
  1
*
  1
*
  0
XRECORD
  5
3A17
102
{ACAD_REACTORS
330
39AD
102
}
330
39AD
100
AcDbXrecord
280
     1
  1
new2
  1
*
  1
*
  1
*
 70
     1
  1
*
  1
*
  0
XRECORD
  5
3A18
102
{ACAD_REACTORS
330
39AD
102
}
330
39AD
100
AcDbXrecord
280
     1
  1
new4
  1
*
  1
*
  1
*
 70
    12
  1
*
  1
*
  0
XRECORD
  5
5287
102
{ACAD_REACTORS
330
39AD
102
}
330
39AD
100
AcDbXrecord
280
     1
  1
NO_Xref
  1
*|
  1
*
  1
*
 70
     0
  1
*
  1
*
  0
XRECORD
  5
3A19
102
{ACAD_REACTORS
330
39AD
102
}
330
39AD
100
AcDbXrecord
280
     1
  1
norisen
  1
*-n
  1
*
  1
*
 70
     0
  1
*
  1
*
  0
XRECORD
  5
3A1A
102
{ACAD_REACTORS
330
39AD
102
}
330
39AD
100
AcDbXrecord
280
     1
  1
off
  1
*
  1
*
  1
*
 70
  3072
  1
*
  1
*
  0
XRECORD
  5
3A1B
102
{ACAD_REACTORS
330
39AD
102
}
330
39AD
100
AcDbXrecord
280
     1
  1
on
  1
*
  1
*
  1
*
 70
   256
  1
*
  1
*
  0
XRECORD
  5
3A1C
102
{ACAD_REACTORS
330
39AD
102
}
330
39AD
100
AcDbXrecord
280
     1
  1
oudan-cl
  1
oudan????cl-p
  1
*
  1
*
 70
     0
  1
*
  1
*
  0
XRECORD
  5
3A1D
102
{ACAD_REACTORS
330
39AD
102
}
330
39AD
100
AcDbXrecord
280
     1
  1
oudan-cld
  1
oudan????cld-p
  1
*
  1
*
 70
     0
  1
*
  1
*
  0
XRECORD
  5
3A1E
102
{ACAD_REACTORS
330
39AD
102
}
330
39AD
100
AcDbXrecord
280
     1
  1
oudan-cm
  1
oudan????cm-p
  1
*
  1
*
 70
     0
  1
*
  1
*
  0
XRECORD
  5
3A1F
102
{ACAD_REACTORS
330
39AD
102
}
330
39AD
100
AcDbXrecord
280
     1
  1
oudan-f
  1
oudan????f-p
  1
*
  1
*
 70
     0
  1
*
  1
*
  0
XRECORD
  5
3A20
102
{ACAD_REACTORS
330
39AD
102
}
330
39AD
100
AcDbXrecord
280
     1
  1
oudanzu
  1
oudan*
  1
*
  1
*
 70
     0
  1
*
  1
*
  0
XRECORD
  5
3A21
102
{ACAD_REACTORS
330
39AD
102
}
330
39AD
100
AcDbXrecord
280
     1
  1
red
  1
*
  1
red
  1
*
 70
     0
  1
*
  1
*
  0
XRECORD
  5
3A22
102
{ACAD_REACTORS
330
39AD
102
}
330
39AD
100
AcDbXrecord
280
     1
  1
S
  1
S*
  1
*
  1
*
 70
     0
  1
*
  1
*
  0
XRECORD
  5
3A23
102
{ACAD_REACTORS
330
39AD
102
}
330
39AD
100
AcDbXrecord
280
     1
  1
sed
  1
*-sed
  1
*
  1
*
 70
     0
  1
*
  1
*
  0
XRECORD
  5
3A24
102
{ACAD_REACTORS
330
39AD
102
}
330
39AD
100
AcDbXrecord
280
     1
  1
sokuti
  1
s*
  1
*
  1
*
 70
     0
  1
*
  1
*
  0
XRECORD
  5
3A25
102
{ACAD_REACTORS
330
39AD
102
}
330
39AD
100
AcDbXrecord
280
     1
  1
south
  1
*south
  1
*
  1
*
 70
     0
  1
*
  1
*
  0
XRECORD
  5
5288
102
{ACAD_REACTORS
330
39AD
102
}
330
39AD
100
AcDbXrecord
280
     1
  1
ST
  1
ST*
  1
*
  1
*
 70
     0
  1
*
  1
*
  0
XRECORD
  5
3A26
102
{ACAD_REACTORS
330
39AD
102
}
330
39AD
100
AcDbXrecord
280
     1
  1
STR
  1
D-STR*
  1
*
  1
*
 70
     0
  1
*
  1
*
  0
XRECORD
  5
3A27
102
{ACAD_REACTORS
330
39AD
102
}
330
39AD
100
AcDbXrecord
280
     1
  1
syuturyokusurumono_11_1
  1
*
  1
*
  1
*
 70
    13
  1
*
  1
*
  0
XRECORD
  5
3A28
102
{ACAD_REACTORS
330
39AD
102
}
330
39AD
100
AcDbXrecord
280
     1
  1
sｺﾝﾀ
  1
*-c
  1
red
  1
*
 70
     0
  1
*
  1
*
  0
XRECORD
  5
3A29
102
{ACAD_REACTORS
330
39AD
102
}
330
39AD
100
AcDbXrecord
280
     1
  1
T
  1
*
  1
*
  1
*
 70
     0
  1
*
  1
*
  0
XRECORD
  5
3A2A
102
{ACAD_REACTORS
330
39AD
102
}
330
39AD
100
AcDbXrecord
280
     1
  1
teitai
  1
*-t,hojo-1
  1
*
  1
*
 70
     0
  1
*
  1
*
  0
XRECORD
  5
3A2B
102
{ACAD_REACTORS
330
39AD
102
}
330
39AD
100
AcDbXrecord
280
     1
  1
teitai-t
  1
***-t
  1
*
  1
*
 70
     0
  1
*
  1
*
  0
XRECORD
  5
5289
102
{ACAD_REACTORS
330
39AD
102
}
330
39AD
100
AcDbXrecord
280
     1
  1
text
  1
*TEXT*(
  1
*
  1
*
 70
     0
  1
*
  1
*
  0
XRECORD
  5
3A2C
102
{ACAD_REACTORS
330
39AD
102
}
330
39AD
100
AcDbXrecord
280
     1
  1
Thaw
  1
*
  1
*
  1
*
 70
    12
  1
*
  1
*
  0
XRECORD
  5
3A2D
102
{ACAD_REACTORS
330
39AD
102
}
330
39AD
100
AcDbXrecord
280
     1
  1
tsuurou
  1
tsu*
  1
*
  1
*
 70
     0
  1
*
  1
*
  0
XRECORD
  5
3A2E
102
{ACAD_REACTORS
330
39AD
102
}
330
39AD
100
AcDbXrecord
280
     1
  1
tt
  1
*
  1
red
  1
*
 70
     0
  1
*
  1
*
  0
XRECORD
  5
3A2F
102
{ACAD_REACTORS
330
39AD
102
}
330
39AD
100
AcDbXrecord
280
     1
  1
TTL
  1
D-TTL*
  1
*
  1
*
 70
     0
  1
*
  1
*
  0
XRECORD
  5
3A30
102
{ACAD_REACTORS
330
39AD
102
}
330
39AD
100
AcDbXrecord
280
     1
  1
TU
  1
*TU*
  1
*
  1
*
 70
     0
  1
*
  1
*
  0
XRECORD
  5
3A31
102
{ACAD_REACTORS
330
39AD
102
}
330
39AD
100
AcDbXrecord
280
     1
  1
tyakugan
  1
*-tyakugan
  1
*
  1
*
 70
     0
  1
*
  1
*
  0
XRECORD
  5
3A32
102
{ACAD_REACTORS
330
39AD
102
}
330
39AD
100
AcDbXrecord
280
     1
  1
vec2
  1
*-c,vec,kigou,touko25
  1
*
  1
*
 70
     0
  1
*
  1
*
  0
XRECORD
  5
3A33
102
{ACAD_REACTORS
330
39AD
102
}
330
39AD
100
AcDbXrecord
280
     1
  1
waku
  1
*waku*
  1
*
  1
*
 70
     0
  1
*
  1
*
  0
XRECORD
  5
528A
102
{ACAD_REACTORS
330
39AD
102
}
330
39AD
100
AcDbXrecord
280
     1
  1
White
  1
*
  1
*White
  1
*
 70
     0
  1
*
  1
*
  0
XRECORD
  5
3A34
102
{ACAD_REACTORS
330
39AD
102
}
330
39AD
100
AcDbXrecord
280
     1
  1
yana
  1
*-kkn-ho*,*-t,000-kkn,ore*
  1
*
  1
*
 70
     0
  1
*
  1
*
  0
XRECORD
  5
3A35
102
{ACAD_REACTORS
330
39AD
102
}
330
39AD
100
AcDbXrecord
280
     1
  1
yellow
  1
*
  1
yellow
  1
*
 70
     0
  1
*
  1
*
  0
XRECORD
  5
528B
102
{ACAD_REACTORS
330
39AD
102
}
330
39AD
100
AcDbXrecord
280
     1
  1
YM
  1
YM*
  1
*
  1
*
 70
     0
  1
*
  1
*
  0
XRECORD
  5
3A37
102
{ACAD_REACTORS
330
39AD
102
}
330
39AD
100
AcDbXrecord
280
     1
  1
シビ
  1
シビ*
  1
*
  1
*
 70
     0
  1
*
  1
*
  0
XRECORD
  5
5290
102
{ACAD_REACTORS
330
39AD
102
}
330
39AD
100
AcDbXrecord
280
     1
  1
デッキレイヤ
  1
0,デッキ_*
  1
*
  1
*
 70
     0
  1
*
  1
*
  0
XRECORD
  5
5291
102
{ACAD_REACTORS
330
39AD
102
}
330
39AD
100
AcDbXrecord
280
     1
  1
ハッチ
  1
ﾊｯﾁ*
  1
*
  1
*
 70
     0
  1
*
  1
*
  0
XRECORD
  5
3A38
102
{ACAD_REACTORS
330
39AD
102
}
330
39AD
100
AcDbXrecord
280
     1
  1
フリーズ
  1
*
  1
*
  1
*
 70
     4
  1
*
  1
*
  0
XRECORD
  5
5292
102
{ACAD_REACTORS
330
39AD
102
}
330
39AD
100
AcDbXrecord
280
     1
  1
ペーパー空間
  1
DSTD_FRAME*
  1
*
  1
*
 70
     0
  1
*
  1
*
  0
XRECORD
  5
5293
102
{ACAD_REACTORS
330
39AD
102
}
330
39AD
100
AcDbXrecord
280
     1
  1
ランプ
  1
*ランプ*
  1
*
  1
*
 70
     0
  1
*
  1
*
  0
XRECORD
  5
3A39
102
{ACAD_REACTORS
330
39AD
102
}
330
39AD
100
AcDbXrecord
280
     1
  1
ロック
  1
*
  1
*
  1
*
 70
   256
  1
*
  1
*
  0
XRECORD
  5
3A3A
102
{ACAD_REACTORS
330
39AD
102
}
330
39AD
100
AcDbXrecord
280
     1
  1
ロックされていない画層を表示
  1
*
  1
*
  1
*
 70
   768
  1
*
  1
*
  0
XRECORD
  5
3A3B
102
{ACAD_REACTORS
330
39AD
102
}
330
39AD
100
AcDbXrecord
280
     1
  1
ロック以外
  1
*
  1
*
  1
*
 70
   768
  1
*
  1
*
  0
XRECORD
  5
5294
102
{ACAD_REACTORS
330
39AD
102
}
330
39AD
100
AcDbXrecord
280
     1
  1
一般
  1
*般*
  1
*
  1
*
 70
     0
  1
*
  1
*
  0
XRECORD
  5
3A44
102
{ACAD_REACTORS
330
39AD
102
}
330
39AD
100
AcDbXrecord
280
     1
  1
上田坂城BP
  1
*
  1
*
  1
*
 70
     0
  1
*
  1
*
  0
XRECORD
  5
3A5D
102
{ACAD_REACTORS
330
39AD
102
}
330
39AD
100
AcDbXrecord
280
     1
  1
両方
  1
_*,-*
  1
*
  1
*
 70
     0
  1
*
  1
*
  0
XRECORD
  5
5299
102
{ACAD_REACTORS
330
39AD
102
}
330
39AD
100
AcDbXrecord
280
     1
  1
丸森横断
  1
*
  1
*
  1
*
 70
     0
  1
*
  1
*
  0
XRECORD
  5
52A8
102
{ACAD_REACTORS
330
39AD
102
}
330
39AD
100
AcDbXrecord
280
     1
  1
作業用
  1
*
  1
*
  1
*
 70
  1024
  1
*
  1
*
  0
XRECORD
  5
52A9
102
{ACAD_REACTORS
330
39AD
102
}
330
39AD
100
AcDbXrecord
280
     1
  1
使用中の画層
  1
*
  1
*
  1
*
 70
    12
  1
*
  1
*
  0
XRECORD
  5
52B5
102
{ACAD_REACTORS
330
39AD
102
}
330
39AD
100
AcDbXrecord
280
     1
  1
側面
  1
側面*
  1
*
  1
*
 70
     0
  1
*
  1
*
  0
XRECORD
  5
52A5
102
{ACAD_REACTORS
330
39AD
102
}
330
39AD
100
AcDbXrecord
280
     1
  1
元図面レイヤ
  1
*
  1
*
  1
*
 70
   256
  1
*
  1
*
  0
XRECORD
  5
3A45
102
{ACAD_REACTORS
330
39AD
102
}
330
39AD
100
AcDbXrecord
280
     1
  1
先行１
  1
*
  1
*
  1
*
 70
     0
  1
*
  1
*
  0
XRECORD
  5
3A46
102
{ACAD_REACTORS
330
39AD
102
}
330
39AD
100
AcDbXrecord
280
     1
  1
先行２
  1
*
  1
*
  1
*
 70
     0
  1
*
  1
*
  0
XRECORD
  5
3A47
102
{ACAD_REACTORS
330
39AD
102
}
330
39AD
100
AcDbXrecord
280
     1
  1
先行３
  1
*
  1
*
  1
*
 70
     0
  1
*
  1
*
  0
XRECORD
  5
3A48
102
{ACAD_REACTORS
330
39AD
102
}
330
39AD
100
AcDbXrecord
280
     1
  1
先行４
  1
*
  1
*
  1
*
 70
     0
  1
*
  1
*
  0
XRECORD
  5
3A49
102
{ACAD_REACTORS
330
39AD
102
}
330
39AD
100
AcDbXrecord
280
     1
  1
全帯
  1
*帯*
  1
*
  1
*
 70
     0
  1
*
  1
*
  0
XRECORD
  5
529C
102
{ACAD_REACTORS
330
39AD
102
}
330
39AD
100
AcDbXrecord
280
     1
  1
共通
  1
全-*
  1
*
  1
*
 70
     0
  1
*
  1
*
  0
XRECORD
  5
52C0
102
{ACAD_REACTORS
330
39AD
102
}
330
39AD
100
AcDbXrecord
280
     1
  1
副道
  1
*副*
  1
*
  1
*
 70
     0
  1
*
  1
*
  0
XRECORD
  5
529D
102
{ACAD_REACTORS
330
39AD
102
}
330
39AD
100
AcDbXrecord
280
     1
  1
協議用添付図形レイヤ
  1
*_協議用添付図形*
  1
*
  1
*
 70
     0
  1
*
  1
*
  0
XRECORD
  5
3A5E
102
{ACAD_REACTORS
330
39AD
102
}
330
39AD
100
AcDbXrecord
280
     1
  1
和の画層のみ
  1
和*
  1
*
  1
*
 70
     0
  1
*
  1
*
  0
XRECORD
  5
3A3E
102
{ACAD_REACTORS
330
39AD
102
}
330
39AD
100
AcDbXrecord
280
     1
  1
圏央道排水計画縦断図
  1
*
  1
*
  1
*
 70
     0
  1
*
  1
*
  0
XRECORD
  5
3A3D
102
{ACAD_REACTORS
330
39AD
102
}
330
39AD
100
AcDbXrecord
280
     1
  1
圏央道縦断図
  1
*
  1
*
  1
*
 70
     0
  1
*
  1
*
  0
XRECORD
  5
52BB
102
{ACAD_REACTORS
330
39AD
102
}
330
39AD
100
AcDbXrecord
280
     1
  1
土留板
  1
*_CONC
  1
*
  1
*
 70
     0
  1
*
  1
*
  0
XRECORD
  5
52BC
102
{ACAD_REACTORS
330
39AD
102
}
330
39AD
100
AcDbXrecord
280
     1
  1
土留板取付詳細図
  1
DSTD_CONC*
  1
*
  1
*
 70
     0
  1
*
  1
*
  0
XRECORD
  5
52B8
102
{ACAD_REACTORS
330
39AD
102
}
330
39AD
100
AcDbXrecord
280
     1
  1
地形レイヤ
  1
0,0_*
  1
*
  1
*
 70
     0
  1
*
  1
*
  0
XRECORD
  5
52B9
102
{ACAD_REACTORS
330
39AD
102
}
330
39AD
100
AcDbXrecord
280
     1
  1
地形以外
  1
n_*
  1
*
  1
*
 70
     0
  1
*
  1
*
  0
XRECORD
  5
3A4B
102
{ACAD_REACTORS
330
39AD
102
}
330
39AD
100
AcDbXrecord
280
     1
  1
地形線等
  1
*-c,l3,l1,p0
  1
*
  1
*
 70
     0
  1
*
  1
*
  0
XRECORD
  5
3A5C
102
{ACAD_REACTORS
330
39AD
102
}
330
39AD
100
AcDbXrecord
280
     1
  1
埋設
  1
埋設*
  1
*
  1
*
 70
     0
  1
*
  1
*
  0
XRECORD
  5
3A4C
102
{ACAD_REACTORS
330
39AD
102
}
330
39AD
100
AcDbXrecord
280
     1
  1
塗り
  1
*塗り*
  1
*
  1
*
 70
     0
  1
*
  1
*
  0
XRECORD
  5
3A5B
102
{ACAD_REACTORS
330
39AD
102
}
330
39AD
100
AcDbXrecord
280
     1
  1
壁
  1
シビ-等*,シビ-ソイル*,シビ-RC*,シビ-カベ*
  1
*
  1
*
 70
     0
  1
*
  1
*
  0
XRECORD
  5
5297
102
{ACAD_REACTORS
330
39AD
102
}
330
39AD
100
AcDbXrecord
280
     1
  1
外部
  1
*$*
  1
*
  1
*
 70
     0
  1
*
  1
*
  0
XRECORD
  5
3A3C
102
{ACAD_REACTORS
330
39AD
102
}
330
39AD
100
AcDbXrecord
280
     1
  1
外部参照
  1
*図
  1
*
  1
*
 70
     0
  1
*
  1
*
  0
XRECORD
  5
5298
102
{ACAD_REACTORS
330
39AD
102
}
330
39AD
100
AcDbXrecord
280
     1
  1
外部参照の非表示画層
  1
*
  1
*
  1
*
 70
     0
  1
*
  1
*
  0
XRECORD
  5
52B0
102
{ACAD_REACTORS
330
39AD
102
}
330
39AD
100
AcDbXrecord
280
     1
  1
寸法
  1
寸法*
  1
*
  1
*
 70
     0
  1
*
  1
*
  0
XRECORD
  5
3A4A
102
{ACAD_REACTORS
330
39AD
102
}
330
39AD
100
AcDbXrecord
280
     1
  1
対策工
  1
T*
  1
*
  1
*
 70
     0
  1
*
  1
*
  0
XRECORD
  5
52B2
102
{ACAD_REACTORS
330
39AD
102
}
330
39AD
100
AcDbXrecord
280
     1
  1
専北
  1
*専北*
  1
*
  1
*
 70
     0
  1
*
  1
*
  0
XRECORD
  5
52B3
102
{ACAD_REACTORS
330
39AD
102
}
330
39AD
100
AcDbXrecord
280
     1
  1
専用
  1
*専*
  1
*
  1
*
 70
     0
  1
*
  1
*
  0
XRECORD
  5
52C1
102
{ACAD_REACTORS
330
39AD
102
}
330
39AD
100
AcDbXrecord
280
     1
  1
平面
  1
平*
  1
*
  1
*
 70
     0
  1
*
  1
*
  0
XRECORD
  5
3A5A
102
{ACAD_REACTORS
330
39AD
102
}
330
39AD
100
AcDbXrecord
280
     1
  1
平面図
  1
*平*
  1
*
  1
*
 70
     0
  1
*
  1
*
  0
XRECORD
  5
3A43
102
{ACAD_REACTORS
330
39AD
102
}
330
39AD
100
AcDbXrecord
280
     1
  1
床止工
  1
*
  1
*
  1
*
 70
     0
  1
*
  1
*
  0
XRECORD
  5
3A40
102
{ACAD_REACTORS
330
39AD
102
}
330
39AD
100
AcDbXrecord
280
     1
  1
後ろ
  1
1-車道*,1-歩道*,1-緑地帯*
  1
*
  1
*
 70
     0
  1
*
  1
*
  0
XRECORD
  5
52AA
102
{ACAD_REACTORS
330
39AD
102
}
330
39AD
100
AcDbXrecord
280
     1
  1
支柱取付部
  1
DSTD_COLMN-DET*
  1
*
  1
*
 70
     0
  1
*
  1
*
  0
XRECORD
  5
52AF
102
{ACAD_REACTORS
330
39AD
102
}
330
39AD
100
AcDbXrecord
280
     1
  1
数量
  1
数-*
  1
*
  1
*
 70
     0
  1
*
  1
*
  0
XRECORD
  5
52B6
102
{ACAD_REACTORS
330
39AD
102
}
330
39AD
100
AcDbXrecord
280
     1
  1
断面
  1
*断面*
  1
*
  1
*
 70
     0
  1
*
  1
*
  0
XRECORD
  5
52B7
102
{ACAD_REACTORS
330
39AD
102
}
330
39AD
100
AcDbXrecord
280
     1
  1
断面図
  1
DSTD_SECT*
  1
*
  1
*
 70
     0
  1
*
  1
*
  0
XRECORD
  5
52AD
102
{ACAD_REACTORS
330
39AD
102
}
330
39AD
100
AcDbXrecord
280
     1
  1
新規作成
  1
n_*
  1
*
  1
*
 70
     0
  1
*
  1
*
  0
XRECORD
  5
52AE
102
{ACAD_REACTORS
330
39AD
102
}
330
39AD
100
AcDbXrecord
280
     1
  1
新規書き込み
  1
*
  1
*
  1
*
 70
   768
  1
*
  1
*
  0
XRECORD
  5
529A
102
{ACAD_REACTORS
330
39AD
102
}
330
39AD
100
AcDbXrecord
280
     1
  1
旗
  1
占用物件平面図|*旗*
  1
*
  1
*
 70
     0
  1
*
  1
*
  0
XRECORD
  5
529B
102
{ACAD_REACTORS
330
39AD
102
}
330
39AD
100
AcDbXrecord
280
     1
  1
旗上
  1
*旗上*
  1
*
  1
*
 70
    12
  1
*
  1
*
  0
XRECORD
  5
52A7
102
{ACAD_REACTORS
330
39AD
102
}
330
39AD
100
AcDbXrecord
280
     1
  1
杭頭詳細図
  1
DSTD_PILE*
  1
*
  1
*
 70
     0
  1
*
  1
*
  0
XRECORD
  5
52C2
102
{ACAD_REACTORS
330
39AD
102
}
330
39AD
100
AcDbXrecord
280
     1
  1
枠
  1
*枠*
  1
*
  1
*
 70
     0
  1
*
  1
*
  0
XRECORD
  5
52C3
102
{ACAD_REACTORS
330
39AD
102
}
330
39AD
100
AcDbXrecord
280
     1
  1
枠Or文字
  1
*枠*,*文字*
  1
*
  1
*
 70
     0
  1
*
  1
*
  0
XRECORD
  5
3A42
102
{ACAD_REACTORS
330
39AD
102
}
330
39AD
100
AcDbXrecord
280
     1
  1
桟橋
  1
*桟橋*
  1
*
  1
*
 70
     0
  1
*
  1
*
  0
XRECORD
  5
5295
102
{ACAD_REACTORS
330
39AD
102
}
330
39AD
100
AcDbXrecord
280
     1
  1
横断
  1
o_*
  1
*
  1
*
 70
     0
  1
*
  1
*
  0
XRECORD
  5
5296
102
{ACAD_REACTORS
330
39AD
102
}
330
39AD
100
AcDbXrecord
280
     1
  1
横断図
  1
横*
  1
*
  1
*
 70
     0
  1
*
  1
*
  0
XRECORD
  5
52B1
102
{ACAD_REACTORS
330
39AD
102
}
330
39AD
100
AcDbXrecord
280
     1
  1
正面図
  1
DSTD_FRONT*
  1
*
  1
*
 70
     0
  1
*
  1
*
  0
XRECORD
  5
3A3F
102
{ACAD_REACTORS
330
39AD
102
}
330
39AD
100
AcDbXrecord
280
     1
  1
現況
  1
*現況*
  1
*
  1
*
 70
     0
  1
*
  1
*
  0
XRECORD
  5
52A6
102
{ACAD_REACTORS
330
39AD
102
}
330
39AD
100
AcDbXrecord
280
     1
  1
現況平面図-
  1
現況平面図-*
  1
*
  1
*
 70
     0
  1
*
  1
*
  0
XRECORD
  5
3A4F
102
{ACAD_REACTORS
330
39AD
102
}
330
39AD
100
AcDbXrecord
280
     1
  1
白
  1
*
  1
7
  1
*
 70
     0
  1
*
  1
*
  0
XRECORD
  5
52B4
102
{ACAD_REACTORS
330
39AD
102
}
330
39AD
100
AcDbXrecord
280
     1
  1
線形
  1
*線形*
  1
*
  1
*
 70
     0
  1
*
  1
*
  0
XRECORD
  5
52AB
102
{ACAD_REACTORS
330
39AD
102
}
330
39AD
100
AcDbXrecord
280
     1
  1
縦断
  1
j_*
  1
*
  1
*
 70
     0
  1
*
  1
*
  0
XRECORD
  5
52BD
102
{ACAD_REACTORS
330
39AD
102
}
330
39AD
100
AcDbXrecord
280
     1
  1
背面図
  1
DSTD_BACK*
  1
*
  1
*
 70
     0
  1
*
  1
*
  0
XRECORD
  5
52AC
102
{ACAD_REACTORS
330
39AD
102
}
330
39AD
100
AcDbXrecord
280
     1
  1
色
  1
色-*
  1
*
  1
*
 70
     0
  1
*
  1
*
  0
XRECORD
  5
3A59
102
{ACAD_REACTORS
330
39AD
102
}
330
39AD
100
AcDbXrecord
280
     1
  1
表枠
  1
表*,枠*
  1
*
  1
*
 70
     0
  1
*
  1
*
  0
XRECORD
  5
52BF
102
{ACAD_REACTORS
330
39AD
102
}
330
39AD
100
AcDbXrecord
280
     1
  1
表示
  1
*
  1
*
  1
*
 70
    12
  1
*
  1
*
  0
XRECORD
  5
3A56
102
{ACAD_REACTORS
330
39AD
102
}
330
39AD
100
AcDbXrecord
280
     1
  1
表示-日技作成画層のみ
  1
日*
  1
*
  1
*
 70
     0
  1
*
  1
*
  0
XRECORD
  5
3A55
102
{ACAD_REACTORS
330
39AD
102
}
330
39AD
100
AcDbXrecord
280
     1
  1
表示-東電作成画層のみ
  1
東*
  1
*
  1
*
 70
     0
  1
*
  1
*
  0
XRECORD
  5
3A57
102
{ACAD_REACTORS
330
39AD
102
}
330
39AD
100
AcDbXrecord
280
     1
  1
表示-福山作成画層のみ
  1
福*
  1
*
  1
*
 70
     0
  1
*
  1
*
  0
XRECORD
  5
3A54
102
{ACAD_REACTORS
330
39AD
102
}
330
39AD
100
AcDbXrecord
280
     1
  1
表示-近代作成画層のみ
  1
近*
  1
*
  1
*
 70
     0
  1
*
  1
*
  0
XRECORD
  5
3A53
102
{ACAD_REACTORS
330
39AD
102
}
330
39AD
100
AcDbXrecord
280
     1
  1
表示-ﾊﾟｼｺﾝ作成画層のみ
  1
ﾊﾟｼｺﾝ*
  1
*
  1
*
 70
     0
  1
*
  1
*
  0
XRECORD
  5
3A58
102
{ACAD_REACTORS
330
39AD
102
}
330
39AD
100
AcDbXrecord
280
     1
  1
表示層のみ表示
  1
*
  1
*
  1
*
 70
    13
  1
*
  1
*
  0
XRECORD
  5
52A4
102
{ACAD_REACTORS
330
39AD
102
}
330
39AD
100
AcDbXrecord
280
     1
  1
見える
  1
*
  1
*
  1
*
 70
    13
  1
*
  1
*
  0
XRECORD
  5
529F
102
{ACAD_REACTORS
330
39AD
102
}
330
39AD
100
AcDbXrecord
280
     1
  1
計画
  1
計画*
  1
*
  1
*
 70
     0
  1
*
  1
*
  0
XRECORD
  5
52A0
102
{ACAD_REACTORS
330
39AD
102
}
330
39AD
100
AcDbXrecord
280
     1
  1
計画１レイヤ
  1
0,0_*,1_*,2_*
  1
*
  1
*
 70
     0
  1
*
  1
*
  0
XRECORD
  5
52A1
102
{ACAD_REACTORS
330
39AD
102
}
330
39AD
100
AcDbXrecord
280
     1
  1
計画２レイヤ
  1
0,0_*,1_*,3_*
  1
*
  1
*
 70
     0
  1
*
  1
*
  0
XRECORD
  5
52A2
102
{ACAD_REACTORS
330
39AD
102
}
330
39AD
100
AcDbXrecord
280
     1
  1
計画３レイヤ
  1
0,0_*,1_*,4_*
  1
*
  1
*
 70
     0
  1
*
  1
*
  0
XRECORD
  5
52A3
102
{ACAD_REACTORS
330
39AD
102
}
330
39AD
100
AcDbXrecord
280
     1
  1
計画４レイヤ
  1
0,0_*,1_*,5_*
  1
*
  1
*
 70
     0
  1
*
  1
*
  0
XRECORD
  5
3A4E
102
{ACAD_REACTORS
330
39AD
102
}
330
39AD
100
AcDbXrecord
280
     1
  1
読み込み時表示層
  1
*
  1
*
  1
*
 70
     0
  1
*
  1
*
  0
XRECORD
  5
3A41
102
{ACAD_REACTORS
330
39AD
102
}
330
39AD
100
AcDbXrecord
280
     1
  1
護岸
  1
*護岸*
  1
*
  1
*
 70
     0
  1
*
  1
*
  0
XRECORD
  5
529E
102
{ACAD_REACTORS
330
39AD
102
}
330
39AD
100
AcDbXrecord
280
     1
  1
躯体
  1
STRC*
  1
*
  1
*
 70
     0
  1
*
  1
*
  0
XRECORD
  5
3A4D
102
{ACAD_REACTORS
330
39AD
102
}
330
39AD
100
AcDbXrecord
280
     1
  1
道路
  1
_*,-*,2-*
  1
*
  1
*
 70
     0
  1
*
  1
*
  0
XRECORD
  5
52BE
102
{ACAD_REACTORS
330
39AD
102
}
330
39AD
100
AcDbXrecord
280
     1
  1
配筋図
  1
DSTD_STEEL*
  1
*
  1
*
 70
     0
  1
*
  1
*
  0
XRECORD
  5
52BA
102
{ACAD_REACTORS
330
39AD
102
}
330
39AD
100
AcDbXrecord
280
     1
  1
鉄筋
  1
BAR*
  1
*
  1
*
 70
     0
  1
*
  1
*
  0
XRECORD
  5
3A50
102
{ACAD_REACTORS
330
39AD
102
}
330
39AD
100
AcDbXrecord
280
     1
  1
非表示
  1
*
  1
*
  1
*
 70
     3
  1
*
  1
*
  0
XRECORD
  5
3A51
102
{ACAD_REACTORS
330
39AD
102
}
330
39AD
100
AcDbXrecord
280
     1
  1
非表示の画層
  1
*
  1
*
  1
*
 70
     3
  1
*
  1
*
  0
XRECORD
  5
3A52
102
{ACAD_REACTORS
330
39AD
102
}
330
39AD
100
AcDbXrecord
280
     1
  1
非表示層のみ表示
  1
*
  1
*
  1
*
 70
     7
  1
*
  1
*
  0
XRECORD
  5
3A36
102
{ACAD_REACTORS
330
39AD
102
}
330
39AD
100
AcDbXrecord
280
     1
  1
２－
  1
2-*
  1
*
  1
*
 70
     0
  1
*
  1
*
  0
XRECORD
  5
528D
102
{ACAD_REACTORS
330
39AD
102
}
330
39AD
100
AcDbXrecord
280
     1
  1
Ａ断面
  1
DSTD_SECT-A*
  1
*
  1
*
 70
     0
  1
*
  1
*
  0
XRECORD
  5
528E
102
{ACAD_REACTORS
330
39AD
102
}
330
39AD
100
AcDbXrecord
280
     1
  1
Ｂ断面
  1
DSTD_SECT-B*
  1
*
  1
*
 70
     0
  1
*
  1
*
  0
XRECORD
  5
528F
102
{ACAD_REACTORS
330
39AD
102
}
330
39AD
100
AcDbXrecord
280
     1
  1
Ｃ断面
  1
DSTD_SECT-C*
  1
*
  1
*
 70
     0
  1
*
  1
*
  0
XRECORD
  5
528C
102
{ACAD_REACTORS
330
39AD
102
}
330
39AD
100
AcDbXrecord
280
     1
  1
ﾊｯﾁ
  1
ﾊｯﾁ*
  1
*
  1
*
 70
     0
  1
*
  1
*
  0
DICTIONARY
  5
8B35
330
8B34
100
AcDbDictionary
280
     1
281
     1
  3
BUMPTILE
360
8B37
  3
DIFFUSETILE
360
8B36
  3
OPACITYTILE
360
8B3A
  3
REFLECTIONTILE
360
8B39
  3
REFRACTIONTILE
360
8B3B
  3
SPECULARTILE
360
8B38
  0
DICTIONARY
  5
8B2D
330
8B2C
100
AcDbDictionary
280
     1
281
     1
  3
BUMPTILE
360
8B2F
  3
DIFFUSETILE
360
8B2E
  3
OPACITYTILE
360
8B32
  3
REFLECTIONTILE
360
8B31
  3
REFRACTIONTILE
360
8B33
  3
SPECULARTILE
360
8B30
  0
DICTIONARY
  5
8B3D
330
8B3C
100
AcDbDictionary
280
     1
281
     1
  3
BUMPTILE
360
8B3F
  3
DIFFUSETILE
360
8B3E
  3
OPACITYTILE
360
8B42
  3
REFLECTIONTILE
360
8B41
  3
REFRACTIONTILE
360
8B43
  3
SPECULARTILE
360
8B40
  0
DICTIONARY
  5
AF5D
330
8B73
100
AcDbDictionary
280
     1
281
     1
  3
ACAD_XREC_ROUNDTRIP
360
AF5E
  0
DICTIONARY
  5
AF07
330
8B5F
100
AcDbDictionary
280
     1
281
     1
  3
ACAD_ROUNDTRIP_2008_TABLESTYLE_CELLSTYLEMAP
360
AF5C
  0
XRECORD
  5
8B37
102
{ACAD_REACTORS
330
8B35
102
}
330
8B35
100
AcDbXrecord
280
     1
270
     1
271
     1
  0
XRECORD
  5
8B36
102
{ACAD_REACTORS
330
8B35
102
}
330
8B35
100
AcDbXrecord
280
     1
270
     1
271
     1
  0
XRECORD
  5
8B3A
102
{ACAD_REACTORS
330
8B35
102
}
330
8B35
100
AcDbXrecord
280
     1
270
     1
271
     1
  0
XRECORD
  5
8B39
102
{ACAD_REACTORS
330
8B35
102
}
330
8B35
100
AcDbXrecord
280
     1
270
     1
271
     1
  0
XRECORD
  5
8B3B
102
{ACAD_REACTORS
330
8B35
102
}
330
8B35
100
AcDbXrecord
280
     1
270
     1
271
     1
  0
XRECORD
  5
8B38
102
{ACAD_REACTORS
330
8B35
102
}
330
8B35
100
AcDbXrecord
280
     1
270
     1
271
     1
  0
XRECORD
  5
8B2F
102
{ACAD_REACTORS
330
8B2D
102
}
330
8B2D
100
AcDbXrecord
280
     1
270
     1
271
     1
  0
XRECORD
  5
8B2E
102
{ACAD_REACTORS
330
8B2D
102
}
330
8B2D
100
AcDbXrecord
280
     1
270
     1
271
     1
  0
XRECORD
  5
8B32
102
{ACAD_REACTORS
330
8B2D
102
}
330
8B2D
100
AcDbXrecord
280
     1
270
     1
271
     1
  0
XRECORD
  5
8B31
102
{ACAD_REACTORS
330
8B2D
102
}
330
8B2D
100
AcDbXrecord
280
     1
270
     1
271
     1
  0
XRECORD
  5
8B33
102
{ACAD_REACTORS
330
8B2D
102
}
330
8B2D
100
AcDbXrecord
280
     1
270
     1
271
     1
  0
XRECORD
  5
8B30
102
{ACAD_REACTORS
330
8B2D
102
}
330
8B2D
100
AcDbXrecord
280
     1
270
     1
271
     1
  0
XRECORD
  5
8B3F
102
{ACAD_REACTORS
330
8B3D
102
}
330
8B3D
100
AcDbXrecord
280
     1
270
     1
271
     1
  0
XRECORD
  5
8B3E
102
{ACAD_REACTORS
330
8B3D
102
}
330
8B3D
100
AcDbXrecord
280
     1
270
     1
271
     1
  0
XRECORD
  5
8B42
102
{ACAD_REACTORS
330
8B3D
102
}
330
8B3D
100
AcDbXrecord
280
     1
270
     1
271
     1
  0
XRECORD
  5
8B41
102
{ACAD_REACTORS
330
8B3D
102
}
330
8B3D
100
AcDbXrecord
280
     1
270
     1
271
     1
  0
XRECORD
  5
8B43
102
{ACAD_REACTORS
330
8B3D
102
}
330
8B3D
100
AcDbXrecord
280
     1
270
     1
271
     1
  0
XRECORD
  5
8B40
102
{ACAD_REACTORS
330
8B3D
102
}
330
8B3D
100
AcDbXrecord
280
     1
270
     1
271
     1
  0
XRECORD
  5
AF5E
102
{ACAD_REACTORS
330
AF5D
102
}
330
AF5D
100
AcDbXrecord
280
     1
102
ACAD_ROUNDTRIP_2012_MLEADER_STYLE
298
     1
  0
CELLSTYLEMAP
  5
AF5C
102
{ACAD_REACTORS
330
AF07
102
}
330
AF07
100
AcDbCellStyleMap
 90
        3
300
CELLSTYLE
  1
TABLEFORMAT_BEGIN
 90
        5
170
     1
 91
        0
 92
    32768
 62
   257
 93
        1
300
CONTENTFORMAT
  1
CONTENTFORMAT_BEGIN
 90
        0
 91
        0
 92
      512
 93
        0
300

 40
0.0
140
1.0
 94
        5
 62
     0
340
F
144
0.25
309
CONTENTFORMAT_END
171
     0
 94
        0
309
TABLEFORMAT_END
  1
CELLSTYLE_BEGIN
 90
        1
 91
        1
300
_TITLE
309
CELLSTYLE_END
300
CELLSTYLE
  1
TABLEFORMAT_BEGIN
 90
        5
170
     1
 91
        0
 92
        0
 62
   257
 93
        1
300
CONTENTFORMAT
  1
CONTENTFORMAT_BEGIN
 90
        0
 91
        0
 92
      512
 93
        0
300

 40
0.0
140
1.0
 94
        5
 62
     0
340
F
144
0.18
309
CONTENTFORMAT_END
171
     0
 94
        0
309
TABLEFORMAT_END
  1
CELLSTYLE_BEGIN
 90
        2
 91
        1
300
_HEADER
309
CELLSTYLE_END
300
CELLSTYLE
  1
TABLEFORMAT_BEGIN
 90
        5
170
     1
 91
        0
 92
        0
 62
   257
 93
        1
300
CONTENTFORMAT
  1
CONTENTFORMAT_BEGIN
 90
        0
 91
        0
 92
      512
 93
        0
300

 40
0.0
140
1.0
 94
        2
 62
     0
340
F
144
0.18
309
CONTENTFORMAT_END
171
     0
 94
        0
309
TABLEFORMAT_END
  1
CELLSTYLE_BEGIN
 90
        3
 91
        2
300
_DATA
309
CELLSTYLE_END
  0
ENDSEC
  0
EOF
