  0
SECTION
  2
HEADER
  9
$ACADVER
  1
AC1015
  9
$ACADMAINTVER
 70
    13
  9
$DWGCODEPAGE
  3
ANSI_932
  9
$INSBASE
 10
0.0
 20
0.0
 30
0.0
  9
$EXTMIN
 10
-1869.205849584721
 20
-2278.497929095773
 30
0.0
  9
$EXTMAX
 10
203.4941504152784
 20
-812.8029290957725
 30
0.0
  9
$LIMMIN
 10
-1869.205849584721
 20
-2278.497929095773
  9
$LIMMAX
 10
203.4941504152784
 20
-812.8029290957725
  9
$ORTHOMODE
 70
     1
  9
$REGENMODE
 70
     1
  9
$FILLMODE
 70
     1
  9
$QTEXTMODE
 70
     0
  9
$MIRRTEXT
 70
     1
  9
$LTSCALE
 40
24.5
  9
$ATTMODE
 70
     1
  9
$TEXTSIZE
 40
0.2
  9
$TRACEWID
 40
0.05
  9
$TEXTSTYLE
  7
STANDARD
  9
$CLAYER
  8
001
  9
$CELTYPE
  6
ByLayer
  9
$CECOLOR
 62
   256
  9
$CELTSCALE
 40
1.0
  9
$DISPSILH
 70
     0
  9
$DIMSCALE
 40
15.0
  9
$DIMASZ
 40
0.75
  9
$DIMEXO
 40
0.625
  9
$DIMDLI
 40
3.75
  9
$DIMRND
 40
0.0
  9
$DIMDLE
 40
0.0
  9
$DIMEXE
 40
0.0
  9
$DIMTP
 40
0.0
  9
$DIMTM
 40
0.0
  9
$DIMTXT
 40
0.75
  9
$DIMCEN
 40
2.5
  9
$DIMTSZ
 40
0.0
  9
$DIMTOL
 70
     0
  9
$DIMLIM
 70
     0
  9
$DIMTIH
 70
     0
  9
$DIMTOH
 70
     0
  9
$DIMSE1
 70
     0
  9
$DIMSE2
 70
     0
  9
$DIMTAD
 70
     1
  9
$DIMZIN
 70
     8
  9
$DIMBLK
  1
Open
  9
$DIMASO
 70
     1
  9
$DIMSHO
 70
     1
  9
$DIMPOST
  1

  9
$DIMAPOST
  1

  9
$DIMALT
 70
     0
  9
$DIMALTD
 70
     2
  9
$DIMALTF
 40
0.0394
  9
$DIMLFAC
 40
1.0
  9
$DIMTOFL
 70
     1
  9
$DIMTVP
 40
1.0
  9
$DIMTIX
 70
     0
  9
$DIMSOXD
 70
     0
  9
$DIMSAH
 70
     0
  9
$DIMBLK1
  1

  9
$DIMBLK2
  1

  9
$DIMSTYLE
  2
ISO-25
  9
$DIMCLRD
 70
     0
  9
$DIMCLRE
 70
     0
  9
$DIMCLRT
 70
     0
  9
$DIMTFAC
 40
1.0
  9
$DIMGAP
 40
0.5
  9
$DIMJUST
 70
     0
  9
$DIMSD1
 70
     0
  9
$DIMSD2
 70
     0
  9
$DIMTOLJ
 70
     1
  9
$DIMTZIN
 70
     0
  9
$DIMALTZ
 70
     0
  9
$DIMALTTZ
 70
     0
  9
$DIMUPT
 70
     0
  9
$DIMDEC
 70
     0
  9
$DIMTDEC
 70
     0
  9
$DIMALTU
 70
     2
  9
$DIMALTTD
 70
     2
  9
$DIMTXSTY
  7
STANDARD
  9
$DIMAUNIT
 70
     0
  9
$DIMADEC
 70
     0
  9
$DIMALTRND
 40
0.0
  9
$DIMAZIN
 70
     0
  9
$DIMDSEP
 70
    46
  9
$DIMATFIT
 70
     3
  9
$DIMFRAC
 70
     0
  9
$DIMLDRBLK
  1

  9
$DIMLUNIT
 70
     2
  9
$DIMLWD
 70
    -2
  9
$DIMLWE
 70
    -2
  9
$DIMTMOVE
 70
     0
  9
$LUNITS
 70
     2
  9
$LUPREC
 70
     4
  9
$SKETCHINC
 40
0.1
  9
$FILLETRAD
 40
0.0
  9
$AUNITS
 70
     0
  9
$AUPREC
 70
     0
  9
$MENU
  1
.
  9
$ELEVATION
 40
0.0
  9
$PELEVATION
 40
0.0
  9
$THICKNESS
 40
0.0
  9
$LIMCHECK
 70
     0
  9
$CHAMFERA
 40
0.0
  9
$CHAMFERB
 40
0.0
  9
$CHAMFERC
 40
0.0
  9
$CHAMFERD
 40
0.0
  9
$SKPOLY
 70
     0
  9
$TDCREATE
 40
2453874.389934525
  9
$TDUCREATE
 40
2453874.014934525
  9
$TDUPDATE
 40
2454278.536926169
  9
$TDUUPDATE
 40
2454278.161926169
  9
$TDINDWG
 40
0.6677951157
  9
$TDUSRTIMER
 40
0.6677951157
  9
$USRTIMER
 70
     1
  9
$ANGBASE
 50
0.0
  9
$ANGDIR
 70
     0
  9
$PDMODE
 70
     0
  9
$PDSIZE
 40
0.0
  9
$PLINEWID
 40
0.0
  9
$SPLFRAME
 70
     0
  9
$SPLINETYPE
 70
     6
  9
$SPLINESEGS
 70
     8
  9
$HANDSEED
  5
8550
  9
$SURFTAB1
 70
     6
  9
$SURFTAB2
 70
     6
  9
$SURFTYPE
 70
     6
  9
$SURFU
 70
     6
  9
$SURFV
 70
     6
  9
$UCSBASE
  2

  9
$UCSNAME
  2

  9
$UCSORG
 10
0.0
 20
0.0
 30
0.0
  9
$UCSXDIR
 10
1.0
 20
0.0
 30
0.0
  9
$UCSYDIR
 10
0.0
 20
1.0
 30
0.0
  9
$UCSORTHOREF
  2

  9
$UCSORTHOVIEW
 70
     0
  9
$UCSORGTOP
 10
0.0
 20
0.0
 30
0.0
  9
$UCSORGBOTTOM
 10
0.0
 20
0.0
 30
0.0
  9
$UCSORGLEFT
 10
0.0
 20
0.0
 30
0.0
  9
$UCSORGRIGHT
 10
0.0
 20
0.0
 30
0.0
  9
$UCSORGFRONT
 10
0.0
 20
0.0
 30
0.0
  9
$UCSORGBACK
 10
0.0
 20
0.0
 30
0.0
  9
$PUCSBASE
  2

  9
$PUCSNAME
  2

  9
$PUCSORG
 10
0.0
 20
0.0
 30
0.0
  9
$PUCSXDIR
 10
1.0
 20
0.0
 30
0.0
  9
$PUCSYDIR
 10
0.0
 20
1.0
 30
0.0
  9
$PUCSORTHOREF
  2

  9
$PUCSORTHOVIEW
 70
     0
  9
$PUCSORGTOP
 10
0.0
 20
0.0
 30
0.0
  9
$PUCSORGBOTTOM
 10
0.0
 20
0.0
 30
0.0
  9
$PUCSORGLEFT
 10
0.0
 20
0.0
 30
0.0
  9
$PUCSORGRIGHT
 10
0.0
 20
0.0
 30
0.0
  9
$PUCSORGFRONT
 10
0.0
 20
0.0
 30
0.0
  9
$PUCSORGBACK
 10
0.0
 20
0.0
 30
0.0
  9
$USERI1
 70
     0
  9
$USERI2
 70
     0
  9
$USERI3
 70
     0
  9
$USERI4
 70
     0
  9
$USERI5
 70
     0
  9
$USERR1
 40
0.0
  9
$USERR2
 40
0.0
  9
$USERR3
 40
0.0
  9
$USERR4
 40
0.0
  9
$USERR5
 40
0.0
  9
$WORLDVIEW
 70
     1
  9
$SHADEDGE
 70
     3
  9
$SHADEDIF
 70
    70
  9
$TILEMODE
 70
     1
  9
$MAXACTVP
 70
    64
  9
$PINSBASE
 10
0.0
 20
0.0
 30
0.0
  9
$PLIMCHECK
 70
     0
  9
$PEXTMIN
 10
1.000000000000000E+20
 20
1.000000000000000E+20
 30
1.000000000000000E+20
  9
$PEXTMAX
 10
-1.000000000000000E+20
 20
-1.000000000000000E+20
 30
-1.000000000000000E+20
  9
$PLIMMIN
 10
0.0
 20
0.0
  9
$PLIMMAX
 10
12.0
 20
9.0
  9
$UNITMODE
 70
     0
  9
$VISRETAIN
 70
     1
  9
$PLINEGEN
 70
     0
  9
$PSLTSCALE
 70
     1
  9
$TREEDEPTH
 70
  3020
  9
$CMLSTYLE
  2
Standard
  9
$CMLJUST
 70
     0
  9
$CMLSCALE
 40
1.0
  9
$PROXYGRAPHICS
 70
     1
  9
$MEASUREMENT
 70
     0
  9
$CELWEIGHT
370
    -1
  9
$ENDCAPS
280
     0
  9
$JOINSTYLE
280
     0
  9
$LWDISPLAY
290
     0
  9
$INSUNITS
 70
     0
  9
$HYPERLINKBASE
  1

  9
$STYLESHEET
  1
ZenithProtter.ctb
  9
$XEDIT
290
     1
  9
$CEPSNTYPE
380
     0
  9
$PSTYLEMODE
290
     1
  9
$FINGERPRINTGUID
  2
{DB2F255E-76A1-4E9F-8FDF-6D653DC3006F}
  9
$VERSIONGUID
  2
{AB738B5B-060D-4A90-B970-EEB276714AC3}
  9
$EXTNAMES
290
     1
  9
$PSVPSCALE
 40
0.0
  9
$OLESTARTUP
290
     0
  0
ENDSEC
  0
SECTION
  2
CLASSES
  0
CLASS
  1
ACDBDICTIONARYWDFLT
  2
AcDbDictionaryWithDefault
  3
AutoCAD 2000
 90
        0
280
     0
281
     0
  0
CLASS
  1
ACDBPLACEHOLDER
  2
AcDbPlaceHolder
  3
AutoCAD 2000
 90
        0
280
     0
281
     0
  0
CLASS
  1
LAYOUT
  2
AcDbLayout
  3
AutoCAD 2000
 90
        0
280
     0
281
     0
  0
CLASS
  1
DICTIONARYVAR
  2
AcDbDictionaryVar
  3
AutoCAD 2000
 90
        0
280
     0
281
     0
  0
ENDSEC
  0
SECTION
  2
TABLES
  0
TABLE
  2
VPORT
  5
8
330
0
100
AcDbSymbolTable
 70
     2
  0
VPORT
  5
854F
330
8
100
AcDbSymbolTableRecord
100
AcDbViewportTableRecord
  2
*Active
 70
     0
 10
0.0
 20
0.0
 11
1.0
 21
1.0
 12
-832.8958031747534
 22
-1545.640315743896
 13
0.0
 23
0.0
 14
1.0
 24
1.0
 15
0.0
 25
0.0
 16
0.0
 26
0.0
 36
1.0
 17
0.0
 27
0.0
 37
0.0
 40
1477.747865887891
 41
1.723287671232876
 42
50.0
 43
0.0
 44
0.0
 50
0.0
 51
0.0
 71
     0
 72
   100
 73
     1
 74
     1
 75
     0
 76
     0
 77
     0
 78
     0
281
     0
 65
     1
110
0.0
120
0.0
130
0.0
111
1.0
121
0.0
131
0.0
112
0.0
122
1.0
132
0.0
 79
     0
146
0.0
  0
ENDTAB
  0
TABLE
  2
LTYPE
  5
5
330
0
100
AcDbSymbolTable
 70
     3
  0
LTYPE
  5
13
330
5
100
AcDbSymbolTableRecord
100
AcDbLinetypeTableRecord
  2
ByBlock
 70
     0
  3

 72
    65
 73
     0
 40
0.0
  0
LTYPE
  5
14
330
5
100
AcDbSymbolTableRecord
100
AcDbLinetypeTableRecord
  2
ByLayer
 70
     0
  3

 72
    65
 73
     0
 40
0.0
  0
LTYPE
  5
15
330
5
100
AcDbSymbolTableRecord
100
AcDbLinetypeTableRecord
  2
CONTINUOUS
 70
     0
  3
Solid-Line
 72
    65
 73
     0
 40
0.0
  0
LTYPE
  5
22
330
5
100
AcDbSymbolTableRecord
100
AcDbLinetypeTableRecord
  2
DASHED
 70
     0
  3
DASHED
 72
    65
 73
     2
 40
0.75
 49
0.5
 74
     0
 49
-0.25
 74
     0
  0
LTYPE
  5
24
330
5
100
AcDbSymbolTableRecord
100
AcDbLinetypeTableRecord
  2
CENTER
 70
     0
  3
CENTER
 72
    65
 73
     4
 40
2.0
 49
1.25
 74
     0
 49
-0.25
 74
     0
 49
0.25
 74
     0
 49
-0.25
 74
     0
  0
ENDTAB
  0
TABLE
  2
LAYER
  5
2
330
0
100
AcDbSymbolTable
 70
     6
  0
LAYER
  5
10
330
2
100
AcDbSymbolTableRecord
100
AcDbLayerTableRecord
  2
0
 70
     0
 62
     7
  6
CONTINUOUS
370
     5
390
F
  0
LAYER
  5
26
330
2
100
AcDbSymbolTableRecord
100
AcDbLayerTableRecord
  2
001
 70
     0
 62
     4
  6
CONTINUOUS
370
     5
390
F
  0
LAYER
  5
586
330
2
100
AcDbSymbolTableRecord
100
AcDbLayerTableRecord
  2
DEFPOINTS
 70
     0
 62
     7
  6
CONTINUOUS
290
     0
370
    -3
390
F
  0
LAYER
  5
587
330
2
100
AcDbSymbolTableRecord
100
AcDbLayerTableRecord
  2
003
 70
     0
 62
     3
  6
CONTINUOUS
370
    13
390
F
  0
LAYER
  5
589
330
2
100
AcDbSymbolTableRecord
100
AcDbLayerTableRecord
  2
004
 70
     0
 62
     6
  6
CENTER
370
    13
390
F
  0
LAYER
  5
2C96
330
2
100
AcDbSymbolTableRecord
100
AcDbLayerTableRecord
  2
002
 70
     0
 62
     1
  6
CONTINUOUS
370
    15
390
F
  0
ENDTAB
  0
TABLE
  2
STYLE
  5
3
330
0
100
AcDbSymbolTable
 70
     1
  0
STYLE
  5
11
330
3
100
AcDbSymbolTableRecord
100
AcDbTextStyleTableRecord
  2
STANDARD
 70
     0
 40
0.0
 41
1.0
 50
0.0
 71
     0
 42
0.2
  3
TXT
  4
BIGFONT
  0
ENDTAB
  0
TABLE
  2
VIEW
  5
6
330
0
100
AcDbSymbolTable
 70
     0
  0
ENDTAB
  0
TABLE
  2
UCS
  5
7
330
0
100
AcDbSymbolTable
 70
     0
  0
ENDTAB
  0
TABLE
  2
APPID
  5
9
330
0
100
AcDbSymbolTable
 70
     1
  0
APPID
  5
12
330
9
100
AcDbSymbolTableRecord
100
AcDbRegAppTableRecord
  2
ACAD
 70
     0
  0
ENDTAB
  0
TABLE
  2
DIMSTYLE
  5
A
330
0
100
AcDbSymbolTable
 70
     2
100
AcDbDimStyleTable
 71
     2
340
58A
340
4BA
  0
DIMSTYLE
105
4BA
330
A
100
AcDbSymbolTableRecord
100
AcDbDimStyleTableRecord
  2
Standard
 70
     0
340
11
  0
DIMSTYLE
105
58A
102
{ACAD_REACTORS
330
8260
330
8261
330
8268
330
82DA
330
7FCE
330
7FE2
330
8025
330
8450
330
852D
102
}
330
A
100
AcDbSymbolTableRecord
100
AcDbDimStyleTableRecord
  2
ISO-25
 70
     0
 40
15.0
 41
0.75
 42
0.625
 43
3.75
 44
0.0
 73
     0
 74
     0
 77
     1
 78
     8
140
0.75
141
2.5
143
0.0394
145
1.0
147
0.5
172
     1
271
     0
272
     0
340
11
342
1390
  0
ENDTAB
  0
TABLE
  2
BLOCK_RECORD
  5
1
330
0
100
AcDbSymbolTable
 70
    12
  0
BLOCK_RECORD
  5
1E
330
1
100
AcDbSymbolTableRecord
100
AcDbBlockTableRecord
  2
*Model_Space
340
21
  0
BLOCK_RECORD
  5
1A
330
1
100
AcDbSymbolTableRecord
100
AcDbBlockTableRecord
  2
*Paper_Space
340
1D
  0
BLOCK_RECORD
  5
1390
330
1
100
AcDbSymbolTableRecord
100
AcDbBlockTableRecord
  2
_Open
340
0
102
{BLKREFS
331
84D1
331
84D2
331
84DA
331
84DB
331
84E3
331
84E4
331
84EE
331
84EF
331
84F7
331
84F8
331
8500
331
8501
331
8509
331
850A
331
851D
331
851E
331
8534
331
8535
102
}
  0
BLOCK_RECORD
  5
6252
330
1
100
AcDbSymbolTableRecord
100
AcDbBlockTableRecord
  2
PART0
340
0
102
{BLKREFS
331
826B
102
}
  0
BLOCK_RECORD
  5
6259
330
1
100
AcDbSymbolTableRecord
100
AcDbBlockTableRecord
  2
PART1
340
0
102
{BLKREFS
331
8297
102
}
  0
BLOCK_RECORD
  5
845A
330
1
100
AcDbSymbolTableRecord
100
AcDbBlockTableRecord
  2
*D3
340
0
  0
BLOCK_RECORD
  5
8468
330
1
100
AcDbSymbolTableRecord
100
AcDbBlockTableRecord
  2
*D4
340
0
  0
BLOCK_RECORD
  5
8474
330
1
100
AcDbSymbolTableRecord
100
AcDbBlockTableRecord
  2
*D5
340
0
  0
BLOCK_RECORD
  5
8480
330
1
100
AcDbSymbolTableRecord
100
AcDbBlockTableRecord
  2
*D6
340
0
  0
BLOCK_RECORD
  5
848E
330
1
100
AcDbSymbolTableRecord
100
AcDbBlockTableRecord
  2
*D7
340
0
  0
BLOCK_RECORD
  5
849A
330
1
100
AcDbSymbolTableRecord
100
AcDbBlockTableRecord
  2
*D8
340
0
  0
BLOCK_RECORD
  5
84A6
330
1
100
AcDbSymbolTableRecord
100
AcDbBlockTableRecord
  2
*D9
340
0
  0
BLOCK_RECORD
  5
84C0
330
1
100
AcDbSymbolTableRecord
100
AcDbBlockTableRecord
  2
*D10
340
0
  0
BLOCK_RECORD
  5
852E
330
1
100
AcDbSymbolTableRecord
100
AcDbBlockTableRecord
  2
*D11
340
0
  0
ENDTAB
  0
ENDSEC
  0
SECTION
  2
BLOCKS
  0
BLOCK
  5
1F
330
1E
100
AcDbEntity
  8
0
100
AcDbBlockBegin
  2
*Model_Space
 70
     0
 10
0.0
 20
0.0
 30
0.0
  3
*Model_Space
  1

  0
ENDBLK
  5
20
330
1E
100
AcDbEntity
  8
0
100
AcDbBlockEnd
  0
BLOCK
  5
1B
330
1A
100
AcDbEntity
 67
     1
  8
0
100
AcDbBlockBegin
  2
*Paper_Space
 70
     0
 10
0.0
 20
0.0
 30
0.0
  3
*Paper_Space
  1

  0
ENDBLK
  5
1C
330
1A
100
AcDbEntity
 67
     1
  8
0
100
AcDbBlockEnd
  0
BLOCK
  5
1394
330
1390
100
AcDbEntity
  8
0
100
AcDbBlockBegin
  2
_Open
 70
     0
 10
0.0
 20
0.0
 30
0.0
  3
_Open
  1

  0
LINE
  5
1391
330
1390
100
AcDbEntity
  8
0
  6
ByBlock
 62
     0
370
    -2
100
AcDbLine
 10
-1.0
 20
0.1666666666666666
 30
0.0
 11
0.0
 21
0.0
 31
0.0
  0
LINE
  5
1392
330
1390
100
AcDbEntity
  8
0
  6
ByBlock
 62
     0
370
    -2
100
AcDbLine
 10
-1.0
 20
-0.1666666666666666
 30
0.0
 11
0.0
 21
0.0
 31
0.0
  0
LINE
  5
1393
330
1390
100
AcDbEntity
  8
0
  6
ByBlock
 62
     0
370
    -2
100
AcDbLine
 10
0.0
 20
0.0
 30
0.0
 11
-1.0
 21
0.0
 31
0.0
  0
ENDBLK
  5
1395
330
1390
100
AcDbEntity
  8
0
100
AcDbBlockEnd
  0
BLOCK
  5
6257
330
6252
100
AcDbEntity
  8
001
100
AcDbBlockBegin
  2
PART0
 70
     0
 10
0.0
 20
0.0
 30
0.0
  3
PART0
  1

  0
LINE
  5
6253
330
6252
100
AcDbEntity
  8
001
100
AcDbLine
 10
1297.760835
 20
539.2649150000001
 30
0.0
 11
1297.760835
 21
586.240683
 31
0.0
  0
TEXT
  5
6254
330
6252
100
AcDbEntity
  8
001
100
AcDbText
 10
1294.260835
 20
539.2649150000001
 30
0.0
 40
11.19999999999999
  1
M64
 50
90.00000300000001
 41
0.859375
100
AcDbText
  0
LWPOLYLINE
  5
6255
330
6252
100
AcDbEntity
  8
001
100
AcDbPolyline
 90
        3
 70
     0
 43
0.0
 10
1299.636479
 20
579.240683
 10
1297.760835
 20
586.240683
 10
1295.885189999999
 20
579.240683
  0
LINE
  5
6256
330
6252
100
AcDbEntity
  8
001
100
AcDbLine
 10
1255.321429
 20
586.240683
 30
0.0
 11
1301.260835
 21
586.240683
 31
0.0
  0
ENDBLK
  5
6258
330
6252
100
AcDbEntity
  8
001
100
AcDbBlockEnd
  0
BLOCK
  5
625E
330
6259
100
AcDbEntity
  8
001
100
AcDbBlockBegin
  2
PART1
 70
     0
 10
0.0
 20
0.0
 30
0.0
  3
PART1
  1

  0
LINE
  5
625A
330
6259
100
AcDbEntity
  8
001
100
AcDbLine
 10
1361.259938999999
 20
290.352174
 30
0.0
 11
1361.259938999999
 21
351.035679
 31
0.0
  0
TEXT
  5
625B
330
6259
100
AcDbEntity
  8
001
100
AcDbText
 10
1357.759939
 20
290.352174
 30
0.0
 40
11.19999999999999
  1
%%c89
 50
90.00000300000001
 41
0.859375
100
AcDbText
  0
LWPOLYLINE
  5
625C
330
6259
100
AcDbEntity
  8
001
100
AcDbPolyline
 90
        3
 70
     0
 43
0.0
 10
1363.135583
 20
344.035679
 10
1361.259938999999
 20
351.035679
 10
1359.384294999999
 20
344.035679
  0
LINE
  5
625D
330
6259
100
AcDbEntity
  8
001
100
AcDbLine
 10
1314.21439
 20
351.035679
 30
0.0
 11
1364.759939
 21
351.035679
 31
0.0
  0
ENDBLK
  5
625F
330
6259
100
AcDbEntity
  8
001
100
AcDbBlockEnd
  0
BLOCK
  5
8466
330
845A
100
AcDbEntity
  8
0
100
AcDbBlockBegin
  2
*D3
 70
     1
 10
0.0
 20
0.0
 30
0.0
  3
*D3
  1

  0
LINE
  5
84CC
330
845A
100
AcDbEntity
  8
001
  6
Continuous
 62
     0
370
    -2
100
AcDbLine
 10
-878.3595690288075
 20
-1916.293104352296
 30
0.0
 11
-878.3595690288075
 21
-1883.423686763381
 31
0.0
  0
LINE
  5
84CD
330
845A
100
AcDbEntity
  8
001
  6
Continuous
 62
     0
370
    -2
100
AcDbLine
 10
-898.3595690288074
 20
-1916.293104352296
 30
0.0
 11
-898.3595690288074
 21
-1883.423686763381
 31
0.0
  0
LINE
  5
84CE
330
845A
100
AcDbEntity
  8
001
  6
Continuous
 62
     0
370
    -2
100
AcDbLine
 10
-909.6095690288075
 20
-1883.423686763381
 30
0.0
 11
-920.8595690288076
 21
-1883.423686763381
 31
0.0
  0
LINE
  5
84CF
330
845A
100
AcDbEntity
  8
001
  6
Continuous
 62
     0
370
    -2
100
AcDbLine
 10
-867.1095690288074
 20
-1883.423686763381
 30
0.0
 11
-821.9220690288075
 21
-1883.423686763381
 31
0.0
  0
LINE
  5
84D0
330
845A
100
AcDbEntity
  8
001
  6
Continuous
 62
     0
370
    -2
100
AcDbLine
 10
-898.3595690288074
 20
-1883.423686763381
 30
0.0
 11
-878.3595690288075
 21
-1883.423686763381
 31
0.0
  0
INSERT
  5
84D1
330
845A
100
AcDbEntity
  8
001
  6
Continuous
 62
     0
370
    -2
100
AcDbBlockReference
  2
_Open
 10
-898.3595690288074
 20
-1883.423686763381
 30
0.0
 41
11.25
 42
11.25
 43
11.25
  0
INSERT
  5
84D2
330
845A
100
AcDbEntity
  8
001
  6
Continuous
 62
     0
370
    -2
100
AcDbBlockReference
  2
_Open
 10
-878.3595690288075
 20
-1883.423686763381
 30
0.0
 41
11.25
 42
11.25
 43
11.25
 50
180.0
  0
MTEXT
  5
84D3
330
845A
100
AcDbEntity
  8
001
  6
Continuous
 62
     0
100
AcDbMText
 10
-837.8595690288076
 20
-1870.298686763382
 30
0.0
 40
11.25
 41
0.0
 71
     5
 72
     1
  1
\A1;20
 73
     1
 44
1.0
  0
POINT
  5
84D4
330
845A
100
AcDbEntity
  8
DEFPOINTS
  6
Continuous
 62
     0
100
AcDbPoint
 10
-878.3595690288075
 20
-1925.668104352296
 30
0.0
  0
POINT
  5
84D5
330
845A
100
AcDbEntity
  8
DEFPOINTS
  6
Continuous
 62
     0
100
AcDbPoint
 10
-898.3595690288074
 20
-1925.668104352296
 30
0.0
  0
POINT
  5
84D6
330
845A
100
AcDbEntity
  8
DEFPOINTS
  6
Continuous
 62
     0
100
AcDbPoint
 10
-898.3595690288074
 20
-1883.423686763381
 30
0.0
  0
ENDBLK
  5
8467
330
845A
100
AcDbEntity
  8
0
100
AcDbBlockEnd
  0
BLOCK
  5
8472
330
8468
100
AcDbEntity
  8
0
100
AcDbBlockBegin
  2
*D4
 70
     1
 10
0.0
 20
0.0
 30
0.0
  3
*D4
  1

  0
LINE
  5
84D7
330
8468
100
AcDbEntity
  8
001
  6
Continuous
 62
     0
370
    -2
100
AcDbLine
 10
-303.4906979415859
 20
-1876.168104352296
 30
0.0
 11
-336.799105968942
 21
-1876.168104352296
 31
0.0
  0
LINE
  5
84D8
330
8468
100
AcDbEntity
  8
001
  6
Continuous
 62
     0
370
    -2
100
AcDbLine
 10
-303.4906979415859
 20
-2081.168104352296
 30
0.0
 11
-336.799105968942
 21
-2081.168104352296
 31
0.0
  0
LINE
  5
84D9
330
8468
100
AcDbEntity
  8
001
  6
Continuous
 62
     0
370
    -2
100
AcDbLine
 10
-336.799105968942
 20
-1887.418104352296
 30
0.0
 11
-336.799105968942
 21
-2069.918104352296
 31
0.0
  0
INSERT
  5
84DA
330
8468
100
AcDbEntity
  8
001
  6
Continuous
 62
     0
370
    -2
100
AcDbBlockReference
  2
_Open
 10
-336.799105968942
 20
-1876.168104352296
 30
0.0
 41
11.25
 42
11.25
 43
11.25
 50
90.0
  0
INSERT
  5
84DB
330
8468
100
AcDbEntity
  8
001
  6
Continuous
 62
     0
370
    -2
100
AcDbBlockReference
  2
_Open
 10
-336.799105968942
 20
-2081.168104352296
 30
0.0
 41
11.25
 42
11.25
 43
11.25
 50
270.0
  0
MTEXT
  5
84DC
330
8468
100
AcDbEntity
  8
001
  6
Continuous
 62
     0
100
AcDbMText
 10
-349.9241059689417
 20
-1978.668104352296
 30
0.0
 40
11.25
 41
0.0
 71
     5
 72
     1
  1
\A1;φ205
 11
0.0000000000000001
 21
1.0
 31
0.0
 73
     1
 44
1.0
  0
POINT
  5
84DD
330
8468
100
AcDbEntity
  8
DEFPOINTS
  6
Continuous
 62
     0
100
AcDbPoint
 10
-294.1156979415859
 20
-1876.168104352296
 30
0.0
  0
POINT
  5
84DE
330
8468
100
AcDbEntity
  8
DEFPOINTS
  6
Continuous
 62
     0
100
AcDbPoint
 10
-294.1156979415859
 20
-2081.168104352296
 30
0.0
  0
POINT
  5
84DF
330
8468
100
AcDbEntity
  8
DEFPOINTS
  6
Continuous
 62
     0
100
AcDbPoint
 10
-336.799105968942
 20
-2081.168104352296
 30
0.0
  0
ENDBLK
  5
8473
330
8468
100
AcDbEntity
  8
0
100
AcDbBlockEnd
  0
BLOCK
  5
847E
330
8474
100
AcDbEntity
  8
0
100
AcDbBlockBegin
  2
*D5
 70
     1
 10
0.0
 20
0.0
 30
0.0
  3
*D5
  1

  0
LINE
  5
84E0
330
8474
100
AcDbEntity
  8
001
  6
Continuous
 62
     0
370
    -2
100
AcDbLine
 10
-904.1364930288077
 20
-1925.668104352296
 30
0.0
 11
-933.4982964324053
 21
-1925.668104352296
 31
0.0
  0
LINE
  5
84E1
330
8474
100
AcDbEntity
  8
001
  6
Continuous
 62
     0
370
    -2
100
AcDbLine
 10
-904.1364930288077
 20
-2031.668104352296
 30
0.0
 11
-933.4982964324053
 21
-2031.668104352296
 31
0.0
  0
LINE
  5
84E2
330
8474
100
AcDbEntity
  8
001
  6
Continuous
 62
     0
370
    -2
100
AcDbLine
 10
-933.4982964324053
 20
-1936.918104352296
 30
0.0
 11
-933.4982964324053
 21
-2020.418104352296
 31
0.0
  0
INSERT
  5
84E3
330
8474
100
AcDbEntity
  8
001
  6
Continuous
 62
     0
370
    -2
100
AcDbBlockReference
  2
_Open
 10
-933.4982964324053
 20
-1925.668104352296
 30
0.0
 41
11.25
 42
11.25
 43
11.25
 50
90.0
  0
INSERT
  5
84E4
330
8474
100
AcDbEntity
  8
001
  6
Continuous
 62
     0
370
    -2
100
AcDbBlockReference
  2
_Open
 10
-933.4982964324053
 20
-2031.668104352296
 30
0.0
 41
11.25
 42
11.25
 43
11.25
 50
270.0
  0
MTEXT
  5
84E5
330
8474
100
AcDbEntity
  8
001
  6
Continuous
 62
     0
100
AcDbMText
 10
-946.6232964324049
 20
-1978.668104352296
 30
0.0
 40
11.25
 41
0.0
 71
     5
 72
     1
  1
\A1;M106
 11
0.0000000000000001
 21
1.0
 31
0.0
 73
     1
 44
1.0
  0
POINT
  5
84E6
330
8474
100
AcDbEntity
  8
DEFPOINTS
  6
Continuous
 62
     0
100
AcDbPoint
 10
-894.7614930288077
 20
-1925.668104352296
 30
0.0
  0
POINT
  5
84E7
330
8474
100
AcDbEntity
  8
DEFPOINTS
  6
Continuous
 62
     0
100
AcDbPoint
 10
-894.7614930288077
 20
-2031.668104352296
 30
0.0
  0
POINT
  5
84E8
330
8474
100
AcDbEntity
  8
DEFPOINTS
  6
Continuous
 62
     0
100
AcDbPoint
 10
-933.4982964324053
 20
-2031.668104352296
 30
0.0
  0
ENDBLK
  5
847F
330
8474
100
AcDbEntity
  8
0
100
AcDbBlockEnd
  0
BLOCK
  5
848C
330
8480
100
AcDbEntity
  8
0
100
AcDbBlockBegin
  2
*D6
 70
     1
 10
0.0
 20
0.0
 30
0.0
  3
*D6
  1

  0
LINE
  5
84E9
330
8480
100
AcDbEntity
  8
001
  6
Continuous
 62
     0
370
    -2
100
AcDbLine
 10
-294.1156979415859
 20
-1866.793104352296
 30
0.0
 11
-294.1156979415859
 21
-1860.906778463375
 31
0.0
  0
LINE
  5
84EA
330
8480
100
AcDbEntity
  8
001
  6
Continuous
 62
     0
370
    -2
100
AcDbLine
 10
-272.1156979415859
 20
-1866.793104352296
 30
0.0
 11
-272.1156979415859
 21
-1860.906778463375
 31
0.0
  0
LINE
  5
84EB
330
8480
100
AcDbEntity
  8
001
  6
Continuous
 62
     0
370
    -2
100
AcDbLine
 10
-305.3656979415859
 20
-1860.906778463375
 30
0.0
 11
-316.6156979415859
 21
-1860.906778463375
 31
0.0
  0
LINE
  5
84EC
330
8480
100
AcDbEntity
  8
001
  6
Continuous
 62
     0
370
    -2
100
AcDbLine
 10
-260.8656979415859
 20
-1860.906778463375
 30
0.0
 11
-215.8656979415859
 21
-1860.906778463375
 31
0.0
  0
LINE
  5
84ED
330
8480
100
AcDbEntity
  8
001
  6
Continuous
 62
     0
370
    -2
100
AcDbLine
 10
-294.1156979415859
 20
-1860.906778463375
 30
0.0
 11
-272.1156979415859
 21
-1860.906778463375
 31
0.0
  0
INSERT
  5
84EE
330
8480
100
AcDbEntity
  8
001
  6
Continuous
 62
     0
370
    -2
100
AcDbBlockReference
  2
_Open
 10
-294.1156979415859
 20
-1860.906778463375
 30
0.0
 41
11.25
 42
11.25
 43
11.25
  0
INSERT
  5
84EF
330
8480
100
AcDbEntity
  8
001
  6
Continuous
 62
     0
370
    -2
100
AcDbBlockReference
  2
_Open
 10
-272.1156979415859
 20
-1860.906778463375
 30
0.0
 41
11.25
 42
11.25
 43
11.25
 50
180.0
  0
MTEXT
  5
84F0
330
8480
100
AcDbEntity
  8
001
  6
Continuous
 62
     0
100
AcDbMText
 10
-232.7406979415859
 20
-1847.781778463375
 30
0.0
 40
11.25
 41
0.0
 71
     5
 72
     1
  1
\A1;22
 73
     1
 44
1.0
  0
POINT
  5
84F1
330
8480
100
AcDbEntity
  8
DEFPOINTS
  6
Continuous
 62
     0
100
AcDbPoint
 10
-294.1156979415859
 20
-1876.168104352296
 30
0.0
  0
POINT
  5
84F2
330
8480
100
AcDbEntity
  8
DEFPOINTS
  6
Continuous
 62
     0
100
AcDbPoint
 10
-272.1156979415859
 20
-1876.168104352296
 30
0.0
  0
POINT
  5
84F3
330
8480
100
AcDbEntity
  8
DEFPOINTS
  6
Continuous
 62
     0
100
AcDbPoint
 10
-272.1156979415859
 20
-1860.906778463375
 30
0.0
  0
ENDBLK
  5
848D
330
8480
100
AcDbEntity
  8
0
100
AcDbBlockEnd
  0
BLOCK
  5
8498
330
848E
100
AcDbEntity
  8
0
100
AcDbBlockBegin
  2
*D7
 70
     1
 10
0.0
 20
0.0
 30
0.0
  3
*D7
  1

  0
LINE
  5
84F4
330
848E
100
AcDbEntity
  8
001
 62
     0
370
    -2
100
AcDbLine
 10
-1122.76969838264
 20
-1277.944017952981
 30
0.0
 11
-1037.389256643132
 21
-1292.998893456465
 31
0.0
  0
LINE
  5
84F5
330
848E
100
AcDbEntity
  8
001
 62
     0
370
    -2
100
AcDbLine
 10
-1138.398034372664
 20
-1366.57671572408
 30
0.0
 11
-1053.017592633156
 21
-1381.631591227562
 31
0.0
  0
LINE
  5
84F6
330
848E
100
AcDbEntity
  8
001
 62
     0
370
    -2
100
AcDbLine
 10
-1039.342798641885
 20
-1304.077980677852
 30
0.0
 11
-1051.064050634403
 21
-1370.552504006175
 31
0.0
  0
INSERT
  5
84F7
330
848E
100
AcDbEntity
  8
001
 62
     0
370
    -2
100
AcDbBlockReference
  2
_Open
 10
-1037.389256643132
 20
-1292.998893456465
 30
0.0
 41
11.25
 42
11.25
 43
11.25
 50
79.9999999999998
  0
INSERT
  5
84F8
330
848E
100
AcDbEntity
  8
001
 62
     0
370
    -2
100
AcDbBlockReference
  2
_Open
 10
-1053.017592633156
 20
-1381.631591227562
 30
0.0
 41
11.25
 42
11.25
 43
11.25
 50
259.9999999999997
  0
MTEXT
  5
84F9
330
848E
100
AcDbEntity
  8
001
 62
     0
100
AcDbMText
 10
-1058.12902639643
 20
-1335.036110010135
 30
0.0
 40
11.25
 41
0.0
 71
     5
 72
     1
  1
\A1;90
 11
0.1736481776669346
 21
0.9848077530122074
 31
0.0
 73
     1
 44
1.0
  0
POINT
  5
84FA
330
848E
100
AcDbEntity
  8
DEFPOINTS
 62
     0
100
AcDbPoint
 10
-1132.00227106713
 20
-1276.316066287354
 30
0.0
  0
POINT
  5
84FB
330
848E
100
AcDbEntity
  8
DEFPOINTS
 62
     0
100
AcDbPoint
 10
-1147.630607057153
 20
-1364.948764058452
 30
0.0
  0
POINT
  5
84FC
330
848E
100
AcDbEntity
  8
DEFPOINTS
 62
     0
100
AcDbPoint
 10
-1053.017592633156
 20
-1381.631591227562
 30
0.0
  0
ENDBLK
  5
8499
330
848E
100
AcDbEntity
  8
0
100
AcDbBlockEnd
  0
BLOCK
  5
84A4
330
849A
100
AcDbEntity
  8
0
100
AcDbBlockBegin
  2
*D8
 70
     1
 10
0.0
 20
0.0
 30
0.0
  3
*D8
  1

  0
LINE
  5
84FD
330
849A
100
AcDbEntity
  8
001
  6
Continuous
 62
     0
370
    -2
100
AcDbLine
 10
-1645.378795795818
 20
-1969.293104352296
 30
0.0
 11
-1645.378795795818
 21
-1885.605956953945
 31
0.0
  0
LINE
  5
84FE
330
849A
100
AcDbEntity
  8
001
  6
Continuous
 62
     0
370
    -2
100
AcDbLine
 10
-1485.378795795817
 20
-1911.293104352296
 30
0.0
 11
-1485.378795795817
 21
-1885.605956953945
 31
0.0
  0
LINE
  5
84FF
330
849A
100
AcDbEntity
  8
001
  6
Continuous
 62
     0
370
    -2
100
AcDbLine
 10
-1634.128795795818
 20
-1885.605956953945
 30
0.0
 11
-1496.628795795817
 21
-1885.605956953945
 31
0.0
  0
INSERT
  5
8500
330
849A
100
AcDbEntity
  8
001
  6
Continuous
 62
     0
370
    -2
100
AcDbBlockReference
  2
_Open
 10
-1645.378795795818
 20
-1885.605956953945
 30
0.0
 41
11.25
 42
11.25
 43
11.25
 50
180.0
  0
INSERT
  5
8501
330
849A
100
AcDbEntity
  8
001
  6
Continuous
 62
     0
370
    -2
100
AcDbBlockReference
  2
_Open
 10
-1485.378795795817
 20
-1885.605956953945
 30
0.0
 41
11.25
 42
11.25
 43
11.25
  0
MTEXT
  5
8502
330
849A
100
AcDbEntity
  8
001
  6
Continuous
 62
     0
100
AcDbMText
 10
-1565.378795795818
 20
-1872.480956953945
 30
0.0
 40
11.25
 41
0.0
 71
     5
 72
     1
  1
\A1;160
 73
     1
 44
1.0
  0
POINT
  5
8503
330
849A
100
AcDbEntity
  8
DEFPOINTS
  6
Continuous
 62
     0
100
AcDbPoint
 10
-1645.378795795818
 20
-1978.668104352296
 30
0.0
  0
POINT
  5
8504
330
849A
100
AcDbEntity
  8
DEFPOINTS
  6
Continuous
 62
     0
100
AcDbPoint
 10
-1485.378795795817
 20
-1920.668104352296
 30
0.0
  0
POINT
  5
8505
330
849A
100
AcDbEntity
  8
DEFPOINTS
  6
Continuous
 62
     0
100
AcDbPoint
 10
-1485.378795795817
 20
-1885.605956953945
 30
0.0
  0
ENDBLK
  5
84A5
330
849A
100
AcDbEntity
  8
0
100
AcDbBlockEnd
  0
BLOCK
  5
84B0
330
84A6
100
AcDbEntity
  8
0
100
AcDbBlockBegin
  2
*D9
 70
     1
 10
0.0
 20
0.0
 30
0.0
  3
*D9
  1

  0
LINE
  5
8506
330
84A6
100
AcDbEntity
  8
001
  6
Continuous
 62
     0
370
    -2
100
AcDbLine
 10
-1478.003795795818
 20
-1918.668104352296
 30
0.0
 11
-1420.088456858036
 21
-1918.668104352296
 31
0.0
  0
LINE
  5
8507
330
84A6
100
AcDbEntity
  8
001
  6
Continuous
 62
     0
370
    -2
100
AcDbLine
 10
-1478.003795795818
 20
-2038.668104352296
 30
0.0
 11
-1420.088456858036
 21
-2038.668104352296
 31
0.0
  0
LINE
  5
8508
330
84A6
100
AcDbEntity
  8
001
  6
Continuous
 62
     0
370
    -2
100
AcDbLine
 10
-1420.088456858036
 20
-1929.918104352296
 30
0.0
 11
-1420.088456858036
 21
-2027.418104352296
 31
0.0
  0
INSERT
  5
8509
330
84A6
100
AcDbEntity
  8
001
  6
Continuous
 62
     0
370
    -2
100
AcDbBlockReference
  2
_Open
 10
-1420.088456858036
 20
-1918.668104352296
 30
0.0
 41
11.25
 42
11.25
 43
11.25
 50
90.0
  0
INSERT
  5
850A
330
84A6
100
AcDbEntity
  8
001
  6
Continuous
 62
     0
370
    -2
100
AcDbBlockReference
  2
_Open
 10
-1420.088456858036
 20
-2038.668104352296
 30
0.0
 41
11.25
 42
11.25
 43
11.25
 50
270.0
  0
MTEXT
  5
850B
330
84A6
100
AcDbEntity
  8
001
  6
Continuous
 62
     0
100
AcDbMText
 10
-1433.213456858035
 20
-1978.668104352296
 30
0.0
 40
11.25
 41
0.0
 71
     5
 72
     1
  1
\A1;φ120
 11
0.0000000000000001
 21
1.0
 31
0.0
 73
     1
 44
1.0
  0
POINT
  5
850C
330
84A6
100
AcDbEntity
  8
DEFPOINTS
  6
Continuous
 62
     0
100
AcDbPoint
 10
-1487.378795795818
 20
-1918.668104352296
 30
0.0
  0
POINT
  5
850D
330
84A6
100
AcDbEntity
  8
DEFPOINTS
  6
Continuous
 62
     0
100
AcDbPoint
 10
-1487.378795795818
 20
-2038.668104352296
 30
0.0
  0
POINT
  5
850E
330
84A6
100
AcDbEntity
  8
DEFPOINTS
  6
Continuous
 62
     0
100
AcDbPoint
 10
-1420.088456858036
 20
-2038.668104352296
 30
0.0
  0
ENDBLK
  5
84B1
330
84A6
100
AcDbEntity
  8
0
100
AcDbBlockEnd
  0
BLOCK
  5
84CA
330
84C0
100
AcDbEntity
  8
0
100
AcDbBlockBegin
  2
*D10
 70
     1
 10
0.0
 20
0.0
 30
0.0
  3
*D10
  1

  0
LINE
  5
851A
330
84C0
100
AcDbEntity
  8
001
 62
     0
370
    -2
100
AcDbLine
 10
-218.7312529306909
 20
-1230.516683948738
 30
0.0
 11
-144.0539187842905
 21
-1230.516683948738
 31
0.0
  0
LINE
  5
851B
330
84C0
100
AcDbEntity
  8
001
 62
     0
370
    -2
100
AcDbLine
 10
-218.7312529306909
 20
-1340.516683948737
 30
0.0
 11
-144.0539187842905
 21
-1340.516683948737
 31
0.0
  0
LINE
  5
851C
330
84C0
100
AcDbEntity
  8
001
 62
     0
370
    -2
100
AcDbLine
 10
-144.0539187842905
 20
-1241.766683948738
 30
0.0
 11
-144.0539187842905
 21
-1329.266683948738
 31
0.0
  0
INSERT
  5
851D
330
84C0
100
AcDbEntity
  8
001
 62
     0
370
    -2
100
AcDbBlockReference
  2
_Open
 10
-144.0539187842905
 20
-1230.516683948738
 30
0.0
 41
11.25
 42
11.25
 43
11.25
 50
90.0
  0
INSERT
  5
851E
330
84C0
100
AcDbEntity
  8
001
 62
     0
370
    -2
100
AcDbBlockReference
  2
_Open
 10
-144.0539187842905
 20
-1340.516683948737
 30
0.0
 41
11.25
 42
11.25
 43
11.25
 50
270.0
  0
MTEXT
  5
851F
330
84C0
100
AcDbEntity
  8
001
 62
     0
100
AcDbMText
 10
-157.1789187842903
 20
-1285.516683948737
 30
0.0
 40
11.25
 41
0.0
 71
     5
 72
     1
  1
\A1;110
 11
0.0000000000000001
 21
1.0
 31
0.0
 73
     1
 44
1.0
  0
POINT
  5
8520
330
84C0
100
AcDbEntity
  8
DEFPOINTS
 62
     0
100
AcDbPoint
 10
-228.1062529306909
 20
-1230.516683948738
 30
0.0
  0
POINT
  5
8521
330
84C0
100
AcDbEntity
  8
DEFPOINTS
 62
     0
100
AcDbPoint
 10
-228.1062529306909
 20
-1340.516683948737
 30
0.0
  0
POINT
  5
8522
330
84C0
100
AcDbEntity
  8
DEFPOINTS
 62
     0
100
AcDbPoint
 10
-144.0539187842905
 20
-1340.516683948737
 30
0.0
  0
ENDBLK
  5
84CB
330
84C0
100
AcDbEntity
  8
0
100
AcDbBlockEnd
  0
BLOCK
  5
853C
330
852E
100
AcDbEntity
  8
0
100
AcDbBlockBegin
  2
*D11
 70
     1
 10
0.0
 20
0.0
 30
0.0
  3
*D11
  1

  0
LINE
  5
852F
330
852E
100
AcDbEntity
  8
001
 62
     0
370
    -2
100
AcDbLine
 10
-1220.739555622094
 20
-1136.544364743241
 30
0.0
 11
-1219.55773965833
 21
-1129.841953353812
 31
0.0
  0
LINE
  5
8530
330
852E
100
AcDbEntity
  8
001
 62
     0
370
    -2
100
AcDbLine
 10
-1269.929902368837
 20
-1136.401937427731
 30
0.0
 11
-1269.929902368837
 21
-1125.43496015936
 31
0.0
  0
ARC
  5
8531
330
852E
100
AcDbEntity
  8
001
 62
     0
370
    -2
100
AcDbCircle
 10
-1269.929902368837
 20
-1415.516683948738
 30
0.0
 40
290.0817237893783
100
AcDbArc
 50
75.55561161871994
 51
77.77780580935996
  0
ARC
  5
8532
330
852E
100
AcDbEntity
  8
001
 62
     0
370
    -2
100
AcDbCircle
 10
-1269.929902368837
 20
-1415.516683948738
 30
0.0
 40
290.0817237893783
100
AcDbArc
 50
92.22219419064
 51
94.44438838128004
  0
ARC
  5
8533
330
852E
100
AcDbEntity
  8
001
 62
     0
370
    -2
100
AcDbCircle
 10
-1269.929902368837
 20
-1415.516683948738
 30
0.0
 40
290.0817237893783
100
AcDbArc
 50
79.99999999999996
 51
90.0
  0
INSERT
  5
8534
330
852E
100
AcDbEntity
  8
001
 62
     0
370
    -2
100
AcDbBlockReference
  2
_Open
 10
-1219.55773965833
 20
-1129.841953353812
 30
0.0
 41
11.25
 42
11.25
 43
11.25
 50
168.8889029046799
  0
INSERT
  5
8535
330
852E
100
AcDbEntity
  8
001
 62
     0
370
    -2
100
AcDbBlockReference
  2
_Open
 10
-1269.929902368837
 20
-1125.43496015936
 30
0.0
 41
11.25
 42
11.25
 43
11.25
 50
1.111097095320008
  0
MTEXT
  5
8536
330
852E
100
AcDbEntity
  8
001
 62
     0
100
AcDbMText
 10
-1243.50369515089
 20
-1113.463753283991
 30
0.0
 40
11.25
 41
0.0
 71
     5
 72
     1
  1
\A1;10°
 11
0.9961946980917455
 21
-0.0871557427476592
 31
0.0
 73
     1
 44
1.0
  0
POINT
  5
8537
330
852E
100
AcDbEntity
  8
DEFPOINTS
 62
     0
100
AcDbPoint
 10
-1236.253469719658
 20
-1127.396389001224
 30
0.0
  0
POINT
  5
8538
330
852E
100
AcDbEntity
  8
DEFPOINTS
 62
     0
100
AcDbPoint
 10
-1269.929902368837
 20
-1611.134017766066
 30
0.0
  0
POINT
  5
8539
330
852E
100
AcDbEntity
  8
DEFPOINTS
 62
     0
100
AcDbPoint
 10
-1304.422516215087
 20
-1611.134017766066
 30
0.0
  0
POINT
  5
853A
330
852E
100
AcDbEntity
  8
DEFPOINTS
 62
     0
100
AcDbPoint
 10
-1222.367507287721
 20
-1145.776937427731
 30
0.0
  0
POINT
  5
853B
330
852E
100
AcDbEntity
  8
DEFPOINTS
 62
     0
100
AcDbPoint
 10
-1269.929902368837
 20
-1145.776937427731
 30
0.0
  0
ENDBLK
  5
853D
330
852E
100
AcDbEntity
  8
0
100
AcDbBlockEnd
  0
ENDSEC
  0
SECTION
  2
ENTITIES
  0
LWPOLYLINE
  5
7FCD
330
1E
100
AcDbEntity
  8
001
  6
DASHED
100
AcDbPolyline
 90
        4
 70
     1
 43
0.0
 10
-1869.205849584721
 20
-2278.497929095773
 10
203.4941504152784
 20
-2278.497929095773
 10
203.4941504152784
 20
-812.8029290957725
 10
-1869.205849584721
 20
-812.8029290957725
  0
DIMENSION
  5
7FCE
330
1E
100
AcDbEntity
  8
001
100
AcDbDimension
  2
*D7
 10
-1053.017592633156
 20
-1381.631591227562
 30
0.0
 11
-1058.12902639643
 21
-1335.036110010135
 31
0.0
 70
    33
 71
     5
 42
89.99999999999932
  3
ISO-25
100
AcDbAlignedDimension
 13
-1132.002271067129
 23
-1276.316066287354
 33
0.0
 14
-1147.630607057153
 24
-1364.948764058452
 34
0.0
  0
LINE
  5
7FCF
330
1E
100
AcDbEntity
  8
003
100
AcDbLine
 10
-1078.626949407963
 20
-1285.727575599853
 30
0.0
 11
-1170.593640494958
 21
-1269.511366634738
 31
0.0
  0
LWPOLYLINE
  5
7FD0
330
1E
100
AcDbEntity
  8
003
100
AcDbPolyline
 90
        4
 70
     0
 43
0.0
 10
-1170.593640494958
 20
-1269.511366634739
 10
-1087.40059094928
 20
-1284.180545877058
 10
-1154.189689708287
 20
-1363.79222081836
 10
-1193.581999828776
 20
-1356.846293711683
  0
LINE
  5
7FD1
330
1E
100
AcDbEntity
  8
003
100
AcDbLine
 10
-1170.593640494958
 20
-1215.516683948737
 30
0.0
 11
-969.9299023688377
 21
-1215.516683948737
 31
0.0
  0
LINE
  5
7FD2
330
1E
100
AcDbEntity
  8
003
100
AcDbLine
 10
-1170.593640494958
 20
-1215.516683948737
 30
0.0
 11
-1067.528634738242
 21
-1215.516683948737
 31
0.0
  0
LWPOLYLINE
  5
7FD3
330
1E
100
AcDbEntity
  8
003
100
AcDbPolyline
 90
        4
 70
     0
 43
0.0
 10
-1170.593640494958
 20
-1269.511366634739
 10
-1066.916589686627
 20
-1287.792427972531
 10
-1150.033006817562
 20
-1386.864541623731
 10
-1197.402259737449
 20
-1378.512064277951
  0
LINE
  5
7FD4
330
1E
100
AcDbEntity
  8
004
  6
CENTER
 62
     6
100
AcDbLine
 10
-999.8481930288081
 20
-1978.668104352296
 30
0.0
 11
-1121.160948028807
 21
-1978.668104352296
 31
0.0
  0
LINE
  5
7FD5
330
1E
100
AcDbEntity
  8
001
100
AcDbLine
 10
-1183.422115028807
 20
-1883.525247352296
 30
0.0
 11
-1020.922115028807
 21
-1883.525247352296
 31
0.0
  0
TEXT
  5
7FD6
330
1E
100
AcDbEntity
  8
001
100
AcDbText
 10
-1183.422115028807
 20
-1883.525247352296
 30
0.0
 40
16.0
  1
両ネジジョイントプレート
 41
0.703125
100
AcDbText
  0
LWPOLYLINE
  5
7FD7
330
1E
100
AcDbEntity
  8
003
  6
Continuous
100
AcDbPolyline
 90
       12
 70
     1
 43
0.0
 10
-1423.65723901678
 20
-1105.516683948738
 10
-1123.692140492932
 20
-1105.516683948738
 10
-1023.692140492932
 20
-1215.516683948737
 10
-973.6746897548565
 20
-1215.516683948737
 10
-973.6746897548565
 20
-1213.216683948738
 10
-1022.674689754856
 20
-1213.216683948738
 10
-1122.674689754856
 20
-1103.216683948738
 10
-1424.674689754856
 20
-1103.216683948738
 10
-1524.674689754856
 20
-1213.216683948738
 10
-1573.674689754856
 20
-1213.216683948738
 10
-1573.674689754856
 20
-1215.516683948737
 10
-1523.657239016781
 20
-1215.516683948737
  0
CIRCLE
  5
7FD8
330
1E
100
AcDbEntity
  8
002
100
AcDbCircle
 10
-1060.108626028807
 20
-1978.668104352296
 30
0.0
 40
43.803009
  0
CIRCLE
  5
7FD9
330
1E
100
AcDbEntity
  8
002
100
AcDbCircle
 10
-1060.108626028807
 20
-1978.668104352296
 30
0.0
 40
49.5
  0
CIRCLE
  5
7FDA
330
1E
100
AcDbEntity
  8
002
100
AcDbCircle
 10
-1060.108626028807
 20
-1978.668104352296
 30
0.0
 40
51.5
  0
CIRCLE
  5
7FDB
330
1E
100
AcDbEntity
  8
002
100
AcDbCircle
 10
-1060.108626028807
 20
-1978.668104352296
 30
0.0
 40
50.5
  0
CIRCLE
  5
7FDC
330
1E
100
AcDbEntity
  8
002
100
AcDbCircle
 10
-1060.108626028807
 20
-1978.668104352296
 30
0.0
 40
42.5
  0
CIRCLE
  5
7FDD
330
1E
100
AcDbEntity
  8
002
100
AcDbCircle
 10
-1060.108626028807
 20
-1978.668104352296
 30
0.0
 40
31.990683
  0
CIRCLE
  5
7FDE
330
1E
100
AcDbEntity
  8
002
100
AcDbCircle
 10
-1060.108626028807
 20
-1978.668104352296
 30
0.0
 40
53.0
  0
LINE
  5
7FDF
330
1E
100
AcDbEntity
  8
003
 62
     3
100
AcDbLine
 10
-1229.685646343809
 20
-1515.930243948737
 30
0.0
 11
-896.4032261606607
 21
-1515.930243948737
 31
0.0
  0
LINE
  5
7FE0
330
1E
100
AcDbEntity
  8
001
 62
     3
100
AcDbLine
 10
161.4941504152784
 20
-2234.747930057645
 30
0.0
 11
-1792.765849584721
 21
-2234.747930057645
 31
0.0
  0
LINE
  5
7FE1
330
1E
100
AcDbEntity
  8
001
 62
     3
100
AcDbLine
 10
-1792.765849584721
 20
-892.4279300576454
 30
0.0
 11
161.4941504152784
 21
-892.4279300576454
 31
0.0
  0
DIMENSION
  5
7FE2
330
1E
100
AcDbEntity
  8
001
  6
Continuous
100
AcDbDimension
  2
*D8
 10
-1485.378795795817
 20
-1885.605956953945
 30
0.0
 11
-1565.378795795818
 21
-1872.480956953945
 31
0.0
 70
    32
 71
     5
 42
160.0000000000004
  3
ISO-25
100
AcDbAlignedDimension
 13
-1645.378795795818
 23
-1978.668104352296
 33
0.0
 14
-1485.378795795817
 24
-1920.668104352296
 34
0.0
100
AcDbRotatedDimension
  0
LINE
  5
7FE3
330
1E
100
AcDbEntity
  8
004
  6
CENTER
 62
     6
100
AcDbLine
 10
-1305.533504795818
 20
-1906.030447352296
 30
0.0
 11
-1305.533504795818
 21
-2048.591635352296
 31
0.0
  0
LINE
  5
7FE4
330
1E
100
AcDbEntity
  8
001
 62
     3
100
AcDbLine
 10
-1792.765849584721
 20
-2234.747930057645
 30
0.0
 11
-1792.765849584721
 21
-892.4279300576454
 31
0.0
  0
LINE
  5
7FE5
330
1E
100
AcDbEntity
  8
004
  6
CENTER
 62
     6
100
AcDbLine
 10
-1654.78983076017
 20
-1978.668104352296
 30
0.0
 11
-1372.631902760171
 21
-1978.668104352296
 31
0.0
  0
LINE
  5
7FE6
330
1E
100
AcDbEntity
  8
002
100
AcDbLine
 10
-1530.017888795818
 20
-1923.717137352296
 30
0.0
 11
-1640.528301795818
 21
-1927.023004352296
 31
0.0
  0
LINE
  5
7FE7
330
1E
100
AcDbEntity
  8
002
100
AcDbLine
 10
-1635.528301795818
 20
-1931.875668352296
 30
0.0
 11
-1528.229290795818
 21
-1928.665869352296
 31
0.0
  0
LINE
  5
7FE8
330
1E
100
AcDbEntity
  8
002
100
AcDbLine
 10
-1530.017888795818
 20
-2033.619072352296
 30
0.0
 11
-1640.528301795818
 21
-2030.313205352296
 31
0.0
  0
ARC
  5
7FE9
330
1E
100
AcDbEntity
  8
002
100
AcDbCircle
 10
-1640.378795795818
 20
-2025.315440352296
 30
0.0
 40
5.0
100
AcDbArc
 50
180.0
 51
268.286534999979
  0
LINE
  5
7FEA
330
1E
100
AcDbEntity
  8
002
100
AcDbLine
 10
-1637.711570795818
 20
-1932.450971352296
 30
0.0
 11
-1632.029361795818
 21
-1926.768762352296
 31
0.0
  0
ARC
  5
7FEB
330
1E
100
AcDbEntity
  8
002
100
AcDbCircle
 10
-1635.378795795818
 20
-1936.873432352296
 30
0.0
 40
5.0
100
AcDbArc
 50
91.71346499996891
 51
180.0
  0
LINE
  5
7FEC
330
1E
100
AcDbEntity
  8
002
100
AcDbLine
 10
-1626.981086795817
 20
-1931.619982352296
 30
0.0
 11
-1621.824595795817
 21
-1926.463492352296
 31
0.0
  0
LINE
  5
7FED
330
1E
100
AcDbEntity
  8
002
100
AcDbLine
 10
-1640.378795795818
 20
-1936.873432352296
 30
0.0
 11
-1640.378795795818
 21
-1978.668104352296
 31
0.0
  0
LINE
  5
7FEE
330
1E
100
AcDbEntity
  8
002
100
AcDbLine
 10
-1644.745734795818
 20
-1929.585640352296
 30
0.0
 11
-1642.813924795818
 21
-1927.653830352296
 31
0.0
  0
LINE
  5
7FEF
330
1E
100
AcDbEntity
  8
002
100
AcDbLine
 10
-1645.378795795818
 20
-1940.118197352296
 30
0.0
 11
-1639.801257795818
 21
-1934.540658352296
 31
0.0
  0
LINE
  5
7FF0
330
1E
100
AcDbEntity
  8
002
100
AcDbLine
 10
-1645.378795795818
 20
-1950.017692352296
 30
0.0
 11
-1640.378795795818
 21
-1945.017692352296
 31
0.0
  0
ARC
  5
7FF1
330
1E
100
AcDbEntity
  8
002
100
AcDbCircle
 10
-1640.378795795818
 20
-1932.020768352296
 30
0.0
 40
5.0
100
AcDbArc
 50
91.71346499996891
 51
180.0
  0
LINE
  5
7FF2
330
1E
100
AcDbEntity
  8
002
100
AcDbLine
 10
-1645.378795795818
 20
-1969.816682352296
 30
0.0
 11
-1640.378795795818
 21
-1964.816682352296
 31
0.0
  0
LINE
  5
7FF3
330
1E
100
AcDbEntity
  8
002
100
AcDbLine
 10
-1645.378795795818
 20
-1974.556547352296
 30
0.0
 11
-1640.378795795818
 21
-1974.687477352296
 31
0.0
  0
LINE
  5
7FF4
330
1E
100
AcDbEntity
  8
002
100
AcDbLine
 10
-1645.378795795818
 20
-1975.056547352296
 30
0.0
 11
-1640.378795795818
 21
-1975.187477352296
 31
0.0
  0
LINE
  5
7FF5
330
1E
100
AcDbEntity
  8
002
100
AcDbLine
 10
-1645.378795795818
 20
-1959.917187352296
 30
0.0
 11
-1640.378795795818
 21
-1954.917187352296
 31
0.0
  0
LINE
  5
7FF6
330
1E
100
AcDbEntity
  8
002
100
AcDbLine
 10
-1645.378795795818
 20
-2025.315440352296
 30
0.0
 11
-1645.378795795818
 21
-1932.020768352296
 31
0.0
  0
LINE
  5
7FF7
330
1E
100
AcDbEntity
  8
002
100
AcDbLine
 10
-1596.366789795817
 20
-1930.704170352296
 30
0.0
 11
-1591.210298795817
 21
-1925.547679352296
 31
0.0
  0
LINE
  5
7FF8
330
1E
100
AcDbEntity
  8
002
100
AcDbLine
 10
-1586.162023795818
 20
-1930.398899352296
 30
0.0
 11
-1581.005533795817
 21
-1925.242408352296
 31
0.0
  0
LINE
  5
7FF9
330
1E
100
AcDbEntity
  8
002
100
AcDbLine
 10
-1616.776320795819
 20
-1931.314711352296
 30
0.0
 11
-1611.619830795817
 21
-1926.158221352296
 31
0.0
  0
LINE
  5
7FFA
330
1E
100
AcDbEntity
  8
002
100
AcDbLine
 10
-1606.571555795818
 20
-1931.009441352296
 30
0.0
 11
-1601.415064795818
 21
-1925.852950352296
 31
0.0
  0
LINE
  5
7FFB
330
1E
100
AcDbEntity
  8
002
100
AcDbLine
 10
-1502.235269795818
 20
-1925.668104352296
 30
0.0
 11
-1495.235269795818
 21
-1918.668104352296
 31
0.0
  0
LINE
  5
7FFC
330
1E
100
AcDbEntity
  8
002
100
AcDbLine
 10
-1517.976872795818
 20
-1927.168104352296
 30
0.0
 11
-1486.244821795818
 21
-1927.168104352296
 31
0.0
  0
LINE
  5
7FFD
330
1E
100
AcDbEntity
  8
002
100
AcDbLine
 10
-1515.378795795818
 20
-1925.668104352296
 30
0.0
 11
-1485.378795795818
 21
-1925.668104352296
 31
0.0
  0
LINE
  5
7FFE
330
1E
100
AcDbEntity
  8
002
100
AcDbLine
 10
-1487.378795795818
 20
-1918.668104352296
 30
0.0
 11
-1522.547844795818
 21
-1918.668104352296
 31
0.0
  0
LINE
  5
7FFF
330
1E
100
AcDbEntity
  8
002
100
AcDbLine
 10
-1523.378795795818
 20
-1994.197247352296
 30
0.0
 11
-1487.378795795818
 21
-1994.197247352296
 31
0.0
  0
LINE
  5
8000
330
1E
100
AcDbEntity
  8
002
100
AcDbLine
 10
-1523.378795795818
 20
-1993.197247352296
 30
0.0
 11
-1487.378795795818
 21
-1993.197247352296
 31
0.0
  0
LINE
  5
8001
330
1E
100
AcDbEntity
  8
002
100
AcDbLine
 10
-1523.378795795818
 20
-2021.094511352296
 30
0.0
 11
-1487.378795795818
 21
-2021.094511352296
 31
0.0
  0
LINE
  5
8002
330
1E
100
AcDbEntity
  8
002
100
AcDbLine
 10
-1524.878795795818
 20
-2037.123654352296
 30
0.0
 11
-1487.378795795818
 21
-2037.123654352296
 31
0.0
  0
LINE
  5
8003
330
1E
100
AcDbEntity
  8
002
100
AcDbLine
 10
-1524.378795795818
 20
-2036.623654352296
 30
0.0
 11
-1487.378795795818
 21
-2036.623654352296
 31
0.0
  0
LINE
  5
8004
330
1E
100
AcDbEntity
  8
002
100
AcDbLine
 10
-1487.378795795818
 20
-2038.668104352296
 30
0.0
 11
-1523.680224795817
 21
-2038.668104352296
 31
0.0
  0
LINE
  5
8005
330
1E
100
AcDbEntity
  8
002
100
AcDbLine
 10
-1525.378795795818
 20
-2038.140928352296
 30
0.0
 11
-1525.378795795818
 21
-1978.668104352296
 31
0.0
  0
ARC
  5
8006
330
1E
100
AcDbEntity
  8
002
100
AcDbCircle
 10
-1524.878795795818
 20
-2037.623654352296
 30
0.0
 40
0.5
100
AcDbArc
 50
90.0
 51
180.0
  0
ARC
  5
8007
330
1E
100
AcDbEntity
  8
002
100
AcDbCircle
 10
-1524.378795795818
 20
-2037.623654352296
 30
0.0
 40
1.0
100
AcDbArc
 50
90.0
 51
180.0
  0
ARC
  5
8008
330
1E
100
AcDbEntity
  8
002
100
AcDbCircle
 10
-1530.107591795817
 20
-2036.617730352296
 30
0.0
 40
3.0
100
AcDbArc
 50
30.96375700000354
 51
88.28653499997901
  0
ARC
  5
8009
330
1E
100
AcDbEntity
  8
002
100
AcDbCircle
 10
-1523.680224795817
 20
-2035.668104352296
 30
0.0
 40
3.0
100
AcDbArc
 50
210.9637570000035
 51
270.0
  0
LINE
  5
800A
330
1E
100
AcDbEntity
  8
002
100
AcDbLine
 10
-1527.535112795818
 20
-2035.074243352296
 30
0.0
 11
-1526.252703795818
 21
-2037.211592352296
 31
0.0
  0
LINE
  5
800B
330
1E
100
AcDbEntity
  8
002
100
AcDbLine
 10
-1555.547726795818
 20
-1929.483087352296
 30
0.0
 11
-1550.391235795818
 21
-1924.326596352296
 31
0.0
  0
LINE
  5
800C
330
1E
100
AcDbEntity
  8
002
100
AcDbLine
 10
-1545.342960795817
 20
-1929.177816352296
 30
0.0
 11
-1540.186470795818
 21
-1924.021325352296
 31
0.0
  0
LINE
  5
800D
330
1E
100
AcDbEntity
  8
002
100
AcDbLine
 10
-1561.813147795818
 20
-1924.668277352296
 30
0.0
 11
-1561.944238795818
 21
-1929.674436352296
 31
0.0
  0
LINE
  5
800E
330
1E
100
AcDbEntity
  8
002
100
AcDbLine
 10
-1562.313931795818
 20
-1924.683258352296
 30
0.0
 11
-1562.445022795817
 21
-1929.689416352296
 31
0.0
  0
LINE
  5
800F
330
1E
100
AcDbEntity
  8
002
100
AcDbLine
 10
-1568.938862795818
 20
-1924.881440352296
 30
0.0
 11
-1568.807977795818
 21
-1929.879761352296
 31
0.0
  0
LINE
  5
8010
330
1E
100
AcDbEntity
  8
002
100
AcDbLine
 10
-1568.438862795818
 20
-1924.866482352296
 30
0.0
 11
-1568.307977795818
 21
-1929.864804352296
 31
0.0
  0
LINE
  5
8011
330
1E
100
AcDbEntity
  8
002
  6
CENTER
100
AcDbLine
 10
-1565.378795795818
 20
-1933.641878352296
 30
0.0
 11
-1565.378795795818
 21
-1920.039419352296
 31
0.0
  0
LINE
  5
8012
330
1E
100
AcDbEntity
  8
002
100
AcDbLine
 10
-1561.844897795817
 20
-1925.880763352296
 30
0.0
 11
-1560.596001795818
 21
-1924.631867352296
 31
0.0
  0
LINE
  5
8013
330
1E
100
AcDbEntity
  8
002
100
AcDbLine
 10
-1575.957258795818
 20
-1930.093628352296
 30
0.0
 11
-1570.800767795818
 21
-1924.937138352296
 31
0.0
  0
LINE
  5
8014
330
1E
100
AcDbEntity
  8
002
100
AcDbLine
 10
-1512.134764795818
 20
-1925.668104352296
 30
0.0
 11
-1505.134764795818
 21
-1918.668104352296
 31
0.0
  0
LINE
  5
8015
330
1E
100
AcDbEntity
  8
002
100
AcDbLine
 10
-1517.971961795818
 20
-1927.165269352296
 30
0.0
 11
-1515.378795795818
 21
-1925.668104352296
 31
0.0
  0
LINE
  5
8016
330
1E
100
AcDbEntity
  8
002
100
AcDbLine
 10
-1515.378795795818
 20
-1925.668104352296
 30
0.0
 11
-1515.378795795818
 21
-1954.176760352296
 31
0.0
  0
LINE
  5
8017
330
1E
100
AcDbEntity
  8
002
100
AcDbLine
 10
-1517.976872795818
 20
-1927.168104352296
 30
0.0
 11
-1517.976872795818
 21
-1978.668104352296
 31
0.0
  0
LINE
  5
8018
330
1E
100
AcDbEntity
  8
002
100
AcDbLine
 10
-1535.138195795818
 20
-1928.872545352296
 30
0.0
 11
-1529.981476795818
 21
-1923.715826352296
 31
0.0
  0
ARC
  5
8019
330
1E
100
AcDbEntity
  8
002
100
AcDbCircle
 10
-1523.680224795817
 20
-1921.668104352296
 30
0.0
 40
3.0
100
AcDbArc
 50
90.0
 51
149.0362429999964
  0
ARC
  5
801A
330
1E
100
AcDbEntity
  8
002
100
AcDbCircle
 10
-1530.107591795817
 20
-1920.718478352296
 30
0.0
 40
3.0
100
AcDbArc
 50
271.7134649999688
 51
329.0362429999964
  0
LINE
  5
801B
330
1E
100
AcDbEntity
  8
002
100
AcDbLine
 10
-1526.252703795818
 20
-1920.124617352296
 30
0.0
 11
-1526.835308795817
 21
-1921.095626352296
 31
0.0
  0
LINE
  5
801C
330
1E
100
AcDbEntity
  8
002
100
AcDbLine
 10
-1527.535112795818
 20
-1922.261966352296
 30
0.0
 11
-1526.835308795817
 21
-1921.095626352296
 31
0.0
  0
LINE
  5
801D
330
1E
100
AcDbEntity
  8
002
100
AcDbLine
 10
-1523.680224795817
 20
-1918.668104352296
 30
0.0
 11
-1522.547844795818
 21
-1918.668104352296
 31
0.0
  0
LINE
  5
801E
330
1E
100
AcDbEntity
  8
002
100
AcDbLine
 10
-1525.034259795817
 20
-1928.668104352296
 30
0.0
 11
-1515.034259795817
 21
-1918.668104352296
 31
0.0
  0
LINE
  5
801F
330
1E
100
AcDbEntity
  8
002
100
AcDbLine
 10
-1528.378795795818
 20
-1928.668104352296
 30
0.0
 11
-1517.976872795818
 21
-1928.668104352296
 31
0.0
  0
ARC
  5
8020
330
1E
100
AcDbEntity
  8
002
100
AcDbCircle
 10
-1523.378795795818
 20
-1996.197247352296
 30
0.0
 40
2.0
100
AcDbArc
 50
90.0
 51
180.0
  0
ARC
  5
8021
330
1E
100
AcDbEntity
  8
002
100
AcDbCircle
 10
-1523.378795795818
 20
-1995.197247352296
 30
0.0
 40
2.0
100
AcDbArc
 50
90.0
 51
180.0
  0
ARC
  5
8022
330
1E
100
AcDbEntity
  8
002
100
AcDbCircle
 10
-1523.378795795818
 20
-2019.094511352296
 30
0.0
 40
2.0
100
AcDbArc
 50
180.0
 51
270.0
  0
LINE
  5
8023
330
1E
100
AcDbEntity
  8
002
100
AcDbLine
 10
-1487.378795795818
 20
-2038.668104352296
 30
0.0
 11
-1487.378795795818
 21
-1978.668104352296
 31
0.0
  0
LINE
  5
8024
330
1E
100
AcDbEntity
  8
002
100
AcDbLine
 10
-1485.378795795818
 20
-2036.668104352296
 30
0.0
 11
-1485.378795795818
 21
-1920.668104352296
 31
0.0
  0
DIMENSION
  5
8025
330
1E
100
AcDbEntity
  8
001
  6
Continuous
100
AcDbDimension
  2
*D9
 10
-1420.088456858036
 20
-2038.668104352296
 30
0.0
 11
-1433.213456858035
 21
-1978.668104352296
 31
0.0
 70
    32
  1
φ120
 71
     5
 42
120.0
  3
ISO-25
100
AcDbAlignedDimension
 13
-1487.378795795818
 23
-1918.668104352296
 33
0.0
 14
-1487.378795795818
 24
-2038.668104352296
 34
0.0
 50
90.0
100
AcDbRotatedDimension
  0
LINE
  5
8026
330
1E
100
AcDbEntity
  8
002
100
AcDbLine
 10
-1487.378795795818
 20
-2038.668104352296
 30
0.0
 11
-1485.378795795818
 21
-2036.668104352296
 31
0.0
  0
LINE
  5
8027
330
1E
100
AcDbEntity
  8
001
100
AcDbLine
 10
-1483.816769689291
 20
-1926.649488174017
 30
0.0
 11
-1445.988470839249
 21
-1926.649488174017
 31
0.0
  0
TEXT
  5
8028
330
1E
100
AcDbEntity
  8
001
100
AcDbText
 10
-1452.988469839248
 20
-1999.628236174017
 30
0.0
 40
11.19999999999999
  1
M106
 50
90.00000299998466
 41
0.9821429999999999
100
AcDbText
  0
LINE
  5
8029
330
1E
100
AcDbEntity
  8
002
100
AcDbLine
 10
-1492.335774795818
 20
-1925.668104352296
 30
0.0
 11
-1486.357285795818
 21
-1919.689615352296
 31
0.0
  0
LINE
  5
802A
330
1E
100
AcDbEntity
  8
002
100
AcDbLine
 10
-1486.249853795818
 20
-1927.176820352296
 30
0.0
 11
-1485.378795795818
 21
-1925.668104352296
 31
0.0
  0
LINE
  5
802B
330
1E
100
AcDbEntity
  8
002
100
AcDbLine
 10
-1487.378795795818
 20
-1918.668104352296
 30
0.0
 11
-1485.378795795818
 21
-1920.668104352296
 31
0.0
  0
LINE
  5
802C
330
1E
100
AcDbEntity
  8
002
100
AcDbLine
 10
-1486.244821795818
 20
-1927.168104352296
 30
0.0
 11
-1486.244821795818
 21
-1954.176760352296
 31
0.0
  0
LWPOLYLINE
  5
802D
330
1E
100
AcDbEntity
  8
001
100
AcDbPolyline
 90
        3
 70
     0
 43
0.0
 10
-1447.612825839249
 20
-1933.649488174017
 10
-1449.488470839249
 20
-1926.649488174017
 10
-1451.364114839249
 20
-1933.649488174017
  0
LINE
  5
802E
330
1E
100
AcDbEntity
  8
001
100
AcDbLine
 10
-1449.488470839249
 20
-1999.628236174017
 30
0.0
 11
-1449.488470839249
 21
-1926.649488174017
 31
0.0
  0
ARC
  5
802F
330
1E
100
AcDbEntity
  8
002
100
AcDbCircle
 10
-1305.533504795818
 20
-1978.668104352296
 30
0.0
 40
60.0
100
AcDbArc
 50
15.97116099998646
 51
44.02883900000989
  0
LINE
  5
8030
330
1E
100
AcDbEntity
  8
004
  6
CENTER
 62
     6
100
AcDbLine
 10
-1373.861916795817
 20
-1978.668104352296
 30
0.0
 11
-1245.698711795817
 21
-1978.668104352296
 31
0.0
  0
ARC
  5
8031
330
1E
100
AcDbEntity
  8
002
100
AcDbCircle
 10
-1305.533504795818
 20
-1978.668104352296
 30
0.0
 40
60.0
100
AcDbArc
 50
315.97116099999
 51
344.0288390000135
  0
CIRCLE
  5
8032
330
1E
100
AcDbEntity
  8
002
100
AcDbCircle
 10
-1305.533504795818
 20
-1978.668104352296
 30
0.0
 40
53.0
  0
ARC
  5
8033
330
1E
100
AcDbEntity
  8
002
100
AcDbCircle
 10
-1305.533504795818
 20
-1978.668104352296
 30
0.0
 40
57.0
100
AcDbArc
 50
105.9879069999866
 51
134.0120929999902
  0
ARC
  5
8034
330
1E
100
AcDbEntity
  8
002
100
AcDbCircle
 10
-1305.533504795818
 20
-1978.668104352296
 30
0.0
 40
57.0
100
AcDbArc
 50
225.9879070000097
 51
254.0120930000133
  0
CIRCLE
  5
8035
330
1E
100
AcDbEntity
  8
002
100
AcDbCircle
 10
-1305.533504795818
 20
-1978.668104352296
 30
0.0
 40
51.5
  0
CIRCLE
  5
8036
330
1E
100
AcDbEntity
  8
002
100
AcDbCircle
 10
-1305.533504795818
 20
-1978.668104352296
 30
0.0
 40
50.0
  0
CIRCLE
  5
8037
330
1E
100
AcDbEntity
  8
002
100
AcDbCircle
 10
-1305.533504795818
 20
-1978.668104352296
 30
0.0
 40
46.5
  0
ARC
  5
8038
330
1E
100
AcDbEntity
  8
002
100
AcDbCircle
 10
-1345.832495795818
 20
-1936.954901352296
 30
0.0
 40
1.0
100
AcDbArc
 50
225.0000000000091
 51
314.0120929999902
  0
ARC
  5
8039
330
1E
100
AcDbEntity
  8
002
100
AcDbCircle
 10
-1347.953918795818
 20
-1937.661904352296
 30
0.0
 40
1.0
100
AcDbArc
 50
45.00000000000921
 51
135.9711609999901
  0
LINE
  5
803A
330
1E
100
AcDbEntity
  8
002
100
AcDbLine
 10
-1346.539601795818
 20
-1937.662007352296
 30
0.0
 11
-1347.246812795818
 21
-1936.954797352296
 31
0.0
  0
ARC
  5
803B
330
1E
100
AcDbEntity
  8
002
100
AcDbCircle
 10
-1362.256123795818
 20
-1962.434048352296
 30
0.0
 40
1.0
100
AcDbArc
 50
164.0288390000135
 51
255.0000000000055
  0
ARC
  5
803C
330
1E
100
AcDbEntity
  8
002
100
AcDbCircle
 10
-1361.807694795817
 20
-1964.624757352296
 30
0.0
 40
1.0
100
AcDbArc
 50
345.98790699999
 51
75.00000000000555
  0
LINE
  5
803D
330
1E
100
AcDbEntity
  8
002
100
AcDbLine
 10
-1362.514942795818
 20
-1963.399974352296
 30
0.0
 11
-1361.548875795818
 21
-1963.658831352296
 31
0.0
  0
ARC
  5
803E
330
1E
100
AcDbEntity
  8
002
100
AcDbCircle
 10
-1305.533504795818
 20
-1978.668104352296
 30
0.0
 40
60.0
100
AcDbArc
 50
135.9711609999901
 51
164.0288390000135
  0
ARC
  5
803F
330
1E
100
AcDbEntity
  8
002
100
AcDbCircle
 10
-1361.807694795817
 20
-1992.711452352296
 30
0.0
 40
1.0
100
AcDbArc
 50
284.9999999999944
 51
14.01209300000997
  0
ARC
  5
8040
330
1E
100
AcDbEntity
  8
002
100
AcDbCircle
 10
-1362.256123795818
 20
-1994.902160352296
 30
0.0
 40
1.0
100
AcDbArc
 50
104.9999999999944
 51
195.9711609999864
  0
LINE
  5
8041
330
1E
100
AcDbEntity
  8
002
100
AcDbLine
 10
-1361.548875795818
 20
-1993.677378352296
 30
0.0
 11
-1362.514942795818
 21
-1993.936235352296
 31
0.0
  0
ARC
  5
8042
330
1E
100
AcDbEntity
  8
002
100
AcDbCircle
 10
-1347.953918795818
 20
-2019.674305352296
 30
0.0
 40
1.0
100
AcDbArc
 50
224.0288390000098
 51
314.9999999999907
  0
ARC
  5
8043
330
1E
100
AcDbEntity
  8
002
100
AcDbCircle
 10
-1345.832495795818
 20
-2020.381308352296
 30
0.0
 40
1.0
100
AcDbArc
 50
45.98790700000972
 51
134.9999999999907
  0
LINE
  5
8044
330
1E
100
AcDbEntity
  8
002
100
AcDbLine
 10
-1347.246812795818
 20
-2020.381412352296
 30
0.0
 11
-1346.539601795818
 21
-2019.674202352296
 31
0.0
  0
ARC
  5
8045
330
1E
100
AcDbEntity
  8
002
100
AcDbCircle
 10
-1305.533504795818
 20
-1978.668104352296
 30
0.0
 40
60.0
100
AcDbArc
 50
195.9711609999864
 51
224.0288390000098
  0
ARC
  5
8046
330
1E
100
AcDbEntity
  8
002
100
AcDbCircle
 10
-1305.533504795818
 20
-1978.668104352296
 30
0.0
 40
57.0
100
AcDbArc
 50
165.98790699999
 51
194.0120930000099
  0
ARC
  5
8047
330
1E
100
AcDbEntity
  8
002
100
AcDbCircle
 10
-1305.533504795818
 20
-1978.668104352296
 30
0.0
 40
57.0
100
AcDbArc
 50
285.9879069999866
 51
314.0120929999902
  0
ARC
  5
8048
330
1E
100
AcDbEntity
  8
002
 62
     1
100
AcDbCircle
 10
-1305.533504795818
 20
-1978.668104352296
 30
0.0
 40
60.0
100
AcDbArc
 50
255.9711610000016
 51
284.0288389999983
  0
ARC
  5
8049
330
1E
100
AcDbEntity
  8
002
100
AcDbCircle
 10
-1321.508703795818
 20
-2034.424656352296
 30
0.0
 40
1.0
100
AcDbArc
 50
345.0000000000055
 51
74.01209300001333
  0
ARC
  5
804A
330
1E
100
AcDbEntity
  8
002
 62
     1
100
AcDbCircle
 10
-1319.835709795817
 20
-2035.908361352296
 30
0.0
 40
1.0
100
AcDbArc
 50
165.0000000000055
 51
255.9711610000016
  0
LINE
  5
804B
330
1E
100
AcDbEntity
  8
002
 62
     1
100
AcDbLine
 10
-1320.542778795817
 20
-2034.683475352296
 30
0.0
 11
-1320.801634795818
 21
-2035.649542352296
 31
0.0
  0
ARC
  5
804C
330
1E
100
AcDbEntity
  8
002
100
AcDbCircle
 10
-1289.558305795818
 20
-2034.424656352296
 30
0.0
 40
1.0
100
AcDbArc
 50
105.9879069999866
 51
194.9999999999944
  0
ARC
  5
804D
330
1E
100
AcDbEntity
  8
002
 62
     1
100
AcDbCircle
 10
-1291.231300795818
 20
-2035.908361352296
 30
0.0
 40
1.0
100
AcDbArc
 50
284.0288389999983
 51
14.99999999999445
  0
LINE
  5
804E
330
1E
100
AcDbEntity
  8
002
 62
     1
100
AcDbLine
 10
-1290.524231795818
 20
-2034.683475352296
 30
0.0
 11
-1290.265374795818
 21
-2035.649542352296
 31
0.0
  0
ARC
  5
804F
330
1E
100
AcDbEntity
  8
002
100
AcDbCircle
 10
-1305.533504795818
 20
-1978.668104352296
 30
0.0
 40
60.0
100
AcDbArc
 50
75.97116100000163
 51
104.0288389999983
  0
CIRCLE
  5
8050
330
1E
100
AcDbEntity
  8
002
100
AcDbCircle
 10
-1305.533504795818
 20
-1978.668104352296
 30
0.0
 40
3.480626999999999
  0
CIRCLE
  5
8051
330
1E
100
AcDbEntity
  8
002
100
AcDbCircle
 10
-1305.533504795818
 20
-1978.668104352296
 30
0.0
 40
3.980626999999999
  0
ARC
  5
8052
330
1E
100
AcDbEntity
  8
002
100
AcDbCircle
 10
-1319.835709795817
 20
-1921.427848352296
 30
0.0
 40
1.0
100
AcDbArc
 50
104.0288389999983
 51
194.9999999999944
  0
ARC
  5
8053
330
1E
100
AcDbEntity
  8
002
100
AcDbCircle
 10
-1321.508703795818
 20
-1922.911553352296
 30
0.0
 40
1.0
100
AcDbArc
 50
285.9879069999866
 51
14.99999999999445
  0
LINE
  5
8054
330
1E
100
AcDbEntity
  8
002
100
AcDbLine
 10
-1320.801634795818
 20
-1921.686667352296
 30
0.0
 11
-1320.542778795817
 21
-1922.652734352296
 31
0.0
  0
ARC
  5
8055
330
1E
100
AcDbEntity
  8
002
100
AcDbCircle
 10
-1263.113090795818
 20
-1937.661904352296
 30
0.0
 40
1.0
100
AcDbArc
 50
44.02883900000989
 51
134.9999999999907
  0
ARC
  5
8056
330
1E
100
AcDbEntity
  8
002
100
AcDbCircle
 10
-1265.234514795818
 20
-1936.954901352296
 30
0.0
 40
1.0
100
AcDbArc
 50
225.9879070000097
 51
314.9999999999907
  0
LINE
  5
8057
330
1E
100
AcDbEntity
  8
002
100
AcDbLine
 10
-1264.527407795818
 20
-1937.662007352296
 30
0.0
 11
-1263.820197795817
 21
-1936.954797352296
 31
0.0
  0
ARC
  5
8058
330
1E
100
AcDbEntity
  8
002
100
AcDbCircle
 10
-1291.231300795818
 20
-1921.427848352296
 30
0.0
 40
1.0
100
AcDbArc
 50
345.0000000000055
 51
75.97116100000163
  0
ARC
  5
8059
330
1E
100
AcDbEntity
  8
002
100
AcDbCircle
 10
-1289.558305795818
 20
-1922.911553352296
 30
0.0
 40
1.0
100
AcDbArc
 50
165.0000000000055
 51
254.0120930000133
  0
LINE
  5
805A
330
1E
100
AcDbEntity
  8
002
100
AcDbLine
 10
-1290.265374795818
 20
-1921.686667352296
 30
0.0
 11
-1290.524231795818
 21
-1922.652734352296
 31
0.0
  0
ARC
  5
805B
330
1E
100
AcDbEntity
  8
002
100
AcDbCircle
 10
-1305.533504795818
 20
-1978.668104352296
 30
0.0
 40
57.0
100
AcDbArc
 50
45.98790700000972
 51
74.01209300001333
  0
ARC
  5
805C
330
1E
100
AcDbEntity
  8
002
100
AcDbCircle
 10
-1263.113090795818
 20
-2019.674305352296
 30
0.0
 40
1.0
100
AcDbArc
 50
225.0000000000091
 51
315.97116099999
  0
ARC
  5
805D
330
1E
100
AcDbEntity
  8
002
100
AcDbCircle
 10
-1265.234514795818
 20
-2020.381308352296
 30
0.0
 40
1.0
100
AcDbArc
 50
45.00000000000921
 51
134.0120929999902
  0
LINE
  5
805E
330
1E
100
AcDbEntity
  8
002
100
AcDbLine
 10
-1263.820197795817
 20
-2020.381412352296
 30
0.0
 11
-1264.527407795818
 21
-2019.674202352296
 31
0.0
  0
ARC
  5
805F
330
1E
100
AcDbEntity
  8
002
100
AcDbCircle
 10
-1248.810886795818
 20
-1962.434048352296
 30
0.0
 40
1.0
100
AcDbArc
 50
284.9999999999944
 51
15.97116099998646
  0
ARC
  5
8060
330
1E
100
AcDbEntity
  8
002
100
AcDbCircle
 10
-1249.259315795818
 20
-1964.624757352296
 30
0.0
 40
1.0
100
AcDbArc
 50
104.9999999999944
 51
194.0120930000099
  0
LINE
  5
8061
330
1E
100
AcDbEntity
  8
002
100
AcDbLine
 10
-1248.552067795817
 20
-1963.399974352296
 30
0.0
 11
-1249.518134795817
 21
-1963.658831352296
 31
0.0
  0
ARC
  5
8062
330
1E
100
AcDbEntity
  8
002
100
AcDbCircle
 10
-1253.610858760171
 20
-1978.668104352296
 30
0.0
 40
3.480626999999999
100
AcDbArc
 50
270.0
 51
90.0
  0
ARC
  5
8063
330
1E
100
AcDbEntity
  8
002
100
AcDbCircle
 10
-1253.610858760171
 20
-1978.668104352296
 30
0.0
 40
3.980626999999999
100
AcDbArc
 50
270.0
 51
90.0
  0
ARC
  5
8064
330
1E
100
AcDbEntity
  8
002
100
AcDbCircle
 10
-1249.259315795818
 20
-1992.711452352296
 30
0.0
 40
1.0
100
AcDbArc
 50
165.98790699999
 51
255.0000000000055
  0
ARC
  5
8065
330
1E
100
AcDbEntity
  8
002
100
AcDbCircle
 10
-1248.810886795818
 20
-1994.902160352296
 30
0.0
 40
1.0
100
AcDbArc
 50
344.0288390000135
 51
75.00000000000555
  0
LINE
  5
8066
330
1E
100
AcDbEntity
  8
002
100
AcDbLine
 10
-1249.518134795817
 20
-1993.677378352296
 30
0.0
 11
-1248.552067795817
 21
-1993.936235352296
 31
0.0
  0
ARC
  5
8067
330
1E
100
AcDbEntity
  8
002
100
AcDbCircle
 10
-1305.533504795818
 20
-1978.668104352296
 30
0.0
 40
57.0
100
AcDbArc
 50
345.98790699999
 51
14.01209300000997
  0
TEXT
  5
8068
330
1E
100
AcDbEntity
  8
001
100
AcDbText
 10
-1749.417529795818
 20
-1804.927155352296
 30
0.0
 40
18.0
  1
アンカー頭部部品図
 41
0.787037
100
AcDbText
  0
LINE
  5
8069
330
1E
100
AcDbEntity
  8
001
100
AcDbLine
 10
-1749.417529795818
 20
-1804.927155352296
 30
0.0
 11
-1597.417529795818
 21
-1804.927155352296
 31
0.0
  0
LINE
  5
806A
330
1E
100
AcDbEntity
  8
003
 62
     3
100
AcDbLine
 10
-1643.313850523611
 20
-1515.930243948737
 30
0.0
 11
-1343.315393195161
 21
-1515.930243948737
 31
0.0
  0
LWPOLYLINE
  5
806B
330
1E
100
AcDbEntity
  8
003
100
AcDbPolyline
 90
        4
 70
     0
 43
0.0
 10
-1325.427267629036
 20
-1355.937801181251
 10
-1372.796520548923
 20
-1347.585323835471
 10
-1417.015745882467
 20
-1226.060500811937
 10
-1315.479543173712
 20
-1243.964072868174
  0
LINE
  5
806C
330
1E
100
AcDbEntity
  8
003
100
AcDbLine
 10
-1569.929902368837
 20
-1215.516683948737
 30
0.0
 11
-1315.479543173712
 21
-1215.516683948737
 31
0.0
  0
LINE
  5
806D
330
1E
100
AcDbEntity
  8
003
 62
     3
100
AcDbLine
 10
-1643.313850523612
 20
-1413.904778727209
 30
0.0
 11
-1643.313850523611
 21
-1551.505476867756
 31
0.0
  0
LINE
  5
806E
330
1E
100
AcDbEntity
  8
001
100
AcDbLine
 10
-1720.524401795818
 20
-1849.636561352296
 30
0.0
 11
-1571.524401795818
 21
-1849.636561352296
 31
0.0
  0
TEXT
  5
806F
330
1E
100
AcDbEntity
  8
001
100
AcDbText
 10
-1720.524401795818
 20
-1849.636561352296
 30
0.0
 40
16.0
  1
ヘッドキャップ（Ｓ型）
 41
0.703125
100
AcDbText
  0
LINE
  5
8070
330
1E
100
AcDbEntity
  8
003
 48
0.25
100
AcDbLine
 10
-1643.313850523612
 20
-1230.78054516493
 30
0.0
 11
-1569.929902368837
 21
-1215.516683948737
 31
0.0
  0
LINE
  5
8071
330
1E
100
AcDbEntity
  8
003
 62
     3
100
AcDbLine
 10
-1643.313850523612
 20
-1367.302741727209
 30
0.0
 11
-1643.313850523612
 21
-1192.935493207193
 31
0.0
  0
LINE
  5
8072
330
1E
100
AcDbEntity
  8
003
 62
     3
100
AcDbLine
 10
-1661.714248523612
 20
-1413.904778727209
 30
0.0
 11
-1643.313850523612
 21
-1413.904778727209
 31
0.0
  0
LINE
  5
8073
330
1E
100
AcDbEntity
  8
003
 62
     3
100
AcDbLine
 10
-1623.589967523611
 20
-1367.302741727209
 30
0.0
 11
-1661.714248523612
 21
-1413.904778727209
 31
0.0
  0
LINE
  5
8074
330
1E
100
AcDbEntity
  8
003
 62
     3
100
AcDbLine
 10
-1643.313850523612
 20
-1367.302741727209
 30
0.0
 11
-1623.589967523611
 21
-1367.302741727209
 31
0.0
  0
LINE
  5
8075
330
1E
100
AcDbEntity
  8
002
100
AcDbLine
 10
-1241.385366851852
 20
-1453.006211361037
 30
0.0
 11
-1238.438739145576
 21
-1457.756725882423
 31
0.0
  0
LINE
  5
8076
330
1E
100
AcDbEntity
  8
002
100
AcDbLine
 10
-1242.856251091557
 20
-1452.746854784078
 30
0.0
 11
-1239.909623385281
 21
-1457.497369305464
 31
0.0
  0
ARC
  5
8077
330
1E
100
AcDbEntity
  8
002
100
AcDbCircle
 10
-1312.273021861202
 20
-1454.045826337068
 30
0.0
 40
2.5
100
AcDbArc
 50
128.1896850000142
 51
211.8103149999947
  0
LINE
  5
8078
330
1E
100
AcDbEntity
  8
002
100
AcDbLine
 10
-1314.735041243733
 20
-1453.611705892901
 30
0.0
 11
-1239.572098435315
 21
-1459.249261070329
 31
0.0
  0
LINE
  5
8079
330
1E
100
AcDbEntity
  8
002
100
AcDbLine
 10
-1323.726964386594
 20
-1469.965391049482
 30
0.0
 11
-1297.114960452269
 21
-1316.251253899647
 31
0.0
  0
LINE
  5
807A
330
1E
100
AcDbEntity
  8
002
100
AcDbLine
 10
-1238.018105684954
 20
-1485.078175324311
 30
0.0
 11
-1210.451878187195
 21
-1331.532293534337
 31
0.0
  0
LINE
  5
807B
330
1E
100
AcDbEntity
  8
003
100
AcDbLine
 10
-1197.008336636244
 20
-1378.581523549018
 30
0.0
 11
-1221.226621808497
 21
-1515.930243948737
 31
0.0
  0
LINE
  5
807C
330
1E
100
AcDbEntity
  8
003
100
AcDbLine
 10
-1192.576701747689
 20
-1379.362940348519
 30
0.0
 11
-1216.657202055012
 21
-1515.930243948737
 31
0.0
  0
LINE
  5
807E
330
1E
100
AcDbEntity
  8
004
  6
CENTER
 62
     6
100
AcDbLine
 10
-1304.422516215087
 20
-1611.134017766066
 30
0.0
 11
-1222.367507287721
 21
-1145.776937427731
 31
0.0
  0
LINE
  5
807F
330
1E
100
AcDbEntity
  8
004
  6
CENTER
 62
     6
100
AcDbLine
 10
-1269.929902368837
 20
-1611.134017766066
 30
0.0
 11
-1269.929902368837
 21
-1145.776937427731
 31
0.0
  0
LINE
  5
8080
330
1E
100
AcDbEntity
  8
003
100
AcDbLine
 10
-1358.613842396638
 20
-1515.930243948737
 30
0.0
 11
-1330.252825618796
 21
-1355.086925110683
 31
0.0
  0
LINE
  5
8081
330
1E
100
AcDbEntity
  8
003
100
AcDbLine
 10
-1354.044422643152
 20
-1515.930243948737
 30
0.0
 11
-1325.821190730241
 21
-1355.868341910184
 31
0.0
  0
LINE
  5
8082
330
1E
100
AcDbEntity
  8
002
100
AcDbLine
 10
-1248.403221197882
 20
-1480.539194624769
 30
0.0
 11
-1313.718086476178
 21
-1476.63812122401
 31
0.0
  0
LINE
  5
8083
330
1E
100
AcDbEntity
  8
002
100
AcDbLine
 10
-1317.339763908737
 20
-1468.383822188084
 30
0.0
 11
-1242.176821100319
 21
-1474.021377365512
 31
0.0
  0
LINE
  5
8084
330
1E
100
AcDbEntity
  8
002
100
AcDbLine
 10
-1245.798498532878
 20
-1465.767078329586
 30
0.0
 11
-1311.113363811174
 21
-1461.866004928827
 31
0.0
  0
LINE
  5
8085
330
1E
100
AcDbEntity
  8
002
100
AcDbLine
 10
-1251.007943862886
 20
-1495.311310919953
 30
0.0
 11
-1316.322809141182
 21
-1491.410237519194
 31
0.0
  0
LINE
  5
8086
330
1E
100
AcDbEntity
  8
002
100
AcDbLine
 10
-1319.944486573741
 20
-1483.155938483268
 30
0.0
 11
-1244.781543765323
 21
-1488.793493660695
 31
0.0
  0
ARC
  5
8087
330
1E
100
AcDbEntity
  8
002
100
AcDbCircle
 10
-1251.15064714536
 20
-1510.517547659303
 30
0.0
 40
2.5
100
AcDbArc
 50
128.1896850000142
 51
211.8103149999947
  0
LINE
  5
8088
330
1E
100
AcDbEntity
  8
002
100
AcDbLine
 10
-1253.512063911308
 20
-1534.640642963151
 30
0.0
 11
-1257.905759880574
 21
-1538.096860373405
 31
0.0
  0
LINE
  5
8089
330
1E
100
AcDbEntity
  8
002
100
AcDbLine
 10
-1255.879864416576
 20
-1526.607436259993
 30
0.0
 11
-1252.933236710301
 21
-1531.357950781379
 31
0.0
  0
LINE
  5
808A
330
1E
100
AcDbEntity
  8
002
100
AcDbLine
 10
-1250.907341246304
 20
-1519.868526667968
 30
0.0
 11
-1255.30103721557
 21
-1523.324744078222
 31
0.0
  0
LINE
  5
808B
330
1E
100
AcDbEntity
  8
002
100
AcDbLine
 10
-1327.758654568753
 20
-1527.472287368818
 30
0.0
 11
-1252.595711760335
 21
-1533.109842546245
 31
0.0
  0
LINE
  5
808C
330
1E
100
AcDbEntity
  8
002
100
AcDbLine
 10
-1325.153931903749
 20
-1512.700171073634
 30
0.0
 11
-1249.990989095331
 21
-1518.337726251062
 31
0.0
  0
LINE
  5
808D
330
1E
100
AcDbEntity
  8
002
100
AcDbLine
 10
-1253.61266652789
 20
-1510.083427215135
 30
0.0
 11
-1318.927531806186
 21
-1506.182353814377
 31
0.0
  0
LINE
  5
808E
330
1E
100
AcDbEntity
  8
003
 62
     3
100
AcDbLine
 10
-1252.546978314009
 20
-1622.955616535028
 30
0.0
 11
-1254.654106079675
 21
-1624.671913038798
 31
0.0
  0
LINE
  5
808F
330
1E
100
AcDbEntity
  8
003
 62
     3
100
AcDbLine
 10
-1254.918340687994
 20
-1632.721230397991
 30
0.0
 11
-1253.260548480521
 21
-1636.149054341753
 31
0.0
  0
LINE
  5
8090
330
1E
100
AcDbEntity
  8
003
 62
     3
100
AcDbLine
 10
-1252.437447965034
 20
-1644.881044802072
 30
0.0
 11
-1253.899342369968
 21
-1646.833451954393
 31
0.0
  0
LINE
  5
8091
330
1E
100
AcDbEntity
  8
002
100
AcDbLine
 10
-1322.549209238744
 20
-1497.928054778451
 30
0.0
 11
-1247.386266430327
 21
-1503.565609955879
 31
0.0
  0
ARC
  5
8092
330
1E
100
AcDbEntity
  8
002
100
AcDbCircle
 10
-1333.110803181234
 20
-1572.222756698534
 30
0.0
 40
2.5
100
AcDbArc
 50
128.1896850000142
 51
211.8103149999947
  0
LINE
  5
8093
330
1E
100
AcDbEntity
  8
002
100
AcDbLine
 10
-1332.867497282178
 20
-1581.573735707198
 30
0.0
 11
-1337.261193251444
 21
-1585.029953117452
 31
0.0
  0
ARC
  5
8094
330
1E
100
AcDbEntity
  8
002
100
AcDbCircle
 10
-1337.01788717874
 20
-1594.380931141309
 30
0.0
 40
2.5
100
AcDbArc
 50
308.1896850000142
 51
31.81031499999473
  0
LINE
  5
8095
330
1E
100
AcDbEntity
  8
002
100
AcDbLine
 10
-1335.235297787447
 20
-1573.540529004041
 30
0.0
 11
-1332.288670081171
 21
-1578.291043525426
 31
0.0
  0
LWPOLYLINE
  5
8096
330
1E
100
AcDbEntity
  8
002
100
AcDbPolyline
 90
       21
 70
     0
 43
0.0
 10
-1256.28223149765
 20
-1573.967721472847
 10
-1259.156132579039
 20
-1576.345944336404
 10
-1262.132916298593
 20
-1578.565412984072
 10
-1265.21351447717
 20
-1580.616260709415
 10
-1268.398861773489
 20
-1582.488625382742
 10
-1271.689891166865
 20
-1584.172641108775
 10
-1274.733744122268
 20
-1585.519271938145
 10
-1277.84871482211
 20
-1586.716331984515
 10
-1281.019933511968
 20
-1587.774118796546
 10
-1284.232528294156
 20
-1588.702929285388
 10
-1287.471629066955
 20
-1589.513059030086
 10
-1292.580849626784
 20
-1590.571670883311
 10
-1297.720967655712
 20
-1591.416074137389
 10
-1302.894249180097
 20
-1592.098809512568
 10
-1308.102956750927
 20
-1592.672415295623
 10
-1313.349355526319
 20
-1593.189427282767
 10
-1318.744899204988
 20
-1593.724660348372
 10
-1324.125008262346
 20
-1594.374221508491
 10
-1329.432479977589
 20
-1595.256674155691
 10
-1334.610110007591
 20
-1596.490583999456
 10
-1339.600696152492
 20
-1598.194517386774
  0
LINE
  5
8097
330
1E
100
AcDbEntity
  8
002
100
AcDbLine
 10
-1338.177545228768
 20
-1586.56075254955
 30
0.0
 11
-1290.486726354241
 21
-1590.137776184018
 31
0.0
  0
LINE
  5
8098
330
1E
100
AcDbEntity
  8
002
100
AcDbLine
 10
-1335.572822563765
 20
-1571.788636254367
 30
0.0
 11
-1260.409879755347
 21
-1577.426191431794
 31
0.0
  0
LINE
  5
8099
330
1E
100
AcDbEntity
  8
003
 62
     3
100
AcDbLine
 10
-1350.526335042899
 20
-1567.099413558661
 30
0.0
 11
-1350.310561725651
 21
-1569.47935079632
 31
0.0
  0
LINE
  5
809A
330
1E
100
AcDbEntity
  8
003
 62
     3
100
AcDbLine
 10
-1351.254226944443
 20
-1571.306440651092
 30
0.0
 11
-1352.976864360158
 21
-1572.960956618291
 31
0.0
  0
LINE
  5
809B
330
1E
100
AcDbEntity
  8
003
 62
     3
100
AcDbLine
 10
-1350.310561725651
 20
-1569.47935079632
 30
0.0
 11
-1351.254226944443
 21
-1571.306440651092
 31
0.0
  0
LINE
  5
809C
330
1E
100
AcDbEntity
  8
002
100
AcDbLine
 10
-1335.472219947182
 20
-1596.345852002381
 30
0.0
 11
-1336.45847402077
 21
-1597.121670020722
 31
0.0
  0
LINE
  5
809D
330
1E
100
AcDbEntity
  8
002
100
AcDbLine
 10
-1337.840020452451
 20
-1588.312645299224
 30
0.0
 11
-1334.893392746175
 21
-1593.063159820609
 31
0.0
  0
ARC
  5
809E
330
1E
100
AcDbEntity
  8
002
100
AcDbCircle
 10
-1335.715525846238
 20
-1586.994872993717
 30
0.0
 40
2.5
100
AcDbArc
 50
128.1896850000142
 51
211.8103149999947
  0
LWPOLYLINE
  5
809F
330
1E
100
AcDbEntity
  8
002
100
AcDbPolyline
 90
        3
 70
     0
 43
0.0
 10
-1341.675084482177
 20
-1599.097369993343
 10
-1343.708612825103
 20
-1600.098684723046
 10
-1345.705529746307
 20
-1601.188228354683
  0
LINE
  5
80A0
330
1E
100
AcDbEntity
  8
003
 62
     3
100
AcDbLine
 10
-1358.98301587917
 20
-1581.79174080671
 30
0.0
 11
-1357.683759522192
 21
-1586.084145578892
 31
0.0
  0
LINE
  5
80A1
330
1E
100
AcDbEntity
  8
003
 62
     3
100
AcDbLine
 10
-1356.272025376284
 20
-1600.469002946693
 30
0.0
 11
-1358.47756002154
 21
-1602.19981073416
 31
0.0
  0
LINE
  5
80A2
330
1E
100
AcDbEntity
  8
003
 62
     3
100
AcDbLine
 10
-1354.743107857443
 20
-1598.523800694589
 30
0.0
 11
-1356.272025376284
 21
-1600.469002946693
 31
0.0
  0
LINE
  5
80A3
330
1E
100
AcDbEntity
  8
003
 62
     3
100
AcDbLine
 10
-1354.375141921992
 20
-1594.800728476026
 30
0.0
 11
-1354.743107857443
 21
-1598.523800694589
 31
0.0
  0
LINE
  5
80A4
330
1E
100
AcDbEntity
  8
003
 62
     3
100
AcDbLine
 10
-1355.751580011752
 20
-1590.537325844278
 30
0.0
 11
-1354.375141921992
 21
-1594.800728476026
 31
0.0
  0
LINE
  5
80A5
330
1E
100
AcDbEntity
  8
003
 62
     3
100
AcDbLine
 10
-1357.683759522192
 20
-1586.084145578892
 30
0.0
 11
-1355.751580011752
 21
-1590.537325844278
 31
0.0
  0
LINE
  5
80A6
330
1E
100
AcDbEntity
  8
003
 62
     3
100
AcDbLine
 10
-1358.46068450854
 20
-1578.010664654575
 30
0.0
 11
-1358.98301587917
 21
-1581.79174080671
 31
0.0
  0
LINE
  5
80A7
330
1E
100
AcDbEntity
  8
003
 62
     3
100
AcDbLine
 10
-1357.015887164573
 20
-1576.200909838297
 30
0.0
 11
-1358.46068450854
 21
-1578.010664654575
 31
0.0
  0
LINE
  5
80A8
330
1E
100
AcDbEntity
  8
003
 62
     3
100
AcDbLine
 10
-1355.042682933394
 20
-1574.555059999957
 30
0.0
 11
-1357.015887164573
 21
-1576.200909838297
 31
0.0
  0
LINE
  5
80A9
330
1E
100
AcDbEntity
  8
003
 62
     3
100
AcDbLine
 10
-1352.976864360158
 20
-1572.960956618291
 30
0.0
 11
-1355.042682933394
 21
-1574.555059999957
 31
0.0
  0
LINE
  5
80AA
330
1E
100
AcDbEntity
  8
003
 62
     3
100
AcDbLine
 10
-1363.247193519337
 20
-1613.619930854629
 30
0.0
 11
-1361.589401311864
 21
-1617.047754798391
 31
0.0
  0
LINE
  5
80AB
330
1E
100
AcDbEntity
  8
003
 62
     3
100
AcDbLine
 10
-1364.418025845234
 20
-1610.37046831744
 30
0.0
 11
-1363.247193519337
 21
-1613.619930854629
 31
0.0
  0
LINE
  5
80AC
330
1E
100
AcDbEntity
  8
003
 62
     3
100
AcDbLine
 10
-1364.315060701066
 20
-1607.486793527447
 30
0.0
 11
-1364.418025845234
 21
-1610.37046831744
 31
0.0
  0
LINE
  5
80AD
330
1E
100
AcDbEntity
  8
003
 62
     3
100
AcDbLine
 10
-1362.982958911018
 20
-1605.570613495436
 30
0.0
 11
-1364.315060701066
 21
-1607.486793527447
 31
0.0
  0
LINE
  5
80AE
330
1E
100
AcDbEntity
  8
003
 62
     3
100
AcDbLine
 10
-1360.875831145352
 20
-1603.854316991665
 30
0.0
 11
-1362.982958911018
 21
-1605.570613495436
 31
0.0
  0
LINE
  5
80AF
330
1E
100
AcDbEntity
  8
003
 62
     3
100
AcDbLine
 10
-1358.47756002154
 20
-1602.19981073416
 30
0.0
 11
-1360.875831145352
 21
-1603.854316991665
 31
0.0
  0
LINE
  5
80B0
330
1E
100
AcDbEntity
  8
003
 62
     3
100
AcDbLine
 10
-1362.86736416305
 20
-1628.420973627657
 30
0.0
 11
-1365.099786856442
 21
-1630.61027490084
 31
0.0
  0
LINE
  5
80B1
330
1E
100
AcDbEntity
  8
003
 62
     3
100
AcDbLine
 10
-1360.992694415831
 20
-1626.144610542769
 30
0.0
 11
-1362.86736416305
 21
-1628.420973627657
 31
0.0
  0
LINE
  5
80B2
330
1E
100
AcDbEntity
  8
003
 62
     3
100
AcDbLine
 10
-1359.960298091731
 20
-1623.688777663416
 30
0.0
 11
-1360.992694415831
 21
-1626.144610542769
 31
0.0
  0
LINE
  5
80B3
330
1E
100
AcDbEntity
  8
003
 62
     3
100
AcDbLine
 10
-1360.231490750534
 20
-1620.466513113515
 30
0.0
 11
-1359.960298091731
 21
-1623.688777663416
 31
0.0
  0
LINE
  5
80B4
330
1E
100
AcDbEntity
  8
003
 62
     3
100
AcDbLine
 10
-1367.205442366353
 20
-1632.804924314697
 30
0.0
 11
-1368.699810736782
 21
-1635.097332806412
 31
0.0
  0
LINE
  5
80B5
330
1E
100
AcDbEntity
  8
003
 62
     3
100
AcDbLine
 10
-1365.099786856442
 20
-1630.61027490084
 30
0.0
 11
-1367.205442366353
 21
-1632.804924314697
 31
0.0
  0
LINE
  5
80B6
330
1E
100
AcDbEntity
  8
003
 62
     3
100
AcDbLine
 10
-1361.589401311864
 20
-1617.047754798391
 30
0.0
 11
-1360.231490750534
 21
-1620.466513113515
 31
0.0
  0
LINE
  5
80B7
330
1E
100
AcDbEntity
  8
003
 62
     3
100
AcDbLine
 10
-1345.317493590247
 20
-1528.209794689549
 30
0.0
 11
-1347.377663649022
 21
-1529.965894007736
 31
0.0
  0
LINE
  5
80B8
330
1E
100
AcDbEntity
  8
003
 62
     3
100
AcDbLine
 10
-1347.377663649022
 20
-1529.965894007736
 30
0.0
 11
-1349.148490404732
 21
-1531.780136590049
 31
0.0
  0
LINE
  5
80B9
330
1E
100
AcDbEntity
  8
003
 62
     3
100
AcDbLine
 10
-1350.170409651496
 20
-1533.765714566153
 30
0.0
 11
-1350.045616597339
 21
-1536.363253099553
 31
0.0
  0
LINE
  5
80BA
330
1E
100
AcDbEntity
  8
003
 62
     3
100
AcDbLine
 10
-1349.148490404732
 20
-1531.780136590049
 30
0.0
 11
-1350.170409651496
 21
-1533.765714566153
 31
0.0
  0
LINE
  5
80BB
330
1E
100
AcDbEntity
  8
003
 62
     3
100
AcDbLine
 10
-1343.427540958919
 20
-1526.398644072347
 30
0.0
 11
-1345.317493590247
 21
-1528.209794689549
 31
0.0
  0
LINE
  5
80BC
330
1E
100
AcDbEntity
  8
003
 62
     3
100
AcDbLine
 10
-1342.167366659199
 20
-1524.419248577797
 30
0.0
 11
-1343.427540958919
 21
-1526.398644072347
 31
0.0
  0
LINE
  5
80BD
330
1E
100
AcDbEntity
  8
003
 62
     3
100
AcDbLine
 10
-1341.911730448117
 20
-1521.627583677321
 30
0.0
 11
-1342.167366659199
 21
-1524.419248577797
 31
0.0
  0
LINE
  5
80BE
330
1E
100
AcDbEntity
  8
003
 62
     3
100
AcDbLine
 10
-1348.967974979537
 20
-1539.187620083465
 30
0.0
 11
-1347.593574688105
 21
-1542.086826651711
 31
0.0
  0
LINE
  5
80BF
330
1E
100
AcDbEntity
  8
003
 62
     3
100
AcDbLine
 10
-1347.593574688105
 20
-1542.086826651711
 30
0.0
 11
-1346.578509204996
 21
-1544.908881273898
 31
0.0
  0
LINE
  5
80C0
330
1E
100
AcDbEntity
  8
003
 62
     3
100
AcDbLine
 10
-1350.045616597339
 20
-1536.363253099553
 30
0.0
 11
-1348.967974979537
 21
-1539.187620083465
 31
0.0
  0
LINE
  5
80C1
330
1E
100
AcDbEntity
  8
003
 62
     3
100
AcDbLine
 10
-1343.315393195161
 20
-1515.930243948737
 30
0.0
 11
-1341.911730448117
 21
-1521.627583677321
 31
0.0
  0
LINE
  5
80C2
330
1E
100
AcDbEntity
  8
003
 62
     3
100
AcDbLine
 10
-1346.578868246579
 20
-1547.501794099039
 30
0.0
 11
-1347.729700622629
 21
-1549.45924421984
 31
0.0
  0
LINE
  5
80C3
330
1E
100
AcDbEntity
  8
003
 62
     3
100
AcDbLine
 10
-1351.68354544092
 20
-1564.492537781189
 30
0.0
 11
-1350.526335042899
 21
-1567.099413558661
 31
0.0
  0
LINE
  5
80C4
330
1E
100
AcDbEntity
  8
003
 62
     3
100
AcDbLine
 10
-1353.151435778776
 20
-1561.800294067557
 30
0.0
 11
-1351.68354544092
 21
-1564.492537781189
 31
0.0
  0
LINE
  5
80C5
330
1E
100
AcDbEntity
  8
003
 62
     3
100
AcDbLine
 10
-1354.299246134753
 20
-1559.164254527167
 30
0.0
 11
-1353.151435778776
 21
-1561.800294067557
 31
0.0
  0
LINE
  5
80C6
330
1E
100
AcDbEntity
  8
003
 62
     3
100
AcDbLine
 10
-1354.496219715207
 20
-1556.725991733287
 30
0.0
 11
-1354.299246134753
 21
-1559.164254527167
 31
0.0
  0
LINE
  5
80C7
330
1E
100
AcDbEntity
  8
003
 62
     3
100
AcDbLine
 10
-1353.489121417416
 20
-1554.77067486056
 30
0.0
 11
-1354.496219715207
 21
-1556.725991733287
 31
0.0
  0
LINE
  5
80C8
330
1E
100
AcDbEntity
  8
003
 62
     3
100
AcDbLine
 10
-1351.689331956234
 20
-1552.982141175184
 30
0.0
 11
-1353.489121417416
 21
-1554.77067486056
 31
0.0
  0
LINE
  5
80C9
330
1E
100
AcDbEntity
  8
003
 62
     3
100
AcDbLine
 10
-1349.601357296588
 20
-1551.24884551406
 30
0.0
 11
-1351.689331956234
 21
-1552.982141175184
 31
0.0
  0
LINE
  5
80CA
330
1E
100
AcDbEntity
  8
003
 62
     3
100
AcDbLine
 10
-1347.729700622629
 20
-1549.45924421984
 30
0.0
 11
-1349.601357296588
 21
-1551.24884551406
 31
0.0
  0
LINE
  5
80CB
330
1E
100
AcDbEntity
  8
003
 62
     3
100
AcDbLine
 10
-1346.578509204996
 20
-1544.908881273898
 30
0.0
 11
-1346.578868246579
 21
-1547.501794099039
 31
0.0
  0
ARC
  5
80CC
330
1E
100
AcDbEntity
  8
002
100
AcDbCircle
 10
-1261.569537805375
 20
-1569.606012840036
 30
0.0
 40
2.5
100
AcDbArc
 50
128.1896850000142
 51
211.8103149999947
  0
LINE
  5
80CD
330
1E
100
AcDbEntity
  8
002
100
AcDbLine
 10
-1264.031557187906
 20
-1569.171892395869
 30
0.0
 11
-1329.346422466202
 21
-1565.27081899511
 31
0.0
  0
LINE
  5
80CE
330
1E
100
AcDbEntity
  8
002
100
AcDbLine
 10
-1330.262774617174
 20
-1566.801619412015
 30
0.0
 11
-1334.65647058644
 21
-1570.257836822269
 31
0.0
  0
LINE
  5
80CF
330
1E
100
AcDbEntity
  8
002
100
AcDbLine
 10
-1270.761563700811
 20
-1583.697617076814
 30
0.0
 11
-1331.951145131206
 21
-1580.042935290293
 31
0.0
  0
ARC
  5
80D0
330
1E
100
AcDbEntity
  8
002
100
AcDbCircle
 10
-1334.413164513736
 20
-1579.608814846126
 30
0.0
 40
2.5
100
AcDbArc
 50
308.1896850000142
 51
31.81031499999473
  0
LINE
  5
80D1
330
1E
100
AcDbEntity
  8
002
100
AcDbLine
 10
-1328.832386908705
 20
-1595.15689901875
 30
0.0
 11
-1334.555867796209
 21
-1594.815051585476
 31
0.0
  0
ARC
  5
80D2
330
1E
100
AcDbEntity
  8
002
100
AcDbCircle
 10
-1262.871899137877
 20
-1576.992070987627
 30
0.0
 40
2.5
100
AcDbArc
 50
308.1896850000142
 51
31.81031499999473
  0
LINE
  5
80D3
330
1E
100
AcDbEntity
  8
002
100
AcDbLine
 10
-1263.694032411589
 20
-1570.923785145543
 30
0.0
 11
-1260.747404705313
 21
-1575.674299666929
 31
0.0
  0
LINE
  5
80D4
330
1E
100
AcDbEntity
  8
003
 62
     3
100
AcDbLine
 10
-1255.986207869723
 20
-1626.588093070809
 30
0.0
 11
-1256.08917301389
 21
-1629.471767860803
 31
0.0
  0
LINE
  5
80D5
330
1E
100
AcDbEntity
  8
003
 62
     3
100
AcDbLine
 10
-1254.654106079675
 20
-1624.671913038798
 30
0.0
 11
-1255.986207869723
 21
-1626.588093070809
 31
0.0
  0
LINE
  5
80D6
330
1E
100
AcDbEntity
  8
003
 62
     3
100
AcDbLine
 10
-1255.724048173534
 20
-1648.703194710581
 30
0.0
 11
-1257.618483278106
 21
-1650.546170449583
 31
0.0
  0
LINE
  5
80D7
330
1E
100
AcDbEntity
  8
003
 62
     3
100
AcDbLine
 10
-1253.899342369968
 20
-1646.833451954393
 30
0.0
 11
-1255.724048173534
 21
-1648.703194710581
 31
0.0
  0
LINE
  5
80D8
330
1E
100
AcDbEntity
  8
003
 62
     3
100
AcDbLine
 10
-1257.618483278106
 20
-1650.546170449583
 30
0.0
 11
-1259.289568887782
 21
-1652.418277999016
 31
0.0
  0
LINE
  5
80D9
330
1E
100
AcDbEntity
  8
003
 62
     3
100
AcDbLine
 10
-1256.08917301389
 20
-1629.471767860803
 30
0.0
 11
-1254.918340687994
 21
-1632.721230397991
 31
0.0
  0
LINE
  5
80DA
330
1E
100
AcDbEntity
  8
002
100
AcDbLine
 10
-1258.822111857898
 20
-1539.627659805502
 30
0.0
 11
-1324.136977136193
 21
-1535.726586404743
 31
0.0
  0
LINE
  5
80DB
330
1E
100
AcDbEntity
  8
002
100
AcDbLine
 10
-1256.217389192894
 20
-1524.855543510319
 30
0.0
 11
-1321.53225447119
 21
-1520.95447010956
 31
0.0
  0
LINE
  5
80DC
330
1E
100
AcDbEntity
  8
002
100
AcDbLine
 10
-1261.426834522902
 20
-1554.399776100686
 30
0.0
 11
-1326.741699801197
 21
-1550.498702699927
 31
0.0
  0
LINE
  5
80DD
330
1E
100
AcDbEntity
  8
002
100
AcDbLine
 10
-1330.363377233757
 20
-1542.244403664001
 30
0.0
 11
-1255.200434425339
 21
-1547.881958841428
 31
0.0
  0
LINE
  5
80DE
330
1E
100
AcDbEntity
  8
002
100
AcDbLine
 10
-1332.968099898761
 20
-1557.016519959184
 30
0.0
 11
-1257.805157090343
 21
-1562.654075136611
 31
0.0
  0
ARC
  5
80DF
330
1E
100
AcDbEntity
  8
002
100
AcDbCircle
 10
-1315.913644105445
 20
-1468.635285587127
 30
0.0
 40
2.5
100
AcDbArc
 50
128.1896850000142
 51
211.8103149999947
  0
ARC
  5
80E0
330
1E
100
AcDbEntity
  8
002
100
AcDbCircle
 10
-1314.877744526206
 20
-1468.817942632252
 30
0.0
 40
2.5
100
AcDbArc
 50
128.1896850000142
 51
211.8103149999947
  0
LINE
  5
80E1
330
1E
100
AcDbEntity
  8
002
100
AcDbLine
 10
-1318.038138711658
 20
-1469.953057892635
 30
0.0
 11
-1317.330948245221
 21
-1471.093181264253
 31
0.0
  0
LINE
  5
80E2
330
1E
100
AcDbEntity
  8
002
100
AcDbLine
 10
-1317.002239132419
 20
-1470.135714937759
 30
0.0
 11
-1314.055611426144
 21
-1474.886229459144
 31
0.0
  0
ARC
  5
80E3
330
1E
100
AcDbEntity
  8
002
100
AcDbCircle
 10
-1316.180105858708
 20
-1476.204000779843
 30
0.0
 40
2.5
100
AcDbArc
 50
308.1896850000142
 51
31.81031499999473
  0
ARC
  5
80E4
330
1E
100
AcDbEntity
  8
002
100
AcDbCircle
 10
-1314.611282772943
 20
-1461.249227439536
 30
0.0
 40
2.5
100
AcDbArc
 50
308.1896850000142
 51
31.81031499999473
  0
ARC
  5
80E5
330
1E
100
AcDbEntity
  8
002
100
AcDbCircle
 10
-1313.575383193704
 20
-1461.43188448466
 30
0.0
 40
2.5
100
AcDbArc
 50
308.1896850000142
 51
31.81031499999473
  0
LINE
  5
80E6
330
1E
100
AcDbEntity
  8
002
100
AcDbLine
 10
-1313.065615541385
 20
-1463.214148300608
 30
0.0
 11
-1317.45931151065
 21
-1466.670365710863
 31
0.0
  0
LINE
  5
80E7
330
1E
100
AcDbEntity
  8
002
100
AcDbLine
 10
-1312.029715962147
 20
-1463.396805345733
 30
0.0
 11
-1316.423411931412
 21
-1466.853022755988
 31
0.0
  0
LINE
  5
80E8
330
1E
100
AcDbEntity
  8
002
100
AcDbLine
 10
-1315.433416046654
 20
-1455.180941597451
 30
0.0
 11
-1312.486788340378
 21
-1459.931456118837
 31
0.0
  0
LINE
  5
80E9
330
1E
100
AcDbEntity
  8
002
100
AcDbLine
 10
-1314.397516467415
 20
-1455.363598642576
 30
0.0
 11
-1311.45088876114
 21
-1460.114113163961
 31
0.0
  0
ARC
  5
80EA
330
1E
100
AcDbEntity
  8
002
100
AcDbCircle
 10
-1318.784828523712
 20
-1490.976117075026
 30
0.0
 40
2.5
100
AcDbArc
 50
308.1896850000142
 51
31.81031499999473
  0
ARC
  5
80EB
330
1E
100
AcDbEntity
  8
002
100
AcDbCircle
 10
-1317.48246719121
 20
-1483.590058927435
 30
0.0
 40
2.5
100
AcDbArc
 50
128.1896850000142
 51
211.8103149999947
  0
LINE
  5
80EC
330
1E
100
AcDbEntity
  8
002
100
AcDbLine
 10
-1317.239161292154
 20
-1492.941037936099
 30
0.0
 11
-1321.63285726142
 21
-1496.397255346354
 31
0.0
  0
LINE
  5
80ED
330
1E
100
AcDbEntity
  8
002
100
AcDbLine
 10
-1317.330948245221
 20
-1471.093181264253
 30
0.0
 11
-1323.726964386594
 21
-1469.965391049482
 31
0.0
  0
LINE
  5
80EE
330
1E
100
AcDbEntity
  8
002
100
AcDbLine
 10
-1314.63443862715
 20
-1478.168921640916
 30
0.0
 11
-1319.028134596416
 21
-1481.625139051171
 31
0.0
  0
LINE
  5
80EF
330
1E
100
AcDbEntity
  8
002
100
AcDbLine
 10
-1319.606961797423
 20
-1484.907831232942
 30
0.0
 11
-1316.660334091148
 21
-1489.658345754327
 31
0.0
  0
LINE
  5
80F0
330
1E
100
AcDbEntity
  8
002
100
AcDbLine
 10
-1319.843883957158
 20
-1507.713154231282
 30
0.0
 11
-1324.237579926424
 21
-1511.169371641537
 31
0.0
  0
ARC
  5
80F1
330
1E
100
AcDbEntity
  8
002
100
AcDbCircle
 10
-1322.691912521218
 20
-1513.134291517801
 30
0.0
 40
2.5
100
AcDbArc
 50
128.1896850000142
 51
211.8103149999947
  0
LINE
  5
80F2
330
1E
100
AcDbEntity
  8
002
100
AcDbLine
 10
-1322.211684462427
 20
-1499.679947528125
 30
0.0
 11
-1319.265056756151
 21
-1504.43046204951
 31
0.0
  0
LINE
  5
80F3
330
1E
100
AcDbEntity
  8
002
100
AcDbLine
 10
-1325.053329287166
 20
-1537.257386821648
 30
0.0
 11
-1329.447025256432
 21
-1540.713604231903
 31
0.0
  0
ARC
  5
80F4
330
1E
100
AcDbEntity
  8
002
100
AcDbCircle
 10
-1326.598996518724
 20
-1535.292465960576
 30
0.0
 40
2.5
100
AcDbArc
 50
308.1896850000142
 51
31.81031499999473
  0
ARC
  5
80F5
330
1E
100
AcDbEntity
  8
002
100
AcDbCircle
 10
-1327.901357851226
 20
-1542.678524108167
 30
0.0
 40
2.5
100
AcDbArc
 50
128.1896850000142
 51
211.8103149999947
  0
LINE
  5
80F6
330
1E
100
AcDbEntity
  8
002
100
AcDbLine
 10
-1327.421129792435
 20
-1529.224180118491
 30
0.0
 11
-1324.474502086159
 21
-1533.974694639877
 31
0.0
  0
LINE
  5
80F7
330
1E
100
AcDbEntity
  8
002
100
AcDbLine
 10
-1322.448606622163
 20
-1522.485270526465
 30
0.0
 11
-1326.842302591428
 21
-1525.94148793672
 31
0.0
  0
ARC
  5
80F8
330
1E
100
AcDbEntity
  8
002
100
AcDbCircle
 10
-1325.296635186222
 20
-1527.906407812984
 30
0.0
 40
2.5
100
AcDbArc
 50
128.1896850000142
 51
211.8103149999947
  0
ARC
  5
80F9
330
1E
100
AcDbEntity
  8
002
100
AcDbCircle
 10
-1323.99427385372
 20
-1520.520349665393
 30
0.0
 40
2.5
100
AcDbArc
 50
308.1896850000142
 51
31.81031499999473
  0
LINE
  5
80FA
330
1E
100
AcDbEntity
  8
002
100
AcDbLine
 10
-1324.816407127431
 20
-1514.452063823308
 30
0.0
 11
-1321.869779421155
 21
-1519.202578344694
 31
0.0
  0
ARC
  5
80FB
330
1E
100
AcDbEntity
  8
002
100
AcDbCircle
 10
-1321.389551188716
 20
-1505.74823337021
 30
0.0
 40
2.5
100
AcDbArc
 50
308.1896850000142
 51
31.81031499999473
  0
ARC
  5
80FC
330
1E
100
AcDbEntity
  8
002
100
AcDbCircle
 10
-1331.808441848732
 20
-1564.836698550942
 30
0.0
 40
2.5
100
AcDbArc
 50
308.1896850000142
 51
31.81031499999473
  0
ARC
  5
80FD
330
1E
100
AcDbEntity
  8
002
100
AcDbCircle
 10
-1329.203719183728
 20
-1550.064582255759
 30
0.0
 40
2.5
100
AcDbArc
 50
308.1896850000142
 51
31.81031499999473
  0
LINE
  5
80FE
330
1E
100
AcDbEntity
  8
002
100
AcDbLine
 10
-1330.025852457439
 20
-1543.996296413675
 30
0.0
 11
-1327.079224751163
 21
-1548.74681093506
 31
0.0
  0
ARC
  5
80FF
330
1E
100
AcDbEntity
  8
002
100
AcDbCircle
 10
-1320.087189856214
 20
-1498.362175222618
 30
0.0
 40
2.5
100
AcDbArc
 50
128.1896850000142
 51
211.8103149999947
  0
ARC
  5
8100
330
1E
100
AcDbEntity
  8
002
100
AcDbCircle
 10
-1330.50608051623
 20
-1557.450640403351
 30
0.0
 40
2.5
100
AcDbArc
 50
128.1896850000142
 51
211.8103149999947
  0
LINE
  5
8101
330
1E
100
AcDbEntity
  8
002
100
AcDbLine
 10
-1327.658051952171
 20
-1552.029503116832
 30
0.0
 11
-1332.051747921436
 21
-1555.485720527086
 31
0.0
  0
LINE
  5
8102
330
1E
100
AcDbEntity
  8
002
100
AcDbLine
 10
-1332.630575122443
 20
-1558.768412708858
 30
0.0
 11
-1329.683947416167
 21
-1563.518927230243
 31
0.0
  0
ARC
  5
8103
330
1E
100
AcDbEntity
  8
002
100
AcDbCircle
 10
-1253.755369810363
 20
-1525.289663954486
 30
0.0
 40
2.5
100
AcDbArc
 50
128.1896850000142
 51
211.8103149999947
  0
ARC
  5
8104
330
1E
100
AcDbEntity
  8
002
100
AcDbCircle
 10
-1256.360092475367
 20
-1540.061780249669
 30
0.0
 40
2.5
100
AcDbArc
 50
128.1896850000142
 51
211.8103149999947
  0
ARC
  5
8105
330
1E
100
AcDbEntity
  8
002
100
AcDbCircle
 10
-1257.66245380787
 20
-1547.447838397261
 30
0.0
 40
2.5
100
AcDbArc
 50
308.1896850000142
 51
31.81031499999473
  0
ARC
  5
8106
330
1E
100
AcDbEntity
  8
002
100
AcDbCircle
 10
-1258.964815140371
 20
-1554.833896544852
 30
0.0
 40
2.5
100
AcDbArc
 50
128.1896850000142
 51
211.8103149999947
  0
LINE
  5
8107
330
1E
100
AcDbEntity
  8
002
100
AcDbLine
 10
-1258.721509241316
 20
-1564.184875553517
 30
0.0
 11
-1263.115205210581
 21
-1567.641092963771
 31
0.0
  0
LINE
  5
8108
330
1E
100
AcDbEntity
  8
002
100
AcDbLine
 10
-1261.089309746585
 20
-1556.15166885036
 30
0.0
 11
-1258.142682040308
 21
-1560.902183371745
 31
0.0
  0
ARC
  5
8109
330
1E
100
AcDbEntity
  8
002
100
AcDbCircle
 10
-1260.267176472874
 20
-1562.219954692444
 30
0.0
 40
2.5
100
AcDbArc
 50
308.1896850000142
 51
31.81031499999473
  0
LINE
  5
810A
330
1E
100
AcDbEntity
  8
002
100
AcDbLine
 10
-1256.116786576312
 20
-1549.412759258334
 30
0.0
 11
-1260.510482545577
 21
-1552.868976668588
 31
0.0
  0
LINE
  5
810B
330
1E
100
AcDbEntity
  8
002
100
AcDbLine
 10
-1258.484587081581
 20
-1541.379552555176
 30
0.0
 11
-1255.537959375305
 21
-1546.130067076562
 31
0.0
  0
LINE
  5
810C
330
1E
100
AcDbEntity
  8
003
 62
     3
100
AcDbLine
 10
-1238.250015415236
 20
-1566.603093642402
 30
0.0
 11
-1239.400847791286
 21
-1568.560543763202
 31
0.0
  0
LINE
  5
810D
330
1E
100
AcDbEntity
  8
003
 62
     3
100
AcDbLine
 10
-1243.36047912489
 20
-1572.083440718547
 30
0.0
 11
-1245.160268586072
 21
-1573.871974403922
 31
0.0
  0
LINE
  5
810E
330
1E
100
AcDbEntity
  8
003
 62
     3
100
AcDbLine
 10
-1241.272504465245
 20
-1570.350145057422
 30
0.0
 11
-1243.36047912489
 21
-1572.083440718547
 31
0.0
  0
LINE
  5
810F
330
1E
100
AcDbEntity
  8
003
 62
     3
100
AcDbLine
 10
-1239.400847791286
 20
-1568.560543763202
 30
0.0
 11
-1241.272504465245
 21
-1570.350145057422
 31
0.0
  0
LINE
  5
8110
330
1E
100
AcDbEntity
  8
003
 62
     3
100
AcDbLine
 10
-1244.822582947433
 20
-1580.901593610919
 30
0.0
 11
-1243.354692609576
 21
-1583.593837324552
 31
0.0
  0
LINE
  5
8111
330
1E
100
AcDbEntity
  8
003
 62
     3
100
AcDbLine
 10
-1250.131831677197
 20
-1597.111964197937
 30
0.0
 11
-1250.654163047827
 21
-1600.893040350072
 31
0.0
  0
LINE
  5
8112
330
1E
100
AcDbEntity
  8
003
 62
     3
100
AcDbLine
 10
-1248.687034333229
 20
-1595.302209381659
 30
0.0
 11
-1250.131831677197
 21
-1597.111964197937
 31
0.0
  0
LINE
  5
8113
330
1E
100
AcDbEntity
  8
003
 62
     3
100
AcDbLine
 10
-1246.713830102051
 20
-1593.656359543319
 30
0.0
 11
-1248.687034333229
 21
-1595.302209381659
 31
0.0
  0
LINE
  5
8114
330
1E
100
AcDbEntity
  8
003
 62
     3
100
AcDbLine
 10
-1244.648011528815
 20
-1592.062256161653
 30
0.0
 11
-1246.713830102051
 21
-1593.656359543319
 31
0.0
  0
LINE
  5
8115
330
1E
100
AcDbEntity
  8
003
 62
     3
100
AcDbLine
 10
-1242.925374113101
 20
-1590.407740194454
 30
0.0
 11
-1244.648011528815
 21
-1592.062256161653
 31
0.0
  0
LINE
  5
8116
330
1E
100
AcDbEntity
  8
003
 62
     3
100
AcDbLine
 10
-1241.981708894308
 20
-1588.580650339682
 30
0.0
 11
-1242.925374113101
 21
-1590.407740194454
 31
0.0
  0
LINE
  5
8117
330
1E
100
AcDbEntity
  8
003
 62
     3
100
AcDbLine
 10
-1242.197482211556
 20
-1586.200713102023
 30
0.0
 11
-1241.981708894308
 21
-1588.580650339682
 31
0.0
  0
LINE
  5
8118
330
1E
100
AcDbEntity
  8
003
 62
     3
100
AcDbLine
 10
-1243.354692609576
 20
-1583.593837324552
 30
0.0
 11
-1242.197482211556
 21
-1586.200713102023
 31
0.0
  0
LINE
  5
8119
330
1E
100
AcDbEntity
  8
003
 62
     3
100
AcDbLine
 10
-1245.97039330341
 20
-1578.26555407053
 30
0.0
 11
-1244.822582947433
 21
-1580.901593610919
 31
0.0
  0
LINE
  5
811A
330
1E
100
AcDbEntity
  8
003
 62
     3
100
AcDbLine
 10
-1246.167366883863
 20
-1575.82729127665
 30
0.0
 11
-1245.97039330341
 21
-1578.26555407053
 31
0.0
  0
LINE
  5
811B
330
1E
100
AcDbEntity
  8
003
 62
     3
100
AcDbLine
 10
-1245.160268586072
 20
-1573.871974403922
 30
0.0
 11
-1246.167366883863
 21
-1575.82729127665
 31
0.0
  0
LINE
  5
811C
330
1E
100
AcDbEntity
  8
003
 62
     3
100
AcDbLine
 10
-1246.4142550261
 20
-1617.625100237952
 30
0.0
 11
-1247.943172544942
 21
-1619.570302490056
 31
0.0
  0
LINE
  5
811D
330
1E
100
AcDbEntity
  8
003
 62
     3
100
AcDbLine
 10
-1246.046289090649
 20
-1613.902028019388
 30
0.0
 11
-1246.4142550261
 21
-1617.625100237952
 31
0.0
  0
LINE
  5
811E
330
1E
100
AcDbEntity
  8
003
 62
     3
100
AcDbLine
 10
-1247.422727180409
 20
-1609.63862538764
 30
0.0
 11
-1246.046289090649
 21
-1613.902028019388
 31
0.0
  0
LINE
  5
811F
330
1E
100
AcDbEntity
  8
003
 62
     3
100
AcDbLine
 10
-1249.35490669085
 20
-1605.185445122254
 30
0.0
 11
-1247.422727180409
 21
-1609.63862538764
 31
0.0
  0
LINE
  5
8120
330
1E
100
AcDbEntity
  8
003
 62
     3
100
AcDbLine
 10
-1250.654163047827
 20
-1600.893040350072
 30
0.0
 11
-1249.35490669085
 21
-1605.185445122254
 31
0.0
  0
LINE
  5
8121
330
1E
100
AcDbEntity
  8
003
 62
     3
100
AcDbLine
 10
-1250.148707190197
 20
-1621.301110277522
 30
0.0
 11
-1252.546978314009
 21
-1622.955616535028
 31
0.0
  0
LINE
  5
8122
330
1E
100
AcDbEntity
  8
003
 62
     3
100
AcDbLine
 10
-1251.902637919191
 20
-1639.567812656878
 30
0.0
 11
-1251.631445260388
 21
-1642.790077206778
 31
0.0
  0
LINE
  5
8123
330
1E
100
AcDbEntity
  8
003
 62
     3
100
AcDbLine
 10
-1253.260548480521
 20
-1636.149054341753
 30
0.0
 11
-1251.902637919191
 21
-1639.567812656878
 31
0.0
  0
LINE
  5
8124
330
1E
100
AcDbEntity
  8
003
 62
     3
100
AcDbLine
 10
-1251.631445260388
 20
-1642.790077206778
 30
0.0
 11
-1252.437447965034
 21
-1644.881044802072
 31
0.0
  0
LINE
  5
8125
330
1E
100
AcDbEntity
  8
003
 62
     3
100
AcDbLine
 10
-1247.943172544942
 20
-1619.570302490056
 30
0.0
 11
-1250.148707190197
 21
-1621.301110277522
 31
0.0
  0
LINE
  5
8126
330
1E
100
AcDbEntity
  8
002
100
AcDbLine
 10
-1239.017566346583
 20
-1461.039418064194
 30
0.0
 11
-1243.411262315849
 21
-1464.495635474448
 31
0.0
  0
LINE
  5
8127
330
1E
100
AcDbEntity
  8
002
100
AcDbLine
 10
-1238.018105684954
 20
-1485.078175324311
 30
0.0
 11
-1245.887621715423
 21
-1483.690567323021
 31
0.0
  0
ARC
  5
8128
330
1E
100
AcDbEntity
  8
002
100
AcDbCircle
 10
-1241.865594910642
 20
-1466.460555350712
 30
0.0
 40
2.5
100
AcDbArc
 50
128.1896850000142
 51
211.8103149999947
  0
ARC
  5
8129
330
1E
100
AcDbEntity
  8
002
100
AcDbCircle
 10
-1243.336479150348
 20
-1466.201198773753
 30
0.0
 40
2.5
100
AcDbArc
 50
128.1896850000142
 51
211.8103149999947
  0
ARC
  5
812A
330
1E
100
AcDbEntity
  8
002
100
AcDbCircle
 10
-1243.167956243145
 20
-1473.846613498304
 30
0.0
 40
2.5
100
AcDbArc
 50
308.1896850000142
 51
31.81031499999473
  0
ARC
  5
812B
330
1E
100
AcDbEntity
  8
002
100
AcDbCircle
 10
-1244.638840482849
 20
-1473.587256921345
 30
0.0
 40
2.5
100
AcDbArc
 50
308.1896850000142
 51
31.81031499999473
  0
ARC
  5
812C
330
1E
100
AcDbEntity
  8
002
100
AcDbCircle
 10
-1244.470317575646
 20
-1481.232671645896
 30
0.0
 40
2.5
100
AcDbArc
 50
128.1896850000142
 51
211.8103149999947
  0
LINE
  5
812D
330
1E
100
AcDbEntity
  8
002
100
AcDbLine
 10
-1246.59481218186
 20
-1482.550443951403
 30
0.0
 11
-1245.887621715423
 21
-1483.690567323021
 31
0.0
  0
ARC
  5
812E
330
1E
100
AcDbEntity
  8
002
100
AcDbCircle
 10
-1245.941201815352
 20
-1480.973315068937
 30
0.0
 40
2.5
100
AcDbArc
 50
128.1896850000142
 51
211.8103149999947
  0
LINE
  5
812F
330
1E
100
AcDbEntity
  8
002
100
AcDbLine
 10
-1248.065696421565
 20
-1482.291087374444
 30
0.0
 11
-1245.119068715289
 21
-1487.04160189583
 31
0.0
  0
LINE
  5
8130
330
1E
100
AcDbEntity
  8
002
100
AcDbLine
 10
-1241.622289011587
 20
-1475.811534359377
 30
0.0
 11
-1246.015984980852
 21
-1479.267751769632
 31
0.0
  0
LINE
  5
8131
330
1E
100
AcDbEntity
  8
002
100
AcDbLine
 10
-1243.093173251292
 20
-1475.552177782418
 30
0.0
 11
-1247.486869220558
 21
-1479.008395192673
 31
0.0
  0
LINE
  5
8132
330
1E
100
AcDbEntity
  8
002
100
AcDbLine
 10
-1243.990089516856
 20
-1467.77832765622
 30
0.0
 11
-1241.04346181058
 21
-1472.528842177605
 31
0.0
  0
LINE
  5
8133
330
1E
100
AcDbEntity
  8
002
100
AcDbLine
 10
-1245.460973756561
 20
-1467.518971079261
 30
0.0
 11
-1242.514346050285
 21
-1472.269485600647
 31
0.0
  0
LINE
  5
8134
330
1E
100
AcDbEntity
  8
002
100
AcDbLine
 10
-1240.488450586288
 20
-1460.780061487235
 30
0.0
 11
-1244.882146555554
 21
-1464.236278897489
 31
0.0
  0
ARC
  5
8135
330
1E
100
AcDbEntity
  8
002
100
AcDbCircle
 10
-1242.034117817846
 20
-1458.815140626162
 30
0.0
 40
2.5
100
AcDbArc
 50
308.1896850000142
 51
31.81031499999473
  0
ARC
  5
8136
330
1E
100
AcDbEntity
  8
002
100
AcDbCircle
 10
-1240.563233578141
 20
-1459.074497203121
 30
0.0
 40
2.5
100
AcDbArc
 50
308.1896850000142
 51
31.81031499999473
  0
ARC
  5
8137
330
1E
100
AcDbEntity
  8
002
100
AcDbCircle
 10
-1248.545924480356
 20
-1495.74543136412
 30
0.0
 40
2.5
100
AcDbArc
 50
128.1896850000142
 51
211.8103149999947
  0
LINE
  5
8138
330
1E
100
AcDbEntity
  8
002
100
AcDbLine
 10
-1245.697895916296
 20
-1490.324294077601
 30
0.0
 11
-1250.091591885562
 21
-1493.780511487856
 31
0.0
  0
ARC
  5
8139
330
1E
100
AcDbEntity
  8
002
100
AcDbCircle
 10
-1247.243563147853
 20
-1488.359373216528
 30
0.0
 40
2.5
100
AcDbArc
 50
308.1896850000142
 51
31.81031499999473
  0
LINE
  5
813A
330
1E
100
AcDbEntity
  8
003
 62
     3
100
AcDbLine
 10
-1229.239429024193
 20
-1518.575187740143
 30
0.0
 11
-1229.947671117508
 21
-1520.624891395475
 31
0.0
  0
LINE
  5
813B
330
1E
100
AcDbEntity
  8
003
 62
     3
100
AcDbLine
 10
-1231.429915242552
 20
-1522.547920538002
 30
0.0
 11
-1233.239900173486
 21
-1524.432911196799
 31
0.0
  0
LINE
  5
813C
330
1E
100
AcDbEntity
  8
003
 62
     3
100
AcDbLine
 10
-1229.947671117508
 20
-1520.624891395475
 30
0.0
 11
-1231.429915242552
 21
-1522.547920538002
 31
0.0
  0
LINE
  5
813D
330
1E
100
AcDbEntity
  8
003
 62
     3
100
AcDbLine
 10
-1233.582877616774
 20
-1540.728883220684
 30
0.0
 11
-1233.838513827856
 21
-1543.520548121159
 31
0.0
  0
LINE
  5
813E
330
1E
100
AcDbEntity
  8
003
 62
     3
100
AcDbLine
 10
-1234.337628679209
 20
-1537.665417140775
 30
0.0
 11
-1233.582877616774
 21
-1540.728883220684
 31
0.0
  0
LINE
  5
813F
330
1E
100
AcDbEntity
  8
003
 62
     3
100
AcDbLine
 10
-1229.685646343809
 20
-1515.930243948737
 30
0.0
 11
-1229.239429024193
 21
-1518.575187740143
 31
0.0
  0
LINE
  5
8140
330
1E
100
AcDbEntity
  8
003
 62
     3
100
AcDbLine
 10
-1236.05805403654
 20
-1528.443329174537
 30
0.0
 11
-1236.235832094241
 21
-1531.362727560117
 31
0.0
  0
LINE
  5
8141
330
1E
100
AcDbEntity
  8
003
 62
     3
100
AcDbLine
 10
-1236.235832094241
 20
-1531.362727560117
 30
0.0
 11
-1235.442152041941
 21
-1534.490060874983
 31
0.0
  0
LINE
  5
8142
330
1E
100
AcDbEntity
  8
003
 62
     3
100
AcDbLine
 10
-1234.931366016575
 20
-1526.36850119691
 30
0.0
 11
-1236.05805403654
 21
-1528.443329174537
 31
0.0
  0
LINE
  5
8143
330
1E
100
AcDbEntity
  8
002
100
AcDbLine
 10
-1248.3026185813
 20
-1505.096410372784
 30
0.0
 11
-1252.696314550566
 21
-1508.552627783039
 31
0.0
  0
LINE
  5
8144
330
1E
100
AcDbEntity
  8
002
100
AcDbLine
 10
-1253.275141751572
 20
-1511.83531996481
 30
0.0
 11
-1250.328514045297
 21
-1516.585834486196
 31
0.0
  0
ARC
  5
8145
330
1E
100
AcDbEntity
  8
002
100
AcDbCircle
 10
-1249.848285812857
 20
-1503.131489511711
 30
0.0
 40
2.5
100
AcDbArc
 50
308.1896850000142
 51
31.81031499999473
  0
ARC
  5
8146
330
1E
100
AcDbEntity
  8
002
100
AcDbCircle
 10
-1255.057731142866
 20
-1532.675722102078
 30
0.0
 40
2.5
100
AcDbArc
 50
308.1896850000142
 51
31.81031499999473
  0
ARC
  5
8147
330
1E
100
AcDbEntity
  8
002
100
AcDbCircle
 10
-1252.453008477862
 20
-1517.903605806895
 30
0.0
 40
2.5
100
AcDbArc
 50
308.1896850000142
 51
31.81031499999473
  0
LINE
  5
8148
330
1E
100
AcDbEntity
  8
003
 62
     3
100
AcDbLine
 10
-1238.249656373653
 20
-1564.01018081726
 30
0.0
 11
-1238.250015415236
 21
-1566.603093642402
 31
0.0
  0
LINE
  5
8149
330
1E
100
AcDbEntity
  8
003
 62
     3
100
AcDbLine
 10
-1239.264721856762
 20
-1561.188126195073
 30
0.0
 11
-1238.249656373653
 21
-1564.01018081726
 31
0.0
  0
LINE
  5
814A
330
1E
100
AcDbEntity
  8
003
 62
     3
100
AcDbLine
 10
-1240.639122148194
 20
-1558.288919626827
 30
0.0
 11
-1239.264721856762
 21
-1561.188126195073
 31
0.0
  0
LINE
  5
814B
330
1E
100
AcDbEntity
  8
003
 62
     3
100
AcDbLine
 10
-1241.716763765996
 20
-1555.464552642915
 30
0.0
 11
-1240.639122148194
 21
-1558.288919626827
 31
0.0
  0
LINE
  5
814C
330
1E
100
AcDbEntity
  8
003
 62
     3
100
AcDbLine
 10
-1241.841556820153
 20
-1552.867014109515
 30
0.0
 11
-1241.716763765996
 21
-1555.464552642915
 31
0.0
  0
LINE
  5
814D
330
1E
100
AcDbEntity
  8
003
 62
     3
100
AcDbLine
 10
-1240.819637573389
 20
-1550.881436133412
 30
0.0
 11
-1241.841556820153
 21
-1552.867014109515
 31
0.0
  0
LINE
  5
814E
330
1E
100
AcDbEntity
  8
003
 62
     3
100
AcDbLine
 10
-1239.048810817679
 20
-1549.067193551098
 30
0.0
 11
-1240.819637573389
 21
-1550.881436133412
 31
0.0
  0
LINE
  5
814F
330
1E
100
AcDbEntity
  8
003
 62
     3
100
AcDbLine
 10
-1236.988640758904
 20
-1547.311094232911
 30
0.0
 11
-1239.048810817679
 21
-1549.067193551098
 31
0.0
  0
LINE
  5
8150
330
1E
100
AcDbEntity
  8
003
 62
     3
100
AcDbLine
 10
-1235.098688127576
 20
-1545.49994361571
 30
0.0
 11
-1236.988640758904
 21
-1547.311094232911
 31
0.0
  0
LINE
  5
8151
330
1E
100
AcDbEntity
  8
003
 62
     3
100
AcDbLine
 10
-1235.442152041941
 20
-1534.490060874983
 30
0.0
 11
-1234.337628679209
 21
-1537.665417140775
 31
0.0
  0
LINE
  5
8152
330
1E
100
AcDbEntity
  8
003
 62
     3
100
AcDbLine
 10
-1233.239900173486
 20
-1524.432911196799
 30
0.0
 11
-1234.931366016575
 21
-1526.36850119691
 31
0.0
  0
LINE
  5
8153
330
1E
100
AcDbEntity
  8
003
 62
     3
100
AcDbLine
 10
-1233.838513827856
 20
-1543.520548121159
 30
0.0
 11
-1235.098688127576
 21
-1545.49994361571
 31
0.0
  0
LINE
  5
8154
330
1E
100
AcDbEntity
  8
002
100
AcDbLine
 10
-1250.670419086569
 20
-1497.063203669627
 30
0.0
 11
-1247.723791380293
 21
-1501.813718191013
 31
0.0
  0
LINE
  5
8155
330
1E
100
AcDbEntity
  8
002
100
AcDbLine
 10
-1260.214538540717
 20
-1238.477385095663
 30
0.0
 11
-1248.098244900203
 21
-1240.613814570672
 31
0.0
  0
LINE
  5
8156
330
1E
100
AcDbEntity
  8
002
100
AcDbLine
 10
-1236.196099618201
 20
-1245.758763747858
 30
0.0
 11
-1278.782295896525
 21
-1238.249668338243
 31
0.0
  0
LINE
  5
8157
330
1E
100
AcDbEntity
  8
002
100
AcDbLine
 10
-1185.699059307321
 20
-1178.505758509158
 30
0.0
 11
-1268.018493347726
 21
-1163.990621251184
 31
0.0
  0
LINE
  5
8158
330
1E
100
AcDbEntity
  8
002
100
AcDbLine
 10
-1271.929193589354
 20
-1158.223926225693
 30
0.0
 11
-1180.051877289023
 21
-1174.424376004527
 31
0.0
  0
LINE
  5
8159
330
1E
100
AcDbEntity
  8
002
100
AcDbLine
 10
-1261.851972210602
 20
-1358.009001563059
 30
0.0
 11
-1252.301322438921
 21
-1303.844575147388
 31
0.0
  0
LINE
  5
815A
330
1E
100
AcDbEntity
  8
002
100
AcDbLine
 10
-1271.870645033355
 20
-1356.242439233517
 30
0.0
 11
-1252.769345429885
 21
-1303.762050066489
 31
0.0
  0
LINE
  5
815B
330
1E
100
AcDbEntity
  8
002
100
AcDbLine
 10
-1292.155609815578
 20
-1296.817188985975
 30
0.0
 11
-1241.19854763665
 21
-1305.802293905759
 31
0.0
  0
LINE
  5
815C
330
1E
100
AcDbEntity
  8
002
100
AcDbLine
 10
-1242.079854989136
 20
-1361.495359294934
 30
0.0
 11
-1292.880305156146
 21
-1358.461190862546
 31
0.0
  0
LINE
  5
815D
330
1E
100
AcDbEntity
  8
002
100
AcDbLine
 10
-1237.984330537866
 20
-1421.450729444037
 30
0.0
 11
-1303.299195816162
 21
-1417.549656043278
 31
0.0
  0
LINE
  5
815E
330
1E
100
AcDbEntity
  8
002
100
AcDbLine
 10
-1235.379607872862
 20
-1406.678613148854
 30
0.0
 11
-1300.694473151158
 21
-1402.777539748095
 31
0.0
  0
LINE
  5
815F
330
1E
100
AcDbEntity
  8
002
100
AcDbLine
 10
-1243.193775867874
 20
-1450.994962034403
 30
0.0
 11
-1308.50864114617
 21
-1447.093888633644
 31
0.0
  0
LINE
  5
8160
330
1E
100
AcDbEntity
  8
002
100
AcDbLine
 10
-1240.58905320287
 20
-1436.22284573922
 30
0.0
 11
-1305.903918481166
 21
-1432.321772338461
 31
0.0
  0
LINE
  5
8161
330
1E
100
AcDbEntity
  8
002
100
AcDbLine
 10
-1312.130318578729
 20
-1438.839589597718
 30
0.0
 11
-1236.967375770311
 21
-1444.477144775146
 31
0.0
  0
LINE
  5
8162
330
1E
100
AcDbEntity
  8
002
100
AcDbLine
 10
-1306.920873248721
 20
-1409.295357007352
 30
0.0
 11
-1231.757930440304
 21
-1414.93291218478
 31
0.0
  0
LINE
  5
8163
330
1E
100
AcDbEntity
  8
002
100
AcDbLine
 10
-1309.525595913725
 20
-1424.067473302535
 30
0.0
 11
-1234.362653105307
 21
-1429.705028479963
 31
0.0
  0
LINE
  5
8164
330
1E
100
AcDbEntity
  8
002
100
AcDbLine
 10
-1297.200357391626
 20
-1351.77612753117
 30
0.0
 11
-1225.757030861828
 21
-1364.373513589938
 31
0.0
  0
LINE
  5
8165
330
1E
100
AcDbEntity
  8
002
100
AcDbLine
 10
-1304.316150583717
 20
-1394.523240712169
 30
0.0
 11
-1229.1532077753
 21
-1400.160795889597
 31
0.0
  0
LINE
  5
8166
330
1E
100
AcDbEntity
  8
002
100
AcDbLine
 10
-1232.774885207859
 20
-1391.90649685367
 30
0.0
 11
-1298.089750486154
 21
-1388.005423452912
 31
0.0
  0
LINE
  5
8167
330
1E
100
AcDbEntity
  8
002
100
AcDbLine
 10
-1301.711427918713
 20
-1379.751124416985
 30
0.0
 11
-1226.548485110296
 21
-1385.388679594414
 31
0.0
  0
LINE
  5
8168
330
1E
100
AcDbEntity
  8
002
100
AcDbLine
 10
-1230.170162542854
 20
-1377.134380558487
 30
0.0
 11
-1295.48502782115
 21
-1373.233307157729
 31
0.0
  0
LINE
  5
8169
330
1E
100
AcDbEntity
  8
002
100
AcDbLine
 10
-1299.106705253709
 20
-1364.979008121802
 30
0.0
 11
-1223.943762445292
 21
-1370.616563299231
 31
0.0
  0
LINE
  5
816A
330
1E
100
AcDbEntity
  8
002
100
AcDbLine
 10
-1300.138886209317
 20
-1270.390332253804
 30
0.0
 11
-1277.693310752972
 21
-1162.132877538174
 31
0.0
  0
LINE
  5
816B
330
1E
100
AcDbEntity
  8
002
100
AcDbLine
 10
-1273.782610511343
 20
-1167.899572563665
 30
0.0
 11
-1295.575923351416
 21
-1273.011095724788
 31
0.0
  0
LINE
  5
816C
330
1E
100
AcDbEntity
  8
003
100
AcDbLine
 10
-1405.305386161129
 20
-1228.125353184615
 30
0.0
 11
-1407.528634738243
 21
-1215.516683948737
 31
0.0
  0
LINE
  5
816D
330
1E
100
AcDbEntity
  8
003
100
AcDbLine
 10
-1315.479543173712
 20
-1243.964072868176
 30
0.0
 11
-1405.305386161129
 21
-1228.125353184615
 31
0.0
  0
LINE
  5
816E
330
1E
100
AcDbEntity
  8
002
100
AcDbLine
 10
-1358.537298458321
 20
-1327.760223952472
 30
0.0
 11
-1301.418448783613
 21
-1337.831818257154
 31
0.0
  0
LINE
  5
816F
330
1E
100
AcDbEntity
  8
002
100
AcDbLine
 10
-1354.717038549649
 20
-1306.094453386203
 30
0.0
 11
-1283.820055786605
 21
-1318.595504298151
 31
0.0
  0
LWPOLYLINE
  5
8170
330
1E
100
AcDbEntity
  8
003
100
AcDbPolyline
 90
        4
 70
     0
 43
0.0
 10
-1321.607007720363
 20
-1334.272030614982
 10
-1360.999317840851
 20
-1327.326103508305
 10
-1396.531744619812
 20
-1229.672382907409
 10
-1315.479543173712
 20
-1243.964072868174
  0
LINE
  5
8171
330
1E
100
AcDbEntity
  8
003
100
AcDbLine
 10
-1382.953807289958
 20
-1319.889122978811
 30
0.0
 11
-1366.054431278839
 21
-1313.691456344596
 31
0.0
  0
LINE
  5
8172
330
1E
100
AcDbEntity
  8
003
100
AcDbLine
 10
-1379.854974059675
 20
-1328.338811476774
 30
0.0
 11
-1362.955598048555
 21
-1322.14114484256
 31
0.0
  0
LINE
  5
8173
330
1E
100
AcDbEntity
  8
004
  6
CENTER
100
AcDbLine
 10
-1386.3877234087
 20
-1325.941551694455
 30
0.0
 11
-1359.667263911797
 21
-1316.142107211587
 31
0.0
  0
LINE
  5
8174
330
1E
100
AcDbEntity
  8
002
100
AcDbLine
 10
-1354.717038549649
 20
-1306.094453386203
 30
0.0
 11
-1358.537298458321
 21
-1327.760223952473
 31
0.0
  0
LINE
  5
8175
330
1E
100
AcDbEntity
  8
002
100
AcDbLine
 10
-1274.359030673857
 20
-1355.803669706689
 30
0.0
 11
-1264.808380902175
 21
-1301.639243291019
 31
0.0
  0
LINE
  5
8176
330
1E
100
AcDbEntity
  8
002
  6
CENTER
100
AcDbLine
 10
-1268.105501442229
 20
-1356.906335634874
 30
0.0
 11
-1258.554851670548
 21
-1302.741909219203
 31
0.0
  0
LINE
  5
8177
330
1E
100
AcDbEntity
  8
003
100
AcDbLine
 10
-1321.607007720363
 20
-1334.272030614982
 30
0.0
 11
-1325.427267629036
 21
-1355.937801181251
 31
0.0
  0
LINE
  5
8178
330
1E
100
AcDbEntity
  8
002
100
AcDbLine
 10
-1274.930649591699
 20
-1299.854414215074
 30
0.0
 11
-1283.613058475046
 21
-1349.094801865684
 31
0.0
  0
LINE
  5
8179
330
1E
100
AcDbEntity
  8
002
100
AcDbLine
 10
-1297.200357391626
 20
-1351.77612753117
 30
0.0
 11
-1294.25372968535
 21
-1356.526642052555
 31
0.0
  0
LINE
  5
817A
330
1E
100
AcDbEntity
  8
002
100
AcDbLine
 10
-1296.164457812388
 20
-1351.958784576294
 30
0.0
 11
-1293.217830106112
 21
-1356.709299097679
 31
0.0
  0
ARC
  5
817B
330
1E
100
AcDbEntity
  8
002
100
AcDbCircle
 10
-1296.378224117915
 20
-1357.844413373254
 30
0.0
 40
2.5
100
AcDbArc
 50
308.1896850000142
 51
31.81031499999473
  0
LINE
  5
817C
330
1E
100
AcDbEntity
  8
002
100
AcDbLine
 10
-1293.796657307119
 20
-1359.991991279451
 30
0.0
 11
-1298.190353276384
 21
-1363.448208689706
 31
0.0
  0
ARC
  5
817D
330
1E
100
AcDbEntity
  8
002
100
AcDbCircle
 10
-1297.680585450417
 20
-1365.230471520845
 30
0.0
 40
2.5
100
AcDbArc
 50
128.1896850000142
 51
211.8103149999947
  0
LINE
  5
817E
330
1E
100
AcDbEntity
  8
002
100
AcDbLine
 10
-1294.832556886357
 20
-1359.809334234326
 30
0.0
 11
-1299.226252855623
 21
-1363.265551644581
 31
0.0
  0
LINE
  5
817F
330
1E
100
AcDbEntity
  8
002
100
AcDbLine
 10
-1299.80508005663
 20
-1366.548243826352
 30
0.0
 11
-1296.858452350354
 21
-1371.298758347738
 31
0.0
  0
LINE
  5
8180
330
1E
100
AcDbEntity
  8
002
100
AcDbLine
 10
-1298.769180477392
 20
-1366.730900871477
 30
0.0
 11
-1295.822552771116
 21
-1371.481415392862
 31
0.0
  0
ARC
  5
8181
330
1E
100
AcDbEntity
  8
002
100
AcDbCircle
 10
-1296.644685871179
 20
-1365.41312856597
 30
0.0
 40
2.5
100
AcDbArc
 50
128.1896850000142
 51
211.8103149999947
  0
ARC
  5
8182
330
1E
100
AcDbEntity
  8
002
100
AcDbCircle
 10
-1298.982946782919
 20
-1372.616529668437
 30
0.0
 40
2.5
100
AcDbArc
 50
308.1896850000142
 51
31.81031499999473
  0
ARC
  5
8183
330
1E
100
AcDbEntity
  8
002
100
AcDbCircle
 10
-1297.947047203681
 20
-1372.799186713562
 30
0.0
 40
2.5
100
AcDbArc
 50
308.1896850000142
 51
31.81031499999473
  0
LINE
  5
8184
330
1E
100
AcDbEntity
  8
003
100
AcDbLine
 10
-1330.252825618796
 20
-1355.086925110683
 30
0.0
 11
-1325.427267629036
 21
-1355.937801181251
 31
0.0
  0
LINE
  5
8185
330
1E
100
AcDbEntity
  8
002
100
AcDbLine
 10
-1302.409802721634
 20
-1381.320360121536
 30
0.0
 11
-1299.463175015358
 21
-1386.070874642921
 31
0.0
  0
ARC
  5
8186
330
1E
100
AcDbEntity
  8
002
100
AcDbCircle
 10
-1299.249408536182
 20
-1380.185244861153
 30
0.0
 40
2.5
100
AcDbArc
 50
128.1896850000142
 51
211.8103149999947
  0
ARC
  5
8187
330
1E
100
AcDbEntity
  8
002
100
AcDbCircle
 10
-1301.587669447923
 20
-1387.38864596362
 30
0.0
 40
2.5
100
AcDbArc
 50
308.1896850000142
 51
31.81031499999473
  0
LINE
  5
8188
330
1E
100
AcDbEntity
  8
002
100
AcDbLine
 10
-1299.006102637127
 20
-1389.536223869817
 30
0.0
 11
-1303.399798606392
 21
-1392.992441280072
 31
0.0
  0
LINE
  5
8189
330
1E
100
AcDbEntity
  8
002
100
AcDbLine
 10
-1300.042002216365
 20
-1389.353566824693
 30
0.0
 11
-1304.435698185631
 21
-1392.809784234948
 31
0.0
  0
LINE
  5
818A
330
1E
100
AcDbEntity
  8
002
100
AcDbLine
 10
-1305.014525386638
 20
-1396.092476416719
 30
0.0
 11
-1302.067897680362
 21
-1400.842990938104
 31
0.0
  0
ARC
  5
818B
330
1E
100
AcDbEntity
  8
002
100
AcDbCircle
 10
-1302.890030780425
 20
-1394.774704111212
 30
0.0
 40
2.5
100
AcDbArc
 50
128.1896850000142
 51
211.8103149999947
  0
LINE
  5
818C
330
1E
100
AcDbEntity
  8
002
100
AcDbLine
 10
-1303.9786258074
 20
-1396.275133461843
 30
0.0
 11
-1301.031998101124
 21
-1401.025647983229
 31
0.0
  0
ARC
  5
818D
330
1E
100
AcDbEntity
  8
002
100
AcDbCircle
 10
-1301.854131201186
 20
-1394.957361156336
 30
0.0
 40
2.5
100
AcDbArc
 50
128.1896850000142
 51
211.8103149999947
  0
ARC
  5
818E
330
1E
100
AcDbEntity
  8
002
100
AcDbCircle
 10
-1300.285308115421
 20
-1380.002587816029
 30
0.0
 40
2.5
100
AcDbArc
 50
128.1896850000142
 51
211.8103149999947
  0
ARC
  5
818F
330
1E
100
AcDbEntity
  8
002
100
AcDbCircle
 10
-1300.551769868685
 20
-1387.571303008745
 30
0.0
 40
2.5
100
AcDbArc
 50
308.1896850000142
 51
31.81031499999473
  0
LINE
  5
8190
330
1E
100
AcDbEntity
  8
002
100
AcDbLine
 10
-1301.373903142396
 20
-1381.50301716666
 30
0.0
 11
-1298.42727543612
 21
-1386.253531688046
 31
0.0
  0
LINE
  5
8191
330
1E
100
AcDbEntity
  8
002
100
AcDbLine
 10
-1302.646724881369
 20
-1404.125683119876
 30
0.0
 11
-1307.040420850635
 21
-1407.581900530131
 31
0.0
  0
LINE
  5
8192
330
1E
100
AcDbEntity
  8
002
100
AcDbLine
 10
-1301.610825302131
 20
-1404.308340165
 30
0.0
 11
-1306.004521271396
 21
-1407.764557575255
 31
0.0
  0
LINE
  5
8193
330
1E
100
AcDbEntity
  8
002
100
AcDbLine
 10
-1310.223970716646
 20
-1425.636709007085
 30
0.0
 11
-1307.27734301037
 21
-1430.387223528471
 31
0.0
  0
LINE
  5
8194
330
1E
100
AcDbEntity
  8
002
100
AcDbLine
 10
-1309.188071137407
 20
-1425.81936605221
 30
0.0
 11
-1306.241443431131
 21
-1430.569880573595
 31
0.0
  0
LINE
  5
8195
330
1E
100
AcDbEntity
  8
002
100
AcDbLine
 10
-1305.251447546373
 20
-1418.897799415059
 30
0.0
 11
-1309.645143515639
 21
-1422.354016825314
 31
0.0
  0
LINE
  5
8196
330
1E
100
AcDbEntity
  8
002
100
AcDbLine
 10
-1307.619248051642
 20
-1410.864592711902
 30
0.0
 11
-1304.672620345366
 21
-1415.615107233287
 31
0.0
  0
ARC
  5
8197
330
1E
100
AcDbEntity
  8
002
100
AcDbCircle
 10
-1306.797114777931
 20
-1416.932878553986
 30
0.0
 40
2.5
100
AcDbArc
 50
308.1896850000142
 51
31.81031499999473
  0
LINE
  5
8198
330
1E
100
AcDbEntity
  8
002
100
AcDbLine
 10
-1304.215547967135
 20
-1419.080456460184
 30
0.0
 11
-1308.6092439364
 21
-1422.536673870438
 31
0.0
  0
LINE
  5
8199
330
1E
100
AcDbEntity
  8
002
100
AcDbLine
 10
-1306.583348472404
 20
-1411.047249757026
 30
0.0
 11
-1303.636720766127
 21
-1415.797764278412
 31
0.0
  0
ARC
  5
819A
330
1E
100
AcDbEntity
  8
002
100
AcDbCircle
 10
-1305.761215198693
 20
-1417.115535599111
 30
0.0
 40
2.5
100
AcDbArc
 50
308.1896850000142
 51
31.81031499999473
  0
ARC
  5
819B
330
1E
100
AcDbEntity
  8
002
100
AcDbCircle
 10
-1308.099476110433
 20
-1424.318936701578
 30
0.0
 40
2.5
100
AcDbArc
 50
128.1896850000142
 51
211.8103149999947
  0
ARC
  5
819C
330
1E
100
AcDbEntity
  8
002
100
AcDbCircle
 10
-1307.063576531195
 20
-1424.501593746702
 30
0.0
 40
2.5
100
AcDbArc
 50
128.1896850000142
 51
211.8103149999947
  0
ARC
  5
819D
330
1E
100
AcDbEntity
  8
002
100
AcDbCircle
 10
-1304.458853866191
 20
-1409.729477451519
 30
0.0
 40
2.5
100
AcDbArc
 50
128.1896850000142
 51
211.8103149999947
  0
ARC
  5
819E
330
1E
100
AcDbEntity
  8
002
100
AcDbCircle
 10
-1305.494753445429
 20
-1409.546820406395
 30
0.0
 40
2.5
100
AcDbArc
 50
128.1896850000142
 51
211.8103149999947
  0
ARC
  5
819F
330
1E
100
AcDbEntity
  8
002
100
AcDbCircle
 10
-1304.192392112927
 20
-1402.160762258803
 30
0.0
 40
2.5
100
AcDbArc
 50
308.1896850000142
 51
31.81031499999473
  0
ARC
  5
81A0
330
1E
100
AcDbEntity
  8
002
100
AcDbCircle
 10
-1303.156492533688
 20
-1402.343419303927
 30
0.0
 40
2.5
100
AcDbArc
 50
308.1896850000142
 51
31.81031499999473
  0
ARC
  5
81A1
330
1E
100
AcDbEntity
  8
002
100
AcDbCircle
 10
-1310.704198775437
 20
-1439.091052996761
 30
0.0
 40
2.5
100
AcDbArc
 50
128.1896850000142
 51
211.8103149999947
  0
ARC
  5
81A2
330
1E
100
AcDbEntity
  8
002
100
AcDbCircle
 10
-1309.668299196198
 20
-1439.273710041885
 30
0.0
 40
2.5
100
AcDbArc
 50
128.1896850000142
 51
211.8103149999947
  0
LINE
  5
81A3
330
1E
100
AcDbEntity
  8
002
100
AcDbLine
 10
-1312.82869338165
 20
-1440.408825302268
 30
0.0
 11
-1309.882065675374
 21
-1445.159339823654
 31
0.0
  0
LINE
  5
81A4
330
1E
100
AcDbEntity
  8
002
100
AcDbLine
 10
-1311.792793802411
 20
-1440.591482347393
 30
0.0
 11
-1308.846166096136
 21
-1445.341996868778
 31
0.0
  0
LINE
  5
81A5
330
1E
100
AcDbEntity
  8
002
100
AcDbLine
 10
-1310.460892876381
 20
-1448.442032005425
 30
0.0
 11
-1314.854588845647
 21
-1451.89824941568
 31
0.0
  0
LINE
  5
81A6
330
1E
100
AcDbEntity
  8
002
100
AcDbLine
 10
-1309.424993297143
 20
-1448.62468905055
 30
0.0
 11
-1313.818689266408
 21
-1452.080906460804
 31
0.0
  0
ARC
  5
81A7
330
1E
100
AcDbEntity
  8
002
100
AcDbCircle
 10
-1312.006560107939
 20
-1446.477111144353
 30
0.0
 40
2.5
100
AcDbArc
 50
308.1896850000142
 51
31.81031499999473
  0
ARC
  5
81A8
330
1E
100
AcDbEntity
  8
002
100
AcDbCircle
 10
-1310.9706605287
 20
-1446.659768189477
 30
0.0
 40
2.5
100
AcDbArc
 50
308.1896850000142
 51
31.81031499999473
  0
LINE
  5
81A9
330
1E
100
AcDbEntity
  8
002
100
AcDbLine
 10
-1307.856170211377
 20
-1433.669915710242
 30
0.0
 11
-1312.249866180643
 21
-1437.126133120497
 31
0.0
  0
LINE
  5
81AA
330
1E
100
AcDbEntity
  8
002
100
AcDbLine
 10
-1306.820270632139
 20
-1433.852572755367
 30
0.0
 11
-1311.213966601405
 21
-1437.308790165621
 31
0.0
  0
ARC
  5
81AB
330
1E
100
AcDbEntity
  8
002
100
AcDbCircle
 10
-1309.401837442935
 20
-1431.70499484917
 30
0.0
 40
2.5
100
AcDbArc
 50
308.1896850000142
 51
31.81031499999473
  0
ARC
  5
81AC
330
1E
100
AcDbEntity
  8
002
100
AcDbCircle
 10
-1308.365937863696
 20
-1431.887651894294
 30
0.0
 40
2.5
100
AcDbArc
 50
308.1896850000142
 51
31.81031499999473
  0
LINE
  5
81AD
330
1E
100
AcDbEntity
  8
002
100
AcDbLine
 10
-1297.437279551362
 20
-1374.58145052951
 30
0.0
 11
-1301.830975520627
 21
-1378.037667939765
 31
0.0
  0
LINE
  5
81AE
330
1E
100
AcDbEntity
  8
002
100
AcDbLine
 10
-1296.401379972123
 20
-1374.764107574634
 30
0.0
 11
-1300.795075941389
 21
-1378.220324984889
 31
0.0
  0
LINE
  5
81AF
330
1E
100
AcDbEntity
  8
002
100
AcDbLine
 10
-1261.870645150406
 20
-1358.005709019963
 30
0.0
 11
-1261.833299301113
 21
-1357.903102230955
 31
0.0
  0
LINE
  5
81B0
330
1E
100
AcDbEntity
  8
002
100
AcDbLine
 10
-1288.537097240107
 20
-1348.22656097735
 30
0.0
 11
-1289.405338128441
 21
-1353.150599742411
 31
0.0
  0
ARC
  5
81B1
330
1E
100
AcDbEntity
  8
002
100
AcDbCircle
 10
-1295.342324538677
 20
-1358.027070418378
 30
0.0
 40
2.5
100
AcDbArc
 50
308.1896850000142
 51
31.81031499999473
  0
LINE
  5
81B2
330
1E
100
AcDbEntity
  8
002
100
AcDbLine
 10
-1288.537097240107
 20
-1348.22656097735
 30
0.0
 11
-1283.613058475046
 21
-1349.094801865684
 31
0.0
  0
LINE
  5
81B3
330
1E
100
AcDbEntity
  8
002
100
AcDbLine
 10
-1298.701967731329
 20
-1293.632036236282
 30
0.0
 11
-1293.091526825689
 21
-1294.621308341616
 31
0.0
  0
LINE
  5
81B4
330
1E
100
AcDbEntity
  8
002
100
AcDbLine
 10
-1295.54775987683
 20
-1272.864249334192
 30
0.0
 11
-1297.35403502366
 21
-1283.108144735636
 31
0.0
  0
ARC
  5
81B5
330
1E
100
AcDbEntity
  8
002
100
AcDbCircle
 10
-1303.07641092022
 20
-1269.781279561981
 30
0.0
 40
3.0
100
AcDbArc
 50
290.9637570000329
 51
348.2865349999869
  0
LINE
  5
81B6
330
1E
100
AcDbEntity
  8
002
100
AcDbLine
 10
-1298.83489119571
 20
-1282.852015582619
 30
0.0
 11
-1300.759609445537
 21
-1285.145805590349
 31
0.0
  0
LINE
  5
81B7
330
1E
100
AcDbEntity
  8
002
100
AcDbLine
 10
-1302.003079246383
 20
-1272.582700530445
 30
0.0
 11
-1304.330645098349
 21
-1273.47448009729
 31
0.0
  0
ARC
  5
81B8
330
1E
100
AcDbEntity
  8
002
100
AcDbCircle
 10
-1303.257312439704
 20
-1276.275901239402
 30
0.0
 40
3.0
100
AcDbArc
 50
110.9637570000329
 51
169.9999999999938
  0
LINE
  5
81B9
330
1E
100
AcDbEntity
  8
002
100
AcDbLine
 10
-1298.831246653178
 20
-1282.847672469135
 30
0.0
 11
-1297.35403502366
 21
-1283.108144735636
 31
0.0
  0
LINE
  5
81BA
330
1E
100
AcDbEntity
  8
002
100
AcDbLine
 10
-1299.860423662009
 20
-1294.443195811627
 30
0.0
 11
-1300.207720017343
 21
-1296.412811317651
 31
0.0
  0
LINE
  5
81BB
330
1E
100
AcDbEntity
  8
002
100
AcDbLine
 10
-1300.207720017343
 20
-1296.412811317651
 30
0.0
 11
-1302.970506899649
 21
-1297.684428126896
 31
0.0
  0
LINE
  5
81BC
330
1E
100
AcDbEntity
  8
002
100
AcDbLine
 10
-1299.860423662009
 20
-1294.443195811627
 30
0.0
 11
-1298.701967731329
 21
-1293.632036236282
 31
0.0
  0
LINE
  5
81BD
330
1E
100
AcDbEntity
  8
002
100
AcDbLine
 10
-1312.515412691296
 20
-1311.504885431023
 30
0.0
 11
-1310.893093540606
 21
-1313.821797292381
 31
0.0
  0
LINE
  5
81BE
330
1E
100
AcDbEntity
  8
002
100
AcDbLine
 10
-1304.332001927309
 20
-1314.09419929301
 30
0.0
 11
-1305.969054775545
 21
-1314.690038180716
 31
0.0
  0
LINE
  5
81BF
330
1E
100
AcDbEntity
  8
002
100
AcDbLine
 10
-1304.501018599861
 20
-1314.948892567145
 30
0.0
 11
-1305.827846392667
 21
-1313.835551181534
 31
0.0
  0
LINE
  5
81C0
330
1E
100
AcDbEntity
  8
002
100
AcDbLine
 10
-1304.350634763149
 20
-1314.096023448035
 30
0.0
 11
-1305.978230229379
 21
-1314.688420300645
 31
0.0
  0
LINE
  5
81C1
330
1E
100
AcDbEntity
  8
002
100
AcDbLine
 10
-1298.831246653178
 20
-1282.847672469135
 30
0.0
 11
-1304.491843146027
 21
-1314.950510447217
 31
0.0
  0
LINE
  5
81C2
330
1E
100
AcDbEntity
  8
002
100
AcDbLine
 10
-1312.515412691296
 20
-1311.504885431023
 30
0.0
 11
-1306.211735698741
 21
-1275.754956706401
 31
0.0
  0
LINE
  5
81C3
330
1E
100
AcDbEntity
  8
002
100
AcDbLine
 10
-1300.759609445537
 20
-1285.145805590349
 30
0.0
 11
-1305.969054775545
 21
-1314.690038180716
 31
0.0
  0
LINE
  5
81C4
330
1E
100
AcDbEntity
  8
002
100
AcDbLine
 10
-1297.598188874941
 20
-1316.166047690885
 30
0.0
 11
-1301.418448783613
 21
-1337.831818257154
 31
0.0
  0
LINE
  5
81C5
330
1E
100
AcDbEntity
  8
002
100
AcDbLine
 10
-1260.800677379267
 20
-1238.943621330523
 30
0.0
 11
-1260.929286345856
 21
-1241.397635608872
 31
0.0
  0
ARC
  5
81C6
330
1E
100
AcDbEntity
  8
002
100
AcDbCircle
 10
-1260.30136262955
 20
-1238.969788972169
 30
0.0
 40
0.5
100
AcDbArc
 50
79.9999999999961
 51
176.9999999999945
  0
LINE
  5
81C7
330
1E
100
AcDbEntity
  8
001
 62
     3
100
AcDbLine
 10
-1278.782295896525
 20
-1238.249668338243
 30
0.0
 11
-1279.361523861865
 21
-1238.655248125915
 31
0.0
  0
LINE
  5
81C8
330
1E
100
AcDbEntity
  8
002
100
AcDbLine
 10
-1266.847416150128
 20
-1313.203186822293
 30
0.0
 11
-1262.769345312834
 21
-1301.998780280044
 31
0.0
  0
LINE
  5
81C9
330
1E
100
AcDbEntity
  8
002
100
AcDbLine
 10
-1280.347092233266
 20
-1298.899349237907
 30
0.0
 11
-1281.974687525848
 21
-1299.491745105708
 31
0.0
  0
LINE
  5
81CA
330
1E
100
AcDbEntity
  8
002
100
AcDbLine
 10
-1281.81512840895
 20
-1298.640494851477
 30
0.0
 11
-1280.488300442495
 21
-1299.75383525228
 31
0.0
  0
LINE
  5
81CB
330
1E
100
AcDbEntity
  8
002
100
AcDbLine
 10
-1292.155609815578
 20
-1296.817188985975
 30
0.0
 11
-1293.091526825689
 21
-1294.621308341616
 31
0.0
  0
LINE
  5
81CC
330
1E
100
AcDbEntity
  8
002
100
AcDbLine
 10
-1289.606766344214
 20
-1296.758905553636
 30
0.0
 11
-1289.201186556541
 21
-1297.338133518976
 31
0.0
  0
LINE
  5
81CD
330
1E
100
AcDbEntity
  8
002
100
AcDbLine
 10
-1285.297267416123
 20
-1318.33503203165
 30
0.0
 11
-1283.669671949892
 21
-1317.74263517904
 31
0.0
  0
LINE
  5
81CE
330
1E
100
AcDbEntity
  8
002
100
AcDbLine
 10
-1280.347092233266
 20
-1298.899349237907
 30
0.0
 11
-1283.820055786605
 21
-1318.595504298151
 31
0.0
  0
LINE
  5
81CF
330
1E
100
AcDbEntity
  8
002
100
AcDbLine
 10
-1281.824303862785
 20
-1298.638876971407
 30
0.0
 11
-1285.297267416123
 21
-1318.33503203165
 31
0.0
  0
LINE
  5
81D0
330
1E
100
AcDbEntity
  8
002
100
AcDbLine
 10
-1289.606766344214
 20
-1296.758905553636
 30
0.0
 11
-1279.361523861865
 21
-1238.655248125915
 31
0.0
  0
LINE
  5
81D1
330
1E
100
AcDbEntity
  8
003
100
AcDbLine
 10
-1407.528634738243
 20
-1215.516683948737
 30
0.0
 11
-1315.479543173712
 21
-1215.516683948737
 31
0.0
  0
ARC
  5
81D2
330
1E
100
AcDbEntity
  8
002
100
AcDbCircle
 10
-1268.88673423606
 20
-1168.914660016245
 30
0.0
 40
5.0
100
AcDbArc
 50
79.9999999999961
 51
168.286534999987
  0
ARC
  5
81D3
330
1E
100
AcDbEntity
  8
002
100
AcDbCircle
 10
-1272.797434477689
 20
-1163.147964990754
 30
0.0
 40
5.0
100
AcDbArc
 50
79.9999999999961
 51
168.286534999987
  0
LINE
  5
81D4
330
1E
100
AcDbEntity
  8
002
100
AcDbLine
 10
-1227.362691297908
 20
-1233.957839448626
 30
0.0
 11
-1214.566746222946
 21
-1198.801271732432
 31
0.0
  0
LINE
  5
81D5
330
1E
100
AcDbEntity
  8
002
  6
CENTER
100
AcDbLine
 10
-1248.126785556697
 20
-1243.655061918542
 30
0.0
 11
-1238.786119670212
 21
-1190.681513293393
 31
0.0
  0
LINE
  5
81D6
330
1E
100
AcDbEntity
  8
002
100
AcDbLine
 10
-1253.859370255324
 20
-1239.59797273132
 30
0.0
 11
-1245.697905904978
 21
-1193.312008339746
 31
0.0
  0
LINE
  5
81D7
330
1E
100
AcDbEntity
  8
002
100
AcDbLine
 10
-1250.368730992465
 20
-1240.213466613282
 30
0.0
 11
-1234.045802383654
 21
-1195.366588572564
 31
0.0
  0
LINE
  5
81D8
330
1E
100
AcDbEntity
  8
002
100
AcDbLine
 10
-1241.352311792069
 20
-1241.80330458769
 30
0.0
 11
-1233.190847441723
 21
-1195.517340196116
 31
0.0
  0
LINE
  5
81D9
330
1E
100
AcDbEntity
  8
002
100
AcDbLine
 10
-1237.362691327179
 20
-1290.670657810806
 30
0.0
 11
-1212.348574419621
 21
-1221.944936495109
 31
0.0
  0
LINE
  5
81DA
330
1E
100
AcDbEntity
  8
002
100
AcDbLine
 10
-1191.906608550273
 20
-1289.474602988623
 30
0.0
 11
-1175.972319997983
 21
-1180.069032712675
 31
0.0
  0
LINE
  5
81DB
330
1E
100
AcDbEntity
  8
002
100
AcDbLine
 10
-1181.61950201628
 20
-1184.150415217307
 30
0.0
 11
-1197.090744974731
 21
-1290.376689872483
 31
0.0
  0
LINE
  5
81DC
330
1E
100
AcDbEntity
  8
002
100
AcDbLine
 10
-1249.616668492367
 20
-1360.166415725747
 30
0.0
 11
-1220.964719177323
 21
-1197.673136478732
 31
0.0
  0
LINE
  5
81DD
330
1E
100
AcDbEntity
  8
002
100
AcDbLine
 10
-1237.109610029112
 20
-1362.371747582117
 30
0.0
 11
-1208.457660714068
 21
-1199.878468335102
 31
0.0
  0
LINE
  5
81DE
330
1E
100
AcDbEntity
  8
002
  6
CENTER
100
AcDbLine
 10
-1243.36313926074
 20
-1361.269081653932
 30
0.0
 11
-1214.052932942557
 21
-1195.042641432379
 31
0.0
  0
LINE
  5
81DF
330
1E
100
AcDbEntity
  8
002
100
AcDbLine
 10
-1213.770558765527
 20
-1353.28650606951
 30
0.0
 11
-1156.651709090819
 21
-1363.358100374193
 31
0.0
  0
LINE
  5
81E0
330
1E
100
AcDbEntity
  8
002
100
AcDbLine
 10
-1223.74678285286
 20
-1329.188043135834
 30
0.0
 11
-1152.831449182146
 21
-1341.692329807924
 31
0.0
  0
LINE
  5
81E1
330
1E
100
AcDbEntity
  8
002
100
AcDbLine
 10
-1209.950298856854
 20
-1331.620735503242
 30
0.0
 11
-1213.770558765527
 21
-1353.28650606951
 31
0.0
  0
LINE
  5
81E2
330
1E
100
AcDbEntity
  8
002
100
AcDbLine
 10
-1225.690261941088
 20
-1308.536823098421
 30
0.0
 11
-1234.372670824435
 21
-1357.777210749032
 31
0.0
  0
LINE
  5
81E3
330
1E
100
AcDbEntity
  8
002
100
AcDbLine
 10
-1241.87064538451
 20
-1361.532248592853
 30
0.0
 11
-1232.348574478163
 21
-1335.370573219469
 31
0.0
  0
LINE
  5
81E4
330
1E
100
AcDbEntity
  8
002
100
AcDbLine
 10
-1247.36269135645
 20
-1347.383476172987
 30
0.0
 11
-1222.348574448893
 21
-1278.657754857289
 31
0.0
  0
LINE
  5
81E5
330
1E
100
AcDbEntity
  8
002
100
AcDbLine
 10
-1225.757030861828
 20
-1364.373513589938
 30
0.0
 11
-1222.810403155552
 21
-1369.124028111324
 31
0.0
  0
LINE
  5
81E6
330
1E
100
AcDbEntity
  8
002
100
AcDbLine
 10
-1227.227915101533
 20
-1364.114157012979
 30
0.0
 11
-1224.281287395257
 21
-1368.864671534365
 31
0.0
  0
ARC
  5
81E7
330
1E
100
AcDbEntity
  8
002
100
AcDbCircle
 10
-1224.934897588117
 20
-1370.441799432022
 30
0.0
 40
2.5
100
AcDbArc
 50
308.1896850000142
 51
31.81031499999473
  0
ARC
  5
81E8
330
1E
100
AcDbEntity
  8
002
100
AcDbCircle
 10
-1226.405781827822
 20
-1370.182442855063
 30
0.0
 40
2.5
100
AcDbArc
 50
308.1896850000142
 51
31.81031499999473
  0
LINE
  5
81E9
330
1E
100
AcDbEntity
  8
002
100
AcDbLine
 10
-1229.448632059374
 20
-1358.645451637366
 30
0.0
 11
-1230.316872947709
 21
-1363.569490402427
 31
0.0
  0
LINE
  5
81EA
330
1E
100
AcDbEntity
  8
002
100
AcDbLine
 10
-1229.448632059374
 20
-1358.645451637366
 30
0.0
 11
-1234.372670824435
 21
-1357.777210749032
 31
0.0
  0
LINE
  5
81EB
330
1E
100
AcDbEntity
  8
002
100
AcDbLine
 10
-1224.860114596264
 20
-1372.147363716136
 30
0.0
 11
-1229.25381056553
 21
-1375.603581126391
 31
0.0
  0
LINE
  5
81EC
330
1E
100
AcDbEntity
  8
002
100
AcDbLine
 10
-1228.361753526832
 20
-1379.145629885121
 30
0.0
 11
-1225.415125820556
 21
-1383.896144406507
 31
0.0
  0
LINE
  5
81ED
330
1E
100
AcDbEntity
  8
002
100
AcDbLine
 10
-1229.832637766537
 20
-1378.886273308162
 30
0.0
 11
-1226.886010060261
 21
-1383.636787829548
 31
0.0
  0
ARC
  5
81EE
330
1E
100
AcDbEntity
  8
002
100
AcDbCircle
 10
-1227.539620253121
 20
-1385.213915727206
 30
0.0
 40
2.5
100
AcDbArc
 50
308.1896850000142
 51
31.81031499999473
  0
LINE
  5
81EF
330
1E
100
AcDbEntity
  8
002
100
AcDbLine
 10
-1225.993953021563
 20
-1387.178836588279
 30
0.0
 11
-1230.387648990829
 21
-1390.635053998533
 31
0.0
  0
ARC
  5
81F0
330
1E
100
AcDbEntity
  8
002
100
AcDbCircle
 10
-1229.010504492826
 20
-1384.954559150247
 30
0.0
 40
2.5
100
AcDbArc
 50
308.1896850000142
 51
31.81031499999473
  0
ARC
  5
81F1
330
1E
100
AcDbEntity
  8
002
100
AcDbCircle
 10
-1230.144342918125
 20
-1399.986032022388
 30
0.0
 40
2.5
100
AcDbArc
 50
308.1896850000142
 51
31.81031499999473
  0
ARC
  5
81F2
330
1E
100
AcDbEntity
  8
002
100
AcDbCircle
 10
-1231.61522715783
 20
-1399.72667544543
 30
0.0
 40
2.5
100
AcDbArc
 50
308.1896850000142
 51
31.81031499999473
  0
LINE
  5
81F3
330
1E
100
AcDbEntity
  8
002
100
AcDbLine
 10
-1230.966476191836
 20
-1393.917746180304
 30
0.0
 11
-1228.01984848556
 21
-1398.66826070169
 31
0.0
  0
ARC
  5
81F4
330
1E
100
AcDbEntity
  8
002
100
AcDbCircle
 10
-1226.237258920619
 20
-1377.827857579614
 30
0.0
 40
2.5
100
AcDbArc
 50
128.1896850000142
 51
211.8103149999947
  0
ARC
  5
81F5
330
1E
100
AcDbEntity
  8
002
100
AcDbCircle
 10
-1230.312865825328
 20
-1392.340617297838
 30
0.0
 40
2.5
100
AcDbArc
 50
128.1896850000142
 51
211.8103149999947
  0
LINE
  5
81F6
330
1E
100
AcDbEntity
  8
002
100
AcDbLine
 10
-1227.464837261268
 20
-1386.91948001132
 30
0.0
 11
-1231.858533230534
 21
-1390.375697421574
 31
0.0
  0
LINE
  5
81F7
330
1E
100
AcDbEntity
  8
002
100
AcDbLine
 10
-1232.437360431541
 20
-1393.658389603345
 30
0.0
 11
-1229.490732725265
 21
-1398.408904124731
 31
0.0
  0
ARC
  5
81F8
330
1E
100
AcDbEntity
  8
002
100
AcDbCircle
 10
-1228.841981585623
 20
-1392.599973874797
 30
0.0
 40
2.5
100
AcDbArc
 50
128.1896850000142
 51
211.8103149999947
  0
ARC
  5
81F9
330
1E
100
AcDbEntity
  8
002
100
AcDbCircle
 10
-1231.446704250627
 20
-1407.37209016998
 30
0.0
 40
2.5
100
AcDbArc
 50
128.1896850000142
 51
211.8103149999947
  0
ARC
  5
81FA
330
1E
100
AcDbEntity
  8
002
100
AcDbCircle
 10
-1232.749065583129
 20
-1414.758148317571
 30
0.0
 40
2.5
100
AcDbArc
 50
308.1896850000142
 51
31.81031499999473
  0
ARC
  5
81FB
330
1E
100
AcDbEntity
  8
002
100
AcDbCircle
 10
-1234.219949822834
 20
-1414.498791740612
 30
0.0
 40
2.5
100
AcDbArc
 50
308.1896850000142
 51
31.81031499999473
  0
LINE
  5
81FC
330
1E
100
AcDbEntity
  8
002
100
AcDbLine
 10
-1233.57119885684
 20
-1408.689862475487
 30
0.0
 11
-1230.624571150564
 21
-1413.440376996873
 31
0.0
  0
LINE
  5
81FD
330
1E
100
AcDbEntity
  8
002
100
AcDbLine
 10
-1228.598675686567
 20
-1401.950952883462
 30
0.0
 11
-1232.992371655833
 21
-1405.407170293716
 31
0.0
  0
LINE
  5
81FE
330
1E
100
AcDbEntity
  8
002
100
AcDbLine
 10
-1230.069559926272
 20
-1401.691596306503
 30
0.0
 11
-1234.463255895538
 21
-1405.147813716757
 31
0.0
  0
ARC
  5
81FF
330
1E
100
AcDbEntity
  8
002
100
AcDbCircle
 10
-1235.353788248133
 20
-1429.530264612755
 30
0.0
 40
2.5
100
AcDbArc
 50
308.1896850000142
 51
31.81031499999473
  0
ARC
  5
8200
330
1E
100
AcDbEntity
  8
002
100
AcDbCircle
 10
-1227.708143160324
 20
-1377.568501002655
 30
0.0
 40
2.5
100
AcDbArc
 50
128.1896850000142
 51
211.8103149999947
  0
LINE
  5
8201
330
1E
100
AcDbEntity
  8
002
100
AcDbLine
 10
-1223.389230356559
 20
-1372.406720293095
 30
0.0
 11
-1227.782926325825
 21
-1375.862937703349
 31
0.0
  0
ARC
  5
8202
330
1E
100
AcDbEntity
  8
002
100
AcDbCircle
 10
-1234.051426915631
 20
-1422.144206465163
 30
0.0
 40
2.5
100
AcDbArc
 50
128.1896850000142
 51
211.8103149999947
  0
LINE
  5
8203
330
1E
100
AcDbEntity
  8
002
100
AcDbLine
 10
-1237.646805761549
 20
-1423.202622193711
 30
0.0
 11
-1234.700178055273
 21
-1427.953136715097
 31
0.0
  0
ARC
  5
8204
330
1E
100
AcDbEntity
  8
002
100
AcDbCircle
 10
-1235.522311155336
 20
-1421.884849888204
 30
0.0
 40
2.5
100
AcDbArc
 50
128.1896850000142
 51
211.8103149999947
  0
ARC
  5
8205
330
1E
100
AcDbEntity
  8
002
100
AcDbCircle
 10
-1237.958510913137
 20
-1444.302380907938
 30
0.0
 40
2.5
100
AcDbArc
 50
308.1896850000142
 51
31.81031499999473
  0
LINE
  5
8206
330
1E
100
AcDbEntity
  8
002
100
AcDbLine
 10
-1237.883727921284
 20
-1446.007945192052
 30
0.0
 11
-1242.27742389055
 21
-1449.464162602306
 31
0.0
  0
ARC
  5
8207
330
1E
100
AcDbEntity
  8
002
100
AcDbCircle
 10
-1236.656149580634
 20
-1436.916322760346
 30
0.0
 40
2.5
100
AcDbArc
 50
128.1896850000142
 51
211.8103149999947
  0
ARC
  5
8208
330
1E
100
AcDbEntity
  8
002
100
AcDbCircle
 10
-1239.260872245639
 20
-1451.688439055529
 30
0.0
 40
2.5
100
AcDbArc
 50
128.1896850000142
 51
211.8103149999947
  0
ARC
  5
8209
330
1E
100
AcDbEntity
  8
002
100
AcDbCircle
 10
-1240.731756485344
 20
-1451.42908247857
 30
0.0
 40
2.5
100
AcDbArc
 50
128.1896850000142
 51
211.8103149999947
  0
ARC
  5
820A
330
1E
100
AcDbEntity
  8
002
100
AcDbCircle
 10
-1238.12703382034
 20
-1436.656966183387
 30
0.0
 40
2.5
100
AcDbArc
 50
128.1896850000142
 51
211.8103149999947
  0
LINE
  5
820B
330
1E
100
AcDbEntity
  8
002
100
AcDbLine
 10
-1240.251528426553
 20
-1437.974738488895
 30
0.0
 11
-1237.304900720277
 21
-1442.725253010281
 31
0.0
  0
LINE
  5
820C
330
1E
100
AcDbEntity
  8
002
100
AcDbLine
 10
-1236.412843681579
 20
-1446.267301769011
 30
0.0
 11
-1240.806539650844
 21
-1449.723519179265
 31
0.0
  0
LINE
  5
820D
330
1E
100
AcDbEntity
  8
002
100
AcDbLine
 10
-1235.27900525628
 20
-1431.235828896869
 30
0.0
 11
-1239.672701225546
 21
-1434.692046307123
 31
0.0
  0
LINE
  5
820E
330
1E
100
AcDbEntity
  8
002
100
AcDbLine
 10
-1238.780644186848
 20
-1438.234095065854
 30
0.0
 11
-1235.834016480572
 21
-1442.98460958724
 31
0.0
  0
ARC
  5
820F
330
1E
100
AcDbEntity
  8
002
100
AcDbCircle
 10
-1239.429395152842
 20
-1444.043024330979
 30
0.0
 40
2.5
100
AcDbArc
 50
308.1896850000142
 51
31.81031499999473
  0
ARC
  5
8210
330
1E
100
AcDbEntity
  8
002
100
AcDbCircle
 10
-1232.917588490332
 20
-1407.112733593021
 30
0.0
 40
2.5
100
AcDbArc
 50
128.1896850000142
 51
211.8103149999947
  0
LINE
  5
8211
330
1E
100
AcDbEntity
  8
002
100
AcDbLine
 10
-1236.175921521843
 20
-1423.46197877067
 30
0.0
 11
-1233.229293815568
 21
-1428.212493292056
 31
0.0
  0
LINE
  5
8212
330
1E
100
AcDbEntity
  8
002
100
AcDbLine
 10
-1232.674282591276
 20
-1416.463712601686
 30
0.0
 11
-1237.067978560542
 21
-1419.91993001194
 31
0.0
  0
LINE
  5
8213
330
1E
100
AcDbEntity
  8
002
100
AcDbLine
 10
-1231.203398351571
 20
-1416.723069178645
 30
0.0
 11
-1235.597094320837
 21
-1420.179286588899
 31
0.0
  0
LINE
  5
8214
330
1E
100
AcDbEntity
  8
002
100
AcDbLine
 10
-1235.042083096545
 20
-1408.430505898528
 30
0.0
 11
-1232.095455390269
 21
-1413.181020419914
 31
0.0
  0
LINE
  5
8215
330
1E
100
AcDbEntity
  8
002
100
AcDbLine
 10
-1233.808121016575
 20
-1431.495185473828
 30
0.0
 11
-1238.201816985841
 21
-1434.951402884082
 31
0.0
  0
ARC
  5
8216
330
1E
100
AcDbEntity
  8
002
100
AcDbCircle
 10
-1236.824672487838
 20
-1429.270908035796
 30
0.0
 40
2.5
100
AcDbArc
 50
308.1896850000142
 51
31.81031499999473
  0
LINE
  5
8217
330
1E
100
AcDbEntity
  8
003
100
AcDbLine
 10
-1197.402259737448
 20
-1378.512064277951
 30
0.0
 11
-1192.576701747689
 21
-1379.362940348519
 31
0.0
  0
LINE
  5
8218
330
1E
100
AcDbEntity
  8
003
100
AcDbLine
 10
-1197.402259737449
 20
-1378.512064277952
 30
0.0
 11
-1193.581999828776
 21
-1356.846293711683
 31
0.0
  0
LINE
  5
8219
330
1E
100
AcDbEntity
  8
002
100
AcDbLine
 10
-1210.263956779022
 20
-1247.285020362334
 30
0.0
 11
-1216.126721187908
 21
-1246.25125681551
 31
0.0
  0
LINE
  5
821A
330
1E
100
AcDbEntity
  8
002
100
AcDbLine
 10
-1226.426431341467
 20
-1308.407016570763
 30
0.0
 11
-1208.44695080954
 21
-1311.577284087664
 31
0.0
  0
LINE
  5
821B
330
1E
100
AcDbEntity
  8
002
100
AcDbLine
 10
-1209.872628621551
 20
-1247.923610401345
 30
0.0
 11
-1223.785920655287
 21
-1293.431936321722
 31
0.0
  0
LINE
  5
821C
330
1E
100
AcDbEntity
  8
002
100
AcDbLine
 10
-1216.126721187908
 20
-1246.25125681551
 30
0.0
 11
-1216.669252952102
 21
-1246.448722104777
 31
0.0
  0
LINE
  5
821D
330
1E
100
AcDbEntity
  8
002
100
AcDbLine
 10
-1229.618587404175
 20
-1243.872276781473
 30
0.0
 11
-1229.176311415357
 21
-1244.243390248407
 31
0.0
  0
ARC
  5
821E
330
1E
100
AcDbEntity
  8
002
100
AcDbCircle
 10
-1235.568174917088
 20
-1243.330917284803
 30
0.0
 40
0.5
100
AcDbArc
 50
79.9999999999961
 51
176.9999999999945
  0
LINE
  5
821F
330
1E
100
AcDbEntity
  8
002
100
AcDbLine
 10
-1236.222267259847
 20
-1246.258078497574
 30
0.0
 11
-1236.688503494707
 21
-1245.671939659024
 31
0.0
  0
LINE
  5
8220
330
1E
100
AcDbEntity
  8
002
100
AcDbLine
 10
-1248.619189433203
 20
-1243.568237829708
 30
0.0
 11
-1248.098244900203
 21
-1240.613814570672
 31
0.0
  0
LINE
  5
8221
330
1E
100
AcDbEntity
  8
002
100
AcDbLine
 10
-1247.634381680192
 20
-1243.741886007375
 30
0.0
 11
-1247.113437147191
 21
-1240.787462748339
 31
0.0
  0
LINE
  5
8222
330
1E
100
AcDbEntity
  8
002
100
AcDbLine
 10
-1247.113437147191
 20
-1240.787462748339
 30
0.0
 11
-1229.618587404175
 21
-1243.872276781473
 31
0.0
  0
ARC
  5
8223
330
1E
100
AcDbEntity
  8
002
100
AcDbCircle
 10
-1222.084915172866
 20
-1284.951948758431
 30
0.0
 40
0.8526290000000001
100
AcDbArc
 50
199.9999999999892
 51
342.9999999999905
  0
LINE
  5
8224
330
1E
100
AcDbEntity
  8
002
100
AcDbLine
 10
-1222.886123897289
 20
-1285.243564623756
 30
0.0
 11
-1223.306282872269
 21
-1284.08918922728
 31
0.0
  0
LINE
  5
8225
330
1E
100
AcDbEntity
  8
002
100
AcDbLine
 10
-1223.785920655287
 20
-1293.431936321722
 30
0.0
 11
-1225.558190453132
 21
-1303.482977805701
 31
0.0
  0
LINE
  5
8226
330
1E
100
AcDbEntity
  8
002
100
AcDbLine
 10
-1218.796607670003
 20
-1309.752360342089
 30
0.0
 11
-1220.424202962585
 21
-1310.344756209891
 31
0.0
  0
LINE
  5
8227
330
1E
100
AcDbEntity
  8
002
100
AcDbLine
 10
-1220.273819299522
 20
-1309.49188807559
 30
0.0
 11
-1218.946991333067
 21
-1310.605228476392
 31
0.0
  0
LINE
  5
8228
330
1E
100
AcDbEntity
  8
002
100
AcDbLine
 10
-1225.558190453132
 20
-1303.482977805701
 30
0.0
 11
-1225.821835211315
 21
-1308.51362318094
 31
0.0
  0
LINE
  5
8229
330
1E
100
AcDbEntity
  8
002
100
AcDbLine
 10
-1222.269571223342
 20
-1329.448515402334
 30
0.0
 11
-1223.596399016148
 21
-1328.335174016723
 31
0.0
  0
LINE
  5
822A
330
1E
100
AcDbEntity
  8
002
100
AcDbLine
 10
-1220.273819299522
 20
-1309.49188807559
 30
0.0
 11
-1223.74678285286
 21
-1329.188043135834
 31
0.0
  0
LINE
  5
822B
330
1E
100
AcDbEntity
  8
002
100
AcDbLine
 10
-1218.796607670003
 20
-1309.752360342089
 30
0.0
 11
-1222.269571223342
 21
-1329.448515402334
 31
0.0
  0
LINE
  5
822C
330
1E
100
AcDbEntity
  8
002
100
AcDbLine
 10
-1236.602980277617
 20
-1282.824912753401
 30
0.0
 11
-1235.813341335525
 21
-1281.88385737091
 31
0.0
  0
LINE
  5
822D
330
1E
100
AcDbEntity
  8
002
100
AcDbLine
 10
-1238.55803695047
 20
-1290.827213656719
 30
0.0
 11
-1240.330306748315
 21
-1300.878255140698
 31
0.0
  0
LINE
  5
822E
330
1E
100
AcDbEntity
  8
002
100
AcDbLine
 10
-1240.330306748315
 20
-1300.878255140698
 30
0.0
 11
-1241.803142781995
 21
-1305.695687469229
 31
0.0
  0
ARC
  5
822F
330
1E
100
AcDbEntity
  8
002
100
AcDbCircle
 10
-1237.256131703612
 20
-1282.27685395389
 30
0.0
 40
0.8526290000000001
100
AcDbArc
 50
176.9999999999945
 51
320.0000000000157
  0
LINE
  5
8230
330
1E
100
AcDbEntity
  8
002
100
AcDbLine
 10
-1222.964262658827
 20
-1285.028881450416
 30
0.0
 11
-1216.126721187908
 21
-1246.25125681551
 31
0.0
  0
LINE
  5
8231
330
1E
100
AcDbEntity
  8
002
100
AcDbLine
 10
-1236.456128875095
 20
-1282.649901416379
 30
0.0
 11
-1229.618587404175
 21
-1243.872276781473
 31
0.0
  0
LINE
  5
8232
330
1E
100
AcDbEntity
  8
002
100
AcDbLine
 10
-1236.067489666804
 20
-1243.304749643157
 30
0.0
 11
-1238.55803695047
 21
-1290.827213656719
 31
0.0
  0
ARC
  5
8233
330
1E
100
AcDbEntity
  8
002
100
AcDbCircle
 10
-1210.350780867855
 20
-1247.77742423884
 30
0.0
 40
0.5
100
AcDbArc
 50
342.9999999999905
 51
79.9999999999961
  0
LINE
  5
8234
330
1E
100
AcDbEntity
  8
002
100
AcDbLine
 10
-1210.098694163378
 20
-1250.360440456032
 30
0.0
 11
-1200.982483408561
 21
-1251.96787437393
 31
0.0
  0
LINE
  5
8235
330
1E
100
AcDbEntity
  8
002
100
AcDbLine
 10
-1210.737283217581
 20
-1250.75176878715
 30
0.0
 11
-1210.098694163378
 21
-1250.360440456032
 31
0.0
  0
LINE
  5
8236
330
1E
100
AcDbEntity
  8
002
100
AcDbLine
 10
-1200.982483408561
 20
-1251.96787437393
 30
0.0
 11
-1200.576903620888
 21
-1252.54710233927
 31
0.0
  0
LINE
  5
8237
330
1E
100
AcDbEntity
  8
002
100
AcDbLine
 10
-1186.294666789758
 20
-1250.942745959627
 30
0.0
 11
-1191.239780177984
 21
-1250.203694174143
 31
0.0
  0
LINE
  5
8238
330
1E
100
AcDbEntity
  8
002
100
AcDbLine
 10
-1186.366760124222
 20
-1251.437747265575
 30
0.0
 11
-1191.311874497256
 21
-1250.698695306442
 31
0.0
  0
LINE
  5
8239
330
1E
100
AcDbEntity
  8
002
100
AcDbLine
 10
-1187.322109812675
 20
-1257.997221688686
 30
0.0
 11
-1192.229450295428
 21
-1256.998811868075
 31
0.0
  0
LINE
  5
823A
330
1E
100
AcDbEntity
  8
002
100
AcDbLine
 10
-1187.249902988618
 20
-1257.501444299552
 30
0.0
 11
-1192.157242486564
 21
-1256.50303465259
 31
0.0
  0
ARC
  5
823B
330
1E
100
AcDbEntity
  8
002
100
AcDbCircle
 10
-1190.989228596312
 20
-1296.071793493432
 30
0.0
 40
3.0
100
AcDbArc
 50
349.9999999999938
 51
49.03624300000194
  0
LINE
  5
823C
330
1E
100
AcDbEntity
  8
002
100
AcDbLine
 10
-1188.034805337275
 20
-1296.592738026432
 30
0.0
 11
-1188.23144123435
 21
-1297.707915614596
 31
0.0
  0
LINE
  5
823D
330
1E
100
AcDbEntity
  8
002
100
AcDbLine
 10
-1189.022484341602
 20
-1293.806419934573
 30
0.0
 11
-1189.877573236497
 21
-1293.064052070281
 31
0.0
  0
ARC
  5
823E
330
1E
100
AcDbEntity
  8
002
100
AcDbCircle
 10
-1188.937928982304
 20
-1289.906973464741
 30
0.0
 40
3.0
100
AcDbArc
 50
171.7134649999881
 51
229.0362430000019
  0
LINE
  5
823F
330
1E
100
AcDbEntity
  8
002
100
AcDbLine
 10
-1190.904674221822
 20
-1292.172346849952
 30
0.0
 11
-1189.877573236497
 21
-1293.064052070281
 31
0.0
  0
LINE
  5
8240
330
1E
100
AcDbEntity
  8
002
100
AcDbLine
 10
-1197.396048092921
 20
-1300.733434768829
 30
0.0
 11
-1198.873259722439
 21
-1300.472962502328
 31
0.0
  0
LINE
  5
8241
330
1E
100
AcDbEntity
  8
002
100
AcDbLine
 10
-1200.742136963109
 20
-1313.951277262011
 30
0.0
 11
-1198.580885080355
 21
-1316.091134959591
 31
0.0
  0
LINE
  5
8242
330
1E
100
AcDbEntity
  8
002
100
AcDbLine
 10
-1200.394840607776
 20
-1311.981661755987
 30
0.0
 11
-1200.742136963109
 21
-1313.951277262011
 31
0.0
  0
LINE
  5
8243
330
1E
100
AcDbEntity
  8
002
100
AcDbLine
 10
-1206.816441088761
 20
-1309.833933719973
 30
0.0
 11
-1201.206000183121
 21
-1310.823205825308
 31
0.0
  0
LINE
  5
8244
330
1E
100
AcDbEntity
  8
002
100
AcDbLine
 10
-1200.394840607776
 20
-1311.981661755987
 30
0.0
 11
-1201.206000183121
 21
-1310.823205825308
 31
0.0
  0
LINE
  5
8245
330
1E
100
AcDbEntity
  8
002
100
AcDbLine
 10
-1210.822146103237
 20
-1310.65075976699
 30
0.0
 11
-1211.401374068577
 21
-1311.056339554663
 31
0.0
  0
LINE
  5
8246
330
1E
100
AcDbEntity
  8
002
100
AcDbLine
 10
-1208.44695080954
 20
-1311.577284087664
 30
0.0
 11
-1206.816441088761
 21
-1309.833933719973
 31
0.0
  0
LINE
  5
8247
330
1E
100
AcDbEntity
  8
002
100
AcDbLine
 10
-1197.066984575609
 20
-1290.229067100885
 30
0.0
 11
-1198.873259722439
 21
-1300.472962502328
 31
0.0
  0
LINE
  5
8248
330
1E
100
AcDbEntity
  8
002
100
AcDbLine
 10
-1197.394108775493
 20
-1300.73876246748
 30
0.0
 11
-1196.369987626243
 21
-1303.552512423044
 31
0.0
  0
LINE
  5
8249
330
1E
100
AcDbEntity
  8
002
100
AcDbLine
 10
-1194.338482329831
 20
-1332.342666751054
 30
0.0
 11
-1196.655394191189
 21
-1333.964985901745
 31
0.0
  0
LINE
  5
824A
330
1E
100
AcDbEntity
  8
002
100
AcDbLine
 10
-1202.913970535802
 20
-1331.97693455767
 30
0.0
 11
-1201.579432956251
 21
-1333.096745013411
 31
0.0
  0
LINE
  5
824B
330
1E
100
AcDbEntity
  8
002
100
AcDbLine
 10
-1203.056644585769
 20
-1332.83627274691
 30
0.0
 11
-1201.429049119538
 21
-1332.2438758943
 31
0.0
  0
LINE
  5
824C
330
1E
100
AcDbEntity
  8
002
100
AcDbLine
 10
-1196.369987626243
 20
-1303.552512423044
 30
0.0
 11
-1201.579432956251
 21
-1333.096745013411
 31
0.0
  0
LINE
  5
824D
330
1E
100
AcDbEntity
  8
002
100
AcDbLine
 10
-1197.396048092921
 20
-1300.733434768829
 30
0.0
 11
-1203.056644585769
 21
-1332.83627274691
 31
0.0
  0
LINE
  5
824E
330
1E
100
AcDbEntity
  8
002
100
AcDbLine
 10
-1194.338482329831
 20
-1332.342666751054
 30
0.0
 11
-1188.23144123435
 21
-1297.707915614596
 31
0.0
  0
LINE
  5
824F
330
1E
100
AcDbEntity
  8
002
  6
CENTER
100
AcDbLine
 10
-1195.540213198863
 20
-1252.927493448206
 30
0.0
 11
-1182.144406115632
 21
-1255.289535665345
 31
0.0
  0
LINE
  5
8250
330
1E
100
AcDbEntity
  8
002
100
AcDbLine
 10
-1210.822146103237
 20
-1310.65075976699
 30
0.0
 11
-1200.576903620888
 21
-1252.54710233927
 31
0.0
  0
LINE
  5
8251
330
1E
100
AcDbEntity
  8
002
100
AcDbLine
 10
-1152.831449182146
 20
-1341.692329807924
 30
0.0
 11
-1156.651709090819
 21
-1363.358100374192
 31
0.0
  0
LINE
  5
8252
330
1E
100
AcDbEntity
  8
002
100
AcDbLine
 10
-1220.964719177323
 20
-1197.673136478732
 30
0.0
 11
-1208.457660714068
 21
-1199.878468335102
 31
0.0
  0
LINE
  5
8253
330
1E
100
AcDbEntity
  8
002
100
AcDbLine
 10
-1229.547224773235
 20
-1165.69701082352
 30
0.0
 11
-1230.286525767275
 21
-1170.643785170835
 31
0.0
  0
LINE
  5
8254
330
1E
100
AcDbEntity
  8
002
100
AcDbLine
 10
-1230.03962864974
 20
-1165.610186734687
 30
0.0
 11
-1230.77892964378
 21
-1170.556961082001
 31
0.0
  0
LINE
  5
8255
330
1E
100
AcDbEntity
  8
002
100
AcDbLine
 10
-1221.941442228637
 20
-1167.038115495534
 30
0.0
 11
-1222.938623996074
 21
-1171.939418504693
 31
0.0
  0
LINE
  5
8256
330
1E
100
AcDbEntity
  8
002
100
AcDbLine
 10
-1222.433846105143
 20
-1166.951291406701
 30
0.0
 11
-1223.43102787258
 21
-1171.852594415859
 31
0.0
  0
LINE
  5
8257
330
1E
100
AcDbEntity
  8
002
100
AcDbLine
 10
-1247.350009948341
 20
-1202.681555964987
 30
0.0
 11
-1244.045802266602
 21
-1193.603318786119
 31
0.0
  0
LINE
  5
8258
330
1E
100
AcDbEntity
  8
002
100
AcDbLine
 10
-1245.697905904978
 20
-1193.312008339746
 30
0.0
 11
-1233.190847441723
 21
-1195.517340196116
 31
0.0
  0
ARC
  5
8259
330
1E
100
AcDbEntity
  8
002
100
AcDbCircle
 10
-1186.567300195656
 20
-1183.429797274219
 30
0.0
 40
5.0
100
AcDbArc
 50
351.7134649999881
 51
79.9999999999961
  0
ARC
  5
825A
330
1E
100
AcDbEntity
  8
002
100
AcDbCircle
 10
-1180.920118177358
 20
-1179.348414769588
 30
0.0
 40
5.0
100
AcDbArc
 50
351.7134649999881
 51
79.9999999999961
  0
LINE
  5
825B
330
1E
100
AcDbEntity
  8
001
100
AcDbLine
 10
-1561.152456450627
 20
-995.6727382916888
 30
0.0
 11
-1336.932536212048
 21
-995.6727382916888
 31
0.0
  0
TEXT
  5
825C
330
1E
100
AcDbEntity
  8
001
100
AcDbText
 10
-1561.152456450627
 20
-992.0311896320818
 30
0.0
 40
18.0
  1
10°振りアンカー頭部構造図
 41
0.787037
100
AcDbText
  0
LINE
  5
825D
330
1E
100
AcDbEntity
  8
002
100
AcDbLine
 10
-294.1156979415859
 20
-1912.343432352296
 30
0.0
 11
-272.1156979415859
 21
-1890.343432352296
 31
0.0
  0
LINE
  5
825E
330
1E
100
AcDbEntity
  8
002
100
AcDbLine
 10
-294.1156979415859
 20
-1922.242927352296
 30
0.0
 11
-272.1156979415859
 21
-1900.242927352296
 31
0.0
  0
LINE
  5
825F
330
1E
100
AcDbEntity
  8
002
100
AcDbLine
 10
-294.1156979415859
 20
-1932.142422352296
 30
0.0
 11
-272.1156979415859
 21
-1910.142422352296
 31
0.0
  0
DIMENSION
  5
8260
330
1E
100
AcDbEntity
  8
001
  6
Continuous
100
AcDbDimension
  2
*D3
 10
-898.3595690288074
 20
-1883.423686763381
 30
0.0
 11
-837.8595690288076
 21
-1883.423686763381
 31
0.0
 70
   160
 71
     5
 42
20.0
  3
ISO-25
100
AcDbAlignedDimension
 13
-878.3595690288075
 23
-1925.668104352296
 33
0.0
 14
-898.3595690288074
 24
-1925.668104352296
 34
0.0
100
AcDbRotatedDimension
  0
DIMENSION
  5
8261
330
1E
100
AcDbEntity
  8
001
  6
Continuous
100
AcDbDimension
  2
*D4
 10
-336.799105968942
 20
-2081.168104352296
 30
0.0
 11
-349.9241059689417
 21
-1978.668104352296
 31
0.0
 70
    32
  1
φ205
 71
     5
 42
205.0
  3
ISO-25
100
AcDbAlignedDimension
 13
-294.1156979415859
 23
-1876.168104352296
 33
0.0
 14
-294.1156979415859
 24
-2081.168104352296
 34
0.0
 50
90.0
100
AcDbRotatedDimension
  0
LINE
  5
8262
330
1E
100
AcDbEntity
  8
002
100
AcDbLine
 10
-272.1156979415859
 20
-1876.168104352296
 30
0.0
 11
-272.1156979415859
 21
-2081.168104352296
 31
0.0
  0
LINE
  5
8263
330
1E
100
AcDbEntity
  8
002
100
AcDbLine
 10
-294.1156979415859
 20
-2081.168104352296
 30
0.0
 11
-294.1156979415859
 21
-1876.168104352296
 31
0.0
  0
LINE
  5
8264
330
1E
100
AcDbEntity
  8
004
  6
CENTER
 62
     6
100
AcDbLine
 10
-540.329982941586
 20
-1864.182978352296
 30
0.0
 11
-540.329982941586
 21
-2096.525246352296
 31
0.0
  0
CIRCLE
  5
8265
330
1E
100
AcDbEntity
  8
002
100
AcDbCircle
 10
-540.329982941586
 20
-1978.668104352296
 30
0.0
 40
102.4999999999999
  0
LINE
  5
8266
330
1E
100
AcDbEntity
  8
001
 62
     3
100
AcDbLine
 10
161.4941504152784
 20
-2234.747930057645
 30
0.0
 11
161.4941504152784
 21
-892.4279300576454
 31
0.0
  0
LINE
  5
8267
330
1E
100
AcDbEntity
  8
004
  6
CENTER
 62
     6
100
AcDbLine
 10
-421.8144569415862
 20
-1978.668104352296
 30
0.0
 11
-662.1812019415861
 21
-1978.668104352296
 31
0.0
  0
DIMENSION
  5
8268
330
1E
100
AcDbEntity
  8
001
  6
Continuous
100
AcDbDimension
  2
*D5
 10
-933.4982964324053
 20
-2031.668104352296
 30
0.0
 11
-946.6232964324049
 21
-1978.668104352296
 31
0.0
 70
    32
  1
M106
 71
     5
 42
106.0
  3
ISO-25
100
AcDbAlignedDimension
 13
-894.7614930288077
 23
-1925.668104352296
 33
0.0
 14
-894.7614930288077
 24
-2031.668104352296
 34
0.0
 50
90.0
100
AcDbRotatedDimension
  0
LINE
  5
8269
330
1E
100
AcDbEntity
  8
004
  6
CENTER
 62
     6
100
AcDbLine
 10
-1060.108626028807
 20
-1920.832836352296
 30
0.0
 11
-1060.108626028807
 21
-2038.684297352296
 31
0.0
  0
CIRCLE
  5
826A
330
1E
100
AcDbEntity
  8
002
100
AcDbCircle
 10
-1060.108626028807
 20
-1978.668104352296
 30
0.0
 40
30.490683
  0
INSERT
  5
826B
330
1E
100
AcDbEntity
  8
001
  6
ByBlock
100
AcDbBlockReference
  2
PART0
 10
-2131.729731067144
 20
-2533.691271025613
 30
0.0
  0
LINE
  5
826C
330
1E
100
AcDbEntity
  8
002
100
AcDbLine
 10
-878.3541900288073
 20
-2031.668104352296
 30
0.0
 11
-878.3541900288073
 21
-2004.683706352296
 31
0.0
  0
LINE
  5
826D
330
1E
100
AcDbEntity
  8
002
100
AcDbLine
 10
-894.7614930288077
 20
-2031.668104352296
 30
0.0
 11
-894.7614930288077
 21
-2004.683706352296
 31
0.0
  0
LINE
  5
826E
330
1E
100
AcDbEntity
  8
002
100
AcDbLine
 10
-877.4935430288078
 20
-2030.177421352296
 30
0.0
 11
-877.4935430288078
 21
-1927.168104352296
 31
0.0
  0
LINE
  5
826F
330
1E
100
AcDbEntity
  8
002
100
AcDbLine
 10
-896.4935430288077
 20
-2029.168104352296
 30
0.0
 11
-896.4935430288077
 21
-1978.668104352296
 31
0.0
  0
LINE
  5
8270
330
1E
100
AcDbEntity
  8
002
100
AcDbLine
 10
-898.4935430288079
 20
-2029.168104352296
 30
0.0
 11
-898.4935430288079
 21
-1978.668104352296
 31
0.0
  0
LINE
  5
8271
330
1E
100
AcDbEntity
  8
002
100
AcDbLine
 10
-899.4935430288078
 20
-2028.168104352296
 30
0.0
 11
-899.4935430288078
 21
-1929.168104352296
 31
0.0
  0
LINE
  5
8272
330
1E
100
AcDbEntity
  8
002
100
AcDbLine
 10
-895.8007230288076
 20
-2030.168104352296
 30
0.0
 11
-877.4935430288078
 21
-2030.168104352296
 31
0.0
  0
LINE
  5
8273
330
1E
100
AcDbEntity
  8
002
100
AcDbLine
 10
-894.7614930288077
 20
-2031.668104352296
 30
0.0
 11
-878.3541900288073
 21
-2031.668104352296
 31
0.0
  0
LINE
  5
8274
330
1E
100
AcDbEntity
  8
002
100
AcDbLine
 10
-896.4935430288077
 20
-2029.168104352296
 30
0.0
 11
-894.7614930288077
 21
-2031.668104352296
 31
0.0
  0
LINE
  5
8275
330
1E
100
AcDbEntity
  8
002
100
AcDbLine
 10
-898.4935430288079
 20
-2029.168104352296
 30
0.0
 11
-899.4935430288078
 21
-2028.168104352296
 31
0.0
  0
LINE
  5
8276
330
1E
100
AcDbEntity
  8
002
100
AcDbLine
 10
-898.4935430288079
 20
-2029.168104352296
 30
0.0
 11
-896.4935430288077
 21
-2029.168104352296
 31
0.0
  0
LINE
  5
8277
330
1E
100
AcDbEntity
  8
002
100
AcDbLine
 10
-877.4935430288078
 20
-2030.177421352296
 30
0.0
 11
-878.3595690288075
 21
-2031.677421352296
 31
0.0
  0
LINE
  5
8278
330
1E
100
AcDbEntity
  8
002
100
AcDbLine
 10
-897.4935430288079
 20
-1944.463341352296
 30
0.0
 11
-880.1983060288076
 21
-1927.168104352296
 31
0.0
  0
LINE
  5
8279
330
1E
100
AcDbEntity
  8
002
100
AcDbLine
 10
-895.8007230288076
 20
-1927.168104352296
 30
0.0
 11
-877.4935430288078
 21
-1927.168104352296
 31
0.0
  0
LINE
  5
827A
330
1E
100
AcDbEntity
  8
002
100
AcDbLine
 10
-894.7614930288077
 20
-1925.668104352296
 30
0.0
 11
-878.3595690288075
 21
-1925.668104352296
 31
0.0
  0
LINE
  5
827B
330
1E
100
AcDbEntity
  8
002
100
AcDbLine
 10
-896.6275180288075
 20
-1948.177421352296
 30
0.0
 11
-878.3595690288075
 21
-1948.177421352296
 31
0.0
  0
LINE
  5
827C
330
1E
100
AcDbEntity
  8
002
100
AcDbLine
 10
-897.4935430288079
 20
-1946.677421352296
 30
0.0
 11
-877.4935430288078
 21
-1946.677421352296
 31
0.0
  0
LINE
  5
827D
330
1E
100
AcDbEntity
  8
002
100
AcDbLine
 10
-889.808128028808
 20
-1946.677421352296
 30
0.0
 11
-877.4935430288078
 21
-1934.362836352296
 31
0.0
  0
LINE
  5
827E
330
1E
100
AcDbEntity
  8
004
  6
CENTER
 62
     6
100
AcDbLine
 10
-909.6624320288073
 20
-1978.668104352296
 30
0.0
 11
-863.6170970288075
 21
-1978.668104352296
 31
0.0
  0
LINE
  5
827F
330
1E
100
AcDbEntity
  8
002
100
AcDbLine
 10
-896.4935430288077
 20
-1928.168104352296
 30
0.0
 11
-894.7614930288077
 21
-1925.668104352296
 31
0.0
  0
LINE
  5
8280
330
1E
100
AcDbEntity
  8
002
100
AcDbLine
 10
-897.4935430288079
 20
-1946.677421352296
 30
0.0
 11
-896.6275180288075
 21
-1948.177421352296
 31
0.0
  0
LINE
  5
8281
330
1E
100
AcDbEntity
  8
002
100
AcDbLine
 10
-896.6275180288075
 20
-1948.177421352296
 30
0.0
 11
-896.6275180288075
 21
-1960.420135352296
 31
0.0
  0
LINE
  5
8282
330
1E
100
AcDbEntity
  8
002
100
AcDbLine
 10
-897.4935430288079
 20
-1978.668104352296
 30
0.0
 11
-897.4935430288079
 21
-1936.168104352296
 31
0.0
  0
LINE
  5
8283
330
1E
100
AcDbEntity
  8
002
100
AcDbLine
 10
-898.4935430288079
 20
-1928.168104352296
 30
0.0
 11
-899.4935430288078
 21
-1929.168104352296
 31
0.0
  0
LINE
  5
8284
330
1E
100
AcDbEntity
  8
002
100
AcDbLine
 10
-897.4935430288079
 20
-1936.168104352296
 30
0.0
 11
-899.4935430288078
 21
-1934.865095352296
 31
0.0
  0
LINE
  5
8285
330
1E
100
AcDbEntity
  8
002
100
AcDbLine
 10
-898.4935430288079
 20
-1928.168104352296
 30
0.0
 11
-896.4935430288077
 21
-1928.168104352296
 31
0.0
  0
LINE
  5
8286
330
1E
100
AcDbEntity
  8
002
100
AcDbLine
 10
-898.4649350288078
 20
-1935.535238352296
 30
0.0
 11
-890.0978010288076
 21
-1927.168104352296
 31
0.0
  0
LINE
  5
8287
330
1E
100
AcDbEntity
  8
002
100
AcDbLine
 10
-877.4935430288078
 20
-1927.168104352296
 30
0.0
 11
-878.3595690288075
 21
-1925.668104352296
 31
0.0
  0
LINE
  5
8288
330
1E
100
AcDbEntity
  8
002
100
AcDbLine
 10
-877.4935430288078
 20
-1946.677421352296
 30
0.0
 11
-878.3595690288075
 21
-1948.177421352296
 31
0.0
  0
LINE
  5
8289
330
1E
100
AcDbEntity
  8
002
100
AcDbLine
 10
-878.3595690288075
 20
-1948.177421352296
 30
0.0
 11
-878.3595690288075
 21
-1960.420135352296
 31
0.0
  0
LINE
  5
828A
330
1E
100
AcDbEntity
  8
002
100
AcDbLine
 10
-879.9086330288073
 20
-1946.677421352296
 30
0.0
 11
-877.4935430288078
 21
-1944.262331352296
 31
0.0
  0
CIRCLE
  5
828B
330
1E
100
AcDbEntity
  8
002
100
AcDbCircle
 10
-540.329982941586
 20
-1978.668104352296
 30
0.0
 40
44.5
  0
TEXT
  5
828C
330
1E
100
AcDbEntity
  8
001
100
AcDbText
 10
-153.4264915847215
 20
-2167.766839057645
 30
0.0
 40
22.0
  1
ＰＵＣ受圧板　アンカー頭部図面
 41
0.681818
100
AcDbText
  0
TEXT
  5
828D
330
1E
100
AcDbEntity
  8
001
100
AcDbText
 10
-181.9385355847216
 20
-2135.443297057645
 30
0.0
 40
16.0
  1
ＶＳＬ工法　Ｅ５－３用
 41
0.729167
100
AcDbText
  0
LINE
  5
828E
330
1E
100
AcDbEntity
  8
001
 62
     3
100
AcDbLine
 10
161.4941504152784
 20
-2182.247930057645
 30
0.0
 11
-223.5058495847215
 21
-2182.247930057645
 31
0.0
  0
LINE
  5
828F
330
1E
100
AcDbEntity
  8
001
 62
     3
100
AcDbLine
 10
161.4941504152784
 20
-2112.247930057645
 30
0.0
 11
-223.5058495847215
 21
-2112.247930057645
 31
0.0
  0
LINE
  5
8290
330
1E
100
AcDbEntity
  8
001
 62
     3
100
AcDbLine
 10
161.4941504152784
 20
-2182.247930057645
 30
0.0
 11
-223.5058495847215
 21
-2182.247930057645
 31
0.0
  0
LINE
  5
8291
330
1E
100
AcDbEntity
  8
002
100
AcDbLine
 10
-286.2418849415862
 20
-1934.168104352296
 30
0.0
 11
-272.1156979415859
 21
-1920.041917352296
 31
0.0
  0
LINE
  5
8292
330
1E
100
AcDbEntity
  8
002
100
AcDbLine
 10
-294.1156979415859
 20
-1934.168104352296
 30
0.0
 11
-272.1156979415859
 21
-1934.168104352296
 31
0.0
  0
LINE
  5
8293
330
1E
100
AcDbEntity
  8
004
  6
CENTER
100
AcDbLine
 10
-315.722841941586
 20
-1978.668104352296
 30
0.0
 11
-254.0115269415859
 21
-1978.668104352296
 31
0.0
  0
LINE
  5
8294
330
1E
100
AcDbEntity
  8
002
100
AcDbLine
 10
-294.1156979415859
 20
-2081.168104352296
 30
0.0
 11
-272.1156979415859
 21
-2081.168104352296
 31
0.0
  0
LINE
  5
8295
330
1E
100
AcDbEntity
  8
001
 62
     3
100
AcDbLine
 10
-188.5058495847215
 20
-2234.747930057645
 30
0.0
 11
-188.5058495847215
 21
-2112.247930057645
 31
0.0
  0
LINE
  5
8296
330
1E
100
AcDbEntity
  8
001
 62
     3
100
AcDbLine
 10
-223.5058495847215
 20
-2234.747930057645
 30
0.0
 11
-223.5058495847215
 21
-2112.247930057645
 31
0.0
  0
INSERT
  5
8297
330
1E
100
AcDbEntity
  8
001
  6
ByBlock
 62
     0
100
AcDbBlockReference
  2
PART1
 10
-1581.960954744516
 20
-2285.203783352296
 30
0.0
  0
LINE
  5
8298
330
1E
100
AcDbEntity
  8
002
100
AcDbLine
 10
-276.3423899415856
 20
-1934.168104352296
 30
0.0
 11
-272.1156979415859
 21
-1929.941412352296
 31
0.0
  0
TEXT
  5
8299
330
1E
100
AcDbEntity
  8
001
100
AcDbText
 10
-103.4563325847216
 20
-2220.817775057645
 30
0.0
 40
21.0
  1
ＶＳＬ協会
 41
0.9920629999999999
100
AcDbText
  0
LINE
  5
829A
330
1E
100
AcDbEntity
  8
001
 62
     3
100
AcDbLine
 10
108.9941504152784
 20
-2234.747930057645
 30
0.0
 11
108.9941504152784
 21
-2182.247930057645
 31
0.0
  0
LWPOLYLINE
  5
829B
330
1E
100
AcDbEntity
  8
003
100
AcDbPolyline
 90
        4
 70
     0
 43
0.0
 10
-439.2544090830305
 20
-1340.516683948737
 10
-479.2544090830306
 20
-1340.516683948737
 10
-542.7544090830306
 20
-1230.516683948738
 10
-446.4616495138225
 20
-1230.516683948738
  0
LINE
  5
829C
330
1E
100
AcDbEntity
  8
001
100
AcDbLine
 10
-426.7843539573641
 20
-1192.946245369774
 30
0.0
 11
-468.5889119573649
 21
-1134.573023369774
 31
0.0
  0
LINE
  5
829D
330
1E
100
AcDbEntity
  8
001
100
AcDbLine
 10
-414.2544090830305
 20
-1246.866687948737
 30
0.0
 11
-497.9002350830305
 21
-1172.100264948737
 31
0.0
  0
LINE
  5
829E
330
1E
100
AcDbEntity
  8
002
100
AcDbLine
 10
-476.7544090830305
 20
-1318.516683948738
 30
0.0
 11
-404.7637260830306
 21
-1318.516683948738
 31
0.0
  0
LINE
  5
829F
330
1E
100
AcDbEntity
  8
002
100
AcDbLine
 10
-418.7544090830305
 20
-1340.516683948737
 30
0.0
 11
-477.0866810830307
 21
-1340.516683948737
 31
0.0
  0
LINE
  5
82A0
330
1E
100
AcDbEntity
  8
001
100
AcDbLine
 10
-417.8434000830306
 20
-1444.861859948737
 30
0.0
 11
-474.0553480830303
 21
-1502.339516948737
 31
0.0
  0
LWPOLYLINE
  5
82A1
330
1E
100
AcDbEntity
  8
003
100
AcDbPolyline
 90
        4
 70
     0
 43
0.0
 10
-446.4616495138225
 20
-1230.516683948738
 10
-563.5544090830303
 20
-1230.516683948738
 10
-487.35440908303
 20
-1362.516683948737
 10
-439.2544090830305
 20
-1362.516683948737
  0
LWPOLYLINE
  5
82A2
330
1E
100
AcDbEntity
  8
003
 62
     3
100
AcDbPolyline
 90
       58
 70
     0
 43
0.0
 10
-743.5111887769994
 20
-1515.930243948737
 10
-424.1053401421509
 20
-1515.930243948737
 10
-423.8861940830306
 20
-1516.546495674762
 10
-424.2277490830306
 20
-1518.688044674762
 10
-425.3535440830305
 20
-1520.839247674763
 10
-426.8087060830307
 20
-1523.009901674763
 10
-428.1383630830305
 20
-1525.209805674763
 10
-428.8876440830303
 20
-1527.448759674763
 10
-428.5557730830305
 20
-1530.354676674762
 10
-427.2310950830306
 20
-1533.296677674763
 10
-425.5919570830306
 20
-1536.231994674763
 10
-424.3167070830304
 20
-1539.117858674762
 10
-424.0836920830306
 20
-1541.911502674762
 10
-424.9810030830303
 20
-1544.079653674763
 10
-426.5277400830305
 20
-1546.191475674763
 10
-428.2516680830304
 20
-1548.278640674762
 10
-429.6805520830307
 20
-1550.372821674762
 10
-430.3421540830304
 20
-1552.505688674763
 10
-429.7681990830305
 20
-1555.042094674763
 10
-428.2164830830306
 20
-1557.636422674763
 10
-426.3595210830303
 20
-1560.252921674763
 10
-424.8698320830303
 20
-1562.855838674762
 10
-424.4199310830303
 20
-1565.409421674763
 10
-425.2133720830306
 20
-1567.536973674763
 10
-426.7458330830304
 20
-1569.624396674763
 10
-428.5011030830305
 20
-1571.693932674762
 10
-429.9629740830305
 20
-1573.767824674762
 10
-430.6152350830307
 20
-1575.868316674762
 10
-429.9978540830307
 20
-1578.235332674763
 10
-428.4097380830303
 20
-1580.632009674762
 10
-426.4966450830306
 20
-1583.028455674763
 10
-424.9043360830305
 20
-1585.394779674762
 10
-424.2785690830305
 20
-1587.701091674762
 10
-424.8906270830307
 20
-1589.664289674763
 10
-426.2997900830304
 20
-1591.592802674762
 10
-428.0574110830307
 20
-1593.521413674763
 10
-429.7148390830307
 20
-1595.484902674763
 10
-430.8234260830304
 20
-1597.518049674762
 10
-430.6812450830307
 20
-1601.332384674763
 10
-428.6563590830305
 20
-1605.333964674763
 10
-425.9802470830305
 20
-1609.383971674763
 10
-423.8843880830304
 20
-1613.343587674763
 10
-423.6002590830308
 20
-1617.073994674763
 10
-424.7681680830305
 20
-1619.255138674762
 10
-426.6396440830304
 20
-1621.342638674762
 10
-428.7141780830307
 20
-1623.388464674762
 10
-430.4912620830305
 20
-1625.444585674762
 10
-431.4703850830305
 20
-1627.562971674763
 10
-431.0710410830306
 20
-1630.420716674762
 10
-429.3537330830304
 20
-1633.417499674762
 10
-427.1258910830306
 20
-1636.505374674763
 10
-425.1949490830306
 20
-1639.636395674762
 10
-424.3683360830305
 20
-1642.762614674763
 10
-424.9585970830308
 20
-1645.360411674763
 10
-426.4095000830307
 20
-1647.927724674763
 10
-428.2278390830306
 20
-1650.471421674763
 10
-429.9204080830304
 20
-1652.998372674762
 10
-430.9940010830305
 20
-1655.515448674762
  0
LWPOLYLINE
  5
82A3
330
1E
100
AcDbEntity
  8
003
  6
Continuous
100
AcDbPolyline
 90
       12
 70
     1
 43
0.0
 10
-524.2369583449549
 20
-1105.516683948738
 10
-224.2718598211063
 20
-1105.516683948738
 10
-124.2718598211063
 20
-1215.516683948737
 10
-74.25440908303063
 20
-1215.516683948737
 10
-74.25440908303063
 20
-1213.216683948738
 10
-123.2544090830306
 20
-1213.216683948738
 10
-223.2544090830306
 20
-1103.216683948738
 10
-525.2544090830306
 20
-1103.216683948738
 10
-625.2544090830306
 20
-1213.216683948738
 10
-674.2544090830306
 20
-1213.216683948738
 10
-674.2544090830306
 20
-1215.516683948737
 10
-624.2369583449549
 20
-1215.516683948737
  0
LINE
  5
82A4
330
1E
100
AcDbEntity
  8
003
 62
     3
100
AcDbLine
 10
-896.4032261606607
 20
-1413.904778727209
 30
0.0
 11
-896.4032261606607
 21
-1551.505476867756
 31
0.0
  0
LINE
  5
82A5
330
1E
100
AcDbEntity
  8
003
 48
0.25
100
AcDbLine
 10
-896.4032261606602
 20
-1230.810232600038
 30
0.0
 11
-969.9299023688377
 21
-1215.516683948737
 31
0.0
  0
LINE
  5
82A6
330
1E
100
AcDbEntity
  8
003
100
AcDbLine
 10
-1067.528634738242
 20
-1215.516683948737
 30
0.0
 11
-1078.626949407963
 21
-1285.727575599853
 31
0.0
  0
LINE
  5
82A7
330
1E
100
AcDbEntity
  8
003
 62
     3
100
AcDbLine
 10
-896.4032261606607
 20
-1367.302741727209
 30
0.0
 11
-896.4032261606607
 21
-1192.935493207193
 31
0.0
  0
LINE
  5
82A8
330
1E
100
AcDbEntity
  8
003
 62
     3
100
AcDbLine
 10
-896.4032261606607
 20
-1367.302741727209
 30
0.0
 11
-876.6793431606602
 21
-1367.302741727209
 31
0.0
  0
LINE
  5
82A9
330
1E
100
AcDbEntity
  8
003
 62
     3
100
AcDbLine
 10
-876.6793431606602
 20
-1367.302741727209
 30
0.0
 11
-914.8036241606606
 21
-1413.904778727209
 31
0.0
  0
LINE
  5
82AA
330
1E
100
AcDbEntity
  8
003
 62
     3
100
AcDbLine
 10
-914.8036241606606
 20
-1413.904778727209
 30
0.0
 11
-896.4032261606607
 21
-1413.904778727209
 31
0.0
  0
LINE
  5
82AB
330
1E
100
AcDbEntity
  8
003
 62
     3
100
AcDbLine
 10
-747.6383572378044
 20
-1413.904778727209
 30
0.0
 11
-747.638357237804
 21
-1551.505476867756
 31
0.0
  0
TEXT
  5
82AC
330
1E
100
AcDbEntity
  8
001
100
AcDbText
 10
-682.830087941586
 20
-1845.989497352296
 30
0.0
 40
16.0
  1
メッキ付　円形プレート
 41
0.703125
100
AcDbText
  0
LINE
  5
82AD
330
1E
100
AcDbEntity
  8
001
100
AcDbLine
 10
-682.830087941586
 20
-1845.989497352296
 30
0.0
 11
-533.830087941586
 21
-1845.989497352296
 31
0.0
  0
TEXT
  5
82AE
330
1E
100
AcDbEntity
  8
001
100
AcDbText
 10
-569.4303480830304
 20
-1498.839464948737
 30
0.0
 40
11.19999999999999
  1
ジョイントコネクタ
 41
0.716146
100
AcDbText
  0
LINE
  5
82AF
330
1E
100
AcDbEntity
  8
001
100
AcDbLine
 10
-474.0553480830303
 20
-1502.339516948737
 30
0.0
 11
-579.9303480830303
 21
-1502.339516948737
 31
0.0
  0
LINE
  5
82B0
330
1E
100
AcDbEntity
  8
001
100
AcDbLine
 10
-605.9328730830307
 20
-1286.181386948737
 30
0.0
 11
-692.5578730830307
 21
-1286.181386948737
 31
0.0
  0
LINE
  5
82B1
330
1E
100
AcDbEntity
  8
003
100
AcDbLine
 10
-674.2544090830306
 20
-1215.516683948737
 30
0.0
 11
-446.4616495138225
 21
-1215.516683948737
 31
0.0
  0
LINE
  5
82B2
330
1E
100
AcDbEntity
  8
003
 48
0.25
100
AcDbLine
 10
-747.6383572378044
 20
-1230.78054516493
 30
0.0
 11
-674.2544090830306
 21
-1215.516683948737
 31
0.0
  0
LINE
  5
82B3
330
1E
100
AcDbEntity
  8
003
 62
     3
100
AcDbLine
 10
-747.6383572378044
 20
-1367.302741727209
 30
0.0
 11
-747.6383572378044
 21
-1192.935493207193
 31
0.0
  0
LINE
  5
82B4
330
1E
100
AcDbEntity
  8
003
 62
     3
100
AcDbLine
 10
-747.6383572378044
 20
-1367.302741727209
 30
0.0
 11
-727.9144742378039
 21
-1367.302741727209
 31
0.0
  0
LINE
  5
82B5
330
1E
100
AcDbEntity
  8
003
 62
     3
100
AcDbLine
 10
-727.9144742378039
 20
-1367.302741727209
 30
0.0
 11
-766.0387552378042
 21
-1413.904778727209
 31
0.0
  0
LINE
  5
82B6
330
1E
100
AcDbEntity
  8
003
 62
     3
100
AcDbLine
 10
-766.0387552378042
 20
-1413.904778727209
 30
0.0
 11
-747.6383572378044
 21
-1413.904778727209
 31
0.0
  0
TEXT
  5
82B7
330
1E
100
AcDbEntity
  8
001
100
AcDbText
 10
-682.1828730830307
 20
-1282.681386948737
 30
0.0
 40
11.19999999999999
  1
テーパーコーン
 41
0.716146
100
AcDbText
  0
LWPOLYLINE
  5
82B8
330
1E
100
AcDbEntity
  8
003
100
AcDbPolyline
 90
        4
 70
     0
 43
0.0
 10
-446.4616495138225
 20
-1215.516683948737
 10
-561.7544090830306
 20
-1215.516683948737
 10
-552.7544090830306
 20
-1230.516683948738
 10
-446.4616495138225
 20
-1230.516683948738
  0
LINE
  5
82B9
330
1E
100
AcDbEntity
  8
001
100
AcDbLine
 10
-551.4928680830307
 20
-1252.188582948737
 30
0.0
 11
-605.9328730830307
 21
-1286.181386948737
 31
0.0
  0
LWPOLYLINE
  5
82BA
330
1E
100
AcDbEntity
  8
001
100
AcDbPolyline
 90
        3
 70
     0
 43
0.0
 10
-556.4370210830307
 20
-1257.487015948737
 10
-551.4928680830307
 20
-1252.188582948737
 10
-558.4238460830306
 20
-1254.305083948737
  0
LINE
  5
82BB
330
1E
100
AcDbEntity
  8
004
  6
CENTER
100
AcDbLine
 10
-503.9975357161146
 20
-1345.055474267176
 30
0.0
 11
-479.3846757161145
 21
-1330.764946267176
 31
0.0
  0
LINE
  5
82BC
330
1E
100
AcDbEntity
  8
003
 62
     3
100
AcDbLine
 10
-497.1477537161153
 20
-1346.281914267176
 30
0.0
 11
-481.5813297161148
 21
-1337.243858267177
 31
0.0
  0
LINE
  5
82BD
330
1E
100
AcDbEntity
  8
002
100
AcDbLine
 10
-476.7544090830305
 20
-1318.516683948738
 30
0.0
 11
-476.7544090830305
 21
-1340.516683948737
 31
0.0
  0
LINE
  5
82BE
330
1E
100
AcDbEntity
  8
003
 62
     3
100
AcDbLine
 10
-501.6667817161151
 20
-1338.498702267176
 30
0.0
 11
-486.1003577161145
 21
-1329.460646267176
 31
0.0
  0
TEXT
  5
82BF
330
1E
100
AcDbEntity
  8
001
100
AcDbText
 10
-574.9002350830306
 20
-1168.600225948737
 30
0.0
 40
11.19999999999999
  1
アンカーヘッド
 41
0.716146
100
AcDbText
  0
LINE
  5
82C0
330
1E
100
AcDbEntity
  8
001
100
AcDbLine
 10
-497.9002350830305
 20
-1172.100264948737
 30
0.0
 11
-584.5252350830305
 21
-1172.100264948737
 31
0.0
  0
TEXT
  5
82C1
330
1E
100
AcDbEntity
  8
001
100
AcDbText
 10
-593.7139119573648
 20
-1131.072987369774
 30
0.0
 40
11.19999999999999
  1
ヘッドキャップ　Ｓタイプ
 41
0.716146
100
AcDbText
  0
LINE
  5
82C2
330
1E
100
AcDbEntity
  8
001
100
AcDbLine
 10
-468.5889119573649
 20
-1134.573023369774
 30
0.0
 11
-603.3389119573648
 21
-1134.573023369774
 31
0.0
  0
LINE
  5
82C3
330
1E
100
AcDbEntity
  8
001
100
AcDbLine
 10
-675.5203679557866
 20
-995.5921468529373
 30
0.0
 11
-454.4694402327673
 21
-995.5921468529373
 31
0.0
  0
TEXT
  5
82C4
330
1E
100
AcDbEntity
  8
001
100
AcDbText
 10
-675.5203679557866
 20
-992.0311896320818
 30
0.0
 40
18.0
  1
角度なしアンカー頭部構造図
 41
0.787037
100
AcDbText
  0
TEXT
  5
82C5
330
1E
100
AcDbEntity
  8
001
100
AcDbText
 10
-167.8610350830304
 20
-1402.115692778352
 30
0.0
 40
11.19999999999999
  1
メッキ付　円形プレート
 41
0.716146
100
AcDbText
  0
TEXT
  5
82C6
330
1E
100
AcDbEntity
  8
001
100
AcDbText
 10
-210.5126155490474
 20
-1167.020146941919
 30
0.0
 40
11.19999999999999
  1
両ネジ　ジョイントプレート
 41
0.716146
100
AcDbText
  0
LINE
  5
82C7
330
1E
100
AcDbEntity
  8
001
100
AcDbLine
 10
-220.1376155490474
 20
-1170.520146941919
 30
0.0
 11
-75.7626155490475
 21
-1170.520146941919
 31
0.0
  0
LINE
  5
82C8
330
1E
100
AcDbEntity
  8
003
100
AcDbLine
 10
-301.5184683705165
 20
-1215.516683948737
 30
0.0
 11
-74.25440908303063
 21
-1215.516683948737
 31
0.0
  0
LINE
  5
82C9
330
1E
100
AcDbEntity
  8
001
100
AcDbLine
 10
-185.398595067752
 20
-1405.615692778352
 30
0.0
 11
-52.3610350830304
 21
-1405.615692778352
 31
0.0
  0
LWPOLYLINE
  5
82CA
330
1E
100
AcDbEntity
  8
003
 62
     3
100
AcDbPolyline
 90
       58
 70
     0
 43
0.0
 10
-0.7277328748532455
 20
-1515.930243948737
 10
-314.1053401421509
 20
-1515.930243948737
 10
-313.8861940830306
 20
-1516.546495674762
 10
-314.2277490830306
 20
-1518.688044674762
 10
-315.3535440830305
 20
-1520.839247674763
 10
-316.8087060830307
 20
-1523.009901674763
 10
-318.1383630830305
 20
-1525.209805674763
 10
-318.8876440830304
 20
-1527.448759674763
 10
-318.5557730830305
 20
-1530.354676674762
 10
-317.2310950830306
 20
-1533.296677674763
 10
-315.5919570830306
 20
-1536.231994674763
 10
-314.3167070830304
 20
-1539.117858674762
 10
-314.0836920830306
 20
-1541.911502674762
 10
-314.9810030830303
 20
-1544.079653674763
 10
-316.5277400830305
 20
-1546.191475674763
 10
-318.2516680830303
 20
-1548.278640674762
 10
-319.6805520830307
 20
-1550.372821674762
 10
-320.3421540830304
 20
-1552.505688674763
 10
-319.7681990830306
 20
-1555.042094674763
 10
-318.2164830830306
 20
-1557.636422674763
 10
-316.3595210830303
 20
-1560.252921674763
 10
-314.8698320830303
 20
-1562.855838674762
 10
-314.4199310830304
 20
-1565.409421674763
 10
-315.2133720830306
 20
-1567.536973674763
 10
-316.7458330830304
 20
-1569.624396674763
 10
-318.5011030830305
 20
-1571.693932674762
 10
-319.9629740830305
 20
-1573.767824674762
 10
-320.6152350830302
 20
-1575.868316674762
 10
-319.9978540830306
 20
-1578.235332674763
 10
-318.4097380830303
 20
-1580.632009674762
 10
-316.4966450830302
 20
-1583.028455674763
 10
-314.9043360830305
 20
-1585.394779674762
 10
-314.2785690830305
 20
-1587.701091674762
 10
-314.8906270830307
 20
-1589.664289674763
 10
-316.2997900830305
 20
-1591.592802674762
 10
-318.0574110830307
 20
-1593.521413674763
 10
-319.7148390830302
 20
-1595.484902674763
 10
-320.8234260830304
 20
-1597.518049674762
 10
-320.6812450830307
 20
-1601.332384674763
 10
-318.6563590830305
 20
-1605.333964674763
 10
-315.9802470830304
 20
-1609.383971674763
 10
-313.8843880830304
 20
-1613.343587674763
 10
-313.6002590830307
 20
-1617.073994674763
 10
-314.7681680830305
 20
-1619.255138674762
 10
-316.6396440830303
 20
-1621.342638674762
 10
-318.7141780830302
 20
-1623.388464674762
 10
-320.4912620830305
 20
-1625.444585674762
 10
-321.4703850830305
 20
-1627.562971674763
 10
-321.0710410830301
 20
-1630.420716674762
 10
-319.3537330830304
 20
-1633.417499674762
 10
-317.1258910830306
 20
-1636.505374674763
 10
-315.1949490830306
 20
-1639.636395674762
 10
-314.3683360830304
 20
-1642.762614674763
 10
-314.7990010830303
 20
-1644.961776674763
 10
-315.8996540830307
 20
-1647.138377674763
 10
-317.3719610830303
 20
-1649.296571674763
 10
-318.9175860830305
 20
-1651.440513674762
 10
-320.2381960830302
 20
-1653.574360674762
  0
LINE
  5
82CB
330
1E
100
AcDbEntity
  8
004
  6
CENTER
 62
     6
100
AcDbLine
 10
-374.2544090830301
 20
-1611.134017766066
 30
0.0
 11
-374.2544090830301
 21
-1112.354256612948
 31
0.0
  0
LINE
  5
82CC
330
1E
100
AcDbEntity
  8
002
100
AcDbLine
 10
-335.9067610830306
 20
-1451.016683948737
 30
0.0
 11
-339.6335410830306
 21
-1455.183350948737
 31
0.0
  0
LINE
  5
82CD
330
1E
100
AcDbEntity
  8
002
100
AcDbLine
 10
-337.4003360830306
 20
-1451.016683948737
 30
0.0
 11
-341.1271160830306
 21
-1455.183350948737
 31
0.0
  0
LINE
  5
82CE
330
1E
100
AcDbEntity
  8
002
100
AcDbLine
 10
-330.7481980830307
 20
-1474.516683948738
 30
0.0
 11
-330.2637260830306
 21
-1318.516683948738
 31
0.0
  0
LINE
  5
82CF
330
1E
100
AcDbEntity
  8
002
100
AcDbLine
 10
-408.4522160830306
 20
-1451.016683948737
 30
0.0
 11
-412.1789960830305
 21
-1455.183350948737
 31
0.0
  0
LINE
  5
82D0
330
1E
100
AcDbEntity
  8
002
100
AcDbLine
 10
-407.4003360830306
 20
-1451.016683948737
 30
0.0
 11
-411.1271160830305
 21
-1455.183350948737
 31
0.0
  0
LINE
  5
82D1
330
1E
100
AcDbEntity
  8
002
100
AcDbLine
 10
-417.7792540830305
 20
-1474.516683948738
 30
0.0
 11
-418.2637260830306
 21
-1318.516683948738
 31
0.0
  0
LINE
  5
82D2
330
1E
100
AcDbEntity
  8
002
100
AcDbLine
 10
-411.7637260830306
 20
-1456.850016948737
 30
0.0
 11
-336.7637260830306
 21
-1449.350016948737
 31
0.0
  0
LWPOLYLINE
  5
82D3
330
1E
100
AcDbEntity
  8
003
100
AcDbPolyline
 90
        3
 70
     0
 43
0.0
 10
-309.2544090830306
 20
-1362.516683948737
 10
-304.3544090830305
 20
-1362.516683948737
 10
-304.3544090830305
 20
-1515.930243948737
  0
LINE
  5
82D4
330
1E
100
AcDbEntity
  8
003
100
AcDbLine
 10
-308.8544090830305
 20
-1362.516683948737
 30
0.0
 11
-308.8544090830305
 21
-1515.930243948737
 31
0.0
  0
LWPOLYLINE
  5
82D5
330
1E
100
AcDbEntity
  8
003
100
AcDbPolyline
 90
        3
 70
     0
 43
0.0
 10
-444.1544090830302
 20
-1515.930243948737
 10
-444.1544090830302
 20
-1362.516683948737
 10
-439.2544090830305
 20
-1362.516683948737
  0
LINE
  5
82D6
330
1E
100
AcDbEntity
  8
003
100
AcDbLine
 10
-439.6544090830302
 20
-1515.930243948737
 30
0.0
 11
-439.6544090830302
 21
-1362.516683948737
 31
0.0
  0
LINE
  5
82D7
330
1E
100
AcDbEntity
  8
001
100
AcDbLine
 10
-339.8115850830304
 20
-1543.484297847142
 30
0.0
 11
-274.1325080830306
 21
-1595.556272847142
 31
0.0
  0
LINE
  5
82D8
330
1E
100
AcDbEntity
  8
002
100
AcDbLine
 10
-294.1156979415859
 20
-1892.544442352296
 30
0.0
 11
-277.739358941586
 21
-1876.168104352296
 31
0.0
  0
LINE
  5
82D9
330
1E
100
AcDbEntity
  8
002
100
AcDbLine
 10
-294.1156979415859
 20
-1876.168104352296
 30
0.0
 11
-272.1156979415859
 21
-1876.168104352296
 31
0.0
  0
DIMENSION
  5
82DA
330
1E
100
AcDbEntity
  8
001
  6
Continuous
100
AcDbDimension
  2
*D6
 10
-272.1156979415859
 20
-1860.906778463375
 30
0.0
 11
-232.7406979415859
 21
-1847.781778463375
 31
0.0
 70
    32
 71
     5
 42
22.0
  3
ISO-25
100
AcDbAlignedDimension
 13
-294.1156979415859
 23
-1876.168104352296
 33
0.0
 14
-272.1156979415859
 24
-1876.168104352296
 34
0.0
100
AcDbRotatedDimension
  0
LINE
  5
82DB
330
1E
100
AcDbEntity
  8
002
100
AcDbLine
 10
-294.1156979415859
 20
-1902.443937352296
 30
0.0
 11
-272.1156979415859
 21
-1880.443937352296
 31
0.0
  0
LINE
  5
82DC
330
1E
100
AcDbEntity
  8
002
100
AcDbLine
 10
-294.1156979415859
 20
-1882.644947352296
 30
0.0
 11
-287.6388539415861
 21
-1876.168104352296
 31
0.0
  0
LINE
  5
82DD
330
1E
100
AcDbEntity
  8
002
100
AcDbLine
 10
-341.7637260830306
 20
-1486.850016948737
 30
0.0
 11
-406.7637260830306
 21
-1494.350016948737
 31
0.0
  0
LINE
  5
82DE
330
1E
100
AcDbEntity
  8
002
100
AcDbLine
 10
-411.7637260830306
 20
-1486.850016948737
 30
0.0
 11
-336.7637260830306
 21
-1479.350016948737
 31
0.0
  0
LINE
  5
82DF
330
1E
100
AcDbEntity
  8
002
100
AcDbLine
 10
-341.7637260830306
 20
-1471.850016948737
 30
0.0
 11
-406.7637260830306
 21
-1479.350016948737
 31
0.0
  0
LINE
  5
82E0
330
1E
100
AcDbEntity
  8
002
100
AcDbLine
 10
-411.7637260830306
 20
-1471.850016948737
 30
0.0
 11
-336.7637260830306
 21
-1464.350016948737
 31
0.0
  0
LINE
  5
82E1
330
1E
100
AcDbEntity
  8
002
100
AcDbLine
 10
-341.7637260830306
 20
-1456.850016948737
 30
0.0
 11
-406.7637260830306
 21
-1464.350016948737
 31
0.0
  0
LINE
  5
82E2
330
1E
100
AcDbEntity
  8
002
100
AcDbLine
 10
-411.7637260830306
 20
-1531.850016948737
 30
0.0
 11
-336.7637260830306
 21
-1524.350016948737
 31
0.0
  0
LINE
  5
82E3
330
1E
100
AcDbEntity
  8
002
100
AcDbLine
 10
-341.7637260830306
 20
-1531.850016948737
 30
0.0
 11
-406.7637260830306
 21
-1539.350016948738
 31
0.0
  0
LINE
  5
82E4
330
1E
100
AcDbEntity
  8
002
100
AcDbLine
 10
-341.7637260830306
 20
-1516.850016948737
 30
0.0
 11
-406.7637260830306
 21
-1524.350016948737
 31
0.0
  0
LINE
  5
82E5
330
1E
100
AcDbEntity
  8
002
100
AcDbLine
 10
-411.7637260830306
 20
-1516.850016948737
 30
0.0
 11
-336.7637260830306
 21
-1509.350016948737
 31
0.0
  0
LINE
  5
82E6
330
1E
100
AcDbEntity
  8
002
100
AcDbLine
 10
-341.7637260830306
 20
-1501.850016948737
 30
0.0
 11
-406.7637260830306
 21
-1509.350016948737
 31
0.0
  0
LINE
  5
82E7
330
1E
100
AcDbEntity
  8
002
100
AcDbLine
 10
-354.2207799527295
 20
-1578.287369318318
 30
0.0
 11
-406.7637260830306
 21
-1584.350016948738
 31
0.0
  0
LINE
  5
82E8
330
1E
100
AcDbEntity
  8
002
100
AcDbLine
 10
-411.7637260830306
 20
-1576.850016948738
 30
0.0
 11
-341.882839468361
 21
-1569.861928287271
 31
0.0
  0
LINE
  5
82E9
330
1E
100
AcDbEntity
  8
002
100
AcDbLine
 10
-341.7637260830306
 20
-1561.850016948738
 30
0.0
 11
-406.7637260830306
 21
-1569.350016948737
 31
0.0
  0
LINE
  5
82EA
330
1E
100
AcDbEntity
  8
002
100
AcDbLine
 10
-411.7637260830306
 20
-1561.850016948738
 30
0.0
 11
-336.7637260830306
 21
-1554.350016948737
 31
0.0
  0
LINE
  5
82EB
330
1E
100
AcDbEntity
  8
002
100
AcDbLine
 10
-341.7637260830306
 20
-1546.850016948738
 30
0.0
 11
-406.7637260830306
 21
-1554.350016948737
 31
0.0
  0
LWPOLYLINE
  5
82EC
330
1E
100
AcDbEntity
  8
002
100
AcDbPolyline
 90
       24
 70
     0
 43
0.0
 10
-333.2993430830306
 20
-1560.960102648842
 10
-335.7166090830305
 20
-1563.801242648842
 10
-338.2627620830307
 20
-1566.503905648842
 10
-340.9404330830307
 20
-1569.058536648842
 10
-343.7522550830308
 20
-1571.455585648842
 10
-346.7008600830304
 20
-1573.685498648842
 10
-349.4646300830304
 20
-1575.540230648842
 10
-352.3244100830306
 20
-1577.260013648842
 10
-355.2637680830307
 20
-1578.852406648842
 10
-358.2662700830305
 20
-1580.324967648842
 10
-361.3154840830306
 20
-1581.685253648842
 10
-366.1632580830305
 20
-1583.614989648842
 10
-371.0786570830305
 20
-1585.339136648842
 10
-376.0547890830307
 20
-1586.909830648842
 10
-381.0847590830308
 20
-1588.379204648842
 10
-386.1616750830307
 20
-1589.799389648842
 10
-391.3823060830304
 20
-1591.263417648842
 10
-396.5678840830305
 20
-1592.837356648842
 10
-401.6414870830304
 20
-1594.628035648842
 10
-406.5261910830304
 20
-1596.742285648842
 10
-411.1450740830305
 20
-1599.286938648842
 10
-413.0311690830303
 20
-1600.536288648842
 10
-414.8599270830304
 20
-1601.875509648842
 10
-416.6373090830306
 20
-1603.295261648842
  0
LINE
  5
82ED
330
1E
100
AcDbEntity
  8
002
100
AcDbLine
 10
-411.7637260830306
 20
-1546.850016948738
 30
0.0
 11
-336.7637260830306
 21
-1539.350016948738
 31
0.0
  0
LINE
  5
82EE
330
1E
100
AcDbEntity
  8
002
100
AcDbLine
 10
-411.7637260830306
 20
-1501.850016948737
 30
0.0
 11
-336.7637260830306
 21
-1494.350016948737
 31
0.0
  0
ARC
  5
82EF
330
1E
100
AcDbEntity
  8
002
100
AcDbCircle
 10
-409.2637260830306
 20
-1569.350016948737
 30
0.0
 40
2.5
100
AcDbArc
 50
318.1896849999924
 51
41.81031500000758
  0
LINE
  5
82F0
330
1E
100
AcDbEntity
  8
002
100
AcDbLine
 10
-411.7637260830306
 20
-1591.850016948737
 30
0.0
 11
-383.32649437203
 21
-1589.006293777638
 31
0.0
  0
ARC
  5
82F1
330
1E
100
AcDbEntity
  8
002
100
AcDbCircle
 10
-409.2637260830306
 20
-1584.350016948738
 30
0.0
 40
2.5
100
AcDbArc
 50
318.1896849999924
 51
41.81031500000758
  0
ARC
  5
82F2
330
1E
100
AcDbEntity
  8
002
100
AcDbCircle
 10
-409.2637260830306
 20
-1591.850016948737
 30
0.0
 40
2.5
100
AcDbArc
 50
138.1896849999924
 51
221.8103150000075
  0
ARC
  5
82F3
330
1E
100
AcDbEntity
  8
002
100
AcDbCircle
 10
-409.2637260830306
 20
-1576.850016948738
 30
0.0
 40
2.5
100
AcDbArc
 50
138.1896849999924
 51
221.8103150000075
  0
LINE
  5
82F4
330
1E
100
AcDbEntity
  8
002
100
AcDbLine
 10
-407.4003360830306
 20
-1586.016683948737
 30
0.0
 11
-411.1271160830305
 21
-1590.183350948738
 31
0.0
  0
LINE
  5
82F5
330
1E
100
AcDbEntity
  8
002
100
AcDbLine
 10
-411.1271160830305
 20
-1593.516683948737
 30
0.0
 11
-407.6756443564509
 21
-1597.375546920143
 31
0.0
  0
LINE
  5
82F6
330
1E
100
AcDbEntity
  8
002
100
AcDbLine
 10
-411.1271160830305
 20
-1578.516683948738
 30
0.0
 11
-407.4003360830306
 21
-1582.683350948737
 31
0.0
  0
LINE
  5
82F7
330
1E
100
AcDbEntity
  8
002
100
AcDbLine
 10
-407.4003360830306
 20
-1571.016683948737
 30
0.0
 11
-411.1271160830305
 21
-1575.183350948737
 31
0.0
  0
ARC
  5
82F8
330
1E
100
AcDbEntity
  8
002
100
AcDbCircle
 10
-410.3156060830306
 20
-1456.850016948737
 30
0.0
 40
2.5
100
AcDbArc
 50
138.1896849999924
 51
221.8103150000075
  0
ARC
  5
82F9
330
1E
100
AcDbEntity
  8
002
100
AcDbCircle
 10
-409.2637260830306
 20
-1456.850016948737
 30
0.0
 40
2.5
100
AcDbArc
 50
138.1896849999924
 51
221.8103150000075
  0
ARC
  5
82FA
330
1E
100
AcDbEntity
  8
002
100
AcDbCircle
 10
-409.2637260830306
 20
-1479.350016948737
 30
0.0
 40
2.5
100
AcDbArc
 50
318.1896849999924
 51
41.81031500000758
  0
ARC
  5
82FB
330
1E
100
AcDbEntity
  8
002
100
AcDbCircle
 10
-409.2637260830306
 20
-1464.350016948737
 30
0.0
 40
2.5
100
AcDbArc
 50
318.1896849999924
 51
41.81031500000758
  0
ARC
  5
82FC
330
1E
100
AcDbEntity
  8
002
100
AcDbCircle
 10
-410.3156060830306
 20
-1471.850016948737
 30
0.0
 40
2.5
100
AcDbArc
 50
138.1896849999924
 51
221.8103150000075
  0
ARC
  5
82FD
330
1E
100
AcDbEntity
  8
002
100
AcDbCircle
 10
-409.2637260830306
 20
-1471.850016948737
 30
0.0
 40
2.5
100
AcDbArc
 50
138.1896849999924
 51
221.8103150000075
  0
LINE
  5
82FE
330
1E
100
AcDbEntity
  8
002
100
AcDbLine
 10
-412.1789960830305
 20
-1473.516683948737
 30
0.0
 11
-411.2845690830304
 21
-1474.516683948738
 31
0.0
  0
LINE
  5
82FF
330
1E
100
AcDbEntity
  8
002
100
AcDbLine
 10
-408.4522160830306
 20
-1466.016683948738
 30
0.0
 11
-412.1789960830305
 21
-1470.183350948738
 31
0.0
  0
ARC
  5
8300
330
1E
100
AcDbEntity
  8
002
100
AcDbCircle
 10
-410.3156060830306
 20
-1464.350016948737
 30
0.0
 40
2.5
100
AcDbArc
 50
318.1896849999924
 51
41.81031500000758
  0
LINE
  5
8301
330
1E
100
AcDbEntity
  8
002
100
AcDbLine
 10
-411.1271160830305
 20
-1473.516683948737
 30
0.0
 11
-407.4003360830306
 21
-1477.683350948737
 31
0.0
  0
LINE
  5
8302
330
1E
100
AcDbEntity
  8
002
100
AcDbLine
 10
-407.4003360830306
 20
-1481.016683948737
 30
0.0
 11
-411.1271160830305
 21
-1485.183350948737
 31
0.0
  0
LINE
  5
8303
330
1E
100
AcDbEntity
  8
002
100
AcDbLine
 10
-407.4003360830306
 20
-1466.016683948738
 30
0.0
 11
-411.1271160830305
 21
-1470.183350948738
 31
0.0
  0
LINE
  5
8304
330
1E
100
AcDbEntity
  8
002
100
AcDbLine
 10
-411.1271160830305
 20
-1458.516683948738
 30
0.0
 11
-407.4003360830306
 21
-1462.683350948737
 31
0.0
  0
LINE
  5
8305
330
1E
100
AcDbEntity
  8
002
100
AcDbLine
 10
-412.1789960830305
 20
-1458.516683948738
 30
0.0
 11
-408.4522160830306
 21
-1462.683350948737
 31
0.0
  0
ARC
  5
8306
330
1E
100
AcDbEntity
  8
002
100
AcDbCircle
 10
-409.2637260830306
 20
-1494.350016948737
 30
0.0
 40
2.5
100
AcDbArc
 50
318.1896849999924
 51
41.81031500000758
  0
LINE
  5
8307
330
1E
100
AcDbEntity
  8
002
100
AcDbLine
 10
-411.1271160830305
 20
-1488.516683948738
 30
0.0
 11
-407.4003360830306
 21
-1492.683350948738
 31
0.0
  0
ARC
  5
8308
330
1E
100
AcDbEntity
  8
002
100
AcDbCircle
 10
-409.2637260830306
 20
-1486.850016948737
 30
0.0
 40
2.5
100
AcDbArc
 50
138.1896849999924
 51
221.8103150000075
  0
LINE
  5
8309
330
1E
100
AcDbEntity
  8
002
100
AcDbLine
 10
-411.2845690830304
 20
-1474.516683948738
 30
0.0
 11
-417.7792540830305
 21
-1474.516683948738
 31
0.0
  0
ARC
  5
830A
330
1E
100
AcDbEntity
  8
002
100
AcDbCircle
 10
-409.2637260830306
 20
-1509.350016948737
 30
0.0
 40
2.5
100
AcDbArc
 50
318.1896849999924
 51
41.81031500000758
  0
ARC
  5
830B
330
1E
100
AcDbEntity
  8
002
100
AcDbCircle
 10
-409.2637260830306
 20
-1501.850016948737
 30
0.0
 40
2.5
100
AcDbArc
 50
138.1896849999924
 51
221.8103150000075
  0
LINE
  5
830C
330
1E
100
AcDbEntity
  8
002
100
AcDbLine
 10
-411.1271160830305
 20
-1503.516683948737
 30
0.0
 11
-407.4003360830306
 21
-1507.683350948737
 31
0.0
  0
LINE
  5
830D
330
1E
100
AcDbEntity
  8
002
100
AcDbLine
 10
-407.4003360830306
 20
-1511.016683948738
 30
0.0
 11
-411.1271160830305
 21
-1515.183350948738
 31
0.0
  0
ARC
  5
830E
330
1E
100
AcDbEntity
  8
002
100
AcDbCircle
 10
-409.2637260830306
 20
-1539.350016948738
 30
0.0
 40
2.5
100
AcDbArc
 50
318.1896849999924
 51
41.81031500000758
  0
ARC
  5
830F
330
1E
100
AcDbEntity
  8
002
100
AcDbCircle
 10
-409.2637260830306
 20
-1524.350016948737
 30
0.0
 40
2.5
100
AcDbArc
 50
318.1896849999924
 51
41.81031500000758
  0
ARC
  5
8310
330
1E
100
AcDbEntity
  8
002
100
AcDbCircle
 10
-409.2637260830306
 20
-1531.850016948737
 30
0.0
 40
2.5
100
AcDbArc
 50
138.1896849999924
 51
221.8103150000075
  0
LINE
  5
8311
330
1E
100
AcDbEntity
  8
002
100
AcDbLine
 10
-407.4003360830306
 20
-1526.016683948737
 30
0.0
 11
-411.1271160830305
 21
-1530.183350948737
 31
0.0
  0
LINE
  5
8312
330
1E
100
AcDbEntity
  8
002
100
AcDbLine
 10
-407.4003360830306
 20
-1541.016683948738
 30
0.0
 11
-411.1271160830305
 21
-1545.183350948738
 31
0.0
  0
LINE
  5
8313
330
1E
100
AcDbEntity
  8
002
100
AcDbLine
 10
-411.1271160830305
 20
-1533.516683948738
 30
0.0
 11
-407.4003360830306
 21
-1537.683350948737
 31
0.0
  0
LINE
  5
8314
330
1E
100
AcDbEntity
  8
002
100
AcDbLine
 10
-411.1271160830305
 20
-1518.516683948738
 30
0.0
 11
-407.4003360830306
 21
-1522.683350948737
 31
0.0
  0
ARC
  5
8315
330
1E
100
AcDbEntity
  8
002
100
AcDbCircle
 10
-409.2637260830306
 20
-1516.850016948737
 30
0.0
 40
2.5
100
AcDbArc
 50
138.1896849999924
 51
221.8103150000075
  0
ARC
  5
8316
330
1E
100
AcDbEntity
  8
002
100
AcDbCircle
 10
-409.2637260830306
 20
-1554.350016948737
 30
0.0
 40
2.5
100
AcDbArc
 50
318.1896849999924
 51
41.81031500000758
  0
ARC
  5
8317
330
1E
100
AcDbEntity
  8
002
100
AcDbCircle
 10
-409.2637260830306
 20
-1561.850016948738
 30
0.0
 40
2.5
100
AcDbArc
 50
138.1896849999924
 51
221.8103150000075
  0
LINE
  5
8318
330
1E
100
AcDbEntity
  8
002
100
AcDbLine
 10
-407.4003360830306
 20
-1556.016683948738
 30
0.0
 11
-411.1271160830305
 21
-1560.183350948737
 31
0.0
  0
LINE
  5
8319
330
1E
100
AcDbEntity
  8
002
100
AcDbLine
 10
-411.1271160830305
 20
-1563.516683948737
 30
0.0
 11
-407.4003360830306
 21
-1567.683350948738
 31
0.0
  0
LINE
  5
831A
330
1E
100
AcDbEntity
  8
002
100
AcDbLine
 10
-411.1271160830305
 20
-1548.516683948737
 30
0.0
 11
-407.4003360830306
 21
-1552.683350948737
 31
0.0
  0
ARC
  5
831B
330
1E
100
AcDbEntity
  8
002
100
AcDbCircle
 10
-409.2637260830306
 20
-1546.850016948738
 30
0.0
 40
2.5
100
AcDbArc
 50
138.1896849999924
 51
221.8103150000075
  0
LWPOLYLINE
  5
831C
330
1E
100
AcDbEntity
  8
003
100
AcDbPolyline
 90
        2
 70
     0
 43
0.0
 10
-424.1053401421509
 20
-1517.930243948737
 10
-424.106887675247
 20
-1517.930243948737
  0
LINE
  5
831D
330
1E
100
AcDbEntity
  8
002
100
AcDbLine
 10
-407.4003360830306
 20
-1496.016683948737
 30
0.0
 11
-411.1271160830305
 21
-1500.183350948737
 31
0.0
  0
ARC
  5
831E
330
1E
100
AcDbEntity
  8
002
100
AcDbCircle
 10
-337.7701510830306
 20
-1456.850016948737
 30
0.0
 40
2.5
100
AcDbArc
 50
138.1896849999924
 51
221.8103150000075
  0
ARC
  5
831F
330
1E
100
AcDbEntity
  8
002
100
AcDbCircle
 10
-339.2637260830306
 20
-1456.850016948737
 30
0.0
 40
2.5
100
AcDbArc
 50
138.1896849999924
 51
221.8103150000075
  0
ARC
  5
8320
330
1E
100
AcDbEntity
  8
002
100
AcDbCircle
 10
-337.7701510830306
 20
-1471.850016948737
 30
0.0
 40
2.5
100
AcDbArc
 50
138.1896849999924
 51
221.8103150000075
  0
ARC
  5
8321
330
1E
100
AcDbEntity
  8
002
100
AcDbCircle
 10
-339.2637260830306
 20
-1471.850016948737
 30
0.0
 40
2.5
100
AcDbArc
 50
138.1896849999924
 51
221.8103150000075
  0
LINE
  5
8322
330
1E
100
AcDbEntity
  8
002
100
AcDbLine
 10
-330.7481980830307
 20
-1474.516683948738
 30
0.0
 11
-338.7391140830304
 21
-1474.516683948738
 31
0.0
  0
LINE
  5
8323
330
1E
100
AcDbEntity
  8
002
100
AcDbLine
 10
-339.6335410830306
 20
-1473.516683948737
 30
0.0
 11
-338.7391140830304
 21
-1474.516683948738
 31
0.0
  0
ARC
  5
8324
330
1E
100
AcDbEntity
  8
002
100
AcDbCircle
 10
-339.2637260830306
 20
-1479.350016948737
 30
0.0
 40
2.5
100
AcDbArc
 50
318.1896849999924
 51
41.81031500000758
  0
LINE
  5
8325
330
1E
100
AcDbEntity
  8
002
100
AcDbLine
 10
-341.1271160830306
 20
-1473.516683948737
 30
0.0
 11
-337.4003360830306
 21
-1477.683350948737
 31
0.0
  0
LINE
  5
8326
330
1E
100
AcDbEntity
  8
002
100
AcDbLine
 10
-337.4003360830306
 20
-1481.016683948737
 30
0.0
 11
-341.1271160830306
 21
-1485.183350948737
 31
0.0
  0
ARC
  5
8327
330
1E
100
AcDbEntity
  8
002
100
AcDbCircle
 10
-337.7701510830306
 20
-1464.350016948737
 30
0.0
 40
2.5
100
AcDbArc
 50
318.1896849999924
 51
41.81031500000758
  0
LINE
  5
8328
330
1E
100
AcDbEntity
  8
002
100
AcDbLine
 10
-335.9067610830306
 20
-1466.016683948738
 30
0.0
 11
-339.6335410830306
 21
-1470.183350948738
 31
0.0
  0
ARC
  5
8329
330
1E
100
AcDbEntity
  8
002
100
AcDbCircle
 10
-339.2637260830306
 20
-1464.350016948737
 30
0.0
 40
2.5
100
AcDbArc
 50
318.1896849999924
 51
41.81031500000758
  0
LINE
  5
832A
330
1E
100
AcDbEntity
  8
002
100
AcDbLine
 10
-337.4003360830306
 20
-1466.016683948738
 30
0.0
 11
-341.1271160830306
 21
-1470.183350948738
 31
0.0
  0
LINE
  5
832B
330
1E
100
AcDbEntity
  8
002
100
AcDbLine
 10
-339.6335410830306
 20
-1458.516683948738
 30
0.0
 11
-335.9067610830306
 21
-1462.683350948737
 31
0.0
  0
LINE
  5
832C
330
1E
100
AcDbEntity
  8
002
100
AcDbLine
 10
-341.1271160830306
 20
-1458.516683948738
 30
0.0
 11
-337.4003360830306
 21
-1462.683350948737
 31
0.0
  0
ARC
  5
832D
330
1E
100
AcDbEntity
  8
002
100
AcDbCircle
 10
-339.2637260830306
 20
-1494.350016948737
 30
0.0
 40
2.5
100
AcDbArc
 50
318.1896849999924
 51
41.81031500000758
  0
LINE
  5
832E
330
1E
100
AcDbEntity
  8
002
100
AcDbLine
 10
-341.1271160830306
 20
-1488.516683948738
 30
0.0
 11
-337.4003360830306
 21
-1492.683350948738
 31
0.0
  0
ARC
  5
832F
330
1E
100
AcDbEntity
  8
002
100
AcDbCircle
 10
-339.2637260830306
 20
-1486.850016948737
 30
0.0
 40
2.5
100
AcDbArc
 50
138.1896849999924
 51
221.8103150000075
  0
ARC
  5
8330
330
1E
100
AcDbEntity
  8
002
100
AcDbCircle
 10
-339.2637260830306
 20
-1509.350016948737
 30
0.0
 40
2.5
100
AcDbArc
 50
318.1896849999924
 51
41.81031500000758
  0
LINE
  5
8331
330
1E
100
AcDbEntity
  8
002
100
AcDbLine
 10
-341.1271160830306
 20
-1503.516683948737
 30
0.0
 11
-337.4003360830306
 21
-1507.683350948737
 31
0.0
  0
LINE
  5
8332
330
1E
100
AcDbEntity
  8
002
100
AcDbLine
 10
-337.4003360830306
 20
-1511.016683948738
 30
0.0
 11
-341.1271160830306
 21
-1515.183350948738
 31
0.0
  0
ARC
  5
8333
330
1E
100
AcDbEntity
  8
002
100
AcDbCircle
 10
-339.2637260830306
 20
-1501.850016948737
 30
0.0
 40
2.5
100
AcDbArc
 50
138.1896849999924
 51
221.8103150000075
  0
LINE
  5
8334
330
1E
100
AcDbEntity
  8
002
100
AcDbLine
 10
-337.4003360830306
 20
-1526.016683948737
 30
0.0
 11
-341.1271160830306
 21
-1530.183350948737
 31
0.0
  0
ARC
  5
8335
330
1E
100
AcDbEntity
  8
002
100
AcDbCircle
 10
-339.2637260830306
 20
-1531.850016948737
 30
0.0
 40
2.5
100
AcDbArc
 50
138.1896849999924
 51
221.8103150000075
  0
ARC
  5
8336
330
1E
100
AcDbEntity
  8
002
100
AcDbCircle
 10
-339.2637260830306
 20
-1539.350016948738
 30
0.0
 40
2.5
100
AcDbArc
 50
318.1896849999924
 51
41.81031500000758
  0
LINE
  5
8337
330
1E
100
AcDbEntity
  8
002
100
AcDbLine
 10
-341.1271160830306
 20
-1533.516683948738
 30
0.0
 11
-337.4003360830306
 21
-1537.683350948737
 31
0.0
  0
LINE
  5
8338
330
1E
100
AcDbEntity
  8
002
100
AcDbLine
 10
-337.4003360830306
 20
-1541.016683948738
 30
0.0
 11
-341.1271160830306
 21
-1545.183350948738
 31
0.0
  0
ARC
  5
8339
330
1E
100
AcDbEntity
  8
002
100
AcDbCircle
 10
-339.2637260830306
 20
-1524.350016948737
 30
0.0
 40
2.5
100
AcDbArc
 50
318.1896849999924
 51
41.81031500000758
  0
LINE
  5
833A
330
1E
100
AcDbEntity
  8
002
100
AcDbLine
 10
-341.1271160830306
 20
-1518.516683948738
 30
0.0
 11
-337.4003360830306
 21
-1522.683350948737
 31
0.0
  0
ARC
  5
833B
330
1E
100
AcDbEntity
  8
002
100
AcDbCircle
 10
-339.2637260830306
 20
-1516.850016948737
 30
0.0
 40
2.5
100
AcDbArc
 50
138.1896849999924
 51
221.8103150000075
  0
ARC
  5
833C
330
1E
100
AcDbEntity
  8
002
100
AcDbCircle
 10
-339.2637260830306
 20
-1548.121772847142
 30
0.0
 40
2.5
100
AcDbArc
 50
318.1896849999924
 51
41.81031500000758
  0
LINE
  5
833D
330
1E
100
AcDbEntity
  8
002
100
AcDbLine
 10
-337.4003360830306
 20
-1549.788439847143
 30
0.0
 11
-341.1271160830306
 21
-1553.955106847142
 31
0.0
  0
LINE
  5
833E
330
1E
100
AcDbEntity
  8
002
100
AcDbLine
 10
-337.4003360830306
 20
-1556.016683948738
 30
0.0
 11
-341.1271160830306
 21
-1560.183350948737
 31
0.0
  0
ARC
  5
833F
330
1E
100
AcDbEntity
  8
002
100
AcDbCircle
 10
-339.2637260830306
 20
-1561.850016948738
 30
0.0
 40
2.5
100
AcDbArc
 50
138.1896849999924
 51
221.8103150000075
  0
LINE
  5
8340
330
1E
100
AcDbEntity
  8
002
100
AcDbLine
 10
-341.1271160830306
 20
-1563.516683948737
 30
0.0
 11
-338.3666303066143
 21
-1566.603001088081
 31
0.0
  0
ARC
  5
8341
330
1E
100
AcDbEntity
  8
002
100
AcDbCircle
 10
-339.2637260830306
 20
-1554.350016948737
 30
0.0
 40
2.5
100
AcDbArc
 50
318.1896849999924
 51
41.81031500000758
  0
LINE
  5
8342
330
1E
100
AcDbEntity
  8
002
100
AcDbLine
 10
-341.1271160830306
 20
-1548.516683948737
 30
0.0
 11
-337.4003360830306
 21
-1552.683350948737
 31
0.0
  0
ARC
  5
8343
330
1E
100
AcDbEntity
  8
002
100
AcDbCircle
 10
-339.2637260830306
 20
-1546.850016948738
 30
0.0
 40
2.5
100
AcDbArc
 50
138.1896849999924
 51
221.8103150000075
  0
LWPOLYLINE
  5
8344
330
1E
100
AcDbEntity
  8
001
100
AcDbPolyline
 90
        3
 70
     0
 43
0.0
 10
-333.1610920830307
 20
-1546.363358847142
 10
-339.8115850830304
 20
-1543.484297847142
 10
-335.4916200830307
 20
-1549.302883847142
  0
LINE
  5
8345
330
1E
100
AcDbEntity
  8
002
100
AcDbLine
 10
-337.4003360830306
 20
-1496.016683948737
 30
0.0
 11
-341.1271160830306
 21
-1500.183350948737
 31
0.0
  0
LINE
  5
8346
330
1E
100
AcDbEntity
  8
003
100
AcDbLine
 10
-304.3544090830305
 20
-1517.930243948737
 30
0.0
 11
-304.3544090830305
 21
-1517.930243948737
 31
0.0
  0
TEXT
  5
8347
330
1E
100
AcDbEntity
  8
001
100
AcDbText
 10
-264.5075080830306
 20
-1592.056236847142
 30
0.0
 40
11.19999999999999
  1
コルゲートシース
 41
0.716146
100
AcDbText
  0
LINE
  5
8348
330
1E
100
AcDbEntity
  8
001
100
AcDbLine
 10
-274.1325080830306
 20
-1595.556272847142
 30
0.0
 11
-177.8825080830306
 21
-1595.556272847142
 31
0.0
  0
LWPOLYLINE
  5
8349
330
1E
100
AcDbEntity
  8
003
100
AcDbPolyline
 90
        4
 70
     0
 43
0.0
 10
-301.5184683705165
 20
-1230.516683948738
 10
-205.7544090830306
 20
-1230.516683948738
 10
-269.2544090830306
 20
-1340.516683948737
 10
-309.2544090830306
 20
-1340.516683948737
  0
LINE
  5
834A
330
1E
100
AcDbEntity
  8
001
100
AcDbLine
 10
-351.1612520830303
 20
-1195.954145948737
 30
0.0
 11
-281.3466760830306
 21
-1121.049669948737
 31
0.0
  0
LWPOLYLINE
  5
834B
330
1E
100
AcDbEntity
  8
003
100
AcDbPolyline
 90
        4
 70
     0
 43
0.0
 10
-301.5184683705165
 20
-1230.516683948738
 10
-195.7544090830306
 20
-1230.516683948738
 10
-186.7544090830306
 20
-1215.516683948737
 10
-301.5184683705165
 20
-1215.516683948737
  0
LWPOLYLINE
  5
834C
330
1E
100
AcDbEntity
  8
001
100
AcDbPolyline
 90
        3
 70
     0
 43
0.0
 10
-281.5756448281636
 20
-1324.347495328465
 10
-288.1782420830304
 20
-1321.360230073473
 10
-283.9538581379165
 20
-1327.248576497519
  0
LINE
  5
834D
330
1E
100
AcDbEntity
  8
002
100
AcDbLine
 10
-329.7544090830306
 20
-1340.516683948737
 30
0.0
 11
-271.7544090830306
 21
-1340.516683948737
 31
0.0
  0
LINE
  5
834E
330
1E
100
AcDbEntity
  8
002
100
AcDbLine
 10
-343.7637260830306
 20
-1318.516683948738
 30
0.0
 11
-271.7544090830306
 21
-1318.516683948738
 31
0.0
  0
LINE
  5
834F
330
1E
100
AcDbEntity
  8
001
100
AcDbLine
 10
-288.1782420830304
 20
-1321.360230073473
 30
0.0
 11
-185.398595067752
 21
-1405.615692778352
 31
0.0
  0
LINE
  5
8350
330
1E
100
AcDbEntity
  8
001
100
AcDbLine
 10
-327.0176130830309
 20
-1287.516683948737
 30
0.0
 11
-220.1376155490474
 21
-1170.520146941919
 31
0.0
  0
LWPOLYLINE
  5
8351
330
1E
100
AcDbEntity
  8
003
100
AcDbPolyline
 90
        4
 70
     0
 43
0.0
 10
-309.2544090830306
 20
-1362.516683948737
 10
-261.1544090830302
 20
-1362.516683948737
 10
-184.9544090830304
 20
-1230.516683948738
 10
-301.5184683705165
 20
-1230.516683948738
  0
LINE
  5
8352
330
1E
100
AcDbEntity
  8
002
100
AcDbLine
 10
-363.8612520830306
 20
-1225.361136948737
 30
0.0
 11
-357.3645800830304
 21
-1188.516683948737
 31
0.0
  0
LINE
  5
8353
330
1E
100
AcDbEntity
  8
002
100
AcDbLine
 10
-319.3034420830308
 20
-1273.877591948737
 30
0.0
 11
-322.6093090830309
 21
-1163.367177948737
 31
0.0
  0
LINE
  5
8354
330
1E
100
AcDbEntity
  8
002
100
AcDbLine
 10
-327.4619730830304
 20
-1168.367177948737
 30
0.0
 11
-324.2521740830306
 21
-1275.666189948737
 31
0.0
  0
LINE
  5
8355
330
1E
100
AcDbEntity
  8
002
100
AcDbLine
 10
-363.8612520830306
 20
-1282.948841948737
 30
0.0
 11
-351.1612520830303
 21
-1210.923562948737
 31
0.0
  0
LINE
  5
8356
330
1E
100
AcDbEntity
  8
002
100
AcDbLine
 10
-363.8612520830306
 20
-1353.516683948738
 30
0.0
 11
-363.8612520830306
 21
-1188.516683948737
 31
0.0
  0
LINE
  5
8357
330
1E
100
AcDbEntity
  8
002
100
AcDbLine
 10
-351.1612520830303
 20
-1353.516683948738
 30
0.0
 11
-351.1612520830303
 21
-1188.516683948737
 31
0.0
  0
LINE
  5
8358
330
1E
100
AcDbEntity
  8
002
  6
CENTER
100
AcDbLine
 10
-357.5112520830307
 20
-1353.516683948738
 30
0.0
 11
-357.5112520830307
 21
-1184.725932948737
 31
0.0
  0
LINE
  5
8359
330
1E
100
AcDbEntity
  8
002
  6
CENTER
100
AcDbLine
 10
-382.6259880830307
 20
-1238.516683948738
 30
0.0
 11
-382.6259880830307
 21
-1184.725932948737
 31
0.0
  0
LINE
  5
835A
330
1E
100
AcDbEntity
  8
002
100
AcDbLine
 10
-388.9759880830306
 20
-1235.516683948738
 30
0.0
 11
-388.9759880830306
 21
-1188.516683948737
 31
0.0
  0
LINE
  5
835B
330
1E
100
AcDbEntity
  8
002
100
AcDbLine
 10
-385.4315000830306
 20
-1235.516683948738
 30
0.0
 11
-377.1441320830303
 21
-1188.516683948737
 31
0.0
  0
LINE
  5
835C
330
1E
100
AcDbEntity
  8
002
100
AcDbLine
 10
-376.2759880830308
 20
-1235.516683948738
 30
0.0
 11
-376.2759880830308
 21
-1188.516683948737
 31
0.0
  0
LINE
  5
835D
330
1E
100
AcDbEntity
  8
002
100
AcDbLine
 10
-421.0468460830306
 20
-1168.367177948737
 30
0.0
 11
-424.2566450830304
 21
-1275.666189948737
 31
0.0
  0
LINE
  5
835E
330
1E
100
AcDbEntity
  8
002
100
AcDbLine
 10
-429.2053770830307
 20
-1273.877591948737
 30
0.0
 11
-425.8995100830307
 21
-1163.367177948737
 31
0.0
  0
LINE
  5
835F
330
1E
100
AcDbEntity
  8
002
100
AcDbLine
 10
-363.8612520830306
 20
-1340.536546948738
 30
0.0
 11
-351.1612520830303
 21
-1268.511267948738
 31
0.0
  0
LINE
  5
8360
330
1E
100
AcDbEntity
  8
002
100
AcDbLine
 10
-356.2081710830307
 20
-1353.516683948738
 30
0.0
 11
-406.7637260830306
 21
-1359.350016948737
 31
0.0
  0
LINE
  5
8361
330
1E
100
AcDbEntity
  8
002
100
AcDbLine
 10
-341.7637260830306
 20
-1396.850016948737
 30
0.0
 11
-406.7637260830306
 21
-1404.350016948737
 31
0.0
  0
LINE
  5
8362
330
1E
100
AcDbEntity
  8
002
100
AcDbLine
 10
-411.7637260830306
 20
-1396.850016948737
 30
0.0
 11
-336.7637260830306
 21
-1389.350016948737
 31
0.0
  0
LINE
  5
8363
330
1E
100
AcDbEntity
  8
002
100
AcDbLine
 10
-341.7637260830306
 20
-1381.850016948737
 30
0.0
 11
-406.7637260830306
 21
-1389.350016948737
 31
0.0
  0
LINE
  5
8364
330
1E
100
AcDbEntity
  8
002
100
AcDbLine
 10
-341.7637260830306
 20
-1441.850016948737
 30
0.0
 11
-406.7637260830306
 21
-1449.350016948737
 31
0.0
  0
LINE
  5
8365
330
1E
100
AcDbEntity
  8
002
100
AcDbLine
 10
-411.7637260830306
 20
-1441.850016948737
 30
0.0
 11
-336.7637260830306
 21
-1434.350016948737
 31
0.0
  0
LINE
  5
8366
330
1E
100
AcDbEntity
  8
002
100
AcDbLine
 10
-341.7637260830306
 20
-1426.850016948737
 30
0.0
 11
-406.7637260830306
 21
-1434.350016948737
 31
0.0
  0
LINE
  5
8367
330
1E
100
AcDbEntity
  8
002
100
AcDbLine
 10
-411.7637260830306
 20
-1426.850016948737
 30
0.0
 11
-336.7637260830306
 21
-1419.350016948737
 31
0.0
  0
LINE
  5
8368
330
1E
100
AcDbEntity
  8
002
100
AcDbLine
 10
-341.7637260830306
 20
-1411.850016948737
 30
0.0
 11
-406.7637260830306
 21
-1419.350016948737
 31
0.0
  0
LINE
  5
8369
330
1E
100
AcDbEntity
  8
002
100
AcDbLine
 10
-411.7637260830306
 20
-1411.850016948737
 30
0.0
 11
-336.7637260830306
 21
-1404.350016948737
 31
0.0
  0
LINE
  5
836A
330
1E
100
AcDbEntity
  8
002
100
AcDbLine
 10
-412.1789960830305
 20
-1353.516683948738
 30
0.0
 11
-339.6335410830306
 21
-1353.516683948738
 31
0.0
  0
LINE
  5
836B
330
1E
100
AcDbEntity
  8
002
100
AcDbLine
 10
-411.7637260830306
 20
-1381.850016948737
 30
0.0
 11
-336.7637260830306
 21
-1374.350016948737
 31
0.0
  0
LINE
  5
836C
330
1E
100
AcDbEntity
  8
002
100
AcDbLine
 10
-341.7637260830306
 20
-1366.850016948737
 30
0.0
 11
-406.7637260830306
 21
-1374.350016948737
 31
0.0
  0
LINE
  5
836D
330
1E
100
AcDbEntity
  8
002
100
AcDbLine
 10
-411.7637260830306
 20
-1366.850016948737
 30
0.0
 11
-336.7637260830306
 21
-1359.350016948737
 31
0.0
  0
LINE
  5
836E
330
1E
100
AcDbEntity
  8
002
100
AcDbLine
 10
-386.4585320830306
 20
-1353.516683948738
 30
0.0
 11
-376.7605480830307
 21
-1298.516683948737
 31
0.0
  0
LINE
  5
836F
330
1E
100
AcDbEntity
  8
002
  6
CENTER
100
AcDbLine
 10
-382.6353050830307
 20
-1353.516683948738
 30
0.0
 11
-382.6353050830307
 21
-1298.516683948737
 31
0.0
  0
LINE
  5
8370
330
1E
100
AcDbEntity
  8
002
100
AcDbLine
 10
-388.9853050830306
 20
-1353.516683948738
 30
0.0
 11
-388.9853050830306
 21
-1298.516683948737
 31
0.0
  0
LINE
  5
8371
330
1E
100
AcDbEntity
  8
002
100
AcDbLine
 10
-376.2853050830308
 20
-1353.516683948738
 30
0.0
 11
-376.2853050830308
 21
-1298.516683948737
 31
0.0
  0
LINE
  5
8372
330
1E
100
AcDbEntity
  8
002
100
AcDbLine
 10
-399.2637260830306
 20
-1298.516683948737
 30
0.0
 11
-399.2637260830306
 21
-1348.516683948737
 31
0.0
  0
LINE
  5
8373
330
1E
100
AcDbEntity
  8
002
100
AcDbLine
 10
-418.7544090830305
 20
-1318.516683948738
 30
0.0
 11
-418.7544090830305
 21
-1340.516683948737
 31
0.0
  0
LINE
  5
8374
330
1E
100
AcDbEntity
  8
002
100
AcDbLine
 10
-404.2637260830306
 20
-1348.516683948737
 30
0.0
 11
-399.2637260830306
 21
-1348.516683948737
 31
0.0
  0
LWPOLYLINE
  5
8375
330
1E
100
AcDbEntity
  8
003
100
AcDbPolyline
 90
        2
 70
     0
 43
0.0
 10
-439.2544090830305
 20
-1362.516683948737
 10
-439.2544090830305
 20
-1340.516683948737
  0
ARC
  5
8376
330
1E
100
AcDbEntity
  8
002
100
AcDbCircle
 10
-409.2637260830306
 20
-1359.350016948737
 30
0.0
 40
2.5
100
AcDbArc
 50
318.1896849999924
 51
41.81031500000758
  0
LINE
  5
8377
330
1E
100
AcDbEntity
  8
002
100
AcDbLine
 10
-404.2637260830306
 20
-1348.516683948737
 30
0.0
 11
-404.2637260830306
 21
-1353.516683948738
 31
0.0
  0
ARC
  5
8378
330
1E
100
AcDbEntity
  8
002
100
AcDbCircle
 10
-410.3156060830306
 20
-1359.350016948737
 30
0.0
 40
2.5
100
AcDbArc
 50
318.1896849999924
 51
41.81031500000758
  0
LINE
  5
8379
330
1E
100
AcDbEntity
  8
002
100
AcDbLine
 10
-408.4522160830306
 20
-1361.016683948737
 30
0.0
 11
-412.1789960830305
 21
-1365.183350948737
 31
0.0
  0
LINE
  5
837A
330
1E
100
AcDbEntity
  8
002
100
AcDbLine
 10
-412.1789960830305
 20
-1368.516683948738
 30
0.0
 11
-408.4522160830306
 21
-1372.683350948737
 31
0.0
  0
ARC
  5
837B
330
1E
100
AcDbEntity
  8
002
100
AcDbCircle
 10
-410.3156060830306
 20
-1366.850016948737
 30
0.0
 40
2.5
100
AcDbArc
 50
138.1896849999924
 51
221.8103150000075
  0
ARC
  5
837C
330
1E
100
AcDbEntity
  8
002
100
AcDbCircle
 10
-409.2637260830306
 20
-1366.850016948737
 30
0.0
 40
2.5
100
AcDbArc
 50
138.1896849999924
 51
221.8103150000075
  0
LINE
  5
837D
330
1E
100
AcDbEntity
  8
002
100
AcDbLine
 10
-412.1789960830305
 20
-1353.516683948738
 30
0.0
 11
-408.4522160830306
 21
-1357.683350948738
 31
0.0
  0
LINE
  5
837E
330
1E
100
AcDbEntity
  8
002
100
AcDbLine
 10
-407.4003360830306
 20
-1361.016683948737
 30
0.0
 11
-411.1271160830305
 21
-1365.183350948737
 31
0.0
  0
LINE
  5
837F
330
1E
100
AcDbEntity
  8
002
100
AcDbLine
 10
-411.1271160830305
 20
-1368.516683948738
 30
0.0
 11
-407.4003360830306
 21
-1372.683350948737
 31
0.0
  0
LINE
  5
8380
330
1E
100
AcDbEntity
  8
002
100
AcDbLine
 10
-411.1271160830305
 20
-1353.516683948738
 30
0.0
 11
-407.4003360830306
 21
-1357.683350948738
 31
0.0
  0
ARC
  5
8381
330
1E
100
AcDbEntity
  8
002
100
AcDbCircle
 10
-409.2637260830306
 20
-1389.350016948737
 30
0.0
 40
2.5
100
AcDbArc
 50
318.1896849999924
 51
41.81031500000758
  0
LINE
  5
8382
330
1E
100
AcDbEntity
  8
002
100
AcDbLine
 10
-412.1789960830305
 20
-1383.516683948737
 30
0.0
 11
-408.4522160830306
 21
-1387.683350948737
 31
0.0
  0
LINE
  5
8383
330
1E
100
AcDbEntity
  8
002
100
AcDbLine
 10
-408.4522160830306
 20
-1391.016683948738
 30
0.0
 11
-412.1789960830305
 21
-1395.183350948737
 31
0.0
  0
ARC
  5
8384
330
1E
100
AcDbEntity
  8
002
100
AcDbCircle
 10
-410.3156060830306
 20
-1389.350016948737
 30
0.0
 40
2.5
100
AcDbArc
 50
318.1896849999924
 51
41.81031500000758
  0
ARC
  5
8385
330
1E
100
AcDbEntity
  8
002
100
AcDbCircle
 10
-410.3156060830306
 20
-1396.850016948737
 30
0.0
 40
2.5
100
AcDbArc
 50
138.1896849999924
 51
221.8103150000075
  0
ARC
  5
8386
330
1E
100
AcDbEntity
  8
002
100
AcDbCircle
 10
-409.2637260830306
 20
-1396.850016948737
 30
0.0
 40
2.5
100
AcDbArc
 50
138.1896849999924
 51
221.8103150000075
  0
LINE
  5
8387
330
1E
100
AcDbEntity
  8
002
100
AcDbLine
 10
-408.4522160830306
 20
-1376.016683948737
 30
0.0
 11
-412.1789960830305
 21
-1380.183350948738
 31
0.0
  0
ARC
  5
8388
330
1E
100
AcDbEntity
  8
002
100
AcDbCircle
 10
-410.3156060830306
 20
-1381.850016948737
 30
0.0
 40
2.5
100
AcDbArc
 50
138.1896849999924
 51
221.8103150000075
  0
ARC
  5
8389
330
1E
100
AcDbEntity
  8
002
100
AcDbCircle
 10
-409.2637260830306
 20
-1381.850016948737
 30
0.0
 40
2.5
100
AcDbArc
 50
138.1896849999924
 51
221.8103150000075
  0
LINE
  5
838A
330
1E
100
AcDbEntity
  8
002
100
AcDbLine
 10
-411.1271160830305
 20
-1383.516683948737
 30
0.0
 11
-407.4003360830306
 21
-1387.683350948737
 31
0.0
  0
LINE
  5
838B
330
1E
100
AcDbEntity
  8
002
100
AcDbLine
 10
-407.4003360830306
 20
-1391.016683948738
 30
0.0
 11
-411.1271160830305
 21
-1395.183350948737
 31
0.0
  0
LINE
  5
838C
330
1E
100
AcDbEntity
  8
002
100
AcDbLine
 10
-407.4003360830306
 20
-1376.016683948737
 30
0.0
 11
-411.1271160830305
 21
-1380.183350948738
 31
0.0
  0
ARC
  5
838D
330
1E
100
AcDbEntity
  8
002
100
AcDbCircle
 10
-409.2637260830306
 20
-1404.350016948737
 30
0.0
 40
2.5
100
AcDbArc
 50
318.1896849999924
 51
41.81031500000758
  0
ARC
  5
838E
330
1E
100
AcDbEntity
  8
002
100
AcDbCircle
 10
-409.2637260830306
 20
-1419.350016948737
 30
0.0
 40
2.5
100
AcDbArc
 50
318.1896849999924
 51
41.81031500000758
  0
ARC
  5
838F
330
1E
100
AcDbEntity
  8
002
100
AcDbCircle
 10
-410.3156060830306
 20
-1404.350016948737
 30
0.0
 40
2.5
100
AcDbArc
 50
318.1896849999924
 51
41.81031500000758
  0
LINE
  5
8390
330
1E
100
AcDbEntity
  8
002
100
AcDbLine
 10
-412.1789960830305
 20
-1413.516683948738
 30
0.0
 11
-408.4522160830306
 21
-1417.683350948737
 31
0.0
  0
LINE
  5
8391
330
1E
100
AcDbEntity
  8
002
100
AcDbLine
 10
-408.4522160830306
 20
-1421.016683948737
 30
0.0
 11
-412.1789960830305
 21
-1425.183350948737
 31
0.0
  0
ARC
  5
8392
330
1E
100
AcDbEntity
  8
002
100
AcDbCircle
 10
-410.3156060830306
 20
-1419.350016948737
 30
0.0
 40
2.5
100
AcDbArc
 50
318.1896849999924
 51
41.81031500000758
  0
ARC
  5
8393
330
1E
100
AcDbEntity
  8
002
100
AcDbCircle
 10
-410.3156060830306
 20
-1426.850016948737
 30
0.0
 40
2.5
100
AcDbArc
 50
138.1896849999924
 51
221.8103150000075
  0
ARC
  5
8394
330
1E
100
AcDbEntity
  8
002
100
AcDbCircle
 10
-409.2637260830306
 20
-1426.850016948737
 30
0.0
 40
2.5
100
AcDbArc
 50
138.1896849999924
 51
221.8103150000075
  0
ARC
  5
8395
330
1E
100
AcDbEntity
  8
002
100
AcDbCircle
 10
-409.2637260830306
 20
-1411.850016948737
 30
0.0
 40
2.5
100
AcDbArc
 50
138.1896849999924
 51
221.8103150000075
  0
ARC
  5
8396
330
1E
100
AcDbEntity
  8
002
100
AcDbCircle
 10
-410.3156060830306
 20
-1411.850016948737
 30
0.0
 40
2.5
100
AcDbArc
 50
138.1896849999924
 51
221.8103150000075
  0
LINE
  5
8397
330
1E
100
AcDbEntity
  8
002
100
AcDbLine
 10
-408.4522160830306
 20
-1406.016683948737
 30
0.0
 11
-412.1789960830305
 21
-1410.183350948737
 31
0.0
  0
LINE
  5
8398
330
1E
100
AcDbEntity
  8
002
100
AcDbLine
 10
-411.1271160830305
 20
-1413.516683948738
 30
0.0
 11
-407.4003360830306
 21
-1417.683350948737
 31
0.0
  0
LINE
  5
8399
330
1E
100
AcDbEntity
  8
002
100
AcDbLine
 10
-407.4003360830306
 20
-1421.016683948737
 30
0.0
 11
-411.1271160830305
 21
-1425.183350948737
 31
0.0
  0
LINE
  5
839A
330
1E
100
AcDbEntity
  8
002
100
AcDbLine
 10
-407.4003360830306
 20
-1406.016683948737
 30
0.0
 11
-411.1271160830305
 21
-1410.183350948737
 31
0.0
  0
LINE
  5
839B
330
1E
100
AcDbEntity
  8
002
100
AcDbLine
 10
-411.1271160830305
 20
-1398.516683948737
 30
0.0
 11
-407.4003360830306
 21
-1402.683350948738
 31
0.0
  0
LINE
  5
839C
330
1E
100
AcDbEntity
  8
002
100
AcDbLine
 10
-412.1789960830305
 20
-1398.516683948737
 30
0.0
 11
-408.4522160830306
 21
-1402.683350948738
 31
0.0
  0
ARC
  5
839D
330
1E
100
AcDbEntity
  8
002
100
AcDbCircle
 10
-409.2637260830306
 20
-1449.350016948737
 30
0.0
 40
2.5
100
AcDbArc
 50
318.1896849999924
 51
41.81031500000758
  0
ARC
  5
839E
330
1E
100
AcDbEntity
  8
002
100
AcDbCircle
 10
-409.2637260830306
 20
-1434.350016948737
 30
0.0
 40
2.5
100
AcDbArc
 50
318.1896849999924
 51
41.81031500000758
  0
LINE
  5
839F
330
1E
100
AcDbEntity
  8
002
100
AcDbLine
 10
-412.1789960830305
 20
-1443.516683948738
 30
0.0
 11
-408.4522160830306
 21
-1447.683350948737
 31
0.0
  0
ARC
  5
83A0
330
1E
100
AcDbEntity
  8
002
100
AcDbCircle
 10
-410.3156060830306
 20
-1449.350016948737
 30
0.0
 40
2.5
100
AcDbArc
 50
318.1896849999924
 51
41.81031500000758
  0
LINE
  5
83A1
330
1E
100
AcDbEntity
  8
002
100
AcDbLine
 10
-408.4522160830306
 20
-1436.016683948738
 30
0.0
 11
-412.1789960830305
 21
-1440.183350948737
 31
0.0
  0
ARC
  5
83A2
330
1E
100
AcDbEntity
  8
002
100
AcDbCircle
 10
-410.3156060830306
 20
-1434.350016948737
 30
0.0
 40
2.5
100
AcDbArc
 50
318.1896849999924
 51
41.81031500000758
  0
ARC
  5
83A3
330
1E
100
AcDbEntity
  8
002
100
AcDbCircle
 10
-410.3156060830306
 20
-1441.850016948737
 30
0.0
 40
2.5
100
AcDbArc
 50
138.1896849999924
 51
221.8103150000075
  0
ARC
  5
83A4
330
1E
100
AcDbEntity
  8
002
100
AcDbCircle
 10
-409.2637260830306
 20
-1441.850016948737
 30
0.0
 40
2.5
100
AcDbArc
 50
138.1896849999924
 51
221.8103150000075
  0
LINE
  5
83A5
330
1E
100
AcDbEntity
  8
002
100
AcDbLine
 10
-411.1271160830305
 20
-1443.516683948738
 30
0.0
 11
-407.4003360830306
 21
-1447.683350948737
 31
0.0
  0
LINE
  5
83A6
330
1E
100
AcDbEntity
  8
002
100
AcDbLine
 10
-407.4003360830306
 20
-1436.016683948738
 30
0.0
 11
-411.1271160830305
 21
-1440.183350948737
 31
0.0
  0
LINE
  5
83A7
330
1E
100
AcDbEntity
  8
002
100
AcDbLine
 10
-411.1271160830305
 20
-1428.516683948737
 30
0.0
 11
-407.4003360830306
 21
-1432.683350948737
 31
0.0
  0
LINE
  5
83A8
330
1E
100
AcDbEntity
  8
002
100
AcDbLine
 10
-412.1789960830305
 20
-1428.516683948737
 30
0.0
 11
-408.4522160830306
 21
-1432.683350948737
 31
0.0
  0
LWPOLYLINE
  5
83A9
330
1E
100
AcDbEntity
  8
001
100
AcDbPolyline
 90
        3
 70
     0
 43
0.0
 10
-421.3967750830306
 20
-1451.177836948738
 10
-417.8434000830306
 20
-1444.861859948737
 10
-424.0787010830308
 20
-1448.554968948737
  0
ARC
  5
83AA
330
1E
100
AcDbEntity
  8
002
100
AcDbCircle
 10
-410.3156060830306
 20
-1374.350016948737
 30
0.0
 40
2.5
100
AcDbArc
 50
318.1896849999924
 51
41.81031500000758
  0
ARC
  5
83AB
330
1E
100
AcDbEntity
  8
002
100
AcDbCircle
 10
-409.2637260830306
 20
-1374.350016948737
 30
0.0
 40
2.5
100
AcDbArc
 50
318.1896849999924
 51
41.81031500000758
  0
LINE
  5
83AC
330
1E
100
AcDbEntity
  8
002
100
AcDbLine
 10
-376.3042660830306
 20
-1353.516683948738
 30
0.0
 11
-376.2853050830308
 21
-1353.409150948737
 31
0.0
  0
LINE
  5
83AD
330
1E
100
AcDbEntity
  8
002
100
AcDbLine
 10
-370.5112520830307
 20
-1238.516683948738
 30
0.0
 11
-413.7544090830306
 21
-1238.516683948738
 31
0.0
  0
LINE
  5
83AE
330
1E
100
AcDbEntity
  8
002
100
AcDbLine
 10
-416.7544090830306
 20
-1298.516683948737
 30
0.0
 11
-365.0112520830307
 21
-1298.516683948737
 31
0.0
  0
LINE
  5
83AF
330
1E
100
AcDbEntity
  8
002
100
AcDbLine
 10
-413.7544090830306
 20
-1238.516683948738
 30
0.0
 11
-414.2544090830305
 21
-1239.016683948737
 31
0.0
  0
LWPOLYLINE
  5
83B0
330
1E
100
AcDbEntity
  8
001
100
AcDbPolyline
 90
        3
 70
     0
 43
0.0
 10
-420.7233880830308
 20
-1243.600135948737
 10
-414.2544090830305
 20
-1246.866687948737
 10
-418.2234330830306
 20
-1240.803281948737
  0
LINE
  5
83B1
330
1E
100
AcDbEntity
  8
002
100
AcDbLine
 10
-404.7637260830306
 20
-1298.516683948737
 30
0.0
 11
-406.2637260830306
 21
-1299.382708948737
 31
0.0
  0
LINE
  5
83B2
330
1E
100
AcDbEntity
  8
002
100
AcDbLine
 10
-406.2544090830305
 20
-1298.516683948737
 30
0.0
 11
-404.7544090830306
 21
-1299.382708948737
 31
0.0
  0
LINE
  5
83B3
330
1E
100
AcDbEntity
  8
002
100
AcDbLine
 10
-414.2544090830305
 20
-1298.016683948738
 30
0.0
 11
-413.7544090830306
 21
-1298.516683948737
 31
0.0
  0
LINE
  5
83B4
330
1E
100
AcDbEntity
  8
002
100
AcDbLine
 10
-406.2637260830306
 20
-1318.516683948738
 30
0.0
 11
-404.7637260830306
 21
-1317.650657948737
 31
0.0
  0
LINE
  5
83B5
330
1E
100
AcDbEntity
  8
002
100
AcDbLine
 10
-404.7637260830306
 20
-1298.516683948737
 30
0.0
 11
-404.7637260830306
 21
-1318.516683948738
 31
0.0
  0
LINE
  5
83B6
330
1E
100
AcDbEntity
  8
002
100
AcDbLine
 10
-406.2637260830306
 20
-1298.516683948737
 30
0.0
 11
-406.2637260830306
 21
-1318.516683948738
 31
0.0
  0
LINE
  5
83B7
330
1E
100
AcDbEntity
  8
002
100
AcDbLine
 10
-425.7544090830306
 20
-1285.918607948737
 30
0.0
 11
-424.2544090830306
 21
-1285.918607948737
 31
0.0
  0
LINE
  5
83B8
330
1E
100
AcDbEntity
  8
002
100
AcDbLine
 10
-424.2544090830306
 20
-1275.516683948737
 30
0.0
 11
-424.2544090830306
 21
-1285.918607948737
 31
0.0
  0
LINE
  5
83B9
330
1E
100
AcDbEntity
  8
002
100
AcDbLine
 10
-424.7544090830306
 20
-1299.516683948737
 30
0.0
 11
-427.2544090830306
 21
-1301.248734948737
 31
0.0
  0
LINE
  5
83BA
330
1E
100
AcDbEntity
  8
002
100
AcDbLine
 10
-424.7544090830306
 20
-1297.516683948737
 30
0.0
 11
-424.7544090830306
 21
-1299.516683948737
 31
0.0
  0
LINE
  5
83BB
330
1E
100
AcDbEntity
  8
002
100
AcDbLine
 10
-424.7544090830306
 20
-1297.516683948737
 30
0.0
 11
-423.7544090830306
 21
-1296.516683948738
 31
0.0
  0
LINE
  5
83BC
330
1E
100
AcDbEntity
  8
002
100
AcDbLine
 10
-423.7544090830306
 20
-1296.516683948738
 30
0.0
 11
-418.0574180830308
 21
-1296.516683948738
 31
0.0
  0
LINE
  5
83BD
330
1E
100
AcDbEntity
  8
002
100
AcDbLine
 10
-425.7572440830304
 20
-1285.923517948737
 30
0.0
 11
-427.2544090830306
 21
-1288.516683948738
 31
0.0
  0
ARC
  5
83BE
330
1E
100
AcDbEntity
  8
002
100
AcDbCircle
 10
-432.2040350830307
 20
-1273.787887948737
 30
0.0
 40
3.0
100
AcDbArc
 50
300.9637570000102
 51
358.286535000005
  0
ARC
  5
83BF
330
1E
100
AcDbEntity
  8
002
100
AcDbCircle
 10
-431.2544090830306
 20
-1280.215254948737
 30
0.0
 40
3.0
100
AcDbArc
 50
120.9637570000102
 51
180.0
  0
LINE
  5
83C0
330
1E
100
AcDbEntity
  8
002
100
AcDbLine
 10
-430.6605480830308
 20
-1276.360366948738
 30
0.0
 11
-432.7978970830304
 21
-1277.642775948737
 31
0.0
  0
LINE
  5
83C1
330
1E
100
AcDbEntity
  8
002
100
AcDbLine
 10
-434.2544090830306
 20
-1316.516683948737
 30
0.0
 11
-434.2544090830306
 21
-1280.215254948737
 31
0.0
  0
LINE
  5
83C2
330
1E
100
AcDbEntity
  8
002
100
AcDbLine
 10
-425.7456930830308
 20
-1317.645625948737
 30
0.0
 11
-427.2544090830306
 21
-1318.516683948738
 31
0.0
  0
LINE
  5
83C3
330
1E
100
AcDbEntity
  8
002
100
AcDbLine
 10
-425.7637260830306
 20
-1318.516683948738
 30
0.0
 11
-427.2637260830306
 21
-1317.650657948737
 31
0.0
  0
LINE
  5
83C4
330
1E
100
AcDbEntity
  8
002
100
AcDbLine
 10
-425.7637260830306
 20
-1317.650657948737
 30
0.0
 11
-427.2637260830306
 21
-1318.516683948738
 31
0.0
  0
LINE
  5
83C5
330
1E
100
AcDbEntity
  8
002
100
AcDbLine
 10
-434.2544090830306
 20
-1316.516683948737
 30
0.0
 11
-432.2544090830306
 21
-1318.516683948738
 31
0.0
  0
LINE
  5
83C6
330
1E
100
AcDbEntity
  8
002
100
AcDbLine
 10
-427.2544090830306
 20
-1288.516683948738
 30
0.0
 11
-427.2544090830306
 21
-1318.516683948738
 31
0.0
  0
LINE
  5
83C7
330
1E
100
AcDbEntity
  8
002
100
AcDbLine
 10
-425.7544090830306
 20
-1285.918607948737
 30
0.0
 11
-425.7544090830306
 21
-1318.516683948738
 31
0.0
  0
LINE
  5
83C8
330
1E
100
AcDbEntity
  8
002
100
AcDbLine
 10
-416.7544090830306
 20
-1298.516683948737
 30
0.0
 11
-418.0574180830308
 21
-1296.516683948738
 31
0.0
  0
LINE
  5
83C9
330
1E
100
AcDbEntity
  8
002
100
AcDbLine
 10
-414.2544090830305
 20
-1298.016683948738
 30
0.0
 11
-414.2544090830305
 21
-1239.016683948737
 31
0.0
  0
LINE
  5
83CA
330
1E
100
AcDbEntity
  8
002
100
AcDbLine
 10
-364.3612520830306
 20
-1235.516683948738
 30
0.0
 11
-363.8612520830306
 21
-1235.805358948737
 31
0.0
  0
LINE
  5
83CB
330
1E
100
AcDbEntity
  8
002
100
AcDbLine
 10
-364.4754820830303
 20
-1275.090368948737
 30
0.0
 11
-363.8612520830306
 21
-1274.026490948737
 31
0.0
  0
ARC
  5
83CC
330
1E
100
AcDbEntity
  8
002
100
AcDbCircle
 10
-365.2138800830307
 20
-1274.664054948738
 30
0.0
 40
0.8526290000000001
100
AcDbArc
 50
187.0000000000056
 51
329.9999999999962
  0
LINE
  5
83CD
330
1E
100
AcDbEntity
  8
002
100
AcDbLine
 10
-365.0112520830307
 20
-1293.516683948737
 30
0.0
 11
-365.6251740830307
 21
-1298.516683948737
 31
0.0
  0
LINE
  5
83CE
330
1E
100
AcDbEntity
  8
002
100
AcDbLine
 10
-365.0112520830307
 20
-1283.310588948737
 30
0.0
 11
-365.0112520830307
 21
-1293.516683948737
 31
0.0
  0
LINE
  5
83CF
330
1E
100
AcDbEntity
  8
002
100
AcDbLine
 10
-364.3612520830306
 20
-1274.892515948737
 30
0.0
 11
-364.3612520830306
 21
-1235.516683948738
 31
0.0
  0
LINE
  5
83D0
330
1E
100
AcDbEntity
  8
002
100
AcDbLine
 10
-383.1259880830307
 20
-1238.516683948738
 30
0.0
 11
-383.1259880830307
 21
-1235.516683948738
 31
0.0
  0
LINE
  5
83D1
330
1E
100
AcDbEntity
  8
002
100
AcDbLine
 10
-382.1259880830307
 20
-1238.516683948738
 30
0.0
 11
-382.1259880830307
 21
-1235.516683948738
 31
0.0
  0
ARC
  5
83D2
330
1E
100
AcDbEntity
  8
002
100
AcDbCircle
 10
-370.3144580830307
 20
-1236.016683948737
 30
0.0
 40
0.5
100
AcDbArc
 50
90.0
 51
187.0000000000056
  0
LINE
  5
83D3
330
1E
100
AcDbEntity
  8
002
100
AcDbLine
 10
-370.4503170830307
 20
-1239.012956948737
 30
0.0
 11
-371.0112520830307
 21
-1238.516683948738
 31
0.0
  0
LINE
  5
83D4
330
1E
100
AcDbEntity
  8
002
100
AcDbLine
 10
-395.9254680830308
 20
-1236.077618948737
 30
0.0
 11
-395.6259880830307
 21
-1238.516683948738
 31
0.0
  0
ARC
  5
83D5
330
1E
100
AcDbEntity
  8
002
100
AcDbCircle
 10
-395.4291950830306
 20
-1236.016683948737
 30
0.0
 40
0.5
100
AcDbArc
 50
90.0
 51
187.0000000000056
  0
LINE
  5
83D6
330
1E
100
AcDbEntity
  8
002
100
AcDbLine
 10
-395.4291950830306
 20
-1235.516683948738
 30
0.0
 11
-383.1259880830307
 21
-1235.516683948738
 31
0.0
  0
LINE
  5
83D7
330
1E
100
AcDbEntity
  8
002
100
AcDbLine
 10
-388.9853050830306
 20
-1310.259019948737
 30
0.0
 11
-386.9148140830306
 21
-1298.516683948737
 31
0.0
  0
LINE
  5
83D8
330
1E
100
AcDbEntity
  8
002
100
AcDbLine
 10
-382.1259880830307
 20
-1235.516683948738
 30
0.0
 11
-364.3612520830306
 21
-1235.516683948738
 31
0.0
  0
LINE
  5
83D9
330
1E
100
AcDbEntity
  8
002
100
AcDbLine
 10
-370.8107310830305
 20
-1236.077618948737
 30
0.0
 11
-365.0112520830307
 21
-1283.310588948737
 31
0.0
  0
LINE
  5
83DA
330
1E
100
AcDbEntity
  8
002
100
AcDbLine
 10
-329.7544090830306
 20
-1318.516683948738
 30
0.0
 11
-329.7544090830306
 21
-1340.516683948737
 31
0.0
  0
LINE
  5
83DB
330
1E
100
AcDbEntity
  8
002
100
AcDbLine
 10
-355.9957340830306
 20
-1353.516683948738
 30
0.0
 11
-351.1612520830303
 21
-1326.098972948737
 31
0.0
  0
LINE
  5
83DC
330
1E
100
AcDbEntity
  8
002
100
AcDbLine
 10
-349.2637260830306
 20
-1298.516683948737
 30
0.0
 11
-349.2637260830306
 21
-1348.516683948737
 31
0.0
  0
ARC
  5
83DD
330
1E
100
AcDbEntity
  8
002
100
AcDbCircle
 10
-337.7701510830306
 20
-1359.350016948737
 30
0.0
 40
2.5
100
AcDbArc
 50
318.1896849999924
 51
41.81031500000758
  0
ARC
  5
83DE
330
1E
100
AcDbEntity
  8
002
100
AcDbCircle
 10
-339.2637260830306
 20
-1359.350016948737
 30
0.0
 40
2.5
100
AcDbArc
 50
318.1896849999924
 51
41.81031500000758
  0
ARC
  5
83DF
330
1E
100
AcDbEntity
  8
002
100
AcDbCircle
 10
-337.7701510830306
 20
-1366.850016948737
 30
0.0
 40
2.5
100
AcDbArc
 50
138.1896849999924
 51
221.8103150000075
  0
LINE
  5
83E0
330
1E
100
AcDbEntity
  8
002
100
AcDbLine
 10
-335.9067610830306
 20
-1361.016683948737
 30
0.0
 11
-339.6335410830306
 21
-1365.183350948737
 31
0.0
  0
LINE
  5
83E1
330
1E
100
AcDbEntity
  8
002
100
AcDbLine
 10
-339.6335410830306
 20
-1368.516683948738
 30
0.0
 11
-335.9067610830306
 21
-1372.683350948737
 31
0.0
  0
ARC
  5
83E2
330
1E
100
AcDbEntity
  8
002
100
AcDbCircle
 10
-339.2637260830306
 20
-1366.850016948737
 30
0.0
 40
2.5
100
AcDbArc
 50
138.1896849999924
 51
221.8103150000075
  0
LINE
  5
83E3
330
1E
100
AcDbEntity
  8
002
100
AcDbLine
 10
-341.1271160830306
 20
-1368.516683948738
 30
0.0
 11
-337.4003360830306
 21
-1372.683350948737
 31
0.0
  0
LINE
  5
83E4
330
1E
100
AcDbEntity
  8
002
100
AcDbLine
 10
-337.4003360830306
 20
-1361.016683948737
 30
0.0
 11
-341.1271160830306
 21
-1365.183350948737
 31
0.0
  0
LINE
  5
83E5
330
1E
100
AcDbEntity
  8
002
100
AcDbLine
 10
-339.6335410830306
 20
-1353.516683948738
 30
0.0
 11
-335.9067610830306
 21
-1357.683350948738
 31
0.0
  0
LINE
  5
83E6
330
1E
100
AcDbEntity
  8
002
100
AcDbLine
 10
-341.1271160830306
 20
-1353.516683948738
 30
0.0
 11
-337.4003360830306
 21
-1357.683350948738
 31
0.0
  0
LINE
  5
83E7
330
1E
100
AcDbEntity
  8
002
100
AcDbLine
 10
-344.2637260830306
 20
-1348.516683948737
 30
0.0
 11
-344.2637260830306
 21
-1353.516683948738
 31
0.0
  0
LINE
  5
83E8
330
1E
100
AcDbEntity
  8
002
100
AcDbLine
 10
-344.2637260830306
 20
-1348.516683948737
 30
0.0
 11
-349.2637260830306
 21
-1348.516683948737
 31
0.0
  0
LINE
  5
83E9
330
1E
100
AcDbEntity
  8
002
100
AcDbLine
 10
-339.6335410830306
 20
-1383.516683948737
 30
0.0
 11
-335.9067610830306
 21
-1387.683350948737
 31
0.0
  0
LINE
  5
83EA
330
1E
100
AcDbEntity
  8
002
100
AcDbLine
 10
-341.1271160830306
 20
-1383.516683948737
 30
0.0
 11
-337.4003360830306
 21
-1387.683350948737
 31
0.0
  0
ARC
  5
83EB
330
1E
100
AcDbEntity
  8
002
100
AcDbCircle
 10
-337.7701510830306
 20
-1389.350016948737
 30
0.0
 40
2.5
100
AcDbArc
 50
318.1896849999924
 51
41.81031500000758
  0
ARC
  5
83EC
330
1E
100
AcDbEntity
  8
002
100
AcDbCircle
 10
-337.7701510830306
 20
-1396.850016948737
 30
0.0
 40
2.5
100
AcDbArc
 50
138.1896849999924
 51
221.8103150000075
  0
LINE
  5
83ED
330
1E
100
AcDbEntity
  8
002
100
AcDbLine
 10
-335.9067610830306
 20
-1391.016683948738
 30
0.0
 11
-339.6335410830306
 21
-1395.183350948737
 31
0.0
  0
ARC
  5
83EE
330
1E
100
AcDbEntity
  8
002
100
AcDbCircle
 10
-339.2637260830306
 20
-1389.350016948737
 30
0.0
 40
2.5
100
AcDbArc
 50
318.1896849999924
 51
41.81031500000758
  0
ARC
  5
83EF
330
1E
100
AcDbEntity
  8
002
100
AcDbCircle
 10
-339.2637260830306
 20
-1396.850016948737
 30
0.0
 40
2.5
100
AcDbArc
 50
138.1896849999924
 51
221.8103150000075
  0
LINE
  5
83F0
330
1E
100
AcDbEntity
  8
002
100
AcDbLine
 10
-337.4003360830306
 20
-1391.016683948738
 30
0.0
 11
-341.1271160830306
 21
-1395.183350948737
 31
0.0
  0
ARC
  5
83F1
330
1E
100
AcDbEntity
  8
002
100
AcDbCircle
 10
-337.7701510830306
 20
-1381.850016948737
 30
0.0
 40
2.5
100
AcDbArc
 50
138.1896849999924
 51
221.8103150000075
  0
LINE
  5
83F2
330
1E
100
AcDbEntity
  8
002
100
AcDbLine
 10
-335.9067610830306
 20
-1376.016683948737
 30
0.0
 11
-339.6335410830306
 21
-1380.183350948738
 31
0.0
  0
ARC
  5
83F3
330
1E
100
AcDbEntity
  8
002
100
AcDbCircle
 10
-339.2637260830306
 20
-1381.850016948737
 30
0.0
 40
2.5
100
AcDbArc
 50
138.1896849999924
 51
221.8103150000075
  0
LINE
  5
83F4
330
1E
100
AcDbEntity
  8
002
100
AcDbLine
 10
-337.4003360830306
 20
-1376.016683948737
 30
0.0
 11
-341.1271160830306
 21
-1380.183350948738
 31
0.0
  0
ARC
  5
83F5
330
1E
100
AcDbEntity
  8
002
100
AcDbCircle
 10
-337.7701510830306
 20
-1404.350016948737
 30
0.0
 40
2.5
100
AcDbArc
 50
318.1896849999924
 51
41.81031500000758
  0
ARC
  5
83F6
330
1E
100
AcDbEntity
  8
002
100
AcDbCircle
 10
-339.2637260830306
 20
-1404.350016948737
 30
0.0
 40
2.5
100
AcDbArc
 50
318.1896849999924
 51
41.81031500000758
  0
LINE
  5
83F7
330
1E
100
AcDbEntity
  8
002
100
AcDbLine
 10
-339.6335410830306
 20
-1413.516683948738
 30
0.0
 11
-335.9067610830306
 21
-1417.683350948737
 31
0.0
  0
LINE
  5
83F8
330
1E
100
AcDbEntity
  8
002
100
AcDbLine
 10
-341.1271160830306
 20
-1413.516683948738
 30
0.0
 11
-337.4003360830306
 21
-1417.683350948737
 31
0.0
  0
ARC
  5
83F9
330
1E
100
AcDbEntity
  8
002
100
AcDbCircle
 10
-337.7701510830306
 20
-1419.350016948737
 30
0.0
 40
2.5
100
AcDbArc
 50
318.1896849999924
 51
41.81031500000758
  0
ARC
  5
83FA
330
1E
100
AcDbEntity
  8
002
100
AcDbCircle
 10
-337.7701510830306
 20
-1426.850016948737
 30
0.0
 40
2.5
100
AcDbArc
 50
138.1896849999924
 51
221.8103150000075
  0
LINE
  5
83FB
330
1E
100
AcDbEntity
  8
002
100
AcDbLine
 10
-335.9067610830306
 20
-1421.016683948737
 30
0.0
 11
-339.6335410830306
 21
-1425.183350948737
 31
0.0
  0
ARC
  5
83FC
330
1E
100
AcDbEntity
  8
002
100
AcDbCircle
 10
-339.2637260830306
 20
-1419.350016948737
 30
0.0
 40
2.5
100
AcDbArc
 50
318.1896849999924
 51
41.81031500000758
  0
ARC
  5
83FD
330
1E
100
AcDbEntity
  8
002
100
AcDbCircle
 10
-339.2637260830306
 20
-1426.850016948737
 30
0.0
 40
2.5
100
AcDbArc
 50
138.1896849999924
 51
221.8103150000075
  0
LINE
  5
83FE
330
1E
100
AcDbEntity
  8
002
100
AcDbLine
 10
-337.4003360830306
 20
-1421.016683948737
 30
0.0
 11
-341.1271160830306
 21
-1425.183350948737
 31
0.0
  0
ARC
  5
83FF
330
1E
100
AcDbEntity
  8
002
100
AcDbCircle
 10
-337.7701510830306
 20
-1411.850016948737
 30
0.0
 40
2.5
100
AcDbArc
 50
138.1896849999924
 51
221.8103150000075
  0
ARC
  5
8400
330
1E
100
AcDbEntity
  8
002
100
AcDbCircle
 10
-339.2637260830306
 20
-1411.850016948737
 30
0.0
 40
2.5
100
AcDbArc
 50
138.1896849999924
 51
221.8103150000075
  0
LINE
  5
8401
330
1E
100
AcDbEntity
  8
002
100
AcDbLine
 10
-335.9067610830306
 20
-1406.016683948737
 30
0.0
 11
-339.6335410830306
 21
-1410.183350948737
 31
0.0
  0
LINE
  5
8402
330
1E
100
AcDbEntity
  8
002
100
AcDbLine
 10
-337.4003360830306
 20
-1406.016683948737
 30
0.0
 11
-341.1271160830306
 21
-1410.183350948737
 31
0.0
  0
LINE
  5
8403
330
1E
100
AcDbEntity
  8
002
100
AcDbLine
 10
-339.6335410830306
 20
-1398.516683948737
 30
0.0
 11
-335.9067610830306
 21
-1402.683350948738
 31
0.0
  0
LINE
  5
8404
330
1E
100
AcDbEntity
  8
002
100
AcDbLine
 10
-341.1271160830306
 20
-1398.516683948737
 30
0.0
 11
-337.4003360830306
 21
-1402.683350948738
 31
0.0
  0
LINE
  5
8405
330
1E
100
AcDbEntity
  8
002
100
AcDbLine
 10
-339.6335410830306
 20
-1443.516683948738
 30
0.0
 11
-335.9067610830306
 21
-1447.683350948737
 31
0.0
  0
LINE
  5
8406
330
1E
100
AcDbEntity
  8
002
100
AcDbLine
 10
-341.1271160830306
 20
-1443.516683948738
 30
0.0
 11
-337.4003360830306
 21
-1447.683350948737
 31
0.0
  0
ARC
  5
8407
330
1E
100
AcDbEntity
  8
002
100
AcDbCircle
 10
-337.7701510830306
 20
-1449.350016948737
 30
0.0
 40
2.5
100
AcDbArc
 50
318.1896849999924
 51
41.81031500000758
  0
ARC
  5
8408
330
1E
100
AcDbEntity
  8
002
100
AcDbCircle
 10
-339.2637260830306
 20
-1449.350016948737
 30
0.0
 40
2.5
100
AcDbArc
 50
318.1896849999924
 51
41.81031500000758
  0
ARC
  5
8409
330
1E
100
AcDbEntity
  8
002
100
AcDbCircle
 10
-337.7701510830306
 20
-1434.350016948737
 30
0.0
 40
2.5
100
AcDbArc
 50
318.1896849999924
 51
41.81031500000758
  0
ARC
  5
840A
330
1E
100
AcDbEntity
  8
002
100
AcDbCircle
 10
-337.7701510830306
 20
-1441.850016948737
 30
0.0
 40
2.5
100
AcDbArc
 50
138.1896849999924
 51
221.8103150000075
  0
LINE
  5
840B
330
1E
100
AcDbEntity
  8
002
100
AcDbLine
 10
-335.9067610830306
 20
-1436.016683948738
 30
0.0
 11
-339.6335410830306
 21
-1440.183350948737
 31
0.0
  0
ARC
  5
840C
330
1E
100
AcDbEntity
  8
002
100
AcDbCircle
 10
-339.2637260830306
 20
-1434.350016948737
 30
0.0
 40
2.5
100
AcDbArc
 50
318.1896849999924
 51
41.81031500000758
  0
ARC
  5
840D
330
1E
100
AcDbEntity
  8
002
100
AcDbCircle
 10
-339.2637260830306
 20
-1441.850016948737
 30
0.0
 40
2.5
100
AcDbArc
 50
138.1896849999924
 51
221.8103150000075
  0
LINE
  5
840E
330
1E
100
AcDbEntity
  8
002
100
AcDbLine
 10
-337.4003360830306
 20
-1436.016683948738
 30
0.0
 11
-341.1271160830306
 21
-1440.183350948737
 31
0.0
  0
LINE
  5
840F
330
1E
100
AcDbEntity
  8
002
100
AcDbLine
 10
-339.6335410830306
 20
-1428.516683948737
 30
0.0
 11
-335.9067610830306
 21
-1432.683350948737
 31
0.0
  0
LINE
  5
8410
330
1E
100
AcDbEntity
  8
002
100
AcDbLine
 10
-341.1271160830306
 20
-1428.516683948737
 30
0.0
 11
-337.4003360830306
 21
-1432.683350948737
 31
0.0
  0
ARC
  5
8411
330
1E
100
AcDbEntity
  8
002
100
AcDbCircle
 10
-337.7701510830306
 20
-1374.350016948737
 30
0.0
 40
2.5
100
AcDbArc
 50
318.1896849999924
 51
41.81031500000758
  0
ARC
  5
8412
330
1E
100
AcDbEntity
  8
002
100
AcDbCircle
 10
-339.2637260830306
 20
-1374.350016948737
 30
0.0
 40
2.5
100
AcDbArc
 50
318.1896849999924
 51
41.81031500000758
  0
LWPOLYLINE
  5
8413
330
1E
100
AcDbEntity
  8
003
100
AcDbPolyline
 90
        2
 70
     0
 43
0.0
 10
-309.2544090830306
 20
-1340.516683948737
 10
-309.2544090830306
 20
-1362.516683948737
  0
LINE
  5
8414
330
1E
100
AcDbEntity
  8
002
100
AcDbLine
 10
-320.2545820830305
 20
-1242.082332948737
 30
0.0
 11
-325.2607410830305
 21
-1241.951241948737
 31
0.0
  0
LINE
  5
8415
330
1E
100
AcDbEntity
  8
002
100
AcDbLine
 10
-320.2695630830307
 20
-1241.581548948737
 30
0.0
 11
-325.2757210830304
 21
-1241.450457948737
 31
0.0
  0
LINE
  5
8416
330
1E
100
AcDbEntity
  8
002
100
AcDbLine
 10
-320.4677450830304
 20
-1234.956616948737
 30
0.0
 11
-325.4660660830304
 21
-1235.087502948737
 31
0.0
  0
LINE
  5
8417
330
1E
100
AcDbEntity
  8
002
100
AcDbLine
 10
-320.4527870830306
 20
-1235.456616948737
 30
0.0
 11
-325.4511090830305
 21
-1235.587502948737
 31
0.0
  0
LINE
  5
8418
330
1E
100
AcDbEntity
  8
002
  6
CENTER
100
AcDbLine
 10
-329.2281830830306
 20
-1238.516683948738
 30
0.0
 11
-315.6257240830305
 21
-1238.516683948738
 31
0.0
  0
LINE
  5
8419
330
1E
100
AcDbEntity
  8
002
100
AcDbLine
 10
-322.7544090830306
 20
-1285.918607948737
 30
0.0
 11
-324.2544090830306
 21
-1285.918607948737
 31
0.0
  0
LINE
  5
841A
330
1E
100
AcDbEntity
  8
002
100
AcDbLine
 10
-323.7544090830306
 20
-1299.516683948737
 30
0.0
 11
-321.2544090830306
 21
-1301.248734948737
 31
0.0
  0
LWPOLYLINE
  5
841B
330
1E
100
AcDbEntity
  8
001
100
AcDbPolyline
 90
        3
 70
     0
 43
0.0
 10
-323.6811530830304
 20
-1281.083482948737
 10
-327.0176130830305
 20
-1287.516683948737
 10
-320.9115530830304
 20
-1283.613598948737
  0
ARC
  5
841C
330
1E
100
AcDbEntity
  8
002
100
AcDbCircle
 10
-344.7080450830308
 20
-1236.016683948737
 30
0.0
 40
0.5
100
AcDbArc
 50
352.9999999999943
 51
90.0
  0
LINE
  5
841D
330
1E
100
AcDbEntity
  8
002
100
AcDbLine
 10
-344.0112520830307
 20
-1238.516683948738
 30
0.0
 11
-334.7544090830306
 21
-1238.516683948738
 31
0.0
  0
LINE
  5
841E
330
1E
100
AcDbEntity
  8
002
100
AcDbLine
 10
-344.5721860830308
 20
-1239.012956948737
 30
0.0
 11
-344.0112520830307
 21
-1238.516683948738
 31
0.0
  0
LINE
  5
841F
330
1E
100
AcDbEntity
  8
002
100
AcDbLine
 10
-334.7544090830306
 20
-1238.516683948738
 30
0.0
 11
-334.2544090830306
 21
-1239.016683948737
 31
0.0
  0
LINE
  5
8420
330
1E
100
AcDbEntity
  8
002
100
AcDbLine
 10
-350.6612520830303
 20
-1235.516683948738
 30
0.0
 11
-351.1612520830303
 21
-1235.805358948737
 31
0.0
  0
LINE
  5
8421
330
1E
100
AcDbEntity
  8
002
100
AcDbLine
 10
-344.7080450830308
 20
-1235.516683948738
 30
0.0
 11
-350.6612520830303
 21
-1235.516683948738
 31
0.0
  0
LINE
  5
8422
330
1E
100
AcDbEntity
  8
002
100
AcDbLine
 10
-324.2544090830306
 20
-1275.516683948737
 30
0.0
 11
-324.2544090830306
 21
-1285.918607948737
 31
0.0
  0
LINE
  5
8423
330
1E
100
AcDbEntity
  8
002
100
AcDbLine
 10
-323.7544090830306
 20
-1297.516683948737
 30
0.0
 11
-323.7544090830306
 21
-1299.516683948737
 31
0.0
  0
LINE
  5
8424
330
1E
100
AcDbEntity
  8
002
100
AcDbLine
 10
-331.7544090830306
 20
-1298.516683948737
 30
0.0
 11
-330.4514000830304
 21
-1296.516683948738
 31
0.0
  0
LINE
  5
8425
330
1E
100
AcDbEntity
  8
002
100
AcDbLine
 10
-334.2544090830306
 20
-1298.016683948738
 30
0.0
 11
-334.7544090830306
 21
-1298.516683948737
 31
0.0
  0
LINE
  5
8426
330
1E
100
AcDbEntity
  8
002
100
AcDbLine
 10
-343.7637260830306
 20
-1298.516683948737
 30
0.0
 11
-342.2637260830306
 21
-1299.382708948737
 31
0.0
  0
LINE
  5
8427
330
1E
100
AcDbEntity
  8
002
100
AcDbLine
 10
-342.2637260830306
 20
-1298.516683948737
 30
0.0
 11
-343.7637260830306
 21
-1299.382708948737
 31
0.0
  0
LINE
  5
8428
330
1E
100
AcDbEntity
  8
002
100
AcDbLine
 10
-330.4514000830304
 20
-1296.516683948738
 30
0.0
 11
-324.7544090830306
 21
-1296.516683948738
 31
0.0
  0
ARC
  5
8429
330
1E
100
AcDbEntity
  8
002
100
AcDbCircle
 10
-349.8086230830304
 20
-1274.664054948738
 30
0.0
 40
0.8526290000000001
100
AcDbArc
 50
210.0000000000038
 51
352.9999999999943
  0
LINE
  5
842A
330
1E
100
AcDbEntity
  8
002
100
AcDbLine
 10
-350.5470210830308
 20
-1275.090368948737
 30
0.0
 11
-351.1612520830303
 21
-1274.026490948737
 31
0.0
  0
LINE
  5
842B
330
1E
100
AcDbEntity
  8
002
100
AcDbLine
 10
-350.0112520830307
 20
-1293.516683948737
 30
0.0
 11
-349.3973290830308
 21
-1298.516683948737
 31
0.0
  0
LINE
  5
842C
330
1E
100
AcDbEntity
  8
002
100
AcDbLine
 10
-350.0112520830307
 20
-1283.310588948737
 30
0.0
 11
-350.0112520830307
 21
-1293.516683948737
 31
0.0
  0
LINE
  5
842D
330
1E
100
AcDbEntity
  8
002
100
AcDbLine
 10
-350.0112520830307
 20
-1298.516683948737
 30
0.0
 11
-331.7544090830306
 21
-1298.516683948737
 31
0.0
  0
LINE
  5
842E
330
1E
100
AcDbEntity
  8
002
100
AcDbLine
 10
-342.2637260830306
 20
-1318.516683948738
 30
0.0
 11
-343.7637260830306
 21
-1317.650657948737
 31
0.0
  0
LINE
  5
842F
330
1E
100
AcDbEntity
  8
002
100
AcDbLine
 10
-343.7637260830306
 20
-1298.516683948737
 30
0.0
 11
-343.7637260830306
 21
-1318.516683948738
 31
0.0
  0
LINE
  5
8430
330
1E
100
AcDbEntity
  8
002
100
AcDbLine
 10
-342.2637260830306
 20
-1298.516683948737
 30
0.0
 11
-342.2637260830306
 21
-1318.516683948738
 31
0.0
  0
LINE
  5
8431
330
1E
100
AcDbEntity
  8
002
100
AcDbLine
 10
-334.2544090830306
 20
-1298.016683948738
 30
0.0
 11
-334.2544090830306
 21
-1239.016683948737
 31
0.0
  0
LINE
  5
8432
330
1E
100
AcDbEntity
  8
002
100
AcDbLine
 10
-350.6612520830303
 20
-1274.892515948737
 30
0.0
 11
-350.6612520830303
 21
-1235.516683948738
 31
0.0
  0
LINE
  5
8433
330
1E
100
AcDbEntity
  8
002
100
AcDbLine
 10
-344.2117720830306
 20
-1236.077618948737
 30
0.0
 11
-350.0112520830307
 21
-1283.310588948737
 31
0.0
  0
ARC
  5
8434
330
1E
100
AcDbEntity
  8
002
100
AcDbCircle
 10
-317.2544090830306
 20
-1280.215254948737
 30
0.0
 40
3.0
100
AcDbArc
 50
0.0
 51
59.03624299998975
  0
ARC
  5
8435
330
1E
100
AcDbEntity
  8
002
100
AcDbCircle
 10
-316.3047830830305
 20
-1273.787887948737
 30
0.0
 40
3.0
100
AcDbArc
 50
181.7134649999949
 51
239.0362429999897
  0
LINE
  5
8436
330
1E
100
AcDbEntity
  8
002
100
AcDbLine
 10
-315.7109220830307
 20
-1277.642775948737
 30
0.0
 11
-316.6819310830305
 21
-1277.060170948737
 31
0.0
  0
LINE
  5
8437
330
1E
100
AcDbEntity
  8
002
100
AcDbLine
 10
-314.2544090830306
 20
-1280.215254948737
 30
0.0
 11
-314.2544090830306
 21
-1281.347635948737
 31
0.0
  0
LINE
  5
8438
330
1E
100
AcDbEntity
  8
002
100
AcDbLine
 10
-317.8482710830308
 20
-1276.360366948738
 30
0.0
 11
-316.6819310830305
 21
-1277.060170948737
 31
0.0
  0
LINE
  5
8439
330
1E
100
AcDbEntity
  8
002
100
AcDbLine
 10
-313.9728385490475
 20
-1286.80925594192
 30
0.0
 11
-314.9728385490475
 21
-1285.80925594192
 31
0.0
  0
LINE
  5
843A
330
1E
100
AcDbEntity
  8
002
100
AcDbLine
 10
-314.2544090830306
 20
-1316.516683948737
 30
0.0
 11
-314.2544090830306
 21
-1281.347635948737
 31
0.0
  0
LINE
  5
843B
330
1E
100
AcDbEntity
  8
002
100
AcDbLine
 10
-314.2544090830306
 20
-1316.516683948737
 30
0.0
 11
-316.2544090830306
 21
-1318.516683948738
 31
0.0
  0
LINE
  5
843C
330
1E
100
AcDbEntity
  8
002
100
AcDbLine
 10
-322.7515740830304
 20
-1285.923517948737
 30
0.0
 11
-321.2544090830306
 21
-1288.516683948738
 31
0.0
  0
LINE
  5
843D
330
1E
100
AcDbEntity
  8
002
100
AcDbLine
 10
-322.7631250830309
 20
-1317.645625948737
 30
0.0
 11
-321.2544090830306
 21
-1318.516683948738
 31
0.0
  0
LINE
  5
843E
330
1E
100
AcDbEntity
  8
002
100
AcDbLine
 10
-322.7544090830306
 20
-1318.516683948738
 30
0.0
 11
-321.2544090830306
 21
-1317.650657948737
 31
0.0
  0
LINE
  5
843F
330
1E
100
AcDbEntity
  8
002
100
AcDbLine
 10
-321.2544090830306
 20
-1288.516683948738
 30
0.0
 11
-321.2544090830306
 21
-1318.516683948738
 31
0.0
  0
LINE
  5
8440
330
1E
100
AcDbEntity
  8
002
100
AcDbLine
 10
-322.7544090830306
 20
-1285.918607948737
 30
0.0
 11
-322.7544090830306
 21
-1318.516683948738
 31
0.0
  0
LINE
  5
8441
330
1E
100
AcDbEntity
  8
002
100
AcDbLine
 10
-363.8612520830306
 20
-1188.516683948737
 30
0.0
 11
-351.1612520830303
 21
-1188.516683948737
 31
0.0
  0
LINE
  5
8442
330
1E
100
AcDbEntity
  8
002
100
AcDbLine
 10
-332.4597370830306
 20
-1163.516683948737
 30
0.0
 11
-416.0490810830306
 21
-1163.516683948737
 31
0.0
  0
LINE
  5
8443
330
1E
100
AcDbEntity
  8
002
100
AcDbLine
 10
-420.9017450830306
 20
-1158.516683948737
 30
0.0
 11
-327.6070730830306
 21
-1158.516683948737
 31
0.0
  0
ARC
  5
8444
330
1E
100
AcDbEntity
  8
002
100
AcDbCircle
 10
-420.9017450830306
 20
-1163.516683948737
 30
0.0
 40
5.0
100
AcDbArc
 50
90.0
 51
178.286535000005
  0
LWPOLYLINE
  5
8445
330
1E
100
AcDbEntity
  8
001
100
AcDbPolyline
 90
        3
 70
     0
 43
0.0
 10
-432.385002957365
 20
-1188.347248369775
 10
-426.7843539573641
 20
-1192.946245369774
 10
-429.3351589573648
 20
-1186.163072369774
  0
ARC
  5
8446
330
1E
100
AcDbEntity
  8
002
100
AcDbCircle
 10
-416.0490810830306
 20
-1168.516683948737
 30
0.0
 40
5.0
100
AcDbArc
 50
90.0
 51
178.286535000005
  0
LINE
  5
8447
330
1E
100
AcDbEntity
  8
002
100
AcDbLine
 10
-377.8659660830308
 20
-1158.516683948737
 30
0.0
 11
-377.7350370830304
 21
-1163.516683948737
 31
0.0
  0
LINE
  5
8448
330
1E
100
AcDbEntity
  8
002
100
AcDbLine
 10
-378.3659660830307
 20
-1158.516683948737
 30
0.0
 11
-378.2350370830304
 21
-1163.516683948737
 31
0.0
  0
LINE
  5
8449
330
1E
100
AcDbEntity
  8
002
100
AcDbLine
 10
-370.1428520830304
 20
-1158.516683948737
 30
0.0
 11
-370.2737820830307
 21
-1163.516683948737
 31
0.0
  0
LINE
  5
844A
330
1E
100
AcDbEntity
  8
002
100
AcDbLine
 10
-370.6428520830304
 20
-1158.516683948737
 30
0.0
 11
-370.7737820830307
 21
-1163.516683948737
 31
0.0
  0
LINE
  5
844B
330
1E
100
AcDbEntity
  8
002
100
AcDbLine
 10
-388.9759880830306
 20
-1188.516683948737
 30
0.0
 11
-376.2759880830308
 21
-1188.516683948737
 31
0.0
  0
LINE
  5
844C
330
1E
100
AcDbEntity
  8
002
100
AcDbLine
 10
-388.9759880830306
 20
-1198.030771948737
 30
0.0
 11
-387.2983980830304
 21
-1188.516683948737
 31
0.0
  0
ARC
  5
844D
330
1E
100
AcDbEntity
  8
002
100
AcDbCircle
 10
-327.6070730830306
 20
-1163.516683948737
 30
0.0
 40
5.0
100
AcDbArc
 50
1.713464999994949
 51
90.0
  0
ARC
  5
844E
330
1E
100
AcDbEntity
  8
002
100
AcDbCircle
 10
-332.4597370830306
 20
-1168.516683948737
 30
0.0
 40
5.0
100
AcDbArc
 50
1.713464999994949
 51
90.0
  0
LWPOLYLINE
  5
844F
330
1E
100
AcDbEntity
  8
001
100
AcDbPolyline
 90
        3
 70
     0
 43
0.0
 10
-347.7606210830308
 20
-1189.554633948737
 10
-351.1612520830303
 20
-1195.954145948737
 10
-345.0164630830304
 20
-1192.112320948737
  0
DIMENSION
  5
8450
330
1E
100
AcDbEntity
  8
001
100
AcDbDimension
  2
*D10
 10
-144.0539187842905
 20
-1340.516683948737
 30
0.0
 11
-157.1789187842903
 21
-1285.516683948737
 31
0.0
 70
    32
 71
     5
 42
110.0
  3
ISO-25
100
AcDbAlignedDimension
 13
-228.1062529306909
 23
-1230.516683948738
 33
0.0
 14
-228.1062529306909
 24
-1340.516683948737
 34
0.0
 50
90.0
100
AcDbRotatedDimension
  0
LINE
  5
8451
330
1E
100
AcDbEntity
  8
002
100
AcDbLine
 10
-271.7544090830306
 20
-1318.516683948738
 30
0.0
 11
-271.7544090830306
 21
-1340.516683948737
 31
0.0
  0
TEXT
  5
8452
330
1E
100
AcDbEntity
  8
001
100
AcDbText
 10
-271.7216760830306
 20
-1117.549651948737
 30
0.0
 40
11.19999999999999
  1
ＰＣ鋼より線
 41
0.716146
100
AcDbText
  0
LINE
  5
8453
330
1E
100
AcDbEntity
  8
001
100
AcDbLine
 10
-281.3466760830306
 20
-1121.049669948737
 30
0.0
 11
-204.3466760830306
 21
-1121.049669948737
 31
0.0
  0
LINE
  5
8454
330
1E
100
AcDbEntity
  8
003
 62
     3
100
AcDbLine
 10
-0.7277328748532455
 20
-1413.904778727209
 30
0.0
 11
-0.7277328748532455
 21
-1551.505476867756
 31
0.0
  0
LINE
  5
8455
330
1E
100
AcDbEntity
  8
003
 48
0.25
100
AcDbLine
 10
-0.7277328748532455
 20
-1230.810232600038
 30
0.0
 11
-74.25440908303063
 21
-1215.516683948737
 31
0.0
  0
LINE
  5
8456
330
1E
100
AcDbEntity
  8
003
 62
     3
100
AcDbLine
 10
-0.7277328748532455
 20
-1367.302741727209
 30
0.0
 11
-0.7277328748532455
 21
-1192.935493207193
 31
0.0
  0
LINE
  5
8457
330
1E
100
AcDbEntity
  8
003
 62
     3
100
AcDbLine
 10
-0.7277328748532455
 20
-1367.302741727209
 30
0.0
 11
18.99615012514686
 21
-1367.302741727209
 31
0.0
  0
LINE
  5
8458
330
1E
100
AcDbEntity
  8
003
 62
     3
100
AcDbLine
 10
18.99615012514686
 20
-1367.302741727209
 30
0.0
 11
-19.12813087485346
 21
-1413.904778727209
 31
0.0
  0
LINE
  5
8459
330
1E
100
AcDbEntity
  8
003
 62
     3
100
AcDbLine
 10
-19.12813087485346
 20
-1413.904778727209
 30
0.0
 11
-0.7277328748532455
 21
-1413.904778727209
 31
0.0
  0
DIMENSION
  5
852D
330
1E
100
AcDbEntity
  8
001
100
AcDbDimension
  2
*D11
 10
-1269.929902368837
 20
-1145.776937427731
 30
0.0
 11
-1243.503695150889
 21
-1113.463753283991
 31
0.0
 70
    34
 71
     5
 42
0.1745329251994336
  3
ISO-25
100
AcDb2LineAngularDimension
 13
-1304.422516215087
 23
-1611.134017766066
 33
0.0
 14
-1222.367507287721
 24
-1145.776937427731
 34
0.0
 15
-1269.929902368837
 25
-1611.134017766066
 35
0.0
 16
-1236.253469719658
 26
-1127.396389001224
 36
0.0
  0
ENDSEC
  0
SECTION
  2
OBJECTS
  0
DICTIONARY
  5
C
330
0
100
AcDbDictionary
281
     1
  3
ACAD_GROUP
350
D
  3
ACAD_LAYOUT
350
19
  3
ACAD_MLINESTYLE
350
16
  3
ACAD_PLOTSETTINGS
350
18
  3
ACAD_PLOTSTYLENAME
350
E
  3
AcDbVariableDictionary
350
4BD
  3
DWGPROPS
350
8523
  0
DICTIONARY
  5
D
102
{ACAD_REACTORS
330
C
102
}
330
C
100
AcDbDictionary
281
     1
  0
DICTIONARY
  5
19
102
{ACAD_REACTORS
330
C
102
}
330
C
100
AcDbDictionary
281
     1
  3
Model
350
21
  3
ﾚｲｱｳﾄ1
350
1D
  0
DICTIONARY
  5
16
102
{ACAD_REACTORS
330
C
102
}
330
C
100
AcDbDictionary
281
     1
  3
Standard
350
17
  0
DICTIONARY
  5
18
102
{ACAD_REACTORS
330
C
102
}
330
C
100
AcDbDictionary
281
     1
  0
ACDBDICTIONARYWDFLT
  5
E
102
{ACAD_REACTORS
330
C
102
}
330
C
100
AcDbDictionary
281
     1
  3
Normal
350
F
100
AcDbDictionaryWithDefault
340
F
  0
DICTIONARY
  5
4BD
102
{ACAD_REACTORS
330
C
102
}
330
C
100
AcDbDictionary
281
     1
  3
DIMASSOC
350
4BE
  0
XRECORD
  5
8523
102
{ACAD_REACTORS
330
C
102
}
330
C
100
AcDbXrecord
280
     1
  1
DWGPROPS COOKIE
  2

  3

  4

  6

  7

  8

  9

300
=
301
=
302
=
303
=
304
=
305
=
306
=
307
=
308
=
309
=
 40
0.6429379861111111
 41
2453874.389934525
 42
2454273.743021701
  1

 90
        0
  0
LAYOUT
  5
21
102
{ACAD_REACTORS
330
19
102
}
330
19
100
AcDbPlotSettings
  1

  2
EPSON LP-9000C
  4
A3
  6

 40
5.873749732971191
 41
5.873747825622558
 42
5.873748779296875
 43
5.873748779296875
 44
297.0106506347656
 45
419.9466552734374
 46
0.0
 47
0.0
 48
-4462.334829797876
 49
-2370.021076427837
140
-2389.634829797876
141
-904.3260764278375
142
1.0
143
5.138045306919282
 70
 11952
 72
     1
 73
     1
 74
     4
  7
ZenithProtter.ctb
 75
     0
147
0.1946265438051556
148
4462.334829797876
149
2370.021076427837
100
AcDbLayout
  1
Model
 70
     1
 71
     0
 10
0.0
 20
0.0
 11
12.0
 21
9.0
 12
0.0
 22
0.0
 32
0.0
 14
0.0
 24
0.0
 34
0.0
 15
0.0
 25
0.0
 35
0.0
146
0.0
 13
0.0
 23
0.0
 33
0.0
 16
1.0
 26
0.0
 36
0.0
 17
0.0
 27
1.0
 37
0.0
 76
     0
330
1E
  0
LAYOUT
  5
1D
102
{ACAD_REACTORS
330
19
102
}
330
19
100
AcDbPlotSettings
  1

  2
EPSON LP-9000C
  4

  6

 40
0.0
 41
0.0
 42
0.0
 43
0.0
 44
0.0
 45
0.0
 46
0.0
 47
0.0
 48
0.0
 49
0.0
140
0.0
141
0.0
142
1.0
143
1.0
 70
   688
 72
     0
 73
     0
 74
     5
  7
ZenithProtter.ctb
 75
    16
147
1.0
148
0.0
149
0.0
100
AcDbLayout
  1
ﾚｲｱｳﾄ1
 70
     1
 71
     1
 10
0.0
 20
0.0
 11
12.0
 21
9.0
 12
0.0
 22
0.0
 32
0.0
 14
1.000000000000000E+20
 24
1.000000000000000E+20
 34
1.000000000000000E+20
 15
-1.000000000000000E+20
 25
-1.000000000000000E+20
 35
-1.000000000000000E+20
146
0.0
 13
0.0
 23
0.0
 33
0.0
 16
1.0
 26
0.0
 36
0.0
 17
0.0
 27
1.0
 37
0.0
 76
     0
330
1A
  0
MLINESTYLE
  5
17
102
{ACAD_REACTORS
330
16
102
}
330
16
100
AcDbMlineStyle
  2
STANDARD
 70
     0
  3

 62
   256
 51
90.0
 52
90.0
 71
     2
 49
0.5
 62
   256
  6
BYLAYER
 49
-0.5
 62
   256
  6
BYLAYER
  0
ACDBPLACEHOLDER
  5
F
102
{ACAD_REACTORS
330
E
102
}
330
E
  0
DICTIONARYVAR
  5
4BE
102
{ACAD_REACTORS
330
4BD
102
}
330
4BD
100
DictionaryVariables
280
     0
  1
1
  0
ENDSEC
  0
EOF
