  0
SECTION
  2
HEADER
  9
$ACADVER
  1
AC1015
  9
$ACADMAINTVER
 70
    13
  9
$DWGCODEPAGE
  3
ANSI_932
  9
$INSBASE
 10
0.0
 20
0.0
 30
0.0
  9
$EXTMIN
 10
2038.628015367055
 20
-2733.04909152069
 30
0.0
  9
$EXTMAX
 10
4111.328015367055
 20
-1267.354091520689
 30
0.0
  9
$LIMMIN
 10
2035.865837441517
 20
-2739.50438836894
  9
$LIMMAX
 10
4127.237823643707
 20
-1262.886373043202
  9
$ORTHOMODE
 70
     1
  9
$REGENMODE
 70
     1
  9
$FILLMODE
 70
     1
  9
$QTEXTMODE
 70
     0
  9
$MIRRTEXT
 70
     1
  9
$LTSCALE
 40
24.5
  9
$ATTMODE
 70
     1
  9
$TEXTSIZE
 40
0.2
  9
$TRACEWID
 40
0.05
  9
$TEXTSTYLE
  7
STANDARD
  9
$CLAYER
  8
001
  9
$CELTYPE
  6
ByLayer
  9
$CECOLOR
 62
   256
  9
$CELTSCALE
 40
1.0
  9
$DISPSILH
 70
     0
  9
$DIMSCALE
 40
15.0
  9
$DIMASZ
 40
0.75
  9
$DIMEXO
 40
0.625
  9
$DIMDLI
 40
3.75
  9
$DIMRND
 40
0.0
  9
$DIMDLE
 40
0.0
  9
$DIMEXE
 40
0.0
  9
$DIMTP
 40
0.0
  9
$DIMTM
 40
0.0
  9
$DIMTXT
 40
0.75
  9
$DIMCEN
 40
2.5
  9
$DIMTSZ
 40
0.0
  9
$DIMTOL
 70
     0
  9
$DIMLIM
 70
     0
  9
$DIMTIH
 70
     0
  9
$DIMTOH
 70
     0
  9
$DIMSE1
 70
     0
  9
$DIMSE2
 70
     0
  9
$DIMTAD
 70
     1
  9
$DIMZIN
 70
     8
  9
$DIMBLK
  1
Open
  9
$DIMASO
 70
     1
  9
$DIMSHO
 70
     1
  9
$DIMPOST
  1

  9
$DIMAPOST
  1

  9
$DIMALT
 70
     0
  9
$DIMALTD
 70
     2
  9
$DIMALTF
 40
0.0394
  9
$DIMLFAC
 40
1.0
  9
$DIMTOFL
 70
     1
  9
$DIMTVP
 40
1.0
  9
$DIMTIX
 70
     0
  9
$DIMSOXD
 70
     0
  9
$DIMSAH
 70
     0
  9
$DIMBLK1
  1

  9
$DIMBLK2
  1

  9
$DIMSTYLE
  2
ISO-25
  9
$DIMCLRD
 70
     0
  9
$DIMCLRE
 70
     0
  9
$DIMCLRT
 70
     0
  9
$DIMTFAC
 40
1.0
  9
$DIMGAP
 40
0.5
  9
$DIMJUST
 70
     0
  9
$DIMSD1
 70
     0
  9
$DIMSD2
 70
     0
  9
$DIMTOLJ
 70
     1
  9
$DIMTZIN
 70
     0
  9
$DIMALTZ
 70
     0
  9
$DIMALTTZ
 70
     0
  9
$DIMUPT
 70
     0
  9
$DIMDEC
 70
     0
  9
$DIMTDEC
 70
     0
  9
$DIMALTU
 70
     2
  9
$DIMALTTD
 70
     2
  9
$DIMTXSTY
  7
STANDARD
  9
$DIMAUNIT
 70
     0
  9
$DIMADEC
 70
     0
  9
$DIMALTRND
 40
0.0
  9
$DIMAZIN
 70
     0
  9
$DIMDSEP
 70
    46
  9
$DIMATFIT
 70
     3
  9
$DIMFRAC
 70
     0
  9
$DIMLDRBLK
  1

  9
$DIMLUNIT
 70
     2
  9
$DIMLWD
 70
    -2
  9
$DIMLWE
 70
    -2
  9
$DIMTMOVE
 70
     0
  9
$LUNITS
 70
     2
  9
$LUPREC
 70
     4
  9
$SKETCHINC
 40
0.1
  9
$FILLETRAD
 40
0.0
  9
$AUNITS
 70
     0
  9
$AUPREC
 70
     0
  9
$MENU
  1
.
  9
$ELEVATION
 40
0.0
  9
$PELEVATION
 40
0.0
  9
$THICKNESS
 40
0.0
  9
$LIMCHECK
 70
     0
  9
$CHAMFERA
 40
0.0
  9
$CHAMFERB
 40
0.0
  9
$CHAMFERC
 40
0.0
  9
$CHAMFERD
 40
0.0
  9
$SKPOLY
 70
     0
  9
$TDCREATE
 40
2453874.389934525
  9
$TDUCREATE
 40
2453874.014934525
  9
$TDUPDATE
 40
2454278.538675486
  9
$TDUUPDATE
 40
2454278.163675486
  9
$TDINDWG
 40
0.8465917940
  9
$TDUSRTIMER
 40
0.8465917940
  9
$USRTIMER
 70
     1
  9
$ANGBASE
 50
0.0
  9
$ANGDIR
 70
     0
  9
$PDMODE
 70
     0
  9
$PDSIZE
 40
0.0
  9
$PLINEWID
 40
0.0
  9
$SPLFRAME
 70
     0
  9
$SPLINETYPE
 70
     6
  9
$SPLINESEGS
 70
     8
  9
$HANDSEED
  5
B90B
  9
$SURFTAB1
 70
     6
  9
$SURFTAB2
 70
     6
  9
$SURFTYPE
 70
     6
  9
$SURFU
 70
     6
  9
$SURFV
 70
     6
  9
$UCSBASE
  2

  9
$UCSNAME
  2

  9
$UCSORG
 10
0.0
 20
0.0
 30
0.0
  9
$UCSXDIR
 10
1.0
 20
0.0
 30
0.0
  9
$UCSYDIR
 10
0.0
 20
1.0
 30
0.0
  9
$UCSORTHOREF
  2

  9
$UCSORTHOVIEW
 70
     0
  9
$UCSORGTOP
 10
0.0
 20
0.0
 30
0.0
  9
$UCSORGBOTTOM
 10
0.0
 20
0.0
 30
0.0
  9
$UCSORGLEFT
 10
0.0
 20
0.0
 30
0.0
  9
$UCSORGRIGHT
 10
0.0
 20
0.0
 30
0.0
  9
$UCSORGFRONT
 10
0.0
 20
0.0
 30
0.0
  9
$UCSORGBACK
 10
0.0
 20
0.0
 30
0.0
  9
$PUCSBASE
  2

  9
$PUCSNAME
  2

  9
$PUCSORG
 10
0.0
 20
0.0
 30
0.0
  9
$PUCSXDIR
 10
1.0
 20
0.0
 30
0.0
  9
$PUCSYDIR
 10
0.0
 20
1.0
 30
0.0
  9
$PUCSORTHOREF
  2

  9
$PUCSORTHOVIEW
 70
     0
  9
$PUCSORGTOP
 10
0.0
 20
0.0
 30
0.0
  9
$PUCSORGBOTTOM
 10
0.0
 20
0.0
 30
0.0
  9
$PUCSORGLEFT
 10
0.0
 20
0.0
 30
0.0
  9
$PUCSORGRIGHT
 10
0.0
 20
0.0
 30
0.0
  9
$PUCSORGFRONT
 10
0.0
 20
0.0
 30
0.0
  9
$PUCSORGBACK
 10
0.0
 20
0.0
 30
0.0
  9
$USERI1
 70
     0
  9
$USERI2
 70
     0
  9
$USERI3
 70
     0
  9
$USERI4
 70
     0
  9
$USERI5
 70
     0
  9
$USERR1
 40
0.0
  9
$USERR2
 40
0.0
  9
$USERR3
 40
0.0
  9
$USERR4
 40
0.0
  9
$USERR5
 40
0.0
  9
$WORLDVIEW
 70
     1
  9
$SHADEDGE
 70
     3
  9
$SHADEDIF
 70
    70
  9
$TILEMODE
 70
     1
  9
$MAXACTVP
 70
    48
  9
$PINSBASE
 10
0.0
 20
0.0
 30
0.0
  9
$PLIMCHECK
 70
     0
  9
$PEXTMIN
 10
1.000000000000000E+20
 20
1.000000000000000E+20
 30
1.000000000000000E+20
  9
$PEXTMAX
 10
-1.000000000000000E+20
 20
-1.000000000000000E+20
 30
-1.000000000000000E+20
  9
$PLIMMIN
 10
0.0
 20
0.0
  9
$PLIMMAX
 10
12.0
 20
9.0
  9
$UNITMODE
 70
     0
  9
$VISRETAIN
 70
     1
  9
$PLINEGEN
 70
     0
  9
$PSLTSCALE
 70
     1
  9
$TREEDEPTH
 70
  3020
  9
$CMLSTYLE
  2
Standard
  9
$CMLJUST
 70
     0
  9
$CMLSCALE
 40
1.0
  9
$PROXYGRAPHICS
 70
     1
  9
$MEASUREMENT
 70
     0
  9
$CELWEIGHT
370
    -1
  9
$ENDCAPS
280
     0
  9
$JOINSTYLE
280
     0
  9
$LWDISPLAY
290
     0
  9
$INSUNITS
 70
     0
  9
$HYPERLINKBASE
  1

  9
$STYLESHEET
  1
mono_0.01.ctb
  9
$XEDIT
290
     1
  9
$CEPSNTYPE
380
     0
  9
$PSTYLEMODE
290
     1
  9
$FINGERPRINTGUID
  2
{DB2F255E-76A1-4E9F-8FDF-6D653DC3006F}
  9
$VERSIONGUID
  2
{D5C9CFAE-C942-4F1B-A6C0-3EC8AFC18B68}
  9
$EXTNAMES
290
     1
  9
$PSVPSCALE
 40
0.0
  9
$OLESTARTUP
290
     0
  0
ENDSEC
  0
SECTION
  2
CLASSES
  0
CLASS
  1
ACDBDICTIONARYWDFLT
  2
AcDbDictionaryWithDefault
  3
AutoCAD 2000
 90
        0
280
     0
281
     0
  0
CLASS
  1
ACDBPLACEHOLDER
  2
AcDbPlaceHolder
  3
AutoCAD 2000
 90
        0
280
     0
281
     0
  0
CLASS
  1
LAYOUT
  2
AcDbLayout
  3
AutoCAD 2000
 90
        0
280
     0
281
     0
  0
CLASS
  1
DICTIONARYVAR
  2
AcDbDictionaryVar
  3
AutoCAD 2000
 90
        0
280
     0
281
     0
  0
CLASS
  1
LONG_TRANSACTION
  2
AcDbLongTransaction
  3
AutoCAD 2000
 90
    32768
280
     0
281
     0
  0
CLASS
  1
LWPOLYLINE
  2
AcDbPolyline
  3
AutoCAD 2000
 90
    32768
280
     0
281
     1
  0
CLASS
  1
HATCH
  2
AcDbHatch
  3
AutoCAD 2000
 90
    32768
280
     0
281
     1
  0
CLASS
  1
XRECORD
  2
AcDbXrecord
  3
AutoCAD 2000
 90
    32768
280
     0
281
     0
  0
CLASS
  1
LONG_TRANSACTION
  2
AcDbLongTransaction
  3
AutoCAD 2000
 90
    32768
280
     0
281
     0
  0
CLASS
  1
LWPOLYLINE
  2
AcDbPolyline
  3
AutoCAD 2000
 90
    32768
280
     0
281
     1
  0
CLASS
  1
HATCH
  2
AcDbHatch
  3
AutoCAD 2000
 90
    32768
280
     0
281
     1
  0
CLASS
  1
XRECORD
  2
AcDbXrecord
  3
AutoCAD 2000
 90
    32768
280
     0
281
     0
  0
CLASS
  1
LONG_TRANSACTION
  2
AcDbLongTransaction
  3
AutoCAD 2000
 90
    32768
280
     0
281
     0
  0
CLASS
  1
LWPOLYLINE
  2
AcDbPolyline
  3
AutoCAD 2000
 90
    32768
280
     0
281
     1
  0
CLASS
  1
HATCH
  2
AcDbHatch
  3
AutoCAD 2000
 90
    32768
280
     0
281
     1
  0
CLASS
  1
XRECORD
  2
AcDbXrecord
  3
AutoCAD 2000
 90
    32768
280
     0
281
     0
  0
CLASS
  1
LONG_TRANSACTION
  2
AcDbLongTransaction
  3
AutoCAD 2000
 90
    32768
280
     0
281
     0
  0
CLASS
  1
LWPOLYLINE
  2
AcDbPolyline
  3
AutoCAD 2000
 90
    32768
280
     0
281
     1
  0
CLASS
  1
HATCH
  2
AcDbHatch
  3
AutoCAD 2000
 90
    32768
280
     0
281
     1
  0
CLASS
  1
XRECORD
  2
AcDbXrecord
  3
AutoCAD 2000
 90
    32768
280
     0
281
     0
  0
ENDSEC
  0
SECTION
  2
TABLES
  0
TABLE
  2
VPORT
  5
8
330
0
100
AcDbSymbolTable
 70
     2
  0
VPORT
  5
B90A
330
8
100
AcDbSymbolTableRecord
100
AcDbViewportTableRecord
  2
*Active
 70
     0
 10
0.0
 20
0.0
 11
1.0
 21
1.0
 12
3081.551830542612
 22
-2001.195380706071
 13
0.0
 23
0.0
 14
1.0
 24
1.0
 15
0.0
 25
0.0
 16
0.0
 26
0.0
 36
1.0
 17
0.0
 27
0.0
 37
0.0
 40
1488.737999035662
 41
1.723287671232876
 42
50.0
 43
0.0
 44
0.0
 50
0.0
 51
0.0
 71
     0
 72
   100
 73
     1
 74
     1
 75
     0
 76
     0
 77
     0
 78
     0
281
     0
 65
     1
110
0.0
120
0.0
130
0.0
111
1.0
121
0.0
131
0.0
112
0.0
122
1.0
132
0.0
 79
     0
146
0.0
  0
ENDTAB
  0
TABLE
  2
LTYPE
  5
5
330
0
100
AcDbSymbolTable
 70
     4
  0
LTYPE
  5
13
330
5
100
AcDbSymbolTableRecord
100
AcDbLinetypeTableRecord
  2
ByBlock
 70
     0
  3

 72
    65
 73
     0
 40
0.0
  0
LTYPE
  5
14
330
5
100
AcDbSymbolTableRecord
100
AcDbLinetypeTableRecord
  2
ByLayer
 70
     0
  3

 72
    65
 73
     0
 40
0.0
  0
LTYPE
  5
15
330
5
100
AcDbSymbolTableRecord
100
AcDbLinetypeTableRecord
  2
CONTINUOUS
 70
     0
  3
Solid-Line
 72
    65
 73
     0
 40
0.0
  0
LTYPE
  5
24
330
5
100
AcDbSymbolTableRecord
100
AcDbLinetypeTableRecord
  2
CENTER
 70
     0
  3
CENTER
 72
    65
 73
     4
 40
2.0
 49
1.25
 74
     0
 49
-0.25
 74
     0
 49
0.25
 74
     0
 49
-0.25
 74
     0
  0
LTYPE
  5
A91C
330
5
100
AcDbSymbolTableRecord
100
AcDbLinetypeTableRecord
  2
CENTER2
 70
     0
  3
Center (.5x) ___ _ ___ _ ___ _ ___ _ ___ _ ___
 72
    65
 73
     4
 40
1.125
 49
0.75
 74
     0
 49
-0.125
 74
     0
 49
0.125
 74
     0
 49
-0.125
 74
     0
  0
LTYPE
  5
AAEE
330
5
100
AcDbSymbolTableRecord
100
AcDbLinetypeTableRecord
  2
DASHED
 70
     0
  3
DASHED
 72
    65
 73
     2
 40
0.75
 49
0.5
 74
     0
 49
-0.25
 74
     0
  0
ENDTAB
  0
TABLE
  2
LAYER
  5
2
330
0
100
AcDbSymbolTable
 70
     6
  0
LAYER
  5
10
330
2
100
AcDbSymbolTableRecord
100
AcDbLayerTableRecord
  2
0
 70
     0
 62
     7
  6
CONTINUOUS
370
    -3
390
F
  0
LAYER
  5
26
330
2
100
AcDbSymbolTableRecord
100
AcDbLayerTableRecord
  2
001
 70
     0
 62
     4
  6
CONTINUOUS
370
    -3
390
F
  0
LAYER
  5
586
330
2
100
AcDbSymbolTableRecord
100
AcDbLayerTableRecord
  2
DEFPOINTS
 70
     0
 62
     7
  6
CONTINUOUS
290
     0
370
    -3
390
F
  0
LAYER
  5
587
330
2
100
AcDbSymbolTableRecord
100
AcDbLayerTableRecord
  2
003
 70
     0
 62
     3
  6
CONTINUOUS
370
    -3
390
F
  0
LAYER
  5
2C96
330
2
100
AcDbSymbolTableRecord
100
AcDbLayerTableRecord
  2
002
 70
     0
 62
     1
  6
CONTINUOUS
370
    -3
390
F
  0
LAYER
  5
445B
330
2
100
AcDbSymbolTableRecord
100
AcDbLayerTableRecord
  2
004
 70
     0
 62
     6
  6
CENTER2
370
    -3
390
F
  0
ENDTAB
  0
TABLE
  2
STYLE
  5
3
330
0
100
AcDbSymbolTable
 70
     1
  0
STYLE
  5
11
330
3
100
AcDbSymbolTableRecord
100
AcDbTextStyleTableRecord
  2
STANDARD
 70
     0
 40
0.0
 41
1.0
 50
0.0
 71
     0
 42
0.2
  3
TXT
  4
BIGFONT
  0
ENDTAB
  0
TABLE
  2
VIEW
  5
6
330
0
100
AcDbSymbolTable
 70
     0
  0
ENDTAB
  0
TABLE
  2
UCS
  5
7
330
0
100
AcDbSymbolTable
 70
     0
  0
ENDTAB
  0
TABLE
  2
APPID
  5
9
330
0
100
AcDbSymbolTable
 70
     1
  0
APPID
  5
12
330
9
100
AcDbSymbolTableRecord
100
AcDbRegAppTableRecord
  2
ACAD
 70
     0
  0
ENDTAB
  0
TABLE
  2
DIMSTYLE
  5
A
330
0
100
AcDbSymbolTable
 70
     2
100
AcDbDimStyleTable
 71
     1
340
58A
  0
DIMSTYLE
105
4BA
330
A
100
AcDbSymbolTableRecord
100
AcDbDimStyleTableRecord
  2
Standard
 70
     0
340
11
  0
DIMSTYLE
105
58A
102
{ACAD_REACTORS
330
B198
330
B1B6
330
B1D2
330
B1EE
330
B51F
330
B538
330
B563
330
B7C9
330
B7D1
102
}
330
A
100
AcDbSymbolTableRecord
100
AcDbDimStyleTableRecord
  2
ISO-25
 70
     0
 40
15.0
 41
0.75
 42
0.625
 43
3.75
 44
0.0
 73
     0
 74
     0
 77
     1
 78
     8
140
0.75
141
2.5
143
0.0394
145
1.0
147
0.5
172
     1
271
     0
272
     0
340
11
341
1390
342
1390
  0
ENDTAB
  0
TABLE
  2
BLOCK_RECORD
  5
1
330
0
100
AcDbSymbolTable
 70
    11
  0
BLOCK_RECORD
  5
1E
102
{ACAD_XDICTIONARY
360
A83C
102
}
330
1
100
AcDbSymbolTableRecord
100
AcDbBlockTableRecord
  2
*Model_Space
340
21
  0
BLOCK_RECORD
  5
1A
102
{ACAD_XDICTIONARY
360
A83E
102
}
330
1
100
AcDbSymbolTableRecord
100
AcDbBlockTableRecord
  2
*Paper_Space
340
1D
  0
BLOCK_RECORD
  5
1390
330
1
100
AcDbSymbolTableRecord
100
AcDbBlockTableRecord
  2
_Open
340
0
102
{BLKREFS
331
B7D9
331
B8A4
331
B8A5
331
B8AD
331
B8AE
331
B8B8
331
B8B9
331
B8C1
331
B8C2
331
B8CA
331
B8CB
331
B8D3
331
B8D4
331
B8DE
331
B8DF
331
B8E9
331
B8EA
331
B8F2
331
B8F3
102
}
  0
BLOCK_RECORD
  5
994C
330
1
100
AcDbSymbolTableRecord
100
AcDbBlockTableRecord
  2
_Open30
340
0
102
{BLKREFS
331
B2CF
331
B577
102
}
  0
BLOCK_RECORD
  5
B82F
330
1
100
AcDbSymbolTableRecord
100
AcDbBlockTableRecord
  2
*D2
340
0
  0
BLOCK_RECORD
  5
B83B
330
1
100
AcDbSymbolTableRecord
100
AcDbBlockTableRecord
  2
*D3
340
0
  0
BLOCK_RECORD
  5
B849
330
1
100
AcDbSymbolTableRecord
100
AcDbBlockTableRecord
  2
*D4
340
0
  0
BLOCK_RECORD
  5
B855
330
1
100
AcDbSymbolTableRecord
100
AcDbBlockTableRecord
  2
*D5
340
0
  0
BLOCK_RECORD
  5
B861
330
1
100
AcDbSymbolTableRecord
100
AcDbBlockTableRecord
  2
*D6
340
0
  0
BLOCK_RECORD
  5
B86D
330
1
100
AcDbSymbolTableRecord
100
AcDbBlockTableRecord
  2
*D7
340
0
  0
BLOCK_RECORD
  5
B879
330
1
100
AcDbSymbolTableRecord
100
AcDbBlockTableRecord
  2
*D8
340
0
  0
BLOCK_RECORD
  5
B887
330
1
100
AcDbSymbolTableRecord
100
AcDbBlockTableRecord
  2
*D9
340
0
  0
BLOCK_RECORD
  5
B895
330
1
100
AcDbSymbolTableRecord
100
AcDbBlockTableRecord
  2
*D10
340
0
  0
ENDTAB
  0
ENDSEC
  0
SECTION
  2
BLOCKS
  0
BLOCK
  5
1F
330
1E
100
AcDbEntity
  8
0
100
AcDbBlockBegin
  2
*Model_Space
 70
     0
 10
0.0
 20
0.0
 30
0.0
  3
*Model_Space
  1

  0
ENDBLK
  5
20
330
1E
100
AcDbEntity
  8
0
100
AcDbBlockEnd
  0
BLOCK
  5
1B
330
1A
100
AcDbEntity
 67
     1
  8
0
100
AcDbBlockBegin
  2
*Paper_Space
 70
     0
 10
0.0
 20
0.0
 30
0.0
  3
*Paper_Space
  1

  0
ENDBLK
  5
1C
330
1A
100
AcDbEntity
 67
     1
  8
0
100
AcDbBlockEnd
  0
BLOCK
  5
1394
330
1390
100
AcDbEntity
  8
0
100
AcDbBlockBegin
  2
_Open
 70
     0
 10
0.0
 20
0.0
 30
0.0
  3
_Open
  1

  0
LINE
  5
1391
330
1390
100
AcDbEntity
  8
0
  6
ByBlock
 62
     0
370
    -2
100
AcDbLine
 10
-1.0
 20
0.1666666666666666
 30
0.0
 11
0.0
 21
0.0
 31
0.0
  0
LINE
  5
1392
330
1390
100
AcDbEntity
  8
0
  6
ByBlock
 62
     0
370
    -2
100
AcDbLine
 10
-1.0
 20
-0.1666666666666666
 30
0.0
 11
0.0
 21
0.0
 31
0.0
  0
LINE
  5
1393
330
1390
100
AcDbEntity
  8
0
  6
ByBlock
 62
     0
370
    -2
100
AcDbLine
 10
0.0
 20
0.0
 30
0.0
 11
-1.0
 21
0.0
 31
0.0
  0
ENDBLK
  5
1395
330
1390
100
AcDbEntity
  8
0
100
AcDbBlockEnd
  0
BLOCK
  5
9950
330
994C
100
AcDbEntity
  8
0
100
AcDbBlockBegin
  2
_Open30
 70
     0
 10
0.0
 20
0.0
 30
0.0
  3
_Open30
  1

  0
LINE
  5
994D
330
994C
100
AcDbEntity
  8
0
  6
ByBlock
 62
     0
370
    -2
100
AcDbLine
 10
-1.0
 20
0.26794919
 30
0.0
 11
0.0
 21
0.0
 31
0.0
  0
LINE
  5
994E
330
994C
100
AcDbEntity
  8
0
  6
ByBlock
 62
     0
370
    -2
100
AcDbLine
 10
0.0
 20
0.0
 30
0.0
 11
-1.0
 21
-0.26794919
 31
0.0
  0
LINE
  5
994F
330
994C
100
AcDbEntity
  8
0
  6
ByBlock
 62
     0
370
    -2
100
AcDbLine
 10
0.0
 20
0.0
 30
0.0
 11
-1.0
 21
0.0
 31
0.0
  0
ENDBLK
  5
9951
330
994C
100
AcDbEntity
  8
0
100
AcDbBlockEnd
  0
BLOCK
  5
B839
330
B82F
100
AcDbEntity
  8
0
100
AcDbBlockBegin
  2
*D2
 70
     1
 10
0.0
 20
0.0
 30
0.0
  3
*D2
  1

  0
LINE
  5
B8A1
330
B82F
100
AcDbEntity
  8
001
  6
Continuous
 62
     0
370
    -2
100
AcDbLine
 10
3468.625105264098
 20
-1637.891914405942
 30
0.0
 11
3340.755914929665
 21
-1637.891914405942
 31
0.0
  0
LINE
  5
B8A2
330
B82F
100
AcDbEntity
  8
001
  6
Continuous
 62
     0
370
    -2
100
AcDbLine
 10
3468.942225264098
 20
-1762.891914405942
 30
0.0
 11
3340.755914929665
 21
-1762.891914405942
 31
0.0
  0
LINE
  5
B8A3
330
B82F
100
AcDbEntity
  8
001
  6
Continuous
 62
     0
370
    -2
100
AcDbLine
 10
3340.755914929665
 20
-1649.141914405941
 30
0.0
 11
3340.755914929665
 21
-1751.641914405942
 31
0.0
  0
INSERT
  5
B8A4
330
B82F
100
AcDbEntity
  8
001
  6
Continuous
 62
     0
370
    -2
100
AcDbBlockReference
  2
_Open
 10
3340.755914929665
 20
-1637.891914405942
 30
0.0
 41
11.25
 42
11.25
 43
11.25
 50
90.0
  0
INSERT
  5
B8A5
330
B82F
100
AcDbEntity
  8
001
  6
Continuous
 62
     0
370
    -2
100
AcDbBlockReference
  2
_Open
 10
3340.755914929665
 20
-1762.891914405942
 30
0.0
 41
11.25
 42
11.25
 43
11.25
 50
270.0
  0
MTEXT
  5
B8A6
330
B82F
100
AcDbEntity
  8
001
  6
Continuous
 62
     0
100
AcDbMText
 10
3327.630914929665
 20
-1705.086337656597
 30
0.0
 40
11.25
 41
0.0
 71
     5
 72
     1
  1
\A1;125
 11
0.0000000000000001
 21
1.0
 31
0.0
 73
     1
 44
1.0
  0
POINT
  5
B8A7
330
B82F
100
AcDbEntity
  8
DEFPOINTS
  6
Continuous
 62
     0
100
AcDbPoint
 10
3478.000105264098
 20
-1637.891914405942
 30
0.0
  0
POINT
  5
B8A8
330
B82F
100
AcDbEntity
  8
DEFPOINTS
  6
Continuous
 62
     0
100
AcDbPoint
 10
3478.317225264098
 20
-1762.891914405942
 30
0.0
  0
POINT
  5
B8A9
330
B82F
100
AcDbEntity
  8
DEFPOINTS
  6
Continuous
 62
     0
100
AcDbPoint
 10
3340.755914929665
 20
-1762.891914405942
 30
0.0
  0
ENDBLK
  5
B83A
330
B82F
100
AcDbEntity
  8
0
100
AcDbBlockEnd
  0
BLOCK
  5
B847
330
B83B
100
AcDbEntity
  8
0
100
AcDbBlockBegin
  2
*D3
 70
     1
 10
0.0
 20
0.0
 30
0.0
  3
*D3
  1

  0
LINE
  5
B8AA
330
B83B
100
AcDbEntity
  8
001
 62
     0
370
    -2
100
AcDbLine
 10
2636.635416914643
 20
-1584.790400394983
 30
0.0
 11
2654.099570898663
 21
-1485.746261410402
 31
0.0
  0
LINE
  5
B8AB
330
B83B
100
AcDbEntity
  8
001
 62
     0
370
    -2
100
AcDbLine
 10
2578.964298719842
 20
-1584.607603082173
 30
0.0
 11
2578.964298719842
 21
-1479.172776863821
 31
0.0
  0
ARC
  5
B8AC
330
B83B
100
AcDbEntity
  8
001
 62
     0
370
    -2
100
AcDbCircle
 10
2578.964298719841
 20
-1911.859564530186
 30
0.0
 40
432.6867876663656
100
AcDbArc
 50
81.48975123655388
 51
88.51024876344608
  0
INSERT
  5
B8AD
330
B83B
100
AcDbEntity
  8
001
 62
     0
370
    -2
100
AcDbBlockReference
  2
_Open
 10
2654.099570898663
 20
-1485.746261410402
 30
0.0
 41
11.25
 42
11.25
 43
11.25
 50
350.7448756182769
  0
INSERT
  5
B8AE
330
B83B
100
AcDbEntity
  8
001
 62
     0
370
    -2
100
AcDbBlockReference
  2
_Open
 10
2578.964298719842
 20
-1479.172776863821
 30
0.0
 41
11.25
 42
11.25
 43
11.25
 50
179.2551243817229
  0
MTEXT
  5
B8AF
330
B83B
100
AcDbEntity
  8
001
 62
     0
100
AcDbMText
 10
2617.819356199564
 20
-1467.744225310149
 30
0.0
 40
11.25
 41
0.0
 71
     5
 72
     1
  1
\A1;10°
 11
0.9961946980917455
 21
-0.0871557427476585
 31
0.0
 73
     1
 44
1.0
  0
POINT
  5
B8B0
330
B83B
100
AcDbEntity
  8
DEFPOINTS
 62
     0
100
AcDbPoint
 10
2629.196168803514
 20
-1482.098450131808
 30
0.0
  0
POINT
  5
B8B1
330
B83B
100
AcDbEntity
  8
DEFPOINTS
 62
     0
100
AcDbPoint
 10
2578.964298719842
 20
-1593.982603082173
 30
0.0
  0
POINT
  5
B8B2
330
B83B
100
AcDbEntity
  8
DEFPOINTS
 62
     0
100
AcDbPoint
 10
2635.007465249016
 20
-1594.022973079472
 30
0.0
  0
POINT
  5
B8B3
330
B83B
100
AcDbEntity
  8
DEFPOINTS
 62
     0
100
AcDbPoint
 10
2526.144875481722
 20
-2211.413399263224
 30
0.0
  0
POINT
  5
B8B4
330
B83B
100
AcDbEntity
  8
DEFPOINTS
 62
     0
100
AcDbPoint
 10
2578.964298719841
 20
-2193.141006879576
 30
0.0
  0
ENDBLK
  5
B848
330
B83B
100
AcDbEntity
  8
0
100
AcDbBlockEnd
  0
BLOCK
  5
B853
330
B849
100
AcDbEntity
  8
0
100
AcDbBlockBegin
  2
*D4
 70
     1
 10
0.0
 20
0.0
 30
0.0
  3
*D4
  1

  0
LINE
  5
B8B5
330
B849
100
AcDbEntity
  8
001
 62
     0
370
    -2
100
AcDbLine
 10
2532.473050781729
 20
-2392.516842571283
 30
0.0
 11
2599.292030372114
 21
-2392.516842571283
 31
0.0
  0
LINE
  5
B8B6
330
B849
100
AcDbEntity
  8
001
 62
     0
370
    -2
100
AcDbLine
 10
2532.473050781729
 20
-2577.516842571283
 30
0.0
 11
2599.292030372114
 21
-2577.516842571283
 31
0.0
  0
LINE
  5
B8B7
330
B849
100
AcDbEntity
  8
001
 62
     0
370
    -2
100
AcDbLine
 10
2599.292030372114
 20
-2403.766842571283
 30
0.0
 11
2599.292030372114
 21
-2566.266842571284
 31
0.0
  0
INSERT
  5
B8B8
330
B849
100
AcDbEntity
  8
001
 62
     0
370
    -2
100
AcDbBlockReference
  2
_Open
 10
2599.292030372114
 20
-2392.516842571283
 30
0.0
 41
11.25
 42
11.25
 43
11.25
 50
90.0
  0
INSERT
  5
B8B9
330
B849
100
AcDbEntity
  8
001
 62
     0
370
    -2
100
AcDbBlockReference
  2
_Open
 10
2599.292030372114
 20
-2577.516842571283
 30
0.0
 41
11.25
 42
11.25
 43
11.25
 50
270.0
  0
MTEXT
  5
B8BA
330
B849
100
AcDbEntity
  8
001
 62
     0
100
AcDbMText
 10
2586.167030372115
 20
-2485.016842571283
 30
0.0
 40
11.25
 41
0.0
 71
     5
 72
     1
  1
\A1;φ185
 11
0.0000000000000001
 21
1.0
 31
0.0
 73
     1
 44
1.0
  0
POINT
  5
B8BB
330
B849
100
AcDbEntity
  8
DEFPOINTS
 62
     0
100
AcDbPoint
 10
2523.098050781729
 20
-2392.516842571283
 30
0.0
  0
POINT
  5
B8BC
330
B849
100
AcDbEntity
  8
DEFPOINTS
 62
     0
100
AcDbPoint
 10
2523.098050781729
 20
-2577.516842571283
 30
0.0
  0
POINT
  5
B8BD
330
B849
100
AcDbEntity
  8
DEFPOINTS
 62
     0
100
AcDbPoint
 10
2599.292030372114
 20
-2577.516842571283
 30
0.0
  0
ENDBLK
  5
B854
330
B849
100
AcDbEntity
  8
0
100
AcDbBlockEnd
  0
BLOCK
  5
B85F
330
B855
100
AcDbEntity
  8
0
100
AcDbBlockBegin
  2
*D5
 70
     1
 10
0.0
 20
0.0
 30
0.0
  3
*D5
  1

  0
LINE
  5
B8BE
330
B855
100
AcDbEntity
  8
001
  6
Continuous
 62
     0
370
    -2
100
AcDbLine
 10
2525.098050781728
 20
-2385.141842571283
 30
0.0
 11
2525.098050781728
 21
-2359.125919471873
 31
0.0
  0
LINE
  5
B8BF
330
B855
100
AcDbEntity
  8
001
  6
Continuous
 62
     0
370
    -2
100
AcDbLine
 10
2225.098050781729
 20
-2475.641842571283
 30
0.0
 11
2225.098050781729
 21
-2359.125919471873
 31
0.0
  0
LINE
  5
B8C0
330
B855
100
AcDbEntity
  8
001
  6
Continuous
 62
     0
370
    -2
100
AcDbLine
 10
2513.848050781729
 20
-2359.125919471873
 30
0.0
 11
2236.348050781729
 21
-2359.125919471873
 31
0.0
  0
INSERT
  5
B8C1
330
B855
100
AcDbEntity
  8
001
  6
Continuous
 62
     0
370
    -2
100
AcDbBlockReference
  2
_Open
 10
2525.098050781728
 20
-2359.125919471873
 30
0.0
 41
11.25
 42
11.25
 43
11.25
  0
INSERT
  5
B8C2
330
B855
100
AcDbEntity
  8
001
  6
Continuous
 62
     0
370
    -2
100
AcDbBlockReference
  2
_Open
 10
2225.098050781729
 20
-2359.125919471873
 30
0.0
 41
11.25
 42
11.25
 43
11.25
 50
180.0
  0
MTEXT
  5
B8C3
330
B855
100
AcDbEntity
  8
001
  6
Continuous
 62
     0
100
AcDbMText
 10
2375.098050781728
 20
-2346.000919471873
 30
0.0
 40
11.25
 41
0.0
 71
     5
 72
     1
  1
\A1;300
 73
     1
 44
1.0
  0
POINT
  5
B8C4
330
B855
100
AcDbEntity
  8
DEFPOINTS
  6
Continuous
 62
     0
100
AcDbPoint
 10
2525.098050781728
 20
-2394.516842571283
 30
0.0
  0
POINT
  5
B8C5
330
B855
100
AcDbEntity
  8
DEFPOINTS
  6
Continuous
 62
     0
100
AcDbPoint
 10
2225.098050781729
 20
-2485.016842571283
 30
0.0
  0
POINT
  5
B8C6
330
B855
100
AcDbEntity
  8
DEFPOINTS
  6
Continuous
 62
     0
100
AcDbPoint
 10
2225.098050781729
 20
-2359.125919471873
 30
0.0
  0
ENDBLK
  5
B860
330
B855
100
AcDbEntity
  8
0
100
AcDbBlockEnd
  0
BLOCK
  5
B86B
330
B861
100
AcDbEntity
  8
0
100
AcDbBlockBegin
  2
*D6
 70
     1
 10
0.0
 20
0.0
 30
0.0
  3
*D6
  1

  0
LINE
  5
B8C7
330
B861
100
AcDbEntity
  8
001
  6
Continuous
 62
     0
370
    -2
100
AcDbLine
 10
3203.689864319064
 20
-2402.516842571284
 30
0.0
 11
3170.648930055364
 21
-2402.516842571284
 31
0.0
  0
LINE
  5
B8C8
330
B861
100
AcDbEntity
  8
001
  6
Continuous
 62
     0
370
    -2
100
AcDbLine
 10
3203.689864319064
 20
-2567.516842571283
 30
0.0
 11
3170.648930055364
 21
-2567.516842571283
 31
0.0
  0
LINE
  5
B8C9
330
B861
100
AcDbEntity
  8
001
  6
Continuous
 62
     0
370
    -2
100
AcDbLine
 10
3170.648930055364
 20
-2413.766842571283
 30
0.0
 11
3170.648930055364
 21
-2556.266842571283
 31
0.0
  0
INSERT
  5
B8CA
330
B861
100
AcDbEntity
  8
001
  6
Continuous
 62
     0
370
    -2
100
AcDbBlockReference
  2
_Open
 10
3170.648930055364
 20
-2402.516842571284
 30
0.0
 41
11.25
 42
11.25
 43
11.25
 50
90.0
  0
INSERT
  5
B8CB
330
B861
100
AcDbEntity
  8
001
  6
Continuous
 62
     0
370
    -2
100
AcDbBlockReference
  2
_Open
 10
3170.648930055364
 20
-2567.516842571283
 30
0.0
 41
11.25
 42
11.25
 43
11.25
 50
270.0
  0
MTEXT
  5
B8CC
330
B861
100
AcDbEntity
  8
001
  6
Continuous
 62
     0
100
AcDbMText
 10
3157.523930055365
 20
-2485.016842571282
 30
0.0
 40
11.25
 41
0.0
 71
     5
 72
     1
  1
\A1;M165
 11
0.0000000000000001
 21
1.0
 31
0.0
 73
     1
 44
1.0
  0
POINT
  5
B8CD
330
B861
100
AcDbEntity
  8
DEFPOINTS
  6
Continuous
 62
     0
100
AcDbPoint
 10
3213.064864319064
 20
-2402.516842571284
 30
0.0
  0
POINT
  5
B8CE
330
B861
100
AcDbEntity
  8
DEFPOINTS
  6
Continuous
 62
     0
100
AcDbPoint
 10
3213.064864319064
 20
-2567.516842571283
 30
0.0
  0
POINT
  5
B8CF
330
B861
100
AcDbEntity
  8
DEFPOINTS
  6
Continuous
 62
     0
100
AcDbPoint
 10
3170.648930055364
 20
-2567.516842571283
 30
0.0
  0
ENDBLK
  5
B86C
330
B861
100
AcDbEntity
  8
0
100
AcDbBlockEnd
  0
BLOCK
  5
B877
330
B86D
100
AcDbEntity
  8
0
100
AcDbBlockBegin
  2
*D7
 70
     1
 10
0.0
 20
0.0
 30
0.0
  3
*D7
  1

  0
LINE
  5
B8D0
330
B86D
100
AcDbEntity
  8
001
  6
Continuous
 62
     0
370
    -2
100
AcDbLine
 10
2726.525985764936
 20
-1673.752440338754
 30
0.0
 11
2827.215178719934
 21
-1691.506661722481
 31
0.0
  0
LINE
  5
B8D1
330
B86D
100
AcDbEntity
  8
001
  6
Continuous
 62
     0
370
    -2
100
AcDbLine
 10
2707.424686221574
 20
-1782.081293170098
 30
0.0
 11
2808.113879176572
 21
-1799.835514553825
 31
0.0
  0
LINE
  5
B8D2
330
B86D
100
AcDbEntity
  8
001
  6
Continuous
 62
     0
370
    -2
100
AcDbLine
 10
2825.26163672118
 20
-1702.585748943868
 30
0.0
 11
2810.067421175324
 21
-1788.756427332438
 31
0.0
  0
INSERT
  5
B8D3
330
B86D
100
AcDbEntity
  8
001
  6
Continuous
 62
     0
370
    -2
100
AcDbBlockReference
  2
_Open
 10
2827.215178719934
 20
-1691.506661722481
 30
0.0
 41
11.25
 42
11.25
 43
11.25
 50
80.00000000000028
  0
INSERT
  5
B8D4
330
B86D
100
AcDbEntity
  8
001
  6
Continuous
 62
     0
370
    -2
100
AcDbBlockReference
  2
_Open
 10
2808.113879176572
 20
-1799.835514553825
 30
0.0
 41
11.25
 42
11.25
 43
11.25
 50
260.0000000000002
  0
MTEXT
  5
B8D5
330
B86D
100
AcDbEntity
  8
001
  6
Continuous
 62
     0
100
AcDbMText
 10
2804.738927189967
 20
-1743.391955806274
 30
0.0
 40
11.25
 41
0.0
 71
     5
 72
     1
  1
\A1;110
 11
0.1736481776669258
 21
0.9848077530122088
 31
0.0
 73
     1
 44
1.0
  0
POINT
  5
B8D6
330
B86D
100
AcDbEntity
  8
DEFPOINTS
  6
Continuous
 62
     0
100
AcDbPoint
 10
2717.293413080447
 20
-1672.124488673127
 30
0.0
  0
POINT
  5
B8D7
330
B86D
100
AcDbEntity
  8
DEFPOINTS
  6
Continuous
 62
     0
100
AcDbPoint
 10
2698.192113537085
 20
-1780.453341504471
 30
0.0
  0
POINT
  5
B8D8
330
B86D
100
AcDbEntity
  8
DEFPOINTS
  6
Continuous
 62
     0
100
AcDbPoint
 10
2808.113879176572
 20
-1799.835514553825
 30
0.0
  0
ENDBLK
  5
B878
330
B86D
100
AcDbEntity
  8
0
100
AcDbBlockEnd
  0
BLOCK
  5
B885
330
B879
100
AcDbEntity
  8
0
100
AcDbBlockBegin
  2
*D8
 70
     1
 10
0.0
 20
0.0
 30
0.0
  3
*D8
  1

  0
LINE
  5
B8D9
330
B879
100
AcDbEntity
  8
001
  6
Continuous
 62
     0
370
    -2
100
AcDbLine
 10
3232.832814319064
 20
-2393.141842571283
 30
0.0
 11
3232.832814319064
 21
-2369.660280931861
 31
0.0
  0
LINE
  5
B8DA
330
B879
100
AcDbEntity
  8
001
  6
Continuous
 62
     0
370
    -2
100
AcDbLine
 10
3210.832814319064
 20
-2393.141842571283
 30
0.0
 11
3210.832814319064
 21
-2369.660280931861
 31
0.0
  0
LINE
  5
B8DB
330
B879
100
AcDbEntity
  8
001
  6
Continuous
 62
     0
370
    -2
100
AcDbLine
 10
3199.582814319064
 20
-2369.660280931861
 30
0.0
 11
3188.332814319064
 21
-2369.660280931861
 31
0.0
  0
LINE
  5
B8DC
330
B879
100
AcDbEntity
  8
001
  6
Continuous
 62
     0
370
    -2
100
AcDbLine
 10
3244.082814319064
 20
-2369.660280931861
 30
0.0
 11
3291.207814319064
 21
-2369.660280931861
 31
0.0
  0
LINE
  5
B8DD
330
B879
100
AcDbEntity
  8
001
  6
Continuous
 62
     0
370
    -2
100
AcDbLine
 10
3210.832814319064
 20
-2369.660280931861
 30
0.0
 11
3232.832814319064
 21
-2369.660280931861
 31
0.0
  0
INSERT
  5
B8DE
330
B879
100
AcDbEntity
  8
001
  6
Continuous
 62
     0
370
    -2
100
AcDbBlockReference
  2
_Open
 10
3210.832814319064
 20
-2369.660280931861
 30
0.0
 41
11.25
 42
11.25
 43
11.25
  0
INSERT
  5
B8DF
330
B879
100
AcDbEntity
  8
001
  6
Continuous
 62
     0
370
    -2
100
AcDbBlockReference
  2
_Open
 10
3232.832814319064
 20
-2369.660280931861
 30
0.0
 41
11.25
 42
11.25
 43
11.25
 50
180.0
  0
MTEXT
  5
B8E0
330
B879
100
AcDbEntity
  8
001
  6
Continuous
 62
     0
100
AcDbMText
 10
3274.332814319064
 20
-2356.535280931861
 30
0.0
 40
11.25
 41
0.0
 71
     5
 72
     1
  1
\A1;22
 73
     1
 44
1.0
  0
POINT
  5
B8E1
330
B879
100
AcDbEntity
  8
DEFPOINTS
  6
Continuous
 62
     0
100
AcDbPoint
 10
3232.832814319064
 20
-2402.516842571284
 30
0.0
  0
POINT
  5
B8E2
330
B879
100
AcDbEntity
  8
DEFPOINTS
  6
Continuous
 62
     0
100
AcDbPoint
 10
3210.832814319064
 20
-2402.516842571284
 30
0.0
  0
POINT
  5
B8E3
330
B879
100
AcDbEntity
  8
DEFPOINTS
  6
Continuous
 62
     0
100
AcDbPoint
 10
3210.832814319064
 20
-2369.660280931861
 30
0.0
  0
ENDBLK
  5
B886
330
B879
100
AcDbEntity
  8
0
100
AcDbBlockEnd
  0
BLOCK
  5
B893
330
B887
100
AcDbEntity
  8
0
100
AcDbBlockBegin
  2
*D9
 70
     1
 10
0.0
 20
0.0
 30
0.0
  3
*D9
  1

  0
LINE
  5
B8E4
330
B887
100
AcDbEntity
  8
001
  6
Continuous
 62
     0
370
    -2
100
AcDbLine
 10
3895.98938846437
 20
-2301.415715190209
 30
0.0
 11
3895.98938846437
 21
-2281.577403790519
 31
0.0
  0
LINE
  5
B8E5
330
B887
100
AcDbEntity
  8
001
  6
Continuous
 62
     0
370
    -2
100
AcDbLine
 10
3920.98938846437
 20
-2301.415715190209
 30
0.0
 11
3920.98938846437
 21
-2281.577403790519
 31
0.0
  0
LINE
  5
B8E6
330
B887
100
AcDbEntity
  8
001
  6
Continuous
 62
     0
370
    -2
100
AcDbLine
 10
3884.73938846437
 20
-2281.577403790519
 30
0.0
 11
3873.48938846437
 21
-2281.577403790519
 31
0.0
  0
LINE
  5
B8E7
330
B887
100
AcDbEntity
  8
001
  6
Continuous
 62
     0
370
    -2
100
AcDbLine
 10
3932.23938846437
 20
-2281.577403790519
 30
0.0
 11
3977.23938846437
 21
-2281.577403790519
 31
0.0
  0
LINE
  5
B8E8
330
B887
100
AcDbEntity
  8
001
  6
Continuous
 62
     0
370
    -2
100
AcDbLine
 10
3895.98938846437
 20
-2281.577403790519
 30
0.0
 11
3920.98938846437
 21
-2281.577403790519
 31
0.0
  0
INSERT
  5
B8E9
330
B887
100
AcDbEntity
  8
001
  6
Continuous
 62
     0
370
    -2
100
AcDbBlockReference
  2
_Open
 10
3895.98938846437
 20
-2281.577403790519
 30
0.0
 41
11.25
 42
11.25
 43
11.25
  0
INSERT
  5
B8EA
330
B887
100
AcDbEntity
  8
001
  6
Continuous
 62
     0
370
    -2
100
AcDbBlockReference
  2
_Open
 10
3920.98938846437
 20
-2281.577403790519
 30
0.0
 41
11.25
 42
11.25
 43
11.25
 50
180.0
  0
MTEXT
  5
B8EB
330
B887
100
AcDbEntity
  8
001
  6
Continuous
 62
     0
100
AcDbMText
 10
3960.36438846437
 20
-2268.452403790519
 30
0.0
 40
11.25
 41
0.0
 71
     5
 72
     1
  1
\A1;25
 73
     1
 44
1.0
  0
POINT
  5
B8EC
330
B887
100
AcDbEntity
  8
DEFPOINTS
  6
Continuous
 62
     0
100
AcDbPoint
 10
3895.98938846437
 20
-2310.790715190209
 30
0.0
  0
POINT
  5
B8ED
330
B887
100
AcDbEntity
  8
DEFPOINTS
  6
Continuous
 62
     0
100
AcDbPoint
 10
3920.98938846437
 20
-2310.790715190209
 30
0.0
  0
POINT
  5
B8EE
330
B887
100
AcDbEntity
  8
DEFPOINTS
  6
Continuous
 62
     0
100
AcDbPoint
 10
3920.98938846437
 20
-2281.577403790519
 30
0.0
  0
ENDBLK
  5
B894
330
B887
100
AcDbEntity
  8
0
100
AcDbBlockEnd
  0
BLOCK
  5
B89F
330
B895
100
AcDbEntity
  8
0
100
AcDbBlockBegin
  2
*D10
 70
     1
 10
0.0
 20
0.0
 30
0.0
  3
*D10
  1

  0
LINE
  5
B8EF
330
B895
100
AcDbEntity
  8
001
  6
Continuous
 62
     0
370
    -2
100
AcDbLine
 10
3886.61438846437
 20
-2310.790715190209
 30
0.0
 11
3857.116991393164
 21
-2310.790715190209
 31
0.0
  0
LINE
  5
B8F0
330
B895
100
AcDbEntity
  8
001
  6
Continuous
 62
     0
370
    -2
100
AcDbLine
 10
3886.61438846437
 20
-2515.790715190209
 30
0.0
 11
3857.116991393164
 21
-2515.790715190209
 31
0.0
  0
LINE
  5
B8F1
330
B895
100
AcDbEntity
  8
001
  6
Continuous
 62
     0
370
    -2
100
AcDbLine
 10
3857.116991393164
 20
-2322.040715190209
 30
0.0
 11
3857.116991393164
 21
-2504.540715190209
 31
0.0
  0
INSERT
  5
B8F2
330
B895
100
AcDbEntity
  8
001
  6
Continuous
 62
     0
370
    -2
100
AcDbBlockReference
  2
_Open
 10
3857.116991393164
 20
-2310.790715190209
 30
0.0
 41
11.25
 42
11.25
 43
11.25
 50
90.0
  0
INSERT
  5
B8F3
330
B895
100
AcDbEntity
  8
001
  6
Continuous
 62
     0
370
    -2
100
AcDbBlockReference
  2
_Open
 10
3857.116991393164
 20
-2515.790715190209
 30
0.0
 41
11.25
 42
11.25
 43
11.25
 50
270.0
  0
MTEXT
  5
B8F4
330
B895
100
AcDbEntity
  8
001
  6
Continuous
 62
     0
100
AcDbMText
 10
3843.991991393165
 20
-2413.290715190209
 30
0.0
 40
11.25
 41
0.0
 71
     5
 72
     1
  1
\A1;φ205
 11
0.0000000000000001
 21
1.0
 31
0.0
 73
     1
 44
1.0
  0
POINT
  5
B8F5
330
B895
100
AcDbEntity
  8
DEFPOINTS
  6
Continuous
 62
     0
100
AcDbPoint
 10
3895.98938846437
 20
-2310.790715190209
 30
0.0
  0
POINT
  5
B8F6
330
B895
100
AcDbEntity
  8
DEFPOINTS
  6
Continuous
 62
     0
100
AcDbPoint
 10
3895.98938846437
 20
-2515.790715190209
 30
0.0
  0
POINT
  5
B8F7
330
B895
100
AcDbEntity
  8
DEFPOINTS
  6
Continuous
 62
     0
100
AcDbPoint
 10
3857.116991393164
 20
-2515.790715190209
 30
0.0
  0
ENDBLK
  5
B8A0
330
B895
100
AcDbEntity
  8
0
100
AcDbBlockEnd
  0
ENDSEC
  0
SECTION
  2
ENTITIES
  0
LWPOLYLINE
  5
B191
330
1E
100
AcDbEntity
  8
001
  6
DASHED
100
AcDbPolyline
 90
        4
 70
     1
 43
0.0
 10
2038.628015367055
 20
-2733.04909152069
 10
4111.328015367055
 20
-2733.04909152069
 10
4111.328015367055
 20
-1267.354091520689
 10
2038.628015367055
 20
-1267.354091520689
  0
LINE
  5
B192
330
1E
100
AcDbEntity
  8
001
100
AcDbLine
 10
3455.243358264098
 20
-1479.330876405942
 30
0.0
 11
3301.243358264098
 21
-1479.330876405942
 31
0.0
  0
LINE
  5
B193
330
1E
100
AcDbEntity
  8
001
100
AcDbLine
 10
3232.313496995989
 20
-1383.414101754231
 30
0.0
 11
3453.364424719008
 21
-1383.414101754231
 31
0.0
  0
TEXT
  5
B194
330
1E
100
AcDbEntity
  8
001
100
AcDbText
 10
3232.313496995989
 20
-1379.853144533375
 30
0.0
 40
18.0
  1
角度なしアンカー頭部構造図
 41
0.787037
100
AcDbText
  0
TEXT
  5
B195
330
1E
100
AcDbEntity
  8
001
100
AcDbText
 10
3312.243358264097
 20
-1475.330876405942
 30
0.0
 40
12.8
  1
ヘッドキャップ　Ｌタイプ
 41
0.716146
100
AcDbText
  0
TEXT
  5
B196
330
1E
100
AcDbEntity
  8
001
100
AcDbText
 10
3316.481246264098
 20
-1580.736994405941
 30
0.0
 40
12.8
  1
アンカーヘッド
 41
0.716146
100
AcDbText
  0
LINE
  5
B197
330
1E
100
AcDbEntity
  8
003
  6
Continuous
100
AcDbLine
 10
3280.817225264097
 20
-1612.891914405942
 30
0.0
 11
3496.073393700461
 21
-1612.891914405942
 31
0.0
  0
DIMENSION
  5
B198
330
1E
100
AcDbEntity
  8
001
  6
Continuous
100
AcDbDimension
  2
*D2
 10
3340.755914929665
 20
-1762.891914405942
 30
0.0
 11
3340.755914929665
 21
-1705.086337656597
 31
0.0
 70
   160
 71
     5
 42
125.0
  3
ISO-25
100
AcDbAlignedDimension
 13
3478.000105264098
 23
-1637.891914405942
 33
0.0
 14
3478.317225264098
 24
-1762.891914405942
 34
0.0
 50
90.0
100
AcDbRotatedDimension
  0
LINE
  5
B199
330
1E
100
AcDbEntity
  8
001
100
AcDbLine
 10
3439.428977264098
 20
-1945.203807405942
 30
0.0
 11
3318.428977264098
 21
-1945.203807405942
 31
0.0
  0
LINE
  5
B19A
330
1E
100
AcDbEntity
  8
001
100
AcDbLine
 10
3404.481246264098
 20
-1584.736994405941
 30
0.0
 11
3305.481246264098
 21
-1584.736994405941
 31
0.0
  0
LWPOLYLINE
  5
B19B
330
1E
100
AcDbEntity
  8
003
  6
Continuous
100
AcDbPolyline
 90
       12
 70
     1
 43
0.0
 10
3430.834676002173
 20
-1434.891914405941
 10
3730.799774526022
 20
-1434.891914405941
 10
3830.799774526022
 20
-1612.891914405942
 10
3880.817225264098
 20
-1612.891914405942
 10
3880.817225264098
 20
-1610.59191440594
 10
3831.817225264098
 20
-1610.59191440594
 10
3731.817225264098
 20
-1432.59191440594
 10
3429.817225264098
 20
-1432.59191440594
 10
3329.817225264098
 20
-1610.59191440594
 10
3280.817225264097
 20
-1610.59191440594
 10
3280.817225264097
 20
-1612.891914405942
 10
3330.834676002173
 20
-1612.891914405942
  0
LWPOLYLINE
  5
B19C
330
1E
100
AcDbEntity
  8
003
 62
     3
100
AcDbPolyline
 90
       64
 70
     0
 43
0.0
 10
3209.160445570129
 20
-2063.005474405942
 10
3515.695796617576
 20
-2063.005474405942
 10
3513.812883264098
 20
-2065.200666946871
 10
3512.763073264098
 20
-2067.563258946873
 10
3513.209046264098
 20
-2069.726405946872
 10
3514.616340264097
 20
-2071.922934946873
 10
3516.402885264097
 20
-2074.144460946872
 10
3517.986608264098
 20
-2076.382598946873
 10
3518.785441264098
 20
-2078.628961946872
 10
3518.443885264098
 20
-2080.770510946871
 10
3517.318091264098
 20
-2082.921713946872
 10
3515.862929264098
 20
-2085.092367946872
 10
3514.533271264098
 20
-2087.292271946871
 10
3513.783991264098
 20
-2089.531224946871
 10
3514.115862264098
 20
-2092.437142946871
 10
3515.440540264097
 20
-2095.379143946873
 10
3517.079677264097
 20
-2098.314460946872
 10
3518.354927264097
 20
-2101.200324946872
 10
3518.587942264098
 20
-2103.993968946872
 10
3517.690632264098
 20
-2106.162118946873
 10
3516.143895264098
 20
-2108.273941946872
 10
3514.419966264098
 20
-2110.361106946871
 10
3512.991083264098
 20
-2112.455286946871
 10
3512.329480264098
 20
-2114.588154946872
 10
3512.903435264098
 20
-2117.124560946873
 10
3514.455152264098
 20
-2119.718888946872
 10
3516.312113264098
 20
-2122.335387946872
 10
3517.801803264097
 20
-2124.938303946872
 10
3518.251704264098
 20
-2127.491886946873
 10
3517.458262264098
 20
-2129.619439946873
 10
3515.925802264098
 20
-2131.706862946872
 10
3514.170531264098
 20
-2133.776398946872
 10
3512.708661264098
 20
-2135.850290946871
 10
3512.056400264097
 20
-2137.950782946873
 10
3512.673780264098
 20
-2140.317798946873
 10
3514.261897264098
 20
-2142.714475946872
 10
3516.174989264098
 20
-2145.110921946872
 10
3517.767299264098
 20
-2147.477245946873
 10
3518.393066264098
 20
-2149.783556946871
 10
3517.781008264098
 20
-2151.746754946873
 10
3516.371844264098
 20
-2153.675268946872
 10
3514.614223264097
 20
-2155.603879946873
 10
3512.956795264098
 20
-2157.567367946872
 10
3511.848208264097
 20
-2159.600515946873
 10
3511.990390264098
 20
-2163.414850946872
 10
3514.015275264098
 20
-2167.416430946872
 10
3516.691387264098
 20
-2171.466437946872
 10
3518.787247264098
 20
-2175.426053946872
 10
3519.071375264098
 20
-2179.156460946873
 10
3517.903467264098
 20
-2181.337603946873
 10
3516.031991264098
 20
-2183.425103946873
 10
3513.957456264098
 20
-2185.470929946872
 10
3512.180373264098
 20
-2187.527050946872
 10
3511.201249264098
 20
-2189.645437946872
 10
3511.600593264098
 20
-2192.503182946871
 10
3513.317902264098
 20
-2195.499965946872
 10
3515.545743264098
 20
-2198.587840946873
 10
3517.476686264098
 20
-2201.718860946872
 10
3518.303298264098
 20
-2204.845080946872
 10
3517.713038264098
 20
-2207.442877946872
 10
3516.262135264098
 20
-2210.010189946872
 10
3514.443795264098
 20
-2212.553887946873
 10
3512.751226264098
 20
-2215.080838946872
 10
3511.677633264099
 20
-2217.597914946872
  0
LINE
  5
B19D
330
1E
100
AcDbEntity
  8
001
 62
     3
100
AcDbLine
 10
2115.068015367055
 20
-1346.97909152069
 30
0.0
 11
4069.328015367055
 21
-1346.97909152069
 31
0.0
  0
LINE
  5
B19E
330
1E
100
AcDbEntity
  8
001
 62
     3
100
AcDbLine
 10
4069.328015367055
 20
-2689.29909152069
 30
0.0
 11
2115.068015367055
 21
-2689.29909152069
 31
0.0
  0
LINE
  5
B19F
330
1E
100
AcDbEntity
  8
003
 62
     3
100
AcDbLine
 10
3207.433277109323
 20
-1822.490731979625
 30
0.0
 11
3207.433277109323
 21
-1593.899601034718
 31
0.0
  0
LINE
  5
B1A0
330
1E
100
AcDbEntity
  8
003
100
AcDbLine
 10
2952.599187232247
 20
-1819.949822134363
 30
0.0
 11
2952.599187232247
 21
-1592.929288469826
 31
0.0
  0
LINE
  5
B1A1
330
1E
100
AcDbEntity
  8
002
100
AcDbLine
 10
2637.534777499332
 20
-1641.020778707228
 30
0.0
 11
2662.54889440689
 21
-1572.295057391531
 31
0.0
  0
LINE
  5
B1A2
330
1E
100
AcDbEntity
  8
002
100
AcDbLine
 10
2637.534777499332
 20
-1641.020778707228
 30
0.0
 11
2662.54889440689
 21
-1572.295057391531
 31
0.0
  0
LINE
  5
B1A3
330
1E
100
AcDbEntity
  8
002
100
AcDbLine
 10
2588.60202825039
 20
-1629.272183410408
 30
0.0
 11
2613.616145157948
 21
-1560.546462094709
 31
0.0
  0
LINE
  5
B1A4
330
1E
100
AcDbEntity
  8
002
100
AcDbLine
 10
2588.60202825039
 20
-1629.272183410408
 30
0.0
 11
2613.616145157948
 21
-1560.546462094709
 31
0.0
  0
LINE
  5
B1A5
330
1E
100
AcDbEntity
  8
002
100
AcDbLine
 10
2674.390569326841
 20
-1505.137581704186
 30
0.0
 11
2626.290024113102
 21
-1777.929329288566
 31
0.0
  0
LINE
  5
B1A6
330
1E
100
AcDbEntity
  8
002
100
AcDbLine
 10
2661.883510863586
 20
-1502.932249847815
 30
0.0
 11
2613.782965649847
 21
-1775.723997432198
 31
0.0
  0
LINE
  5
B1A7
330
1E
100
AcDbEntity
  8
002
  6
CENTER
100
AcDbLine
 10
2619.538906543431
 20
-1490.388620559319
 30
0.0
 11
2570.570120441357
 21
-1768.104406908761
 31
0.0
  0
LINE
  5
B1A8
330
1E
100
AcDbEntity
  8
002
100
AcDbLine
 10
2616.241786003378
 20
-1496.415325252564
 30
0.0
 11
2568.141240789638
 21
-1769.207072836947
 31
0.0
  0
LINE
  5
B1A9
330
1E
100
AcDbEntity
  8
002
100
AcDbLine
 10
2612.417136423469
 20
-1494.209993396196
 30
0.0
 11
2564.316591209729
 21
-1767.001740980576
 31
0.0
  0
LINE
  5
B1AA
330
1E
100
AcDbEntity
  8
002
  6
CENTER
100
AcDbLine
 10
2669.005280983549
 20
-1499.11087701094
 30
0.0
 11
2620.036494881474
 21
-1776.826663360383
 31
0.0
  0
LINE
  5
B1AB
330
1E
100
AcDbEntity
  8
002
100
AcDbLine
 10
2665.708160443495
 20
-1505.137581704186
 30
0.0
 11
2617.607615229755
 21
-1777.929329288566
 31
0.0
  0
LINE
  5
B1AC
330
1E
100
AcDbEntity
  8
002
100
AcDbLine
 10
2549.63645532609
 20
-1617.911593797022
 30
0.0
 11
2589.057396334495
 21
-1451.504829704514
 31
0.0
  0
LINE
  5
B1AD
330
1E
100
AcDbEntity
  8
002
100
AcDbLine
 10
2554.569275278699
 20
-1618.779334930168
 30
0.0
 11
2593.989750816223
 21
-1452.374536878062
 31
0.0
  0
LINE
  5
B1AE
330
1E
100
AcDbEntity
  8
002
100
AcDbLine
 10
2702.1274643651
 20
-1644.797824890582
 30
0.0
 11
2721.998128259285
 21
-1474.945867577986
 31
0.0
  0
LINE
  5
B1AF
330
1E
100
AcDbEntity
  8
002
100
AcDbLine
 10
2707.059583820959
 20
-1645.669538738202
 30
0.0
 11
2726.930481756205
 21
-1475.815574577883
 31
0.0
  0
LINE
  5
B1B0
330
1E
100
AcDbEntity
  8
002
100
AcDbLine
 10
2624.924194886724
 20
-1496.415325252564
 30
0.0
 11
2576.823649672984
 21
-1769.207072836947
 31
0.0
  0
LINE
  5
B1B1
330
1E
100
AcDbEntity
  8
003
100
AcDbLine
 10
2205.688562869296
 20
-1821.490731979625
 30
0.0
 11
2205.688562869296
 21
-1592.899601034718
 31
0.0
  0
LWPOLYLINE
  5
B1B2
330
1E
100
AcDbEntity
  8
003
  6
Continuous
100
AcDbPolyline
 90
       12
 70
     1
 43
0.0
 10
2428.911354619103
 20
-1434.904845849131
 10
2728.876453142951
 20
-1434.904845849131
 10
2828.876453142951
 20
-1612.904845849131
 10
2878.893903881027
 20
-1612.904845849131
 10
2878.893903881027
 20
-1610.60484584913
 10
2829.893903881027
 20
-1610.60484584913
 10
2729.893903881027
 20
-1432.60484584913
 10
2427.893903881027
 20
-1432.60484584913
 10
2327.893903881027
 20
-1610.60484584913
 10
2278.893903881027
 20
-1610.60484584913
 10
2278.893903881027
 20
-1612.904845849131
 10
2328.911354619103
 20
-1612.904845849131
  0
LINE
  5
B1B3
330
1E
100
AcDbEntity
  8
004
  6
CENTER2
 62
     6
100
AcDbLine
 10
2635.007465249015
 20
-1594.022973079472
 30
0.0
 11
2526.144875481722
 21
-2211.413399263224
 31
0.0
  0
LINE
  5
B1B4
330
1E
100
AcDbEntity
  8
004
  6
CENTER2
 62
     6
100
AcDbLine
 10
2578.964298719841
 20
-1593.982603082173
 30
0.0
 11
2578.96429871984
 21
-2211.413399263224
 31
0.0
  0
LINE
  5
B1B5
330
1E
100
AcDbEntity
  8
001
 62
     3
100
AcDbLine
 10
2115.068015367055
 20
-2689.29909152069
 30
0.0
 11
2115.068015367055
 21
-1346.97909152069
 31
0.0
  0
DIMENSION
  5
B1B6
330
1E
100
AcDbEntity
  8
001
100
AcDbDimension
  2
*D3
 10
2578.96429871984
 20
-2193.141006879576
 30
0.0
 11
2617.819356199565
 21
-1467.74422531015
 31
0.0
 70
    34
 71
     5
 42
0.1745329251994323
  3
ISO-25
100
AcDb2LineAngularDimension
 13
2635.007465249015
 23
-1594.022973079472
 33
0.0
 14
2526.144875481722
 24
-2211.413399263224
 34
0.0
 15
2578.964298719841
 25
-1593.982603082173
 35
0.0
 16
2629.196168803514
 26
-1482.098450131808
 36
0.0
1001
ACAD
1000
DSTYLE
1002
{
1070
    79
1070
     2
1002
}
  0
LINE
  5
B1B7
330
1E
100
AcDbEntity
  8
002
100
AcDbLine
 10
2672.892549367896
 20
-1750.606680444134
 30
0.0
 11
2668.551344926223
 21
-1775.226874269439
 31
0.0
  0
LINE
  5
B1B8
330
1E
100
AcDbEntity
  8
002
100
AcDbLine
 10
2637.320499156081
 20
-1721.994982771188
 30
0.0
 11
2689.515310065728
 21
-1731.198336187535
 31
0.0
  0
LINE
  5
B1B9
330
1E
100
AcDbEntity
  8
002
100
AcDbLine
 10
2663.536875714281
 20
-1748.957022756298
 30
0.0
 11
2710.315243982361
 21
-1757.205311195477
 31
0.0
  0
LINE
  5
B1BA
330
1E
100
AcDbEntity
  8
002
100
AcDbLine
 10
2653.64823633417
 20
-1663.948406656458
 30
0.0
 11
2693.532950331164
 21
-1670.981157851969
 31
0.0
  0
LINE
  5
B1BB
330
1E
100
AcDbEntity
  8
003
 62
     3
100
AcDbLine
 10
2669.437671903934
 20
-1775.383157629339
 30
0.0
 11
2665.617411995262
 21
-1797.048928195608
 31
0.0
  0
LINE
  5
B1BC
330
1E
100
AcDbEntity
  8
003
 62
     3
100
AcDbLine
 10
2668.551344926223
 20
-1775.226874269439
 30
0.0
 11
2706.301263582396
 21
-1781.883203448072
 31
0.0
  0
LINE
  5
B1BD
330
1E
100
AcDbEntity
  8
003
 62
     3
100
AcDbLine
 10
2668.551344926223
 20
-1775.226874269439
 30
0.0
 11
2706.301263582396
 21
-1781.883203448072
 31
0.0
  0
LINE
  5
B1BE
330
1E
100
AcDbEntity
  8
003
 62
     3
100
AcDbLine
 10
2668.551344926223
 20
-1775.226874269439
 30
0.0
 11
2708.00219148475
 21
-1782.183122929497
 31
0.0
  0
LINE
  5
B1BF
330
1E
100
AcDbEntity
  8
003
100
AcDbLine
 10
2712.100337396325
 20
-1805.245122086074
 30
0.0
 11
2662.761469511526
 21
-1796.545348480375
 31
0.0
  0
LINE
  5
B1C0
330
1E
100
AcDbEntity
  8
002
100
AcDbLine
 10
2672.892549367896
 20
-1750.606680444134
 30
0.0
 11
2668.551344926223
 21
-1775.226874269439
 31
0.0
  0
LINE
  5
B1C1
330
1E
100
AcDbEntity
  8
002
100
AcDbLine
 10
2671.907741614885
 20
-1750.433032266468
 30
0.0
 11
2629.475696473766
 21
-1962.283266028769
 31
0.0
  0
LWPOLYLINE
  5
B1C2
330
1E
100
AcDbEntity
  8
002
100
AcDbPolyline
 90
        5
 70
     0
 43
0.0
 10
2672.892549367896
 20
-1750.606680444134
 10
2668.551344926223
 20
-1775.226874269439
 10
2705.974039540687
 20
-1781.825505020782
 10
2710.315243982361
 20
-1757.205311195477
 10
2672.892549367896
 20
-1750.606680444134
  0
LINE
  5
B1C3
330
1E
100
AcDbEntity
  8
003
  6
Continuous
100
AcDbLine
 10
2622.853951640523
 20
-2063.00547440594
 30
0.0
 11
2952.599187232247
 21
-2063.005474405942
 31
0.0
  0
LINE
  5
B1C4
330
1E
100
AcDbEntity
  8
004
  6
CENTER
 62
     6
100
AcDbLine
 10
2648.610605781728
 20
-2485.016842571283
 30
0.0
 11
2764.252947781728
 21
-2485.016842571283
 31
0.0
  0
ARC
  5
B1C5
330
1E
100
AcDbEntity
  8
002
100
AcDbCircle
 10
2660.918829781728
 20
-2485.016842571283
 30
0.0
 40
82.5
100
AcDbArc
 50
270.0
 51
90.0
  0
ARC
  5
B1C6
330
1E
100
AcDbEntity
  8
002
100
AcDbCircle
 10
2660.918829781728
 20
-2485.016842571283
 30
0.0
 40
81.0
100
AcDbArc
 50
270.0
 51
90.0
  0
ARC
  5
B1C7
330
1E
100
AcDbEntity
  8
002
100
AcDbCircle
 10
2660.918829781728
 20
-2485.016842571283
 30
0.0
 40
80.0
100
AcDbArc
 50
270.0
 51
90.0
  0
ARC
  5
B1C8
330
1E
100
AcDbEntity
  8
002
100
AcDbCircle
 10
2660.918829781728
 20
-2485.016842571283
 30
0.0
 40
92.5
100
AcDbArc
 50
270.0
 51
90.0
  0
ARC
  5
B1C9
330
1E
100
AcDbEntity
  8
002
100
AcDbCircle
 10
2660.918829781728
 20
-2485.016842571283
 30
0.0
 40
90.5
100
AcDbArc
 50
270.0
 51
90.0
  0
LINE
  5
B1CA
330
1E
100
AcDbEntity
  8
003
100
AcDbLine
 10
2673.101950918155
 20
-1798.368654345877
 30
0.0
 11
2626.439339452674
 21
-2063.00547440594
 31
0.0
  0
LINE
  5
B1CB
330
1E
100
AcDbEntity
  8
003
100
AcDbLine
 10
2682.457624571771
 20
-1800.018312033713
 30
0.0
 11
2636.085892265589
 21
-2063.00547440594
 31
0.0
  0
LINE
  5
B1CC
330
1E
100
AcDbEntity
  8
002
100
AcDbLine
 10
2523.098050781729
 20
-2577.516842571283
 30
0.0
 11
2523.098050781729
 21
-2485.016842571283
 31
0.0
  0
LINE
  5
B1CD
330
1E
100
AcDbEntity
  8
002
100
AcDbLine
 10
2473.452356781728
 20
-2543.184910571284
 30
0.0
 11
2436.033420781728
 21
-2549.920318571285
 31
0.0
  0
LINE
  5
B1CE
330
1E
100
AcDbEntity
  8
002
100
AcDbLine
 10
2472.452356781728
 20
-2542.348839571284
 30
0.0
 11
2435.856267781728
 21
-2548.936135571284
 31
0.0
  0
LINE
  5
B1CF
330
1E
100
AcDbEntity
  8
001
  6
Continuous
100
AcDbLine
 10
2568.435818780511
 20
-2414.516842571283
 30
0.0
 11
2568.435818780511
 21
-2555.516842571283
 31
0.0
  0
LINE
  5
B1D0
330
1E
100
AcDbEntity
  8
002
100
AcDbLine
 10
2525.098050781728
 20
-2394.516842571283
 30
0.0
 11
2525.098050781728
 21
-2575.516842571284
 31
0.0
  0
LINE
  5
B1D1
330
1E
100
AcDbEntity
  8
004
  6
CENTER
 62
     6
100
AcDbLine
 10
2660.918829781728
 20
-2379.879354571285
 30
0.0
 11
2660.918829781728
 21
-2589.990588571285
 31
0.0
  0
DIMENSION
  5
B1D2
330
1E
100
AcDbEntity
  8
001
100
AcDbDimension
  2
*D4
 10
2599.292030372114
 20
-2577.516842571283
 30
0.0
 11
2586.167030372115
 21
-2485.016842571283
 31
0.0
 70
    32
  1
φ185
 71
     5
 42
185.0
  3
ISO-25
100
AcDbAlignedDimension
 13
2523.098050781729
 23
-2392.516842571283
 33
0.0
 14
2523.098050781729
 24
-2577.516842571283
 34
0.0
 50
90.0
100
AcDbRotatedDimension
1001
ACAD
1000
DSTYLE
1002
{
1070
   341
1005
0
1002
}
  0
LINE
  5
B1D3
330
1E
100
AcDbEntity
  8
002
100
AcDbLine
 10
2425.098050781729
 20
-2485.016842571283
 30
0.0
 11
2425.098050781729
 21
-2569.902848571284
 31
0.0
  0
LWPOLYLINE
  5
B1D4
330
1E
100
AcDbEntity
  8
002
100
AcDbPolyline
 90
       37
 70
     0
 43
0.0
 10
2245.098050781729
 20
-2415.016842571283
 10
2243.354935781729
 20
-2415.283213571285
 10
2241.625086781728
 20
-2416.080299571284
 10
2239.921669781729
 20
-2417.402034571285
 10
2238.257647781729
 20
-2419.238358571285
 10
2236.645684781728
 20
-2421.575297571283
 10
2235.098050781729
 20
-2424.395063571284
 10
2233.626521781728
 20
-2427.676199571284
 10
2232.242297781729
 20
-2431.393731571285
 10
2230.955914781728
 20
-2435.519367571283
 10
2229.777161781728
 20
-2440.021709571285
 10
2228.715009781728
 20
-2444.866491571285
 10
2227.777542781728
 20
-2450.016842571283
 10
2226.971894781728
 20
-2455.433563571284
 10
2226.304197781729
 20
-2461.075432571284
 10
2225.779533781728
 20
-2466.899509571283
 10
2225.401895781728
 20
-2472.861469571284
 10
2225.174156781728
 20
-2478.915940571283
 10
2225.098050781729
 20
-2485.016842571283
 10
2225.174156781728
 20
-2491.117744571283
 10
2225.401895781728
 20
-2497.172214571284
 10
2225.779533781728
 20
-2503.134175571283
 10
2226.304197781729
 20
-2508.958252571285
 10
2226.971894781728
 20
-2514.600120571284
 10
2227.777542781728
 20
-2520.016842571283
 10
2228.715009781728
 20
-2525.167192571283
 10
2229.777161781728
 20
-2530.011974571284
 10
2230.955914781728
 20
-2534.514316571285
 10
2232.242297781729
 20
-2538.639953571284
 10
2233.626521781728
 20
-2542.357485571285
 10
2235.098050781729
 20
-2545.638620571284
 10
2236.645684781728
 20
-2548.458387571285
 10
2238.257647781729
 20
-2550.795325571284
 10
2239.921669781729
 20
-2552.631650571283
 10
2241.625086781728
 20
-2553.953384571284
 10
2243.354935781729
 20
-2554.750471571284
 10
2245.098050781729
 20
-2555.016842571284
  0
LINE
  5
B1D5
330
1E
100
AcDbEntity
  8
002
100
AcDbLine
 10
2415.822096781728
 20
-2564.942658571284
 30
0.0
 11
2245.098050781729
 21
-2555.016842571284
 31
0.0
  0
LINE
  5
B1D6
330
1E
100
AcDbEntity
  8
002
100
AcDbLine
 10
2523.098050781729
 20
-2577.516842571283
 30
0.0
 11
2475.098050781729
 21
-2577.516842571283
 31
0.0
  0
LINE
  5
B1D7
330
1E
100
AcDbEntity
  8
002
100
AcDbLine
 10
2418.181883781728
 20
-2565.694238571284
 30
0.0
 11
2424.217110781728
 21
-2569.466254571283
 31
0.0
  0
ARC
  5
B1D8
330
1E
100
AcDbEntity
  8
002
100
AcDbCircle
 10
2415.531888781728
 20
-2569.934229571285
 30
0.0
 40
5.0
100
AcDbArc
 50
57.99461699998214
 51
86.67259600000985
  0
LINE
  5
B1D9
330
1E
100
AcDbEntity
  8
002
100
AcDbLine
 10
2426.125402781728
 20
-2570.170945571284
 30
0.0
 11
2475.098050781729
 21
-2577.516842571283
 31
0.0
  0
LINE
  5
B1DA
330
1E
100
AcDbEntity
  8
002
100
AcDbLine
 10
2434.387726781728
 20
-2571.410293571283
 30
0.0
 11
2472.398927781728
 21
-2571.410293571283
 31
0.0
  0
LINE
  5
B1DB
330
1E
100
AcDbEntity
  8
002
100
AcDbLine
 10
2472.452356781728
 20
-2560.412460571284
 30
0.0
 11
2436.033420781728
 21
-2553.857052571284
 31
0.0
  0
ARC
  5
B1DC
330
1E
100
AcDbEntity
  8
002
100
AcDbCircle
 10
2436.387726781728
 20
-2551.888685571285
 30
0.0
 40
2.0
100
AcDbArc
 50
100.2039739999956
 51
259.7960260000043
  0
LINE
  5
B1DD
330
1E
100
AcDbEntity
  8
002
100
AcDbLine
 10
2434.387726781728
 20
-2550.888685571284
 30
0.0
 11
2434.387726781728
 21
-2551.888685571285
 31
0.0
  0
ARC
  5
B1DE
330
1E
100
AcDbEntity
  8
002
100
AcDbCircle
 10
2436.387726781728
 20
-2550.888685571284
 30
0.0
 40
2.0
100
AcDbArc
 50
100.2039739999956
 51
180.0
  0
ARC
  5
B1DF
330
1E
100
AcDbEntity
  8
002
100
AcDbCircle
 10
2426.867105781728
 20
-2565.226263571285
 30
0.0
 40
5.0
100
AcDbArc
 50
237.9946169999821
 51
261.4692340000114
  0
LINE
  5
B1E0
330
1E
100
AcDbEntity
  8
002
100
AcDbLine
 10
2475.098050781729
 20
-2562.560827571283
 30
0.0
 11
2475.098050781729
 21
-2577.516842571283
 31
0.0
  0
LINE
  5
B1E1
330
1E
100
AcDbEntity
  8
002
100
AcDbLine
 10
2474.229496781728
 20
-2572.212978571284
 30
0.0
 11
2475.098050781729
 21
-2577.516842571283
 31
0.0
  0
ARC
  5
B1E2
330
1E
100
AcDbEntity
  8
002
100
AcDbCircle
 10
2472.398927781728
 20
-2573.410293571283
 30
0.0
 40
2.0
100
AcDbArc
 50
9.300130999993207
 51
90.0
  0
LINE
  5
B1E3
330
1E
100
AcDbEntity
  8
002
100
AcDbLine
 10
2474.098050781729
 20
-2562.380827571283
 30
0.0
 11
2474.098050781729
 21
-2570.596917571285
 31
0.0
  0
ARC
  5
B1E4
330
1E
100
AcDbEntity
  8
002
100
AcDbCircle
 10
2472.098050781729
 20
-2569.410293571283
 30
0.0
 40
2.0
100
AcDbArc
 50
270.0
 51
0.0
  0
ARC
  5
B1E5
330
1E
100
AcDbEntity
  8
002
100
AcDbCircle
 10
2484.098050781728
 20
-2570.596917571285
 30
0.0
 40
10.0
100
AcDbArc
 50
180.0
 51
189.3001309999932
  0
ARC
  5
B1E6
330
1E
100
AcDbEntity
  8
002
100
AcDbCircle
 10
2472.098050781729
 20
-2562.380827571283
 30
0.0
 40
2.0
100
AcDbArc
 50
0.0
 51
79.79602600000434
  0
LINE
  5
B1E7
330
1E
100
AcDbEntity
  8
002
100
AcDbLine
 10
2473.452356781728
 20
-2560.592460571284
 30
0.0
 11
2472.452356781728
 21
-2560.412460571284
 31
0.0
  0
ARC
  5
B1E8
330
1E
100
AcDbEntity
  8
002
100
AcDbCircle
 10
2473.098050781729
 20
-2562.560827571283
 30
0.0
 40
2.0
100
AcDbArc
 50
0.0
 51
79.79602600000434
  0
LINE
  5
B1E9
330
1E
100
AcDbEntity
  8
002
100
AcDbLine
 10
2523.098050781729
 20
-2577.516842571283
 30
0.0
 11
2525.098050781728
 21
-2575.516842571284
 31
0.0
  0
LINE
  5
B1EA
330
1E
100
AcDbEntity
  8
003
100
AcDbLine
 10
2537.544977230612
 20
-1612.90484584913
 30
0.0
 11
2278.893903881027
 21
-1612.904845849131
 31
0.0
  0
LINE
  5
B1EB
330
1E
100
AcDbEntity
  8
001
100
AcDbLine
 10
2183.827108781728
 20
-2313.819824571284
 30
0.0
 11
2349.827108781729
 21
-2313.819824571284
 31
0.0
  0
LINE
  5
B1EC
330
1E
100
AcDbEntity
  8
002
100
AcDbLine
 10
2415.820079781728
 20
-2410.099586571285
 30
0.0
 11
2245.098050781729
 21
-2420.025285571284
 31
0.0
  0
LINE
  5
B1ED
330
1E
100
AcDbEntity
  8
002
100
AcDbLine
 10
2415.822096781728
 20
-2405.091025571284
 30
0.0
 11
2245.098050781729
 21
-2415.016842571283
 31
0.0
  0
DIMENSION
  5
B1EE
330
1E
100
AcDbEntity
  8
001
  6
Continuous
100
AcDbDimension
  2
*D5
 10
2225.098050781729
 20
-2359.125919471873
 30
0.0
 11
2375.098050781728
 21
-2346.000919471873
 31
0.0
 70
    32
 71
     5
 42
300.0
  3
ISO-25
100
AcDbAlignedDimension
 13
2525.098050781728
 23
-2394.516842571283
 33
0.0
 14
2225.098050781729
 24
-2485.016842571283
 34
0.0
100
AcDbRotatedDimension
  0
LINE
  5
B1EF
330
1E
100
AcDbEntity
  8
004
  6
CENTER
 62
     6
100
AcDbLine
 10
2212.155192781728
 20
-2485.016842571283
 30
0.0
 11
2534.757748781728
 21
-2485.016842571283
 31
0.0
  0
LINE
  5
B1F0
330
1E
100
AcDbEntity
  8
003
  6
Continuous
100
AcDbLine
 10
2205.688562869296
 20
-2063.005474405942
 30
0.0
 11
2491.881207494864
 21
-2063.005474405942
 31
0.0
  0
LINE
  5
B1F1
330
1E
100
AcDbEntity
  8
003
100
AcDbLine
 10
2205.688562869296
 20
-1868.092768979624
 30
0.0
 11
2205.688562869296
 21
-2087.187727863053
 31
0.0
  0
TEXT
  5
B1F2
330
1E
100
AcDbEntity
  8
001
100
AcDbText
 10
2150.806391781728
 20
-2267.317954571284
 30
0.0
 40
20.5
  1
アンカー頭部部品図
 41
0.7723580000000001
100
AcDbText
  0
LINE
  5
B1F3
330
1E
100
AcDbEntity
  8
001
100
AcDbLine
 10
2150.806391781728
 20
-2267.317954571284
 30
0.0
 11
2320.806391781728
 21
-2267.317954571284
 31
0.0
  0
TEXT
  5
B1F4
330
1E
100
AcDbEntity
  8
001
100
AcDbText
 10
2183.827108781728
 20
-2313.819824571284
 30
0.0
 40
18.5
  1
ヘッドキャップ（Ｌ型）
 41
0.6756760000000001
100
AcDbText
  0
LINE
  5
B1F5
330
1E
100
AcDbEntity
  8
002
100
AcDbLine
 10
2255.055441781729
 20
-2419.446367571285
 30
0.0
 11
2260.373048781728
 21
-2414.128760571284
 31
0.0
  0
LINE
  5
B1F6
330
1E
100
AcDbEntity
  8
002
100
AcDbLine
 10
2234.329209781729
 20
-2426.030464571284
 30
0.0
 11
2245.357941781728
 21
-2415.001732571285
 31
0.0
  0
LWPOLYLINE
  5
B1F7
330
1E
100
AcDbEntity
  8
002
100
AcDbPolyline
 90
       19
 70
     0
 43
0.0
 10
2245.098050781729
 20
-2420.025285571284
 10
2243.790502781728
 20
-2420.272615571284
 10
2242.492908781728
 20
-2421.012721571283
 10
2241.215148781728
 20
-2422.239969571284
 10
2239.966949781728
 20
-2423.945016571284
 10
2238.757812781728
 20
-2426.114881571284
 10
2237.596945781728
 20
-2428.733045571283
 10
2236.493184781728
 20
-2431.779575571285
 10
2235.454933781728
 20
-2435.231279571284
 10
2234.490095781728
 20
-2439.061877571285
 10
2233.606017781728
 20
-2443.242208571284
 10
2232.809428781729
 20
-2447.740446571284
 10
2232.106393781728
 20
-2452.522346571284
 10
2231.502265781728
 20
-2457.551502571285
 10
2231.001643781728
 20
-2462.789629571285
 10
2230.608337781728
 20
-2468.196846571285
 10
2230.325343781728
 20
-2473.731989571284
 10
2230.154815781728
 20
-2479.352919571283
 10
2230.098050781728
 20
-2485.016842571283
  0
LINE
  5
B1F8
330
1E
100
AcDbEntity
  8
002
100
AcDbLine
 10
2226.162842781728
 20
-2462.481101571284
 30
0.0
 11
2231.552246781728
 21
-2457.091697571284
 31
0.0
  0
LINE
  5
B1F9
330
1E
100
AcDbEntity
  8
002
100
AcDbLine
 10
2228.490843781729
 20
-2446.010965571284
 30
0.0
 11
2234.214649781729
 21
-2440.287159571284
 31
0.0
  0
LINE
  5
B1FA
330
1E
100
AcDbEntity
  8
002
100
AcDbLine
 10
2225.211403781728
 20
-2477.574676571284
 30
0.0
 11
2230.382647781728
 21
-2472.403432571283
 31
0.0
  0
LINE
  5
B1FB
330
1E
100
AcDbEntity
  8
002
100
AcDbLine
 10
2225.171662781728
 20
-2479.016533571284
 30
0.0
 11
2230.159729781728
 21
-2479.147150571285
 31
0.0
  0
LINE
  5
B1FC
330
1E
100
AcDbEntity
  8
002
100
AcDbLine
 10
2225.149140781728
 20
-2480.016628571284
 30
0.0
 11
2230.140522781728
 21
-2480.147332571285
 31
0.0
  0
LINE
  5
B1FD
330
1E
100
AcDbEntity
  8
002
100
AcDbLine
 10
2300.100762781728
 20
-2416.827453571284
 30
0.0
 11
2305.418368781729
 21
-2411.509846571283
 31
0.0
  0
LINE
  5
B1FE
330
1E
100
AcDbEntity
  8
002
100
AcDbLine
 10
2285.085655781729
 20
-2417.700424571285
 30
0.0
 11
2290.403261781729
 21
-2412.382818571284
 31
0.0
  0
LINE
  5
B1FF
330
1E
100
AcDbEntity
  8
002
100
AcDbLine
 10
2270.070548781728
 20
-2418.573396571284
 30
0.0
 11
2275.388155781729
 21
-2413.255789571285
 31
0.0
  0
LINE
  5
B200
330
1E
100
AcDbEntity
  8
002
100
AcDbLine
 10
2315.115869781728
 20
-2415.954482571283
 30
0.0
 11
2320.433475781728
 21
-2410.636875571285
 31
0.0
  0
LINE
  5
B201
330
1E
100
AcDbEntity
  8
002
100
AcDbLine
 10
2330.130976781728
 20
-2415.081510571284
 30
0.0
 11
2335.448582781728
 21
-2409.763904571283
 31
0.0
  0
LINE
  5
B202
330
1E
100
AcDbEntity
  8
003
100
AcDbLine
 10
2225.412445869296
 20
-1821.490731979625
 30
0.0
 11
2187.288164869296
 21
-1868.092768979624
 31
0.0
  0
LINE
  5
B203
330
1E
100
AcDbEntity
  8
003
100
AcDbLine
 10
2187.288164869296
 20
-1868.092768979624
 30
0.0
 11
2205.688562869296
 21
-1868.092768979624
 31
0.0
  0
LINE
  5
B204
330
1E
100
AcDbEntity
  8
003
 48
0.25
100
AcDbLine
 10
2205.688562869296
 20
-1628.13155677957
 30
0.0
 11
2278.893903881027
 21
-1612.904845849131
 31
0.0
  0
LINE
  5
B205
330
1E
100
AcDbEntity
  8
003
100
AcDbLine
 10
2205.688562869296
 20
-1821.490731979625
 30
0.0
 11
2225.412445869296
 21
-1821.490731979625
 31
0.0
  0
LINE
  5
B206
330
1E
100
AcDbEntity
  8
003
100
AcDbLine
 10
2622.853951640524
 20
-2063.00547440594
 30
0.0
 11
2616.809992143063
 21
-2070.846773167182
 31
0.0
  0
ARC
  5
B207
330
1E
100
AcDbEntity
  8
002
100
AcDbCircle
 10
2598.579317925272
 20
-2068.363090084796
 30
0.0
 40
2.5
100
AcDbArc
 50
308.1896850000611
 51
31.81031500002374
  0
LINE
  5
B208
330
1E
100
AcDbEntity
  8
002
100
AcDbLine
 10
2506.380780901783
 20
-2069.029777628944
 30
0.0
 11
2501.987085106166
 21
-2072.485994054392
 31
0.0
  0
LINE
  5
B209
330
1E
100
AcDbEntity
  8
003
 62
     3
100
AcDbLine
 10
2491.881207494863
 20
-2063.005474405942
 30
0.0
 11
2485.114228963845
 21
-2070.052876349044
 31
0.0
  0
LINE
  5
B20A
330
1E
100
AcDbEntity
  8
003
 62
     3
100
AcDbLine
 10
2486.924213894779
 20
-2068.167885690247
 30
0.0
 11
2485.114228963845
 21
-2070.052876349044
 31
0.0
  0
LINE
  5
B20B
330
1E
100
AcDbEntity
  8
002
100
AcDbLine
 10
2594.814937210239
 20
-2075.315027788221
 30
0.0
 11
2507.297133052755
 21
-2067.498977212041
 31
0.0
  0
LINE
  5
B20C
330
1E
100
AcDbEntity
  8
002
100
AcDbLine
 10
2587.000769215228
 20
-2119.631376673771
 30
0.0
 11
2499.482965057744
 21
-2111.81532609759
 31
0.0
  0
LINE
  5
B20D
330
1E
100
AcDbEntity
  8
002
100
AcDbLine
 10
2581.791323885219
 20
-2149.175609264136
 30
0.0
 11
2494.273519727736
 21
-2141.359558687956
 31
0.0
  0
LINE
  5
B20E
330
1E
100
AcDbEntity
  8
002
100
AcDbLine
 10
2566.249231816789
 20
-2170.577421923224
 30
0.0
 11
2485.442396965169
 21
-2162.649492242395
 31
0.0
  0
LINE
  5
B20F
330
1E
100
AcDbEntity
  8
002
100
AcDbLine
 10
2579.186601220215
 20
-2163.947725559319
 30
0.0
 11
2491.668797062732
 21
-2156.131674983138
 31
0.0
  0
LINE
  5
B210
330
1E
100
AcDbEntity
  8
002
100
AcDbLine
 10
2585.413001317778
 20
-2157.429908300062
 30
0.0
 11
2488.047119630173
 21
-2147.877375947213
 31
0.0
  0
LINE
  5
B211
330
1E
100
AcDbEntity
  8
002
100
AcDbLine
 10
2588.017723982782
 20
-2142.65779200488
 30
0.0
 11
2490.651842295177
 21
-2133.105259652029
 31
0.0
  0
LINE
  5
B212
330
1E
100
AcDbEntity
  8
002
100
AcDbLine
 10
2584.396046550224
 20
-2134.403492968953
 30
0.0
 11
2496.87824239274
 21
-2126.587442392772
 31
0.0
  0
LWPOLYLINE
  5
B213
330
1E
100
AcDbEntity
  8
002
100
AcDbPolyline
 90
       46
 70
     0
 43
0.0
 10
2592.284962487402
 20
-2162.059420527355
 10
2586.760586130128
 20
-2164.527143903191
 10
2581.18903175197
 20
-2166.721223639924
 10
2575.556208578108
 20
-2168.559935322686
 10
2569.848026644882
 20
-2169.96155569507
 10
2564.050397147088
 20
-2170.844360689508
 10
2561.62295973067
 20
-2171.041328996922
 10
2559.17976287204
 20
-2171.145897952134
 10
2556.722768836866
 20
-2171.168448001304
 10
2554.253939253301
 20
-2171.119357447327
 10
2551.775236213362
 20
-2171.00900772117
 10
2549.288620360396
 20
-2170.847776952077
 10
2546.796052627966
 20
-2170.64604738218
 10
2544.299495629033
 20
-2170.414197488017
 10
2541.800910818102
 20
-2170.162606557292
 10
2539.302258317579
 20
-2169.901655673678
 10
2536.805500566773
 20
-2169.641724298524
 10
2534.312599020194
 20
-2169.393191719533
 10
2531.82551478505
 20
-2169.166439194025
 10
2529.346209489496
 20
-2168.971845024891
 10
2526.876645399199
 20
-2168.819789658295
 10
2524.418782810207
 20
-2168.720653193095
 10
2521.974583177028
 20
-2168.684814916996
 10
2519.546008765326
 20
-2168.72265527616
 10
2517.13502085596
 20
-2168.844554543091
 10
2514.743581077085
 20
-2169.06089102069
 10
2512.578758221896
 20
-2169.347771841195
 10
2510.431170406838
 20
-2169.718637412083
 10
2508.300125554656
 20
-2170.170116336301
 10
2506.184929792128
 20
-2170.698835884697
 10
2504.084893011617
 20
-2171.301425007514
 10
2501.999322498354
 20
-2171.974510164438
 10
2499.927525363927
 20
-2172.714718799961
 10
2497.868811327048
 20
-2173.518680849141
 10
2495.822487672952
 20
-2174.383022771658
 10
2493.787862498031
 20
-2175.304372185659
 10
2491.764243551384
 20
-2176.279358678895
 10
2489.750938291892
 20
-2177.30460772625
 10
2487.747256611917
 20
-2178.376748277964
 10
2485.752504464588
 20
-2179.492408589692
 10
2483.765991104756
 20
-2180.64821546842
 10
2481.787023470356
 20
-2181.840797343442
 10
2479.814910642593
 20
-2183.066782006553
 10
2477.84896054421
 20
-2184.3227980607
 10
2475.888481445248
 20
-2185.605472139217
 10
2473.93277929884
 20
-2186.911432497758
  0
LINE
  5
B214
330
1E
100
AcDbEntity
  8
002
100
AcDbLine
 10
2590.622446647786
 20
-2127.885675709696
 30
0.0
 11
2493.256564960181
 21
-2118.333143356847
 31
0.0
  0
LINE
  5
B215
330
1E
100
AcDbEntity
  8
002
100
AcDbLine
 10
2592.210214545235
 20
-2090.087144083403
 30
0.0
 11
2504.692410387752
 21
-2082.271093507222
 31
0.0
  0
LINE
  5
B216
330
1E
100
AcDbEntity
  8
002
100
AcDbLine
 10
2598.436614642798
 20
-2083.569326824146
 30
0.0
 11
2501.070732955193
 21
-2074.016794471297
 31
0.0
  0
LINE
  5
B217
330
1E
100
AcDbEntity
  8
002
100
AcDbLine
 10
2595.831891977794
 20
-2098.34144311933
 30
0.0
 11
2498.466010290189
 21
-2088.788910766479
 31
0.0
  0
LINE
  5
B218
330
1E
100
AcDbEntity
  8
002
100
AcDbLine
 10
2593.22716931279
 20
-2113.113559414514
 30
0.0
 11
2495.861287625185
 21
-2103.561027061663
 31
0.0
  0
LINE
  5
B219
330
1E
100
AcDbEntity
  8
002
100
AcDbLine
 10
2589.605491880231
 20
-2104.859260378587
 30
0.0
 11
2502.087687722748
 21
-2097.043209802406
 31
0.0
  0
LINE
  5
B21A
330
1E
100
AcDbEntity
  8
002
100
AcDbLine
 10
2523.098050781729
 20
-2392.516842571283
 30
0.0
 11
2475.098050781729
 21
-2392.516842571283
 31
0.0
  0
LINE
  5
B21B
330
1E
100
AcDbEntity
  8
002
100
AcDbLine
 10
2492.499973781728
 20
-2404.016842571283
 30
0.0
 11
2524.232024781728
 21
-2404.016842571283
 31
0.0
  0
LINE
  5
B21C
330
1E
100
AcDbEntity
  8
002
100
AcDbLine
 10
2495.098050781729
 20
-2402.516842571284
 30
0.0
 11
2525.098050781728
 21
-2402.516842571284
 31
0.0
  0
LINE
  5
B21D
330
1E
100
AcDbEntity
  8
002
100
AcDbLine
 10
2498.259136781729
 20
-2402.516842571284
 30
0.0
 11
2508.259136781729
 21
-2392.516842571283
 31
0.0
  0
LINE
  5
B21E
330
1E
100
AcDbEntity
  8
002
100
AcDbLine
 10
2418.181883781728
 20
-2404.339446571285
 30
0.0
 11
2424.217110781728
 21
-2400.567429571285
 31
0.0
  0
LINE
  5
B21F
330
1E
100
AcDbEntity
  8
002
100
AcDbLine
 10
2418.183082781728
 20
-2409.345995571284
 30
0.0
 11
2423.880873781728
 21
-2405.778862571283
 31
0.0
  0
LINE
  5
B220
330
1E
100
AcDbEntity
  8
002
100
AcDbLine
 10
2360.161190781729
 20
-2413.335568571285
 30
0.0
 11
2365.478796781729
 21
-2408.017961571284
 31
0.0
  0
LINE
  5
B221
330
1E
100
AcDbEntity
  8
002
100
AcDbLine
 10
2345.146083781727
 20
-2414.208539571284
 30
0.0
 11
2350.463689781728
 21
-2408.890932571285
 31
0.0
  0
LINE
  5
B222
330
1E
100
AcDbEntity
  8
002
100
AcDbLine
 10
2375.176297781728
 20
-2412.462596571284
 30
0.0
 11
2380.493903781728
 21
-2407.144990571285
 31
0.0
  0
ARC
  5
B223
330
1E
100
AcDbEntity
  8
002
100
AcDbCircle
 10
2415.531888781728
 20
-2400.099454571284
 30
0.0
 40
5.0
100
AcDbArc
 50
273.3274039999901
 51
302.0053830000178
  0
ARC
  5
B224
330
1E
100
AcDbEntity
  8
002
100
AcDbCircle
 10
2415.529871781729
 20
-2405.108015571284
 30
0.0
 40
5.0
100
AcDbArc
 50
273.3274039999901
 51
302.0488480000156
  0
LINE
  5
B225
330
1E
100
AcDbEntity
  8
002
100
AcDbLine
 10
2390.191404781728
 20
-2411.589625571285
 30
0.0
 11
2395.509010781728
 21
-2406.272018571284
 31
0.0
  0
LINE
  5
B226
330
1E
100
AcDbEntity
  8
002
100
AcDbLine
 10
2405.206511781729
 20
-2410.716654571284
 30
0.0
 11
2410.524117781728
 21
-2405.399047571283
 31
0.0
  0
LINE
  5
B227
330
1E
100
AcDbEntity
  8
002
100
AcDbLine
 10
2495.098050781729
 20
-2437.864029571285
 30
0.0
 11
2495.098050781729
 21
-2402.516842571284
 31
0.0
  0
LINE
  5
B228
330
1E
100
AcDbEntity
  8
002
100
AcDbLine
 10
2492.499973781728
 20
-2404.016842571283
 30
0.0
 11
2492.499973781728
 21
-2480.016842571283
 31
0.0
  0
LINE
  5
B229
330
1E
100
AcDbEntity
  8
002
100
AcDbLine
 10
2473.452356781728
 20
-2498.720617571283
 30
0.0
 11
2436.033420781728
 21
-2486.985208571284
 31
0.0
  0
LINE
  5
B22A
330
1E
100
AcDbEntity
  8
002
100
AcDbLine
 10
2436.033420781728
 20
-2487.985208571284
 30
0.0
 11
2472.452356781728
 21
-2499.556688571285
 31
0.0
  0
ARC
  5
B22B
330
1E
100
AcDbEntity
  8
002
100
AcDbCircle
 10
2436.387726781728
 20
-2485.016842571283
 30
0.0
 40
2.0
100
AcDbArc
 50
180.0
 51
259.7960260000043
  0
ARC
  5
B22C
330
1E
100
AcDbEntity
  8
002
100
AcDbCircle
 10
2436.387726781728
 20
-2486.016842571283
 30
0.0
 40
2.0
100
AcDbArc
 50
180.0
 51
259.7960260000043
  0
CIRCLE
  5
B22D
330
1E
100
AcDbEntity
  8
002
100
AcDbCircle
 10
2450.098050781729
 20
-2518.452763571284
 30
0.0
 40
3.5
  0
LINE
  5
B22E
330
1E
100
AcDbEntity
  8
002
  6
CENTER
100
AcDbLine
 10
2450.098050781729
 20
-2509.557594571284
 30
0.0
 11
2450.098050781729
 21
-2528.519504571284
 31
0.0
  0
CIRCLE
  5
B22F
330
1E
100
AcDbEntity
  8
002
100
AcDbCircle
 10
2450.098050781729
 20
-2518.452763571284
 30
0.0
 40
5.0
  0
LINE
  5
B230
330
1E
100
AcDbEntity
  8
002
  6
CENTER
100
AcDbLine
 10
2459.820019781728
 20
-2518.452763571284
 30
0.0
 11
2440.743695781728
 21
-2518.452763571284
 31
0.0
  0
ARC
  5
B231
330
1E
100
AcDbEntity
  8
002
100
AcDbCircle
 10
2473.098050781729
 20
-2500.688983571285
 30
0.0
 40
2.0
100
AcDbArc
 50
0.0
 51
79.79602600000434
  0
ARC
  5
B232
330
1E
100
AcDbEntity
  8
002
100
AcDbCircle
 10
2472.098050781729
 20
-2501.525054571284
 30
0.0
 40
2.0
100
AcDbArc
 50
0.0
 51
79.79602600000434
  0
ARC
  5
B233
330
1E
100
AcDbEntity
  8
002
100
AcDbCircle
 10
2473.098050781729
 20
-2541.216543571285
 30
0.0
 40
2.0
100
AcDbArc
 50
280.2039739999956
 51
0.0
  0
ARC
  5
B234
330
1E
100
AcDbEntity
  8
002
100
AcDbCircle
 10
2472.098050781729
 20
-2540.380472571285
 30
0.0
 40
2.0
100
AcDbArc
 50
280.2039739999956
 51
0.0
  0
LINE
  5
B235
330
1E
100
AcDbEntity
  8
002
100
AcDbLine
 10
2475.098050781729
 20
-2541.216543571285
 30
0.0
 11
2475.098050781729
 21
-2500.688983571285
 31
0.0
  0
LINE
  5
B236
330
1E
100
AcDbEntity
  8
002
100
AcDbLine
 10
2474.098050781729
 20
-2540.380472571285
 30
0.0
 11
2474.098050781729
 21
-2501.525054571284
 31
0.0
  0
LINE
  5
B237
330
1E
100
AcDbEntity
  8
002
100
AcDbLine
 10
2426.534083781729
 20
-2405.016842571283
 30
0.0
 11
2492.499973781728
 21
-2405.016842571283
 31
0.0
  0
LINE
  5
B238
330
1E
100
AcDbEntity
  8
002
100
AcDbLine
 10
2426.125402781728
 20
-2399.862739571284
 30
0.0
 11
2475.098050781729
 21
-2392.516842571283
 31
0.0
  0
LINE
  5
B239
330
1E
100
AcDbEntity
  8
002
100
AcDbLine
 10
2453.332729781728
 20
-2405.016842571283
 30
0.0
 11
2464.197673781729
 21
-2394.151898571284
 31
0.0
  0
LINE
  5
B23A
330
1E
100
AcDbEntity
  8
002
100
AcDbLine
 10
2439.190594781728
 20
-2405.016842571283
 30
0.0
 11
2447.559866781728
 21
-2396.647569571285
 31
0.0
  0
LINE
  5
B23B
330
1E
100
AcDbEntity
  8
002
100
AcDbLine
 10
2424.699875781728
 20
-2405.365425571284
 30
0.0
 11
2430.922060781728
 21
-2399.143240571283
 31
0.0
  0
ARC
  5
B23C
330
1E
100
AcDbEntity
  8
002
100
AcDbCircle
 10
2426.534083781729
 20
-2410.016842571284
 30
0.0
 40
5.0
100
AcDbArc
 50
90.0
 51
122.0488480000156
  0
ARC
  5
B23D
330
1E
100
AcDbEntity
  8
002
100
AcDbCircle
 10
2426.867105781728
 20
-2404.807421571284
 30
0.0
 40
5.0
100
AcDbArc
 50
98.5307659999885
 51
122.0053830000178
  0
LINE
  5
B23E
330
1E
100
AcDbEntity
  8
002
100
AcDbLine
 10
2492.520376781729
 20
-2404.005063571285
 30
0.0
 11
2495.098050781729
 21
-2402.516842571284
 31
0.0
  0
LINE
  5
B23F
330
1E
100
AcDbEntity
  8
002
100
AcDbLine
 10
2467.474865781728
 20
-2405.016842571283
 30
0.0
 11
2479.974865781728
 21
-2392.516842571283
 31
0.0
  0
LINE
  5
B240
330
1E
100
AcDbEntity
  8
002
100
AcDbLine
 10
2481.617001781728
 20
-2405.016842571283
 30
0.0
 11
2494.117001781729
 21
-2392.516842571283
 31
0.0
  0
LINE
  5
B241
330
1E
100
AcDbEntity
  8
003
 62
     3
100
AcDbLine
 10
2466.722682892134
 20
-2188.410042185372
 30
0.0
 11
2465.690287552843
 21
-2190.865875238376
 31
0.0
  0
LINE
  5
B242
330
1E
100
AcDbEntity
  8
003
 62
     3
100
AcDbLine
 10
2466.722682892135
 20
-2188.410042185372
 30
0.0
 11
2465.690287552843
 21
-2190.865875238376
 31
0.0
  0
LINE
  5
B243
330
1E
100
AcDbEntity
  8
003
 62
     3
100
AcDbLine
 10
2465.690287552843
 20
-2190.865875238376
 30
0.0
 11
2463.815617979272
 21
-2193.142237338455
 31
0.0
  0
LINE
  5
B244
330
1E
100
AcDbEntity
  8
003
 62
     3
100
AcDbLine
 10
2465.690287552843
 20
-2190.865875238376
 30
0.0
 11
2463.815617979272
 21
-2193.142237338455
 31
0.0
  0
LINE
  5
B245
330
1E
100
AcDbEntity
  8
003
 62
     3
100
AcDbLine
 10
2463.815617979272
 20
-2193.142237338455
 30
0.0
 11
2461.583194127425
 21
-2195.331539422797
 31
0.0
  0
LINE
  5
B246
330
1E
100
AcDbEntity
  8
003
 62
     3
100
AcDbLine
 10
2463.815617979272
 20
-2193.142237338455
 30
0.0
 11
2461.583194127425
 21
-2195.331539422797
 31
0.0
  0
LINE
  5
B247
330
1E
100
AcDbEntity
  8
003
 62
     3
100
AcDbLine
 10
2459.477538617513
 20
-2197.526188836655
 30
0.0
 11
2457.983170247084
 21
-2199.818597328369
 31
0.0
  0
LINE
  5
B248
330
1E
100
AcDbEntity
  8
003
 62
     3
100
AcDbLine
 10
2459.477538617514
 20
-2197.526188836655
 30
0.0
 11
2457.983170247084
 21
-2199.818597328369
 31
0.0
  0
LINE
  5
B249
330
1E
100
AcDbEntity
  8
003
 62
     3
100
AcDbLine
 10
2461.583194127425
 20
-2195.331539422797
 30
0.0
 11
2459.477538617513
 21
-2197.526188836655
 31
0.0
  0
LINE
  5
B24A
330
1E
100
AcDbEntity
  8
003
 62
     3
100
AcDbLine
 10
2461.583194127425
 20
-2195.331539422797
 30
0.0
 11
2459.477538617514
 21
-2197.526188836655
 31
0.0
  0
LINE
  5
B24B
330
1E
100
AcDbEntity
  8
003
 62
     3
100
AcDbLine
 10
2465.807150012163
 20
-2168.575580528815
 30
0.0
 11
2463.700023231304
 21
-2170.291877206234
 31
0.0
  0
LINE
  5
B24C
330
1E
100
AcDbEntity
  8
003
 62
     3
100
AcDbLine
 10
2465.807150012163
 20
-2168.575580528815
 30
0.0
 11
2463.700023231304
 21
-2170.291877206234
 31
0.0
  0
LINE
  5
B24D
330
1E
100
AcDbEntity
  8
003
 62
     3
100
AcDbLine
 10
2463.435788449336
 20
-2178.341195550234
 30
0.0
 11
2465.093579672001
 21
-2181.769019320348
 31
0.0
  0
LINE
  5
B24E
330
1E
100
AcDbEntity
  8
003
 62
     3
100
AcDbLine
 10
2463.435788449336
 20
-2178.341195550234
 30
0.0
 11
2465.093579672002
 21
-2181.769019320348
 31
0.0
  0
LINE
  5
B24F
330
1E
100
AcDbEntity
  8
003
 62
     3
100
AcDbLine
 10
2462.367920282799
 20
-2172.208058049404
 30
0.0
 11
2462.264955138633
 21
-2175.091732839399
 31
0.0
  0
LINE
  5
B250
330
1E
100
AcDbEntity
  8
003
 62
     3
100
AcDbLine
 10
2462.3679202828
 20
-2172.208058049404
 30
0.0
 11
2462.264955138633
 21
-2175.091732839399
 31
0.0
  0
LINE
  5
B251
330
1E
100
AcDbEntity
  8
003
 62
     3
100
AcDbLine
 10
2462.264955138633
 20
-2175.091732839399
 30
0.0
 11
2463.435788449336
 21
-2178.341195550234
 31
0.0
  0
LINE
  5
B252
330
1E
100
AcDbEntity
  8
003
 62
     3
100
AcDbLine
 10
2462.264955138633
 20
-2175.091732839399
 30
0.0
 11
2463.435788449336
 21
-2178.341195550234
 31
0.0
  0
LINE
  5
B253
330
1E
100
AcDbEntity
  8
003
 62
     3
100
AcDbLine
 10
2463.700023231304
 20
-2170.291877206234
 30
0.0
 11
2462.367920282799
 21
-2172.208058049404
 31
0.0
  0
LINE
  5
B254
330
1E
100
AcDbEntity
  8
003
 62
     3
100
AcDbLine
 10
2463.700023231304
 20
-2170.291877206234
 30
0.0
 11
2462.3679202828
 21
-2172.208058049404
 31
0.0
  0
ARC
  5
B255
330
1E
100
AcDbEntity
  8
002
100
AcDbCircle
 10
2500.928029672719
 20
-2089.223031210647
 30
0.0
 40
2.5
100
AcDbArc
 50
128.1896850000611
 51
211.8103150000237
  0
LINE
  5
B256
330
1E
100
AcDbEntity
  8
002
100
AcDbLine
 10
2503.776058236779
 20
-2083.801893924128
 30
0.0
 11
2499.382362441162
 21
-2087.258110349574
 31
0.0
  0
LINE
  5
B257
330
1E
100
AcDbEntity
  8
002
100
AcDbLine
 10
2501.40825773151
 20
-2075.76868722097
 30
0.0
 11
2504.354885611435
 21
-2080.519200757549
 31
0.0
  0
ARC
  5
B258
330
1E
100
AcDbEntity
  8
002
100
AcDbCircle
 10
2503.532752337723
 20
-2074.450914915463
 30
0.0
 40
2.5
100
AcDbArc
 50
128.1896850000611
 51
211.8103150000237
  0
ARC
  5
B259
330
1E
100
AcDbEntity
  8
002
100
AcDbCircle
 10
2502.230391005221
 20
-2081.836973063056
 30
0.0
 40
2.5
100
AcDbArc
 50
308.1896850000611
 51
31.81031500002374
  0
LINE
  5
B25A
330
1E
100
AcDbEntity
  8
003
 62
     3
100
AcDbLine
 10
2482.29607527444
 20
-2074.063293341973
 30
0.0
 11
2482.11829704309
 21
-2076.982692712361
 31
0.0
  0
LINE
  5
B25B
330
1E
100
AcDbEntity
  8
003
 62
     3
100
AcDbLine
 10
2482.11829704309
 20
-2076.982692712361
 30
0.0
 11
2482.91197709539
 21
-2080.110026027227
 31
0.0
  0
LINE
  5
B25C
330
1E
100
AcDbEntity
  8
003
 62
     3
100
AcDbLine
 10
2482.296075274439
 20
-2074.063293341973
 30
0.0
 11
2482.11829704309
 21
-2076.982692712361
 31
0.0
  0
LINE
  5
B25D
330
1E
100
AcDbEntity
  8
003
 62
     3
100
AcDbLine
 10
2482.11829704309
 20
-2076.982692712361
 30
0.0
 11
2482.91197709539
 21
-2080.110026027227
 31
0.0
  0
LINE
  5
B25E
330
1E
100
AcDbEntity
  8
003
 62
     3
100
AcDbLine
 10
2484.771250535748
 20
-2086.348848199278
 30
0.0
 11
2484.515614324667
 21
-2089.140513099755
 31
0.0
  0
LINE
  5
B25F
330
1E
100
AcDbEntity
  8
003
100
AcDbLine
 10
2484.771250535748
 20
-2086.348848199278
 30
0.0
 11
2484.515614324667
 21
-2089.140513099755
 31
0.0
  0
LINE
  5
B260
330
1E
100
AcDbEntity
  8
003
 62
     3
100
AcDbLine
 10
2484.016499473315
 20
-2083.285382119371
 30
0.0
 11
2484.771250535748
 21
-2086.348848199278
 31
0.0
  0
LINE
  5
B261
330
1E
100
AcDbEntity
  8
003
 62
     3
100
AcDbLine
 10
2484.016499473315
 20
-2083.285382119371
 30
0.0
 11
2484.771250535748
 21
-2086.348848199278
 31
0.0
  0
LINE
  5
B262
330
1E
100
AcDbEntity
  8
003
 62
     3
100
AcDbLine
 10
2483.422762135949
 20
-2071.988466175505
 30
0.0
 11
2482.29607527444
 21
-2074.063293341973
 31
0.0
  0
LINE
  5
B263
330
1E
100
AcDbEntity
  8
003
 62
     3
100
AcDbLine
 10
2482.91197709539
 20
-2080.110026027227
 30
0.0
 11
2484.016499473315
 21
-2083.285382119371
 31
0.0
  0
LINE
  5
B264
330
1E
100
AcDbEntity
  8
003
 62
     3
100
AcDbLine
 10
2483.422762135949
 20
-2071.988466175504
 30
0.0
 11
2482.296075274439
 21
-2074.063293341973
 31
0.0
  0
LINE
  5
B265
330
1E
100
AcDbEntity
  8
003
 62
     3
100
AcDbLine
 10
2482.91197709539
 20
-2080.110026027227
 30
0.0
 11
2484.016499473315
 21
-2083.285382119371
 31
0.0
  0
LINE
  5
B266
330
1E
100
AcDbEntity
  8
003
 62
     3
100
AcDbLine
 10
2485.114228963845
 20
-2070.052876349044
 30
0.0
 11
2483.422762135949
 21
-2071.988466175505
 31
0.0
  0
LINE
  5
B267
330
1E
100
AcDbEntity
  8
003
100
AcDbLine
 10
2485.114228963845
 20
-2070.052876349044
 30
0.0
 11
2483.422762135949
 21
-2071.988466175504
 31
0.0
  0
LINE
  5
B268
330
1E
100
AcDbEntity
  8
002
100
AcDbLine
 10
2498.566612906771
 20
-2113.346126514494
 30
0.0
 11
2494.172917111153
 21
-2116.802342939942
 31
0.0
  0
ARC
  5
B269
330
1E
100
AcDbEntity
  8
002
100
AcDbCircle
 10
2495.718584342711
 20
-2118.767263801013
 30
0.0
 40
2.5
100
AcDbArc
 50
128.1896850000611
 51
211.8103150000237
  0
LINE
  5
B26A
330
1E
100
AcDbEntity
  8
002
100
AcDbLine
 10
2501.171335571775
 20
-2098.574010219312
 30
0.0
 11
2496.777639776158
 21
-2102.030226644758
 31
0.0
  0
ARC
  5
B26B
330
1E
100
AcDbEntity
  8
002
100
AcDbCircle
 10
2499.625668340217
 20
-2096.609089358238
 30
0.0
 40
2.5
100
AcDbArc
 50
308.1896850000611
 51
31.81031500002374
  0
ARC
  5
B26C
330
1E
100
AcDbEntity
  8
002
100
AcDbCircle
 10
2497.020945675213
 20
-2111.381205653422
 30
0.0
 40
2.5
100
AcDbArc
 50
308.1896850000611
 51
31.81031500002374
  0
LINE
  5
B26D
330
1E
100
AcDbEntity
  8
002
100
AcDbLine
 10
2496.198812401502
 20
-2105.312919811338
 30
0.0
 11
2499.145440281427
 21
-2110.063433347915
 31
0.0
  0
ARC
  5
B26E
330
1E
100
AcDbEntity
  8
002
100
AcDbCircle
 10
2498.323307007715
 20
-2103.995147505831
 30
0.0
 40
2.5
100
AcDbArc
 50
128.1896850000611
 51
211.8103150000237
  0
LINE
  5
B26F
330
1E
100
AcDbEntity
  8
003
 62
     3
100
AcDbLine
 10
2483.255441183402
 20
-2091.119907783146
 30
0.0
 11
2481.365488378427
 21
-2092.931059385155
 31
0.0
  0
LINE
  5
B270
330
1E
100
AcDbEntity
  8
003
 62
     3
100
AcDbLine
 10
2483.255441183403
 20
-2091.119907783146
 30
0.0
 11
2481.365488378427
 21
-2092.931059385155
 31
0.0
  0
LINE
  5
B271
330
1E
100
AcDbEntity
  8
003
 62
     3
100
AcDbLine
 10
2477.081624672086
 20
-2115.970110209666
 30
0.0
 11
2474.993649027632
 21
-2117.703405697142
 31
0.0
  0
LINE
  5
B272
330
1E
100
AcDbEntity
  8
003
 62
     3
100
AcDbLine
 10
2477.081624672086
 20
-2115.970110209666
 30
0.0
 11
2474.993649027632
 21
-2117.703405697142
 31
0.0
  0
LINE
  5
B273
330
1E
100
AcDbEntity
  8
003
 62
     3
100
AcDbLine
 10
2474.993649027632
 20
-2117.703405697142
 30
0.0
 11
2473.193860551258
 21
-2119.491939556166
 31
0.0
  0
LINE
  5
B274
330
1E
100
AcDbEntity
  8
003
 62
     3
100
AcDbLine
 10
2474.993649027632
 20
-2117.703405697142
 30
0.0
 11
2473.193860551258
 21
-2119.491939556166
 31
0.0
  0
LINE
  5
B275
330
1E
100
AcDbEntity
  8
003
 62
     3
100
AcDbLine
 10
2481.365488378427
 20
-2092.931059385155
 30
0.0
 11
2479.305317334843
 21
-2094.687158529694
 31
0.0
  0
LINE
  5
B276
330
1E
100
AcDbEntity
  8
003
 62
     3
100
AcDbLine
 10
2481.365488378427
 20
-2092.931059385155
 30
0.0
 11
2479.305317334844
 21
-2094.687158529694
 31
0.0
  0
LINE
  5
B277
330
1E
100
AcDbEntity
  8
003
 62
     3
100
AcDbLine
 10
2477.53449173759
 20
-2096.501400300847
 30
0.0
 11
2476.512571332369
 21
-2098.486979088111
 31
0.0
  0
LINE
  5
B278
330
1E
100
AcDbEntity
  8
003
 62
     3
100
AcDbLine
 10
2476.512571332369
 20
-2098.486979088111
 30
0.0
 11
2476.637364386527
 21
-2101.084517621509
 31
0.0
  0
LINE
  5
B279
330
1E
100
AcDbEntity
  8
003
 62
     3
100
AcDbLine
 10
2477.53449173759
 20
-2096.501400300847
 30
0.0
 11
2476.512571332369
 21
-2098.486979088111
 31
0.0
  0
LINE
  5
B27A
330
1E
100
AcDbEntity
  8
003
 62
     3
100
AcDbLine
 10
2476.512571332369
 20
-2098.486979088111
 30
0.0
 11
2476.637364386527
 21
-2101.084517621509
 31
0.0
  0
LINE
  5
B27B
330
1E
100
AcDbEntity
  8
003
 62
     3
100
AcDbLine
 10
2479.305317334843
 20
-2094.687158529694
 30
0.0
 11
2477.53449173759
 21
-2096.501400300847
 31
0.0
  0
LINE
  5
B27C
330
1E
100
AcDbEntity
  8
003
 62
     3
100
AcDbLine
 10
2479.305317334844
 20
-2094.687158529694
 30
0.0
 11
2477.53449173759
 21
-2096.501400300847
 31
0.0
  0
LINE
  5
B27D
330
1E
100
AcDbEntity
  8
003
 62
     3
100
AcDbLine
 10
2480.104472937325
 20
-2109.630144984696
 30
0.0
 11
2480.104113895743
 21
-2112.223057809838
 31
0.0
  0
LINE
  5
B27E
330
1E
100
AcDbEntity
  8
003
 62
     3
100
AcDbLine
 10
2480.104472937325
 20
-2109.630144984696
 30
0.0
 11
2480.104113895743
 21
-2112.223057809837
 31
0.0
  0
LINE
  5
B27F
330
1E
100
AcDbEntity
  8
003
 62
     3
100
AcDbLine
 10
2478.953280361237
 20
-2114.180508741797
 30
0.0
 11
2477.081624672086
 21
-2115.970110209666
 31
0.0
  0
LINE
  5
B280
330
1E
100
AcDbEntity
  8
003
 62
     3
100
AcDbLine
 10
2478.953280361237
 20
-2114.180508741797
 30
0.0
 11
2477.081624672086
 21
-2115.970110209666
 31
0.0
  0
LINE
  5
B281
330
1E
100
AcDbEntity
  8
003
 62
     3
100
AcDbLine
 10
2477.715006989137
 20
-2103.908884779071
 30
0.0
 11
2479.089406295761
 21
-2106.808091173669
 31
0.0
  0
LINE
  5
B282
330
1E
100
AcDbEntity
  8
003
 62
     3
100
AcDbLine
 10
2477.715006989137
 20
-2103.908884779071
 30
0.0
 11
2479.089406295761
 21
-2106.808091173669
 31
0.0
  0
LINE
  5
B283
330
1E
100
AcDbEntity
  8
003
 62
     3
100
AcDbLine
 10
2480.104113895743
 20
-2112.223057809838
 30
0.0
 11
2478.953280361237
 21
-2114.180508741797
 31
0.0
  0
LINE
  5
B284
330
1E
100
AcDbEntity
  8
003
 62
     3
100
AcDbLine
 10
2480.104113895743
 20
-2112.223057809837
 30
0.0
 11
2478.953280361237
 21
-2114.180508741797
 31
0.0
  0
LINE
  5
B285
330
1E
100
AcDbEntity
  8
003
 62
     3
100
AcDbLine
 10
2479.089406295761
 20
-2106.808091173669
 30
0.0
 11
2480.104472937325
 21
-2109.630144984696
 31
0.0
  0
LINE
  5
B286
330
1E
100
AcDbEntity
  8
003
 62
     3
100
AcDbLine
 10
2479.089406295761
 20
-2106.808091173669
 30
0.0
 11
2480.104472937325
 21
-2109.630144984696
 31
0.0
  0
LINE
  5
B287
330
1E
100
AcDbEntity
  8
003
 62
     3
100
AcDbLine
 10
2476.637364386527
 20
-2101.084517621509
 30
0.0
 11
2477.715006989137
 21
-2103.908884779071
 31
0.0
  0
LINE
  5
B288
330
1E
100
AcDbEntity
  8
003
 62
     3
100
AcDbLine
 10
2476.637364386527
 20
-2101.084517621509
 30
0.0
 11
2477.715006989137
 21
-2103.908884779071
 31
0.0
  0
LINE
  5
B289
330
1E
100
AcDbEntity
  8
003
 62
     3
100
AcDbLine
 10
2484.515614324667
 20
-2089.140513099755
 30
0.0
 11
2483.255441183402
 21
-2091.119907783146
 31
0.0
  0
LINE
  5
B28A
330
1E
100
AcDbEntity
  8
003
 62
     3
100
AcDbLine
 10
2484.515614324667
 20
-2089.140513099755
 30
0.0
 11
2483.255441183403
 21
-2091.119907783146
 31
0.0
  0
LINE
  5
B28B
330
1E
100
AcDbEntity
  8
002
100
AcDbLine
 10
2498.803535066506
 20
-2090.540803516154
 30
0.0
 11
2501.75016294643
 21
-2095.291317052731
 31
0.0
  0
LINE
  5
B28C
330
1E
100
AcDbEntity
  8
002
100
AcDbLine
 10
2493.357167576764
 20
-2142.89035910486
 30
0.0
 11
2488.963471781146
 21
-2146.346575530307
 31
0.0
  0
ARC
  5
B28D
330
1E
100
AcDbEntity
  8
002
100
AcDbCircle
 10
2491.811500345205
 20
-2140.925438243788
 30
0.0
 40
2.5
100
AcDbArc
 50
308.1896850000611
 51
31.81031500002374
  0
ARC
  5
B28E
330
1E
100
AcDbEntity
  8
002
100
AcDbCircle
 10
2493.113861677707
 20
-2133.539380096197
 30
0.0
 40
2.5
100
AcDbArc
 50
128.1896850000611
 51
211.8103150000237
  0
ARC
  5
B28F
330
1E
100
AcDbEntity
  8
002
100
AcDbCircle
 10
2494.41622301021
 20
-2126.153321948604
 30
0.0
 40
2.5
100
AcDbArc
 50
308.1896850000611
 51
31.81031500002374
  0
LINE
  5
B290
330
1E
100
AcDbEntity
  8
002
100
AcDbLine
 10
2495.961890241767
 20
-2128.118242809678
 30
0.0
 11
2491.56819444615
 21
-2131.574459235124
 31
0.0
  0
LINE
  5
B291
330
1E
100
AcDbEntity
  8
002
100
AcDbLine
 10
2490.989367071494
 20
-2134.857152401704
 30
0.0
 11
2493.935994951419
 21
-2139.607665938281
 31
0.0
  0
LINE
  5
B292
330
1E
100
AcDbEntity
  8
003
 62
     3
100
AcDbLine
 10
2468.222296475325
 20
-2142.731929176532
 30
0.0
 11
2467.699966089503
 21
-2146.513005502316
 31
0.0
  0
LINE
  5
B293
330
1E
100
AcDbEntity
  8
003
 62
     3
100
AcDbLine
 10
2468.222296475326
 20
-2142.731929176532
 30
0.0
 11
2467.699966089504
 21
-2146.513005502314
 31
0.0
  0
LINE
  5
B294
330
1E
100
AcDbEntity
  8
003
 62
     3
100
AcDbLine
 10
2469.667093992942
 20
-2140.922173375447
 30
0.0
 11
2468.222296475325
 21
-2142.731929176532
 31
0.0
  0
LINE
  5
B295
330
1E
100
AcDbEntity
  8
003
 62
     3
100
AcDbLine
 10
2469.667093992942
 20
-2140.922173375447
 30
0.0
 11
2468.222296475326
 21
-2142.731929176532
 31
0.0
  0
LINE
  5
B296
330
1E
100
AcDbEntity
  8
003
 62
     3
100
AcDbLine
 10
2472.186762253466
 20
-2121.447256428893
 30
0.0
 11
2472.383734849113
 21
-2123.885519049125
 31
0.0
  0
LINE
  5
B297
330
1E
100
AcDbEntity
  8
003
 62
     3
100
AcDbLine
 10
2472.383734849113
 20
-2123.885519049125
 30
0.0
 11
2473.531546189898
 21
-2126.521558763163
 31
0.0
  0
LINE
  5
B298
330
1E
100
AcDbEntity
  8
003
 62
     3
100
AcDbLine
 10
2473.531546189898
 20
-2126.521558763163
 30
0.0
 11
2474.999435542946
 21
-2129.213802303147
 31
0.0
  0
LINE
  5
B299
330
1E
100
AcDbEntity
  8
003
 62
     3
100
AcDbLine
 10
2474.999435542946
 20
-2129.213802303147
 30
0.0
 11
2476.156646925775
 21
-2131.820678254267
 31
0.0
  0
LINE
  5
B29A
330
1E
100
AcDbEntity
  8
003
 62
     3
100
AcDbLine
 10
2476.156646925775
 20
-2131.820678254267
 30
0.0
 11
2476.372420416671
 21
-2134.200614507119
 31
0.0
  0
LINE
  5
B29B
330
1E
100
AcDbEntity
  8
003
 62
     3
100
AcDbLine
 10
2476.372420416671
 20
-2134.200614507119
 30
0.0
 11
2475.428755197878
 21
-2136.02770436189
 31
0.0
  0
LINE
  5
B29C
330
1E
100
AcDbEntity
  8
003
 62
     3
100
AcDbLine
 10
2472.186762253467
 20
-2121.447256428893
 30
0.0
 11
2472.383734849113
 21
-2123.885519049125
 31
0.0
  0
LINE
  5
B29D
330
1E
100
AcDbEntity
  8
003
 62
     3
100
AcDbLine
 10
2472.383734849113
 20
-2123.885519049125
 30
0.0
 11
2473.531546189898
 21
-2126.521558763163
 31
0.0
  0
LINE
  5
B29E
330
1E
100
AcDbEntity
  8
003
 62
     3
100
AcDbLine
 10
2473.531546189898
 20
-2126.521558763163
 30
0.0
 11
2474.999435542946
 21
-2129.213802303147
 31
0.0
  0
LINE
  5
B29F
330
1E
100
AcDbEntity
  8
003
 62
     3
100
AcDbLine
 10
2474.999435542946
 20
-2129.213802303147
 30
0.0
 11
2476.156646925775
 21
-2131.820678254267
 31
0.0
  0
LINE
  5
B2A0
330
1E
100
AcDbEntity
  8
003
 62
     3
100
AcDbLine
 10
2476.156646925775
 20
-2131.820678254267
 30
0.0
 11
2476.372420416671
 21
-2134.200614507119
 31
0.0
  0
LINE
  5
B2A1
330
1E
100
AcDbEntity
  8
003
 62
     3
100
AcDbLine
 10
2476.372420416671
 20
-2134.200614507119
 30
0.0
 11
2475.428755197879
 21
-2136.02770436189
 31
0.0
  0
LINE
  5
B2A2
330
1E
100
AcDbEntity
  8
003
 62
     3
100
AcDbLine
 10
2471.640298050473
 20
-2139.276324521913
 30
0.0
 11
2469.667093992942
 21
-2140.922173375447
 31
0.0
  0
LINE
  5
B2A3
330
1E
100
AcDbEntity
  8
003
 62
     3
100
AcDbLine
 10
2471.640298050472
 20
-2139.276324521913
 30
0.0
 11
2469.667093992942
 21
-2140.922173375447
 31
0.0
  0
LINE
  5
B2A4
330
1E
100
AcDbEntity
  8
003
 62
     3
100
AcDbLine
 10
2473.706116623708
 20
-2137.682221140248
 30
0.0
 11
2471.640298050473
 21
-2139.276324521913
 31
0.0
  0
LINE
  5
B2A5
330
1E
100
AcDbEntity
  8
003
 62
     3
100
AcDbLine
 10
2473.706116623708
 20
-2137.682221140248
 30
0.0
 11
2471.640298050472
 21
-2139.276324521913
 31
0.0
  0
LINE
  5
B2A6
330
1E
100
AcDbEntity
  8
003
 62
     3
100
AcDbLine
 10
2475.428755197878
 20
-2136.02770436189
 30
0.0
 11
2473.706116623708
 21
-2137.682221140248
 31
0.0
  0
LINE
  5
B2A7
330
1E
100
AcDbEntity
  8
003
 62
     3
100
AcDbLine
 10
2475.428755197879
 20
-2136.02770436189
 30
0.0
 11
2473.706116623708
 21
-2137.682221140248
 31
0.0
  0
ARC
  5
B2A8
330
1E
100
AcDbEntity
  8
002
100
AcDbCircle
 10
2486.602055015197
 20
-2170.469670834154
 30
0.0
 40
2.5
100
AcDbArc
 50
308.1896850000611
 51
31.81031500002374
  0
LINE
  5
B2A9
330
1E
100
AcDbEntity
  8
002
100
AcDbLine
 10
2501.80333244159
 20
-2172.041510737494
 30
0.0
 11
2489.064074397728
 21
-2170.903791278322
 31
0.0
  0
LINE
  5
B2AA
330
1E
100
AcDbEntity
  8
002
100
AcDbLine
 10
2488.38464440649
 20
-2149.629268696886
 30
0.0
 11
2491.331272286414
 21
-2154.379782233465
 31
0.0
  0
ARC
  5
B2AB
330
1E
100
AcDbEntity
  8
002
100
AcDbCircle
 10
2489.206777680201
 20
-2155.697554538972
 30
0.0
 40
2.5
100
AcDbArc
 50
308.1896850000611
 51
31.81031500002374
  0
LINE
  5
B2AC
330
1E
100
AcDbEntity
  8
003
 62
     3
100
AcDbLine
 10
2470.931400972114
 20
-2155.258590366236
 30
0.0
 11
2472.307840046682
 21
-2159.521993171633
 31
0.0
  0
LINE
  5
B2AD
330
1E
100
AcDbEntity
  8
003
 62
     3
100
AcDbLine
 10
2471.939873126423
 20
-2163.245065216546
 30
0.0
 11
2470.410956766038
 21
-2165.190266657493
 31
0.0
  0
LINE
  5
B2AE
330
1E
100
AcDbEntity
  8
003
 62
     3
100
AcDbLine
 10
2470.931400972114
 20
-2155.258590366234
 30
0.0
 11
2472.307840046682
 21
-2159.521993171631
 31
0.0
  0
LINE
  5
B2AF
330
1E
100
AcDbEntity
  8
003
 62
     3
100
AcDbLine
 10
2471.939873126423
 20
-2163.245065216546
 30
0.0
 11
2470.410956766038
 21
-2165.190266657491
 31
0.0
  0
LINE
  5
B2B0
330
1E
100
AcDbEntity
  8
003
 62
     3
100
AcDbLine
 10
2468.999221461673
 20
-2150.805410100849
 30
0.0
 11
2470.931400972114
 21
-2155.258590366236
 31
0.0
  0
LINE
  5
B2B1
330
1E
100
AcDbEntity
  8
003
 62
     3
100
AcDbLine
 10
2470.410956766038
 20
-2165.190266657493
 30
0.0
 11
2468.205422120782
 21
-2166.921074444957
 31
0.0
  0
LINE
  5
B2B2
330
1E
100
AcDbEntity
  8
003
 62
     3
100
AcDbLine
 10
2468.999221461674
 20
-2150.805410100849
 30
0.0
 11
2470.931400972114
 21
-2155.258590366234
 31
0.0
  0
LINE
  5
B2B3
330
1E
100
AcDbEntity
  8
003
 62
     3
100
AcDbLine
 10
2470.410956766038
 20
-2165.190266657491
 30
0.0
 11
2468.205422120782
 21
-2166.921074444957
 31
0.0
  0
LINE
  5
B2B4
330
1E
100
AcDbEntity
  8
003
 62
     3
100
AcDbLine
 10
2472.307840046682
 20
-2159.521993171633
 30
0.0
 11
2471.939873126423
 21
-2163.245065216546
 31
0.0
  0
LINE
  5
B2B5
330
1E
100
AcDbEntity
  8
003
 62
     3
100
AcDbLine
 10
2472.307840046682
 20
-2159.521993171631
 30
0.0
 11
2471.939873126423
 21
-2163.245065216546
 31
0.0
  0
ARC
  5
B2B6
330
1E
100
AcDbEntity
  8
002
100
AcDbCircle
 10
2487.904416347699
 20
-2163.083612686563
 30
0.0
 40
2.5
100
AcDbArc
 50
128.1896850000611
 51
211.8103150000237
  0
LINE
  5
B2B7
330
1E
100
AcDbEntity
  8
002
100
AcDbLine
 10
2488.147722246755
 20
-2172.434591695228
 30
0.0
 11
2483.754026451138
 21
-2175.890808120673
 31
0.0
  0
LINE
  5
B2B8
330
1E
100
AcDbEntity
  8
002
100
AcDbLine
 10
2488.485796490745
 20
-2177.975743214083
 30
0.0
 11
2482.837674300165
 21
-2177.421608537579
 31
0.0
  0
LINE
  5
B2B9
330
1E
100
AcDbEntity
  8
002
100
AcDbLine
 10
2485.779921741487
 20
-2164.40138499207
 30
0.0
 11
2488.726549621411
 21
-2169.151898528647
 31
0.0
  0
LINE
  5
B2BA
330
1E
100
AcDbEntity
  8
002
100
AcDbLine
 10
2490.752444911759
 20
-2157.662475400044
 30
0.0
 11
2486.358749116142
 21
-2161.118691825491
 31
0.0
  0
LINE
  5
B2BB
330
1E
100
AcDbEntity
  8
003
 62
     3
100
AcDbLine
 10
2467.699966089503
 20
-2146.513005502316
 30
0.0
 11
2468.999221461673
 21
-2150.805410100849
 31
0.0
  0
LINE
  5
B2BC
330
1E
100
AcDbEntity
  8
003
 62
     3
100
AcDbLine
 10
2467.699966089504
 20
-2146.513005502314
 30
0.0
 11
2468.999221461674
 21
-2150.805410100849
 31
0.0
  0
ARC
  5
B2BD
330
1E
100
AcDbEntity
  8
002
100
AcDbCircle
 10
2490.509139012703
 20
-2148.311496391379
 30
0.0
 40
2.5
100
AcDbArc
 50
128.1896850000611
 51
211.8103150000237
  0
LINE
  5
B2BE
330
1E
100
AcDbEntity
  8
003
 62
     3
100
AcDbLine
 10
2468.205422120782
 20
-2166.921074444957
 30
0.0
 11
2465.807150012163
 21
-2168.575580528815
 31
0.0
  0
LINE
  5
B2BF
330
1E
100
AcDbEntity
  8
003
 62
     3
100
AcDbLine
 10
2468.205422120782
 20
-2166.921074444957
 30
0.0
 11
2465.807150012163
 21
-2168.575580528815
 31
0.0
  0
LINE
  5
B2C0
330
1E
100
AcDbEntity
  8
003
 62
     3
100
AcDbLine
 10
2466.451491391788
 20
-2185.187776824313
 30
0.0
 11
2466.722682892134
 21
-2188.410042185372
 31
0.0
  0
LINE
  5
B2C1
330
1E
100
AcDbEntity
  8
003
 62
     3
100
AcDbLine
 10
2466.451491391788
 20
-2185.187776824313
 30
0.0
 11
2466.722682892135
 21
-2188.410042185372
 31
0.0
  0
LINE
  5
B2C2
330
1E
100
AcDbEntity
  8
002
100
AcDbLine
 10
2483.175199076482
 20
-2179.173501287252
 30
0.0
 11
2484.00300296722
 21
-2180.508075099321
 31
0.0
  0
LINE
  5
B2C3
330
1E
100
AcDbEntity
  8
003
 62
     3
100
AcDbLine
 10
2465.093579672001
 20
-2181.769019320348
 30
0.0
 11
2466.451491391788
 21
-2185.187776824313
 31
0.0
  0
LINE
  5
B2C4
330
1E
100
AcDbEntity
  8
003
 62
     3
100
AcDbLine
 10
2465.093579672002
 20
-2181.769019320348
 30
0.0
 11
2466.451491391788
 21
-2185.187776824313
 31
0.0
  0
ARC
  5
B2C5
330
1E
100
AcDbEntity
  8
002
100
AcDbCircle
 10
2485.299693682696
 20
-2177.855728981747
 30
0.0
 40
2.5
100
AcDbArc
 50
128.1896850000611
 51
211.8103150000237
  0
LINE
  5
B2C6
330
1E
100
AcDbEntity
  8
003
 62
     3
100
AcDbLine
 10
2473.193860551258
 20
-2119.491939556166
 30
0.0
 11
2472.186762253466
 21
-2121.447256428893
 31
0.0
  0
LINE
  5
B2C7
330
1E
100
AcDbEntity
  8
003
 62
     3
100
AcDbLine
 10
2473.193860551258
 20
-2119.491939556166
 30
0.0
 11
2472.186762253467
 21
-2121.447256428893
 31
0.0
  0
LINE
  5
B2C8
330
1E
100
AcDbEntity
  8
002
100
AcDbLine
 10
2493.594089736498
 20
-2120.08503610652
 30
0.0
 11
2496.540717616422
 21
-2124.835549643099
 31
0.0
  0
LINE
  5
B2C9
330
1E
100
AcDbEntity
  8
002
100
AcDbLine
 10
2524.232024781728
 20
-2404.016842571283
 30
0.0
 11
2524.232024781728
 21
-2437.864029571285
 31
0.0
  0
MTEXT
  5
B2CA
330
1E
100
AcDbEntity
  8
001
  6
Continuous
100
AcDbMText
 10
2554.93581878051
 20
-2485.016842571283
 30
0.0
 40
12.0
 41
0.0
 71
     5
 72
     1
  1
\A1;M165
 11
0.0000000000000001
 21
1.0
 31
0.0
 73
     1
 44
1.0
  0
LINE
  5
B2CB
330
1E
100
AcDbEntity
  8
001
  6
Continuous
100
AcDbLine
 10
2534.473050781729
 20
-2402.516842571284
 30
0.0
 11
2569.935818780511
 21
-2402.516842571284
 31
0.0
  0
LINE
  5
B2CC
330
1E
100
AcDbEntity
  8
002
100
AcDbLine
 10
2524.216850781728
 20
-2404.043124571284
 30
0.0
 11
2525.098050781728
 21
-2402.516842571284
 31
0.0
  0
LINE
  5
B2CD
330
1E
100
AcDbEntity
  8
002
100
AcDbLine
 10
2512.401272781728
 20
-2402.516842571284
 30
0.0
 11
2522.401272781728
 21
-2392.516842571283
 31
0.0
  0
LINE
  5
B2CE
330
1E
100
AcDbEntity
  8
002
100
AcDbLine
 10
2523.098050781729
 20
-2392.516842571283
 30
0.0
 11
2525.098050781728
 21
-2394.516842571283
 31
0.0
  0
INSERT
  5
B2CF
330
1E
100
AcDbEntity
  8
001
  6
Continuous
100
AcDbBlockReference
  2
_Open30
 10
2568.435818780511
 20
-2402.516842571284
 30
0.0
 41
12.0
 42
12.0
 43
12.0
 50
90.0
  0
ARC
  5
B2D0
330
1E
100
AcDbEntity
  8
002
100
AcDbCircle
 10
2660.918829781728
 20
-2485.016842571283
 30
0.0
 40
4.820921
100
AcDbArc
 50
270.0
 51
90.0
  0
ARC
  5
B2D1
330
1E
100
AcDbEntity
  8
002
100
AcDbCircle
 10
2660.918829781728
 20
-2485.016842571283
 30
0.0
 40
5.82075
100
AcDbArc
 50
270.0
 51
90.0
  0
ARC
  5
B2D2
330
1E
100
AcDbEntity
  8
002
100
AcDbCircle
 10
2585.555704600252
 20
-2142.223671560712
 30
0.0
 40
2.5
100
AcDbArc
 50
308.1896850000611
 51
31.81031500002374
  0
LINE
  5
B2D3
330
1E
100
AcDbEntity
  8
002
100
AcDbLine
 10
2584.733571326541
 20
-2136.155385718628
 30
0.0
 11
2587.680199206465
 21
-2140.905899255205
 31
0.0
  0
LINE
  5
B2D4
330
1E
100
AcDbEntity
  8
003
 62
     3
100
AcDbLine
 10
2587.502546509099
 20
-2220.100451933354
 30
0.0
 11
2586.008178138671
 21
-2222.39286042507
 31
0.0
  0
LINE
  5
B2D5
330
1E
100
AcDbEntity
  8
003
 62
     3
100
AcDbLine
 10
2587.502546509099
 20
-2220.100451933354
 30
0.0
 11
2586.008178138672
 21
-2222.39286042507
 31
0.0
  0
ARC
  5
B2D6
330
1E
100
AcDbEntity
  8
002
100
AcDbCircle
 10
2589.462788597758
 20
-2120.065497117937
 30
0.0
 40
2.5
100
AcDbArc
 50
128.1896850000611
 51
211.8103150000237
  0
LINE
  5
B2D7
330
1E
100
AcDbEntity
  8
002
100
AcDbLine
 10
2589.706094496813
 20
-2129.416476126602
 30
0.0
 11
2585.312398701196
 21
-2132.872692552048
 31
0.0
  0
LINE
  5
B2D8
330
1E
100
AcDbEntity
  8
002
100
AcDbLine
 10
2587.10137183181
 20
-2144.188592421783
 30
0.0
 11
2582.707676036192
 21
-2147.644808847231
 31
0.0
  0
ARC
  5
B2D9
330
1E
100
AcDbEntity
  8
002
100
AcDbCircle
 10
2586.858065932754
 20
-2134.837613413121
 30
0.0
 40
2.5
100
AcDbArc
 50
128.1896850000611
 51
211.8103150000237
  0
LINE
  5
B2DA
330
1E
100
AcDbEntity
  8
002
100
AcDbLine
 10
2582.128848661537
 20
-2150.92750201381
 30
0.0
 11
2585.075476541461
 21
-2155.678015550389
 31
0.0
  0
LINE
  5
B2DB
330
1E
100
AcDbEntity
  8
002
100
AcDbLine
 10
2584.496649166806
 20
-2158.960708716967
 30
0.0
 11
2580.102953371188
 21
-2162.416925142415
 31
0.0
  0
LINE
  5
B2DC
330
1E
100
AcDbEntity
  8
002
100
AcDbLine
 10
2579.524125996533
 20
-2165.699618308994
 30
0.0
 11
2580.344921404789
 21
-2167.022893458783
 31
0.0
  0
ARC
  5
B2DD
330
1E
100
AcDbEntity
  8
002
100
AcDbCircle
 10
2581.648620602746
 20
-2164.381846003487
 30
0.0
 40
2.5
100
AcDbArc
 50
128.1896850000611
 51
211.8103150000237
  0
ARC
  5
B2DE
330
1E
100
AcDbEntity
  8
002
100
AcDbCircle
 10
2582.950981935248
 20
-2156.995787855896
 30
0.0
 40
2.5
100
AcDbArc
 50
308.1896850000611
 51
31.81031500002374
  0
ARC
  5
B2DF
330
1E
100
AcDbEntity
  8
002
100
AcDbCircle
 10
2584.25334326775
 20
-2149.609729708303
 30
0.0
 40
2.5
100
AcDbArc
 50
128.1896850000611
 51
211.8103150000237
  0
LINE
  5
B2E0
330
1E
100
AcDbEntity
  8
003
 62
     3
100
AcDbLine
 10
2598.435964657625
 20
-2187.764529754193
 30
0.0
 11
2596.230430012369
 21
-2189.495337541659
 31
0.0
  0
LINE
  5
B2E1
330
1E
100
AcDbEntity
  8
003
 62
     3
100
AcDbLine
 10
2598.435964657625
 20
-2187.764529754193
 30
0.0
 11
2596.230430012369
 21
-2189.495337541659
 31
0.0
  0
LINE
  5
B2E2
330
1E
100
AcDbEntity
  8
003
 62
     3
100
AcDbLine
 10
2591.460796340923
 20
-2200.915458646935
 30
0.0
 11
2593.118587563588
 21
-2204.34328241705
 31
0.0
  0
LINE
  5
B2E3
330
1E
100
AcDbEntity
  8
003
 62
     3
100
AcDbLine
 10
2591.460796340923
 20
-2200.915458646935
 30
0.0
 11
2593.118587563589
 21
-2204.34328241705
 31
0.0
  0
LINE
  5
B2E4
330
1E
100
AcDbEntity
  8
003
 62
     3
100
AcDbLine
 10
2593.118587563588
 20
-2204.34328241705
 30
0.0
 11
2594.476499283375
 21
-2207.762039921015
 31
0.0
  0
LINE
  5
B2E5
330
1E
100
AcDbEntity
  8
003
 62
     3
100
AcDbLine
 10
2593.118587563589
 20
-2204.34328241705
 30
0.0
 11
2594.476499283375
 21
-2207.762039921015
 31
0.0
  0
LINE
  5
B2E6
330
1E
100
AcDbEntity
  8
003
 62
     3
100
AcDbLine
 10
2590.28996303022
 20
-2197.6659959361
 30
0.0
 11
2591.460796340923
 21
-2200.915458646935
 31
0.0
  0
LINE
  5
B2E7
330
1E
100
AcDbEntity
  8
003
 62
     3
100
AcDbLine
 10
2590.28996303022
 20
-2197.665995936098
 30
0.0
 11
2591.460796340923
 21
-2200.915458646935
 31
0.0
  0
LINE
  5
B2E8
330
1E
100
AcDbEntity
  8
003
 62
     3
100
AcDbLine
 10
2596.230430012369
 20
-2189.495337541659
 30
0.0
 11
2593.83215790375
 21
-2191.149843625516
 31
0.0
  0
LINE
  5
B2E9
330
1E
100
AcDbEntity
  8
003
 62
     3
100
AcDbLine
 10
2593.83215790375
 20
-2191.149843625516
 30
0.0
 11
2591.725031122891
 21
-2192.866140302934
 31
0.0
  0
LINE
  5
B2EA
330
1E
100
AcDbEntity
  8
003
 62
     3
100
AcDbLine
 10
2591.725031122891
 20
-2192.866140302934
 30
0.0
 11
2590.392928174388
 21
-2194.782321146105
 31
0.0
  0
LINE
  5
B2EB
330
1E
100
AcDbEntity
  8
003
 62
     3
100
AcDbLine
 10
2590.392928174388
 20
-2194.782321146105
 30
0.0
 11
2590.28996303022
 21
-2197.6659959361
 31
0.0
  0
LINE
  5
B2EC
330
1E
100
AcDbEntity
  8
003
 62
     3
100
AcDbLine
 10
2596.230430012369
 20
-2189.495337541659
 30
0.0
 11
2593.83215790375
 21
-2191.149843625516
 31
0.0
  0
LINE
  5
B2ED
330
1E
100
AcDbEntity
  8
003
 62
     3
100
AcDbLine
 10
2593.83215790375
 20
-2191.149843625516
 30
0.0
 11
2591.725031122891
 21
-2192.866140302934
 31
0.0
  0
LINE
  5
B2EE
330
1E
100
AcDbEntity
  8
003
 62
     3
100
AcDbLine
 10
2591.725031122891
 20
-2192.866140302934
 30
0.0
 11
2590.392928174388
 21
-2194.782321146105
 31
0.0
  0
LINE
  5
B2EF
330
1E
100
AcDbEntity
  8
003
 62
     3
100
AcDbLine
 10
2590.392928174388
 20
-2194.782321146105
 30
0.0
 11
2590.28996303022
 21
-2197.665995936098
 31
0.0
  0
LINE
  5
B2F0
330
1E
100
AcDbEntity
  8
003
 62
     3
100
AcDbLine
 10
2594.747690783721
 20
-2210.984305282074
 30
0.0
 11
2593.71529544443
 21
-2213.440138335076
 31
0.0
  0
LINE
  5
B2F1
330
1E
100
AcDbEntity
  8
003
 62
     3
100
AcDbLine
 10
2593.71529544443
 20
-2213.440138335076
 30
0.0
 11
2591.840625870859
 21
-2215.716500435157
 31
0.0
  0
LINE
  5
B2F2
330
1E
100
AcDbEntity
  8
003
 62
     3
100
AcDbLine
 10
2591.840625870859
 20
-2215.716500435157
 30
0.0
 11
2589.608202019012
 21
-2217.905802519499
 31
0.0
  0
LINE
  5
B2F3
330
1E
100
AcDbEntity
  8
003
 62
     3
100
AcDbLine
 10
2594.747690783722
 20
-2210.984305282074
 30
0.0
 11
2593.71529544443
 21
-2213.440138335076
 31
0.0
  0
LINE
  5
B2F4
330
1E
100
AcDbEntity
  8
003
 62
     3
100
AcDbLine
 10
2593.71529544443
 20
-2213.440138335076
 30
0.0
 11
2591.840625870859
 21
-2215.716500435155
 31
0.0
  0
LINE
  5
B2F5
330
1E
100
AcDbEntity
  8
003
 62
     3
100
AcDbLine
 10
2591.840625870859
 20
-2215.716500435155
 30
0.0
 11
2589.608202019012
 21
-2217.905802519499
 31
0.0
  0
LINE
  5
B2F6
330
1E
100
AcDbEntity
  8
003
 62
     3
100
AcDbLine
 10
2594.476499283375
 20
-2207.762039921015
 30
0.0
 11
2594.747690783721
 21
-2210.984305282074
 31
0.0
  0
LINE
  5
B2F7
330
1E
100
AcDbEntity
  8
003
 62
     3
100
AcDbLine
 10
2594.476499283375
 20
-2207.762039921015
 30
0.0
 11
2594.747690783722
 21
-2210.984305282074
 31
0.0
  0
LINE
  5
B2F8
330
1E
100
AcDbEntity
  8
003
 62
     3
100
AcDbLine
 10
2589.608202019012
 20
-2217.905802519499
 30
0.0
 11
2587.502546509099
 21
-2220.100451933354
 31
0.0
  0
LINE
  5
B2F9
330
1E
100
AcDbEntity
  8
003
 62
     3
100
AcDbLine
 10
2589.608202019012
 20
-2217.905802519499
 30
0.0
 11
2587.502546509099
 21
-2220.100451933354
 31
0.0
  0
LINE
  5
B2FA
330
1E
100
AcDbEntity
  8
003
 62
     3
100
AcDbLine
 10
2617.139708004725
 20
-2086.769415989087
 30
0.0
 11
2616.431464926602
 21
-2088.819119470772
 31
0.0
  0
LINE
  5
B2FB
330
1E
100
AcDbEntity
  8
003
100
AcDbLine
 10
2617.139708004725
 20
-2086.769415989087
 30
0.0
 11
2616.431464926602
 21
-2088.819119470772
 31
0.0
  0
LINE
  5
B2FC
330
1E
100
AcDbEntity
  8
003
 62
     3
100
AcDbLine
 10
2616.431464926602
 20
-2088.819119470772
 30
0.0
 11
2614.949221786366
 21
-2090.742148786947
 31
0.0
  0
LINE
  5
B2FD
330
1E
100
AcDbEntity
  8
003
 62
     3
100
AcDbLine
 10
2616.431464926602
 20
-2088.819119470772
 30
0.0
 11
2614.949221786366
 21
-2090.742148786947
 31
0.0
  0
LINE
  5
B2FE
330
1E
100
AcDbEntity
  8
003
 62
     3
100
AcDbLine
 10
2616.743087914292
 20
-2084.418464395898
 30
0.0
 11
2617.139708004725
 21
-2086.769415989087
 31
0.0
  0
LINE
  5
B2FF
330
1E
100
AcDbEntity
  8
003
 62
     3
100
AcDbLine
 10
2616.743087914291
 20
-2084.418464395898
 30
0.0
 11
2617.139708004725
 21
-2086.769415989087
 31
0.0
  0
LINE
  5
B300
330
1E
100
AcDbEntity
  8
003
 62
     3
100
AcDbLine
 10
2614.574493289946
 20
-2072.68165132831
 30
0.0
 11
2613.130372467386
 21
-2074.826052653718
 31
0.0
  0
LINE
  5
B301
330
1E
100
AcDbEntity
  8
003
 62
     3
100
AcDbLine
 10
2613.130372467386
 20
-2074.826052653718
 30
0.0
 11
2613.193943600844
 21
-2077.033778988961
 31
0.0
  0
LINE
  5
B302
330
1E
100
AcDbEntity
  8
003
 62
     3
100
AcDbLine
 10
2613.193943600844
 20
-2077.033778988961
 30
0.0
 11
2614.198434384769
 21
-2079.441311816419
 31
0.0
  0
LINE
  5
B303
330
1E
100
AcDbEntity
  8
003
 62
     3
100
AcDbLine
 10
2614.198434384769
 20
-2079.441311816419
 30
0.0
 11
2615.572073810334
 21
-2081.939318128307
 31
0.0
  0
LINE
  5
B304
330
1E
100
AcDbEntity
  8
003
 62
     3
100
AcDbLine
 10
2614.574493289946
 20
-2072.68165132831
 30
0.0
 11
2613.130372467386
 21
-2074.826052653718
 31
0.0
  0
LINE
  5
B305
330
1E
100
AcDbEntity
  8
003
 62
     3
100
AcDbLine
 10
2613.130372467386
 20
-2074.826052653718
 30
0.0
 11
2613.193943600844
 21
-2077.033778988961
 31
0.0
  0
LINE
  5
B306
330
1E
100
AcDbEntity
  8
003
 62
     3
100
AcDbLine
 10
2613.193943600844
 20
-2077.033778988961
 30
0.0
 11
2614.198434384769
 21
-2079.441311816419
 31
0.0
  0
LINE
  5
B307
330
1E
100
AcDbEntity
  8
003
 62
     3
100
AcDbLine
 10
2614.198434384769
 20
-2079.441311816419
 30
0.0
 11
2615.572073810334
 21
-2081.939318128307
 31
0.0
  0
LINE
  5
B308
330
1E
100
AcDbEntity
  8
003
100
AcDbLine
 10
2615.572073810334
 20
-2081.939318128307
 30
0.0
 11
2616.743087914291
 21
-2084.418464395898
 31
0.0
  0
LINE
  5
B309
330
1E
100
AcDbEntity
  8
003
100
AcDbLine
 10
2616.809992143063
 20
-2070.846773167182
 30
0.0
 11
2614.574493289946
 21
-2072.68165132831
 31
0.0
  0
LINE
  5
B30A
330
1E
100
AcDbEntity
  8
003
100
AcDbLine
 10
2615.572073810334
 20
-2081.939318128307
 30
0.0
 11
2616.743087914292
 21
-2084.418464395898
 31
0.0
  0
LINE
  5
B30B
330
1E
100
AcDbEntity
  8
003
100
AcDbLine
 10
2616.809992143063
 20
-2070.846773167182
 30
0.0
 11
2614.574493289946
 21
-2072.68165132831
 31
0.0
  0
LINE
  5
B30C
330
1E
100
AcDbEntity
  8
002
100
AcDbLine
 10
2597.520262491825
 20
-2085.100127241052
 30
0.0
 11
2593.126566696208
 21
-2088.556343666498
 31
0.0
  0
ARC
  5
B30D
330
1E
100
AcDbEntity
  8
002
100
AcDbCircle
 10
2595.974595260268
 20
-2083.13520637998
 30
0.0
 40
2.5
100
AcDbArc
 50
308.1896850000611
 51
31.81031500002374
  0
ARC
  5
B30E
330
1E
100
AcDbEntity
  8
002
100
AcDbCircle
 10
2597.27695659277
 20
-2075.749148232387
 30
0.0
 40
2.5
100
AcDbArc
 50
128.1896850000611
 51
211.8103150000237
  0
LINE
  5
B30F
330
1E
100
AcDbEntity
  8
002
100
AcDbLine
 10
2595.152461986557
 20
-2077.066920537894
 30
0.0
 11
2598.099089866481
 21
-2081.817434074471
 31
0.0
  0
LINE
  5
B310
330
1E
100
AcDbEntity
  8
002
100
AcDbLine
 10
2600.124985156829
 20
-2070.328010945868
 30
0.0
 11
2595.731289361213
 21
-2073.784227371315
 31
0.0
  0
LINE
  5
B311
330
1E
100
AcDbEntity
  8
003
 62
     3
100
AcDbLine
 10
2613.139236855432
 20
-2092.627139445743
 30
0.0
 11
2611.447770027535
 21
-2094.562729272205
 31
0.0
  0
LINE
  5
B312
330
1E
100
AcDbEntity
  8
003
 62
     3
100
AcDbLine
 10
2611.447770027535
 20
-2094.562729272205
 30
0.0
 11
2610.321083166027
 21
-2096.637556438674
 31
0.0
  0
LINE
  5
B313
330
1E
100
AcDbEntity
  8
003
 62
     3
100
AcDbLine
 10
2610.321083166027
 20
-2096.637556438674
 30
0.0
 11
2610.143304934677
 21
-2099.556955809063
 31
0.0
  0
LINE
  5
B314
330
1E
100
AcDbEntity
  8
003
 62
     3
100
AcDbLine
 10
2610.143304934677
 20
-2099.556955809063
 30
0.0
 11
2610.936984986977
 21
-2102.684289123926
 31
0.0
  0
LINE
  5
B315
330
1E
100
AcDbEntity
  8
003
 62
     3
100
AcDbLine
 10
2613.139236855432
 20
-2092.627139445743
 30
0.0
 11
2611.447770027535
 21
-2094.562729272205
 31
0.0
  0
LINE
  5
B316
330
1E
100
AcDbEntity
  8
003
 62
     3
100
AcDbLine
 10
2611.447770027535
 20
-2094.562729272205
 30
0.0
 11
2610.321083166026
 21
-2096.637556438674
 31
0.0
  0
LINE
  5
B317
330
1E
100
AcDbEntity
  8
003
 62
     3
100
AcDbLine
 10
2610.321083166026
 20
-2096.637556438674
 30
0.0
 11
2610.143304934677
 21
-2099.556955809063
 31
0.0
  0
LINE
  5
B318
330
1E
100
AcDbEntity
  8
003
 62
     3
100
AcDbLine
 10
2610.143304934677
 20
-2099.556955809063
 30
0.0
 11
2610.936984986977
 21
-2102.684289123926
 31
0.0
  0
LINE
  5
B319
330
1E
100
AcDbEntity
  8
003
 62
     3
100
AcDbLine
 10
2611.280449074989
 20
-2113.694170879847
 30
0.0
 11
2609.390496270014
 21
-2115.505322481856
 31
0.0
  0
LINE
  5
B31A
330
1E
100
AcDbEntity
  8
003
 62
     3
100
AcDbLine
 10
2611.28044907499
 20
-2113.694170879847
 30
0.0
 11
2609.390496270014
 21
-2115.505322481856
 31
0.0
  0
LINE
  5
B31B
330
1E
100
AcDbEntity
  8
003
 62
     3
100
AcDbLine
 10
2612.041507364902
 20
-2105.859645216072
 30
0.0
 11
2612.796258427335
 21
-2108.92311129598
 31
0.0
  0
LINE
  5
B31C
330
1E
100
AcDbEntity
  8
003
 62
     3
100
AcDbLine
 10
2612.796258427335
 20
-2108.92311129598
 30
0.0
 11
2612.540622216254
 21
-2111.714776196455
 31
0.0
  0
LINE
  5
B31D
330
1E
100
AcDbEntity
  8
003
 62
     3
100
AcDbLine
 10
2612.540622216254
 20
-2111.714776196455
 30
0.0
 11
2611.280449074989
 21
-2113.694170879847
 31
0.0
  0
LINE
  5
B31E
330
1E
100
AcDbEntity
  8
003
 62
     3
100
AcDbLine
 10
2612.041507364902
 20
-2105.859645216072
 30
0.0
 11
2612.796258427335
 21
-2108.92311129598
 31
0.0
  0
LINE
  5
B31F
330
1E
100
AcDbEntity
  8
003
 62
     3
100
AcDbLine
 10
2612.796258427335
 20
-2108.92311129598
 30
0.0
 11
2612.540622216254
 21
-2111.714776196455
 31
0.0
  0
LINE
  5
B320
330
1E
100
AcDbEntity
  8
003
 62
     3
100
AcDbLine
 10
2612.540622216254
 20
-2111.714776196455
 30
0.0
 11
2611.28044907499
 21
-2113.694170879847
 31
0.0
  0
LINE
  5
B321
330
1E
100
AcDbEntity
  8
003
 62
     3
100
AcDbLine
 10
2610.936984986977
 20
-2102.684289123926
 30
0.0
 11
2612.041507364902
 21
-2105.859645216072
 31
0.0
  0
LINE
  5
B322
330
1E
100
AcDbEntity
  8
003
 62
     3
100
AcDbLine
 10
2610.936984986977
 20
-2102.684289123926
 30
0.0
 11
2612.041507364902
 21
-2105.859645216072
 31
0.0
  0
LINE
  5
B323
330
1E
100
AcDbEntity
  8
003
 62
     3
100
AcDbLine
 10
2607.33032522643
 20
-2117.261421626395
 30
0.0
 11
2605.559499629177
 21
-2119.075663397548
 31
0.0
  0
LINE
  5
B324
330
1E
100
AcDbEntity
  8
003
 62
     3
100
AcDbLine
 10
2607.330325226431
 20
-2117.261421626393
 30
0.0
 11
2605.559499629177
 21
-2119.075663397548
 31
0.0
  0
ARC
  5
B325
330
1E
100
AcDbEntity
  8
002
100
AcDbCircle
 10
2593.369872595264
 20
-2097.907322675162
 30
0.0
 40
2.5
100
AcDbArc
 50
308.1896850000611
 51
31.81031500002374
  0
LINE
  5
B326
330
1E
100
AcDbEntity
  8
002
100
AcDbLine
 10
2592.547739321553
 20
-2091.839036833078
 30
0.0
 11
2595.494367201477
 21
-2096.589550369655
 31
0.0
  0
ARC
  5
B327
330
1E
100
AcDbEntity
  8
002
100
AcDbCircle
 10
2590.76514993026
 20
-2112.679438970346
 30
0.0
 40
2.5
100
AcDbArc
 50
308.1896850000611
 51
31.81031500002374
  0
LINE
  5
B328
330
1E
100
AcDbEntity
  8
002
100
AcDbLine
 10
2589.943016656549
 20
-2106.611153128262
 30
0.0
 11
2592.889644536473
 21
-2111.361666664839
 31
0.0
  0
ARC
  5
B329
330
1E
100
AcDbEntity
  8
002
100
AcDbCircle
 10
2592.067511262762
 20
-2105.293380822755
 30
0.0
 40
2.5
100
AcDbArc
 50
128.1896850000611
 51
211.8103150000237
  0
LINE
  5
B32A
330
1E
100
AcDbEntity
  8
002
100
AcDbLine
 10
2594.915539826821
 20
-2099.872243536236
 30
0.0
 11
2590.521844031204
 21
-2103.328459961681
 31
0.0
  0
LINE
  5
B32B
330
1E
100
AcDbEntity
  8
003
 62
     3
100
AcDbLine
 10
2609.390496270014
 20
-2115.505322481856
 30
0.0
 11
2607.33032522643
 21
-2117.261421626395
 31
0.0
  0
LINE
  5
B32C
330
1E
100
AcDbEntity
  8
003
 62
     3
100
AcDbLine
 10
2609.390496270014
 20
-2115.505322481856
 30
0.0
 11
2607.330325226431
 21
-2117.261421626393
 31
0.0
  0
ARC
  5
B32D
330
1E
100
AcDbEntity
  8
002
100
AcDbCircle
 10
2594.672233927766
 20
-2090.521264527571
 30
0.0
 40
2.5
100
AcDbArc
 50
128.1896850000611
 51
211.8103150000237
  0
LINE
  5
B32E
330
1E
100
AcDbEntity
  8
003
 62
     3
100
AcDbLine
 10
2614.949221786366
 20
-2090.742148786947
 30
0.0
 11
2613.139236855432
 21
-2092.627139445743
 31
0.0
  0
LINE
  5
B32F
330
1E
100
AcDbEntity
  8
003
 62
     3
100
AcDbLine
 10
2614.949221786366
 20
-2090.742148786947
 30
0.0
 11
2613.139236855432
 21
-2092.627139445743
 31
0.0
  0
LINE
  5
B330
330
1E
100
AcDbEntity
  8
003
 62
     3
100
AcDbLine
 10
2605.106632563673
 20
-2138.544373306368
 30
0.0
 11
2603.018656919219
 21
-2140.277668793844
 31
0.0
  0
LINE
  5
B331
330
1E
100
AcDbEntity
  8
003
 62
     3
100
AcDbLine
 10
2605.106632563673
 20
-2138.544373306368
 30
0.0
 11
2603.018656919219
 21
-2140.277668793844
 31
0.0
  0
LINE
  5
B332
330
1E
100
AcDbEntity
  8
003
 62
     3
100
AcDbLine
 10
2600.211770145053
 20
-2144.021519525593
 30
0.0
 11
2600.4087427407
 21
-2146.459782145826
 31
0.0
  0
LINE
  5
B333
330
1E
100
AcDbEntity
  8
003
 62
     3
100
AcDbLine
 10
2600.211770145054
 20
-2144.021519525593
 30
0.0
 11
2600.4087427407
 21
-2146.459782145826
 31
0.0
  0
LINE
  5
B334
330
1E
100
AcDbEntity
  8
003
 62
     3
100
AcDbLine
 10
2600.4087427407
 20
-2146.459782145826
 30
0.0
 11
2601.556554081484
 21
-2149.095821859864
 31
0.0
  0
LINE
  5
B335
330
1E
100
AcDbEntity
  8
003
 62
     3
100
AcDbLine
 10
2600.4087427407
 20
-2146.459782145826
 30
0.0
 11
2601.556554081484
 21
-2149.095821859864
 31
0.0
  0
LINE
  5
B336
330
1E
100
AcDbEntity
  8
003
 62
     3
100
AcDbLine
 10
2601.218868442845
 20
-2142.066202652868
 30
0.0
 11
2600.211770145053
 21
-2144.021519525593
 31
0.0
  0
LINE
  5
B337
330
1E
100
AcDbEntity
  8
003
 62
     3
100
AcDbLine
 10
2601.218868442845
 20
-2142.066202652866
 30
0.0
 11
2600.211770145054
 21
-2144.021519525593
 31
0.0
  0
LINE
  5
B338
330
1E
100
AcDbEntity
  8
003
 62
     3
100
AcDbLine
 10
2603.018656919219
 20
-2140.277668793844
 30
0.0
 11
2601.218868442845
 21
-2142.066202652868
 31
0.0
  0
LINE
  5
B339
330
1E
100
AcDbEntity
  8
003
 62
     3
100
AcDbLine
 10
2603.018656919219
 20
-2140.277668793844
 30
0.0
 11
2601.218868442845
 21
-2142.066202652866
 31
0.0
  0
ARC
  5
B33A
330
1E
100
AcDbEntity
  8
002
100
AcDbCircle
 10
2588.160427265256
 20
-2127.451555265528
 30
0.0
 40
2.5
100
AcDbArc
 50
308.1896850000611
 51
31.81031500002374
  0
LINE
  5
B33B
330
1E
100
AcDbEntity
  8
003
 62
     3
100
AcDbLine
 10
2605.740014880723
 20
-2126.483147875771
 30
0.0
 11
2607.114414187348
 21
-2129.38235427037
 31
0.0
  0
LINE
  5
B33C
330
1E
100
AcDbEntity
  8
003
 62
     3
100
AcDbLine
 10
2605.740014880724
 20
-2126.483147875771
 30
0.0
 11
2607.114414187348
 21
-2129.38235427037
 31
0.0
  0
LINE
  5
B33D
330
1E
100
AcDbEntity
  8
003
 62
     3
100
AcDbLine
 10
2604.537579223956
 20
-2121.06124218481
 30
0.0
 11
2604.662372278114
 21
-2123.658780718211
 31
0.0
  0
LINE
  5
B33E
330
1E
100
AcDbEntity
  8
003
 62
     3
100
AcDbLine
 10
2604.662372278114
 20
-2123.658780718211
 30
0.0
 11
2605.740014880723
 21
-2126.483147875771
 31
0.0
  0
LINE
  5
B33F
330
1E
100
AcDbEntity
  8
003
 62
     3
100
AcDbLine
 10
2604.537579223956
 20
-2121.06124218481
 30
0.0
 11
2604.662372278114
 21
-2123.658780718211
 31
0.0
  0
LINE
  5
B340
330
1E
100
AcDbEntity
  8
003
 62
     3
100
AcDbLine
 10
2604.662372278114
 20
-2123.658780718211
 30
0.0
 11
2605.740014880724
 21
-2126.483147875771
 31
0.0
  0
LINE
  5
B341
330
1E
100
AcDbEntity
  8
003
 62
     3
100
AcDbLine
 10
2607.114414187348
 20
-2129.38235427037
 30
0.0
 11
2608.129480828912
 21
-2132.204408081397
 31
0.0
  0
LINE
  5
B342
330
1E
100
AcDbEntity
  8
003
 62
     3
100
AcDbLine
 10
2608.129480828912
 20
-2132.204408081397
 30
0.0
 11
2608.129121787329
 21
-2134.797320906538
 31
0.0
  0
LINE
  5
B343
330
1E
100
AcDbEntity
  8
003
 62
     3
100
AcDbLine
 10
2607.114414187348
 20
-2129.38235427037
 30
0.0
 11
2608.129480828912
 21
-2132.204408081397
 31
0.0
  0
LINE
  5
B344
330
1E
100
AcDbEntity
  8
003
 62
     3
100
AcDbLine
 10
2608.129480828912
 20
-2132.204408081397
 30
0.0
 11
2608.129121787329
 21
-2134.797320906538
 31
0.0
  0
LINE
  5
B345
330
1E
100
AcDbEntity
  8
003
 62
     3
100
AcDbLine
 10
2606.978288252824
 20
-2136.754771838499
 30
0.0
 11
2605.106632563673
 21
-2138.544373306368
 31
0.0
  0
LINE
  5
B346
330
1E
100
AcDbEntity
  8
003
 62
     3
100
AcDbLine
 10
2606.978288252824
 20
-2136.754771838497
 30
0.0
 11
2605.106632563673
 21
-2138.544373306368
 31
0.0
  0
LINE
  5
B347
330
1E
100
AcDbEntity
  8
003
 62
     3
100
AcDbLine
 10
2608.129121787329
 20
-2134.797320906538
 30
0.0
 11
2606.978288252824
 21
-2136.754771838499
 31
0.0
  0
LINE
  5
B348
330
1E
100
AcDbEntity
  8
003
 62
     3
100
AcDbLine
 10
2608.129121787329
 20
-2134.797320906538
 30
0.0
 11
2606.978288252824
 21
-2136.754771838497
 31
0.0
  0
LINE
  5
B349
330
1E
100
AcDbEntity
  8
003
 62
     3
100
AcDbLine
 10
2597.02422935326
 20
-2173.379673197551
 30
0.0
 11
2598.956408863701
 21
-2177.832853462936
 31
0.0
  0
LINE
  5
B34A
330
1E
100
AcDbEntity
  8
003
 62
     3
100
AcDbLine
 10
2597.024229353261
 20
-2173.379673197551
 30
0.0
 11
2598.956408863701
 21
-2177.832853462936
 31
0.0
  0
LINE
  5
B34B
330
1E
100
AcDbEntity
  8
003
 62
     3
100
AcDbLine
 10
2603.024443434533
 20
-2151.788065399849
 30
0.0
 11
2604.181654817362
 21
-2154.394941350969
 31
0.0
  0
LINE
  5
B34C
330
1E
100
AcDbEntity
  8
003
 62
     3
100
AcDbLine
 10
2604.397428308258
 20
-2156.774877603818
 30
0.0
 11
2603.453763089465
 21
-2158.601967458591
 31
0.0
  0
LINE
  5
B34D
330
1E
100
AcDbEntity
  8
003
 62
     3
100
AcDbLine
 10
2603.024443434533
 20
-2151.788065399849
 30
0.0
 11
2604.181654817362
 21
-2154.394941350967
 31
0.0
  0
LINE
  5
B34E
330
1E
100
AcDbEntity
  8
003
 62
     3
100
AcDbLine
 10
2604.397428308258
 20
-2156.774877603818
 30
0.0
 11
2603.453763089466
 21
-2158.601967458591
 31
0.0
  0
LINE
  5
B34F
330
1E
100
AcDbEntity
  8
003
 62
     3
100
AcDbLine
 10
2595.72497398109
 20
-2169.087268599016
 30
0.0
 11
2597.02422935326
 21
-2173.379673197551
 31
0.0
  0
LINE
  5
B350
330
1E
100
AcDbEntity
  8
003
 62
     3
100
AcDbLine
 10
2595.724973981091
 20
-2169.087268599016
 30
0.0
 11
2597.024229353261
 21
-2173.379673197551
 31
0.0
  0
LINE
  5
B351
330
1E
100
AcDbEntity
  8
003
 62
     3
100
AcDbLine
 10
2603.453763089465
 20
-2158.601967458591
 30
0.0
 11
2601.731124515294
 21
-2160.25648423695
 31
0.0
  0
LINE
  5
B352
330
1E
100
AcDbEntity
  8
003
 62
     3
100
AcDbLine
 10
2601.731124515294
 20
-2160.25648423695
 30
0.0
 11
2599.665305942059
 21
-2161.850587618615
 31
0.0
  0
LINE
  5
B353
330
1E
100
AcDbEntity
  8
003
 62
     3
100
AcDbLine
 10
2599.665305942059
 20
-2161.850587618615
 30
0.0
 11
2597.692101884529
 21
-2163.496436472147
 31
0.0
  0
LINE
  5
B354
330
1E
100
AcDbEntity
  8
003
 62
     3
100
AcDbLine
 10
2597.692101884529
 20
-2163.496436472147
 30
0.0
 11
2596.247304366914
 21
-2165.306192273234
 31
0.0
  0
LINE
  5
B355
330
1E
100
AcDbEntity
  8
003
 62
     3
100
AcDbLine
 10
2596.247304366914
 20
-2165.306192273234
 30
0.0
 11
2595.72497398109
 21
-2169.087268599016
 31
0.0
  0
LINE
  5
B356
330
1E
100
AcDbEntity
  8
003
 62
     3
100
AcDbLine
 10
2603.453763089466
 20
-2158.601967458591
 30
0.0
 11
2601.731124515295
 21
-2160.25648423695
 31
0.0
  0
LINE
  5
B357
330
1E
100
AcDbEntity
  8
003
 62
     3
100
AcDbLine
 10
2601.731124515295
 20
-2160.25648423695
 30
0.0
 11
2599.665305942059
 21
-2161.850587618615
 31
0.0
  0
LINE
  5
B358
330
1E
100
AcDbEntity
  8
003
 62
     3
100
AcDbLine
 10
2599.665305942059
 20
-2161.850587618615
 30
0.0
 11
2597.692101884529
 21
-2163.496436472147
 31
0.0
  0
LINE
  5
B359
330
1E
100
AcDbEntity
  8
003
 62
     3
100
AcDbLine
 10
2597.692101884529
 20
-2163.496436472147
 30
0.0
 11
2596.247304366914
 21
-2165.306192273234
 31
0.0
  0
LINE
  5
B35A
330
1E
100
AcDbEntity
  8
003
 62
     3
100
AcDbLine
 10
2596.247304366914
 20
-2165.306192273234
 30
0.0
 11
2595.724973981091
 21
-2169.087268599016
 31
0.0
  0
LINE
  5
B35B
330
1E
100
AcDbEntity
  8
003
 62
     3
100
AcDbLine
 10
2604.181654817362
 20
-2154.394941350969
 30
0.0
 11
2604.397428308258
 21
-2156.774877603818
 31
0.0
  0
LINE
  5
B35C
330
1E
100
AcDbEntity
  8
003
 62
     3
100
AcDbLine
 10
2604.181654817362
 20
-2154.394941350967
 30
0.0
 11
2604.397428308258
 21
-2156.774877603818
 31
0.0
  0
LINE
  5
B35D
330
1E
100
AcDbEntity
  8
003
 62
     3
100
AcDbLine
 10
2601.556554081484
 20
-2149.095821859864
 30
0.0
 11
2603.024443434533
 21
-2151.788065399849
 31
0.0
  0
LINE
  5
B35E
330
1E
100
AcDbEntity
  8
003
 62
     3
100
AcDbLine
 10
2601.556554081484
 20
-2149.095821859864
 30
0.0
 11
2603.024443434533
 21
-2151.788065399849
 31
0.0
  0
LINE
  5
B35F
330
1E
100
AcDbEntity
  8
003
 62
     3
100
AcDbLine
 10
2600.332847938269
 20
-2182.096256268332
 30
0.0
 11
2599.96488101801
 21
-2185.819328313248
 31
0.0
  0
LINE
  5
B360
330
1E
100
AcDbEntity
  8
003
 62
     3
100
AcDbLine
 10
2599.96488101801
 20
-2185.819328313248
 30
0.0
 11
2598.435964657625
 21
-2187.764529754193
 31
0.0
  0
LINE
  5
B361
330
1E
100
AcDbEntity
  8
003
 62
     3
100
AcDbLine
 10
2600.332847938269
 20
-2182.096256268332
 30
0.0
 11
2599.96488101801
 21
-2185.819328313248
 31
0.0
  0
LINE
  5
B362
330
1E
100
AcDbEntity
  8
003
 62
     3
100
AcDbLine
 10
2599.96488101801
 20
-2185.819328313248
 30
0.0
 11
2598.435964657625
 21
-2187.764529754193
 31
0.0
  0
LINE
  5
B363
330
1E
100
AcDbEntity
  8
003
 62
     3
100
AcDbLine
 10
2598.956408863701
 20
-2177.832853462936
 30
0.0
 11
2600.332847938269
 21
-2182.096256268332
 31
0.0
  0
LINE
  5
B364
330
1E
100
AcDbEntity
  8
003
 62
     3
100
AcDbLine
 10
2598.956408863701
 20
-2177.832853462936
 30
0.0
 11
2600.332847938269
 21
-2182.096256268332
 31
0.0
  0
LINE
  5
B365
330
1E
100
AcDbEntity
  8
003
 62
     3
100
AcDbLine
 10
2605.559499629177
 20
-2119.075663397548
 30
0.0
 11
2604.537579223956
 21
-2121.06124218481
 31
0.0
  0
LINE
  5
B366
330
1E
100
AcDbEntity
  8
003
 62
     3
100
AcDbLine
 10
2605.559499629177
 20
-2119.075663397548
 30
0.0
 11
2604.537579223956
 21
-2121.06124218481
 31
0.0
  0
LINE
  5
B367
330
1E
100
AcDbEntity
  8
002
100
AcDbLine
 10
2592.310817161818
 20
-2114.644359831418
 30
0.0
 11
2587.9171213662
 21
-2118.100576256865
 31
0.0
  0
LINE
  5
B368
330
1E
100
AcDbEntity
  8
002
100
AcDbLine
 10
2587.338293991545
 20
-2121.383269423444
 30
0.0
 11
2590.284921871469
 21
-2126.133782960021
 31
0.0
  0
LINE
  5
B369
330
1E
100
AcDbEntity
  8
003
  6
Continuous
100
AcDbLine
 10
2437.766721249265
 20
-1622.83639107511
 30
0.0
 11
2532.301532038974
 21
-1639.505428833506
 31
0.0
  0
LINE
  5
B36A
330
1E
100
AcDbEntity
  8
004
  6
CENTER2
 62
     6
100
AcDbLine
 10
2466.758311042929
 20
-1748.15294847732
 30
0.0
 11
2508.541293521886
 21
-1732.829483804917
 31
0.0
  0
LINE
  5
B36B
330
1E
100
AcDbEntity
  8
003
 62
     3
100
AcDbLine
 10
2503.761227116283
 20
-1746.16993034542
 30
0.0
 11
2541.511144787648
 21
-1752.826259350405
 31
0.0
  0
LINE
  5
B36C
330
1E
100
AcDbEntity
  8
003
 62
     3
100
AcDbLine
 10
2502.060297244315
 20
-1745.8700105167
 30
0.0
 11
2541.511144787648
 21
-1752.826259350405
 31
0.0
  0
LINE
  5
B36D
330
1E
100
AcDbEntity
  8
002
100
AcDbLine
 10
2508.429654614857
 20
-1721.607434773757
 30
0.0
 11
2504.088450173185
 21
-1746.227628599062
 31
0.0
  0
LINE
  5
B36E
330
1E
100
AcDbEntity
  8
003
100
AcDbLine
 10
2539.660500385
 20
-1774.839326272009
 30
0.0
 11
2490.321631505285
 21
-1766.139552490876
 31
0.0
  0
LINE
  5
B36F
330
1E
100
AcDbEntity
  8
002
100
AcDbLine
 10
2504.012980396514
 20
-2060.996570925788
 30
0.0
 11
2506.959608276439
 21
-2065.747084462365
 31
0.0
  0
LINE
  5
B370
330
1E
100
AcDbEntity
  8
002
100
AcDbLine
 10
2508.985503566787
 20
-2054.257661333762
 30
0.0
 11
2504.59180777117
 21
-2057.713877759208
 31
0.0
  0
LINE
  5
B371
330
1E
100
AcDbEntity
  8
002
100
AcDbLine
 10
2601.041337307802
 20
-2068.797210528964
 30
0.0
 11
2503.675455620197
 21
-2059.244678176113
 31
0.0
  0
LINE
  5
B372
330
1E
100
AcDbEntity
  8
003
100
AcDbLine
 10
2519.964345324757
 20
-1771.366362718668
 30
0.0
 11
2468.540501304441
 21
-2063.005474405942
 31
0.0
  0
LINE
  5
B373
330
1E
100
AcDbEntity
  8
003
100
AcDbLine
 10
2529.320018978372
 20
-1773.016020406505
 30
0.0
 11
2478.187054117356
 21
-2063.005474405942
 31
0.0
  0
ARC
  5
B374
330
1E
100
AcDbEntity
  8
002
100
AcDbCircle
 10
2506.137475002727
 20
-2059.678798620281
 30
0.0
 40
2.5
100
AcDbArc
 50
128.1896850000611
 51
211.8103150000237
  0
LINE
  5
B375
330
1E
100
AcDbEntity
  8
003
100
AcDbLine
 10
2502.060297244315
 20
-1745.8700105167
 30
0.0
 11
2458.264538418016
 21
-1626.45070928759
 31
0.0
  0
LINE
  5
B376
330
1E
100
AcDbEntity
  8
003
100
AcDbLine
 10
2490.321631505285
 20
-1766.139552490876
 30
0.0
 11
2437.766721249265
 21
-1622.83639107511
 31
0.0
  0
LINE
  5
B377
330
1E
100
AcDbEntity
  8
003
100
AcDbLine
 10
2480.16434476425
 20
-1738.443351634217
 30
0.0
 11
2497.063720775369
 21
-1732.245685000001
 31
0.0
  0
LINE
  5
B378
330
1E
100
AcDbEntity
  8
003
100
AcDbLine
 10
2483.263177994534
 20
-1746.893040132181
 30
0.0
 11
2500.162554005653
 21
-1740.695373497965
 31
0.0
  0
ARC
  5
B379
330
1E
100
AcDbEntity
  8
002
100
AcDbCircle
 10
2641.24601570816
 20
-1832.183993229075
 30
0.0
 40
2.5
100
AcDbArc
 50
308.1896850000611
 51
31.81031500002374
  0
ARC
  5
B37A
330
1E
100
AcDbEntity
  8
002
100
AcDbCircle
 10
2640.254880565334
 20
-1832.009229361867
 30
0.0
 40
2.5
100
AcDbArc
 50
308.1896850000611
 51
31.81031500002374
  0
LINE
  5
B37B
330
1E
100
AcDbEntity
  8
002
100
AcDbLine
 10
2546.630223738554
 20
-1832.424453506972
 30
0.0
 11
2542.236527942937
 21
-1835.880669932419
 31
0.0
  0
LINE
  5
B37C
330
1E
100
AcDbEntity
  8
002
100
AcDbLine
 10
2548.056343541846
 20
-1832.675916906015
 30
0.0
 11
2543.662647746229
 21
-1836.132133331462
 31
0.0
  0
LINE
  5
B37D
330
1E
100
AcDbEntity
  8
002
100
AcDbLine
 10
2636.490499850302
 20
-1838.96116706529
 30
0.0
 11
2548.972695692819
 21
-1831.145116489109
 31
0.0
  0
LINE
  5
B37E
330
1E
100
AcDbEntity
  8
002
100
AcDbLine
 10
2546.837156982334
 20
-1728.379713702766
 30
0.0
 11
2514.253189371338
 21
-1941.966429241738
 31
0.0
  0
LINE
  5
B37F
330
1E
100
AcDbEntity
  8
002
100
AcDbLine
 10
2632.29800928785
 20
-1891.531814986767
 30
0.0
 11
2534.932127600244
 21
-1881.979282633916
 31
0.0
  0
LINE
  5
B380
330
1E
100
AcDbEntity
  8
002
100
AcDbLine
 10
2618.257441195275
 20
-1942.365981131573
 30
0.0
 11
2530.739637037791
 21
-1934.549930555391
 31
0.0
  0
LINE
  5
B381
330
1E
100
AcDbEntity
  8
002
100
AcDbLine
 10
2626.071609190287
 20
-1898.049632246024
 30
0.0
 11
2538.553805032803
 21
-1890.233581669843
 31
0.0
  0
LINE
  5
B382
330
1E
100
AcDbEntity
  8
002
100
AcDbLine
 10
2623.466886525283
 20
-1912.821748541206
 30
0.0
 11
2535.949082367799
 21
-1905.005697965025
 31
0.0
  0
LINE
  5
B383
330
1E
100
AcDbEntity
  8
002
100
AcDbLine
 10
2629.693286622845
 20
-1906.303931281949
 30
0.0
 11
2532.327404935241
 21
-1896.7513989291
 31
0.0
  0
LINE
  5
B384
330
1E
100
AcDbEntity
  8
002
100
AcDbLine
 10
2620.862163860278
 20
-1927.59386483639
 30
0.0
 11
2533.344359702795
 21
-1919.777814260209
 31
0.0
  0
LINE
  5
B385
330
1E
100
AcDbEntity
  8
002
100
AcDbLine
 10
2621.879118627834
 20
-1950.620280167499
 30
0.0
 11
2524.513236940229
 21
-1941.067747814649
 31
0.0
  0
LINE
  5
B386
330
1E
100
AcDbEntity
  8
002
100
AcDbLine
 10
2624.483841292838
 20
-1935.848163872316
 30
0.0
 11
2527.117959605233
 21
-1926.295631519466
 31
0.0
  0
LINE
  5
B387
330
1E
100
AcDbEntity
  8
002
100
AcDbLine
 10
2627.088563957842
 20
-1921.076047577133
 30
0.0
 11
2529.722682270237
 21
-1911.523515224282
 31
0.0
  0
LINE
  5
B388
330
1E
100
AcDbEntity
  8
002
100
AcDbLine
 10
2615.652718530271
 20
-1957.138097426756
 30
0.0
 11
2528.134914372787
 21
-1949.322046850575
 31
0.0
  0
LINE
  5
B389
330
1E
100
AcDbEntity
  8
002
100
AcDbLine
 10
2607.838550535259
 20
-2001.454446312305
 30
0.0
 11
2520.320746377775
 21
-1993.638395736125
 31
0.0
  0
LINE
  5
B38A
330
1E
100
AcDbEntity
  8
002
100
AcDbLine
 10
2610.443273200262
 20
-1986.682330017122
 30
0.0
 11
2522.92546904278
 21
-1978.866279440941
 31
0.0
  0
LINE
  5
B38B
330
1E
100
AcDbEntity
  8
002
100
AcDbLine
 10
2614.064950632822
 20
-1994.936629053048
 30
0.0
 11
2516.699068945217
 21
-1985.384096700197
 31
0.0
  0
LINE
  5
B38C
330
1E
100
AcDbEntity
  8
002
100
AcDbLine
 10
2616.669673297826
 20
-1980.164512757864
 30
0.0
 11
2519.303791610221
 21
-1970.611980405015
 31
0.0
  0
LINE
  5
B38D
330
1E
100
AcDbEntity
  8
002
100
AcDbLine
 10
2613.047995865267
 20
-1971.910213721939
 30
0.0
 11
2525.530191707783
 21
-1964.094163145759
 31
0.0
  0
LINE
  5
B38E
330
1E
100
AcDbEntity
  8
002
100
AcDbLine
 10
2619.27439596283
 20
-1965.392396462683
 30
0.0
 11
2521.908514275224
 21
-1955.839864109832
 31
0.0
  0
LINE
  5
B38F
330
1E
100
AcDbEntity
  8
002
100
AcDbLine
 10
2628.67633185529
 20
-1883.27751595084
 30
0.0
 11
2541.158527697807
 21
-1875.461465374659
 31
0.0
  0
LINE
  5
B390
330
1E
100
AcDbEntity
  8
002
100
AcDbLine
 10
2633.885777185298
 20
-1853.733283360474
 30
0.0
 11
2546.367973027815
 21
-1845.917232784293
 31
0.0
  0
LINE
  5
B391
330
1E
100
AcDbEntity
  8
002
100
AcDbLine
 10
2631.281054520294
 20
-1868.505399655657
 30
0.0
 11
2543.763250362811
 21
-1860.689349079477
 31
0.0
  0
LINE
  5
B392
330
1E
100
AcDbEntity
  8
002
100
AcDbLine
 10
2640.112177282862
 20
-1847.215466101217
 30
0.0
 11
2542.746295595256
 21
-1837.662933748366
 31
0.0
  0
LINE
  5
B393
330
1E
100
AcDbEntity
  8
002
100
AcDbLine
 10
2637.507454617858
 20
-1861.987582396401
 30
0.0
 11
2540.141572930252
 21
-1852.43505004355
 31
0.0
  0
LINE
  5
B394
330
1E
100
AcDbEntity
  8
002
100
AcDbLine
 10
2634.902731952854
 20
-1876.759698691583
 30
0.0
 11
2537.536850265249
 21
-1867.207166338734
 31
0.0
  0
LINE
  5
B395
330
1E
100
AcDbEntity
  8
002
100
AcDbLine
 10
2605.233827870255
 20
-2016.226562607489
 30
0.0
 11
2517.716023712772
 21
-2008.410512031307
 31
0.0
  0
LINE
  5
B396
330
1E
100
AcDbEntity
  8
002
100
AcDbLine
 10
2602.629105205251
 20
-2030.998678902671
 30
0.0
 11
2515.111301047768
 21
-2023.182628326491
 31
0.0
  0
LINE
  5
B397
330
1E
100
AcDbEntity
  8
002
100
AcDbLine
 10
2606.25078263781
 20
-2039.252977938598
 30
0.0
 11
2508.884900950205
 21
-2029.700445585747
 31
0.0
  0
LINE
  5
B398
330
1E
100
AcDbEntity
  8
002
100
AcDbLine
 10
2600.024382540247
 20
-2045.770795197855
 30
0.0
 11
2512.506578382764
 21
-2037.954744621675
 31
0.0
  0
LINE
  5
B399
330
1E
100
AcDbEntity
  8
002
100
AcDbLine
 10
2603.646059972806
 20
-2054.02509423378
 30
0.0
 11
2506.280178285201
 21
-2044.472561880931
 31
0.0
  0
LINE
  5
B39A
330
1E
100
AcDbEntity
  8
002
100
AcDbLine
 10
2597.419659875243
 20
-2060.542911493037
 30
0.0
 11
2509.901855717759
 21
-2052.726860916857
 31
0.0
  0
LINE
  5
B39B
330
1E
100
AcDbEntity
  8
002
100
AcDbLine
 10
2608.855505302814
 20
-2024.480861643414
 30
0.0
 11
2511.489623615209
 21
-2014.928329290563
 31
0.0
  0
LINE
  5
B39C
330
1E
100
AcDbEntity
  8
002
100
AcDbLine
 10
2611.460227967818
 20
-2009.70874534823
 30
0.0
 11
2514.094346280213
 21
-2000.156212995381
 31
0.0
  0
LINE
  5
B39D
330
1E
100
AcDbEntity
  8
002
100
AcDbLine
 10
2527.218562221815
 20
-1950.85284726748
 30
0.0
 11
2522.824866426197
 21
-1954.309063692926
 31
0.0
  0
ARC
  5
B39E
330
1E
100
AcDbEntity
  8
002
100
AcDbCircle
 10
2524.370533657755
 20
-1956.273984554
 30
0.0
 40
2.5
100
AcDbArc
 50
128.1896850000611
 51
211.8103150000237
  0
LINE
  5
B39F
330
1E
100
AcDbEntity
  8
002
100
AcDbLine
 10
2524.613839556811
 20
-1965.624963562662
 30
0.0
 11
2520.220143761193
 21
-1969.08117998811
 31
0.0
  0
LINE
  5
B3A0
330
1E
100
AcDbEntity
  8
002
100
AcDbLine
 10
2522.246039051542
 20
-1957.591756859507
 30
0.0
 11
2525.192666931466
 21
-1962.342270396084
 31
0.0
  0
ARC
  5
B3A1
330
1E
100
AcDbEntity
  8
002
100
AcDbCircle
 10
2521.765810992751
 20
-1971.046100849181
 30
0.0
 40
2.5
100
AcDbArc
 50
128.1896850000611
 51
211.8103150000237
  0
ARC
  5
B3A2
330
1E
100
AcDbEntity
  8
002
100
AcDbCircle
 10
2523.068172325253
 20
-1963.660042701591
 30
0.0
 40
2.5
100
AcDbArc
 50
308.1896850000611
 51
31.81031500002374
  0
ARC
  5
B3A3
330
1E
100
AcDbEntity
  8
002
100
AcDbCircle
 10
2520.463449660249
 20
-1978.432158996774
 30
0.0
 40
2.5
100
AcDbArc
 50
308.1896850000611
 51
31.81031500002374
  0
ARC
  5
B3A4
330
1E
100
AcDbEntity
  8
002
100
AcDbCircle
 10
2516.556365662743
 20
-2000.590333439548
 30
0.0
 40
2.5
100
AcDbArc
 50
128.1896850000611
 51
211.8103150000237
  0
ARC
  5
B3A5
330
1E
100
AcDbEntity
  8
002
100
AcDbCircle
 10
2517.858726995245
 20
-1993.204275291957
 30
0.0
 40
2.5
100
AcDbArc
 50
308.1896850000611
 51
31.81031500002374
  0
ARC
  5
B3A6
330
1E
100
AcDbEntity
  8
002
100
AcDbCircle
 10
2519.161088327747
 20
-1985.818217144365
 30
0.0
 40
2.5
100
AcDbArc
 50
128.1896850000611
 51
211.8103150000237
  0
LINE
  5
B3A7
330
1E
100
AcDbEntity
  8
002
100
AcDbLine
 10
2522.009116891807
 20
-1980.397079857846
 30
0.0
 11
2517.61542109619
 21
-1983.853296283292
 31
0.0
  0
LINE
  5
B3A8
330
1E
100
AcDbEntity
  8
002
100
AcDbLine
 10
2517.036593721534
 20
-1987.135989449872
 30
0.0
 11
2519.983221601458
 21
-1991.88650298645
 31
0.0
  0
LINE
  5
B3A9
330
1E
100
AcDbEntity
  8
002
100
AcDbLine
 10
2519.404394226803
 20
-1995.16919615303
 30
0.0
 11
2515.010698431185
 21
-1998.625412578476
 31
0.0
  0
LINE
  5
B3AA
330
1E
100
AcDbEntity
  8
002
100
AcDbLine
 10
2519.641316386538
 20
-1972.363873154688
 30
0.0
 11
2522.587944266462
 21
-1977.114386691266
 31
0.0
  0
ARC
  5
B3AB
330
1E
100
AcDbEntity
  8
002
100
AcDbCircle
 10
2511.346920332735
 20
-2030.134566029916
 30
0.0
 40
2.5
100
AcDbArc
 50
128.1896850000611
 51
211.8103150000237
  0
LINE
  5
B3AC
330
1E
100
AcDbEntity
  8
002
100
AcDbLine
 10
2514.194948896795
 20
-2024.713428743396
 30
0.0
 11
2509.801253101178
 21
-2028.169645168842
 31
0.0
  0
LINE
  5
B3AD
330
1E
100
AcDbEntity
  8
002
100
AcDbLine
 10
2516.799671561799
 20
-2009.941312448212
 30
0.0
 11
2512.405975766181
 21
-2013.39752887366
 31
0.0
  0
ARC
  5
B3AE
330
1E
100
AcDbEntity
  8
002
100
AcDbCircle
 10
2515.254004330241
 20
-2007.97639158714
 30
0.0
 40
2.5
100
AcDbArc
 50
308.1896850000611
 51
31.81031500002374
  0
ARC
  5
B3AF
330
1E
100
AcDbEntity
  8
002
100
AcDbCircle
 10
2513.951642997739
 20
-2015.362449734732
 30
0.0
 40
2.5
100
AcDbArc
 50
128.1896850000611
 51
211.8103150000237
  0
ARC
  5
B3B0
330
1E
100
AcDbEntity
  8
002
100
AcDbCircle
 10
2512.649281665237
 20
-2022.748507882322
 30
0.0
 40
2.5
100
AcDbArc
 50
308.1896850000611
 51
31.81031500002374
  0
LINE
  5
B3B1
330
1E
100
AcDbEntity
  8
002
100
AcDbLine
 10
2511.827148391526
 20
-2016.680222040239
 30
0.0
 11
2514.77377627145
 21
-2021.430735576815
 31
0.0
  0
LINE
  5
B3B2
330
1E
100
AcDbEntity
  8
002
100
AcDbLine
 10
2511.590226231791
 20
-2039.485545038578
 30
0.0
 11
2507.196530436174
 21
-2042.941761464026
 31
0.0
  0
ARC
  5
B3B3
330
1E
100
AcDbEntity
  8
002
100
AcDbCircle
 10
2507.439836335229
 20
-2052.29274047269
 30
0.0
 40
2.5
100
AcDbArc
 50
308.1896850000611
 51
31.81031500002374
  0
ARC
  5
B3B4
330
1E
100
AcDbEntity
  8
002
100
AcDbCircle
 10
2510.044559000233
 20
-2037.520624177506
 30
0.0
 40
2.5
100
AcDbArc
 50
308.1896850000611
 51
31.81031500002374
  0
LINE
  5
B3B5
330
1E
100
AcDbEntity
  8
002
100
AcDbLine
 10
2509.222425726522
 20
-2031.452338335423
 30
0.0
 11
2512.169053606446
 21
-2036.202851871999
 31
0.0
  0
ARC
  5
B3B6
330
1E
100
AcDbEntity
  8
002
100
AcDbCircle
 10
2504.835113670225
 20
-2067.064856767872
 30
0.0
 40
2.5
100
AcDbArc
 50
308.1896850000611
 51
31.81031500002374
  0
LINE
  5
B3B7
330
1E
100
AcDbEntity
  8
002
100
AcDbLine
 10
2506.617703061518
 20
-2046.224454630604
 30
0.0
 11
2509.564330941442
 21
-2050.974968167182
 31
0.0
  0
ARC
  5
B3B8
330
1E
100
AcDbEntity
  8
002
100
AcDbCircle
 10
2508.742197667731
 20
-2044.906682325097
 30
0.0
 40
2.5
100
AcDbArc
 50
128.1896850000611
 51
211.8103150000237
  0
LINE
  5
B3B9
330
1E
100
AcDbEntity
  8
002
100
AcDbLine
 10
2514.43187105653
 20
-2001.908105745056
 30
0.0
 11
2517.378498936454
 21
-2006.658619281634
 31
0.0
  0
ARC
  5
B3BA
330
1E
100
AcDbEntity
  8
002
100
AcDbCircle
 10
2543.905953645284
 20
-1845.483112340125
 30
0.0
 40
2.5
100
AcDbArc
 50
308.1896850000611
 51
31.81031500002374
  0
LINE
  5
B3BB
330
1E
100
AcDbEntity
  8
002
100
AcDbLine
 10
2545.451620876843
 20
-1847.448033201199
 30
0.0
 11
2541.057925081225
 21
-1850.904249626644
 31
0.0
  0
LINE
  5
B3BC
330
1E
100
AcDbEntity
  8
002
100
AcDbLine
 10
2544.02550107355
 20
-1847.196569802155
 30
0.0
 11
2539.631805277933
 21
-1850.652786227601
 31
0.0
  0
LINE
  5
B3BD
330
1E
100
AcDbEntity
  8
002
100
AcDbLine
 10
2541.657700568282
 20
-1839.163363098998
 30
0.0
 11
2544.604328448206
 21
-1843.913876635575
 31
0.0
  0
ARC
  5
B3BE
330
1E
100
AcDbEntity
  8
002
100
AcDbCircle
 10
2545.208314977787
 20
-1838.097054192534
 30
0.0
 40
2.5
100
AcDbArc
 50
128.1896850000611
 51
211.8103150000237
  0
ARC
  5
B3BF
330
1E
100
AcDbEntity
  8
002
100
AcDbCircle
 10
2542.603592312783
 20
-1852.869170487718
 30
0.0
 40
2.5
100
AcDbArc
 50
128.1896850000611
 51
211.8103150000237
  0
ARC
  5
B3C0
330
1E
100
AcDbEntity
  8
002
100
AcDbCircle
 10
2541.177472509491
 20
-1852.617707088675
 30
0.0
 40
2.5
100
AcDbArc
 50
128.1896850000611
 51
211.8103150000237
  0
ARC
  5
B3C1
330
1E
100
AcDbEntity
  8
002
100
AcDbCircle
 10
2543.782195174495
 20
-1837.845590793491
 30
0.0
 40
2.5
100
AcDbArc
 50
128.1896850000611
 51
211.8103150000237
  0
LINE
  5
B3C2
330
1E
100
AcDbEntity
  8
002
100
AcDbLine
 10
2543.083820371574
 20
-1839.414826498041
 30
0.0
 11
2546.030448251498
 21
-1844.165340034618
 31
0.0
  0
ARC
  5
B3C3
330
1E
100
AcDbEntity
  8
002
100
AcDbCircle
 10
2542.479833841992
 20
-1845.231648941082
 30
0.0
 40
2.5
100
AcDbArc
 50
308.1896850000611
 51
31.81031500002374
  0
ARC
  5
B3C4
330
1E
100
AcDbEntity
  8
002
100
AcDbCircle
 10
2539.875111176989
 20
-1860.003765236266
 30
0.0
 40
2.5
100
AcDbArc
 50
308.1896850000611
 51
31.81031500002374
  0
ARC
  5
B3C5
330
1E
100
AcDbEntity
  8
002
100
AcDbCircle
 10
2541.30123098028
 20
-1860.255228635309
 30
0.0
 40
2.5
100
AcDbArc
 50
308.1896850000611
 51
31.81031500002374
  0
ARC
  5
B3C6
330
1E
100
AcDbEntity
  8
002
100
AcDbCircle
 10
2539.998869647779
 20
-1867.6412867829
 30
0.0
 40
2.5
100
AcDbArc
 50
128.1896850000611
 51
211.8103150000237
  0
ARC
  5
B3C7
330
1E
100
AcDbEntity
  8
002
100
AcDbCircle
 10
2538.572749844487
 20
-1867.389823383857
 30
0.0
 40
2.5
100
AcDbArc
 50
128.1896850000611
 51
211.8103150000237
  0
LINE
  5
B3C8
330
1E
100
AcDbEntity
  8
002
100
AcDbLine
 10
2537.874375041566
 20
-1868.959059088407
 30
0.0
 11
2540.82100292149
 21
-1873.709572624986
 31
0.0
  0
LINE
  5
B3C9
330
1E
100
AcDbEntity
  8
002
100
AcDbLine
 10
2542.846898211839
 20
-1862.220149496381
 30
0.0
 11
2538.453202416221
 21
-1865.676365921828
 31
0.0
  0
LINE
  5
B3CA
330
1E
100
AcDbEntity
  8
002
100
AcDbLine
 10
2541.420778408546
 20
-1861.968686097338
 30
0.0
 11
2537.027082612929
 21
-1865.424902522785
 31
0.0
  0
LINE
  5
B3CB
330
1E
100
AcDbEntity
  8
002
100
AcDbLine
 10
2536.448255238274
 20
-1868.707595689364
 30
0.0
 11
2539.394883118198
 21
-1873.458109225943
 31
0.0
  0
LINE
  5
B3CC
330
1E
100
AcDbEntity
  8
002
100
AcDbLine
 10
2540.242175546834
 20
-1876.992265791565
 30
0.0
 11
2535.848479751217
 21
-1880.448482217012
 31
0.0
  0
LINE
  5
B3CD
330
1E
100
AcDbEntity
  8
002
100
AcDbLine
 10
2538.816055743542
 20
-1876.740802392521
 30
0.0
 11
2534.422359947924
 21
-1880.197018817969
 31
0.0
  0
ARC
  5
B3CE
330
1E
100
AcDbEntity
  8
002
100
AcDbCircle
 10
2537.394146982775
 20
-1882.413403078084
 30
0.0
 40
2.5
100
AcDbArc
 50
128.1896850000611
 51
211.8103150000237
  0
ARC
  5
B3CF
330
1E
100
AcDbEntity
  8
002
100
AcDbCircle
 10
2535.968027179483
 20
-1882.161939679041
 30
0.0
 40
2.5
100
AcDbArc
 50
128.1896850000611
 51
211.8103150000237
  0
ARC
  5
B3D0
330
1E
100
AcDbEntity
  8
002
100
AcDbCircle
 10
2538.696508315277
 20
-1875.027344930493
 30
0.0
 40
2.5
100
AcDbArc
 50
308.1896850000611
 51
31.81031500002374
  0
ARC
  5
B3D1
330
1E
100
AcDbEntity
  8
002
100
AcDbCircle
 10
2537.270388511985
 20
-1874.77588153145
 30
0.0
 40
2.5
100
AcDbArc
 50
308.1896850000611
 51
31.81031500002374
  0
LINE
  5
B3D2
330
1E
100
AcDbEntity
  8
002
100
AcDbLine
 10
2540.47909770657
 20
-1854.186942793225
 30
0.0
 11
2543.425725586494
 21
-1858.937456329802
 31
0.0
  0
LINE
  5
B3D3
330
1E
100
AcDbEntity
  8
002
100
AcDbLine
 10
2539.052977903278
 20
-1853.935479394182
 30
0.0
 11
2541.999605783201
 21
-1858.685992930759
 31
0.0
  0
ARC
  5
B3D4
330
1E
100
AcDbEntity
  8
002
100
AcDbCircle
 10
2530.758581849475
 20
-1911.706172269407
 30
0.0
 40
2.5
100
AcDbArc
 50
128.1896850000611
 51
211.8103150000237
  0
ARC
  5
B3D5
330
1E
100
AcDbEntity
  8
002
100
AcDbCircle
 10
2534.78942431777
 20
-1897.185519373266
 30
0.0
 40
2.5
100
AcDbArc
 50
128.1896850000611
 51
211.8103150000237
  0
LINE
  5
B3D6
330
1E
100
AcDbEntity
  8
002
100
AcDbLine
 10
2537.637452881831
 20
-1891.764382086749
 30
0.0
 11
2533.243757086212
 21
-1895.220598512194
 31
0.0
  0
LINE
  5
B3D7
330
1E
100
AcDbEntity
  8
002
100
AcDbLine
 10
2536.211333078538
 20
-1891.512918687705
 30
0.0
 11
2531.817637282921
 21
-1894.969135113151
 31
0.0
  0
ARC
  5
B3D8
330
1E
100
AcDbEntity
  8
002
100
AcDbCircle
 10
2533.363304514478
 20
-1896.934055974223
 30
0.0
 40
2.5
100
AcDbArc
 50
128.1896850000611
 51
211.8103150000237
  0
ARC
  5
B3D9
330
1E
100
AcDbEntity
  8
002
100
AcDbCircle
 10
2536.091785650273
 20
-1889.799461225675
 30
0.0
 40
2.5
100
AcDbArc
 50
308.1896850000611
 51
31.81031500002374
  0
ARC
  5
B3DA
330
1E
100
AcDbEntity
  8
002
100
AcDbCircle
 10
2534.665665846981
 20
-1889.547997826632
 30
0.0
 40
2.5
100
AcDbArc
 50
308.1896850000611
 51
31.81031500002374
  0
ARC
  5
B3DB
330
1E
100
AcDbEntity
  8
002
100
AcDbCircle
 10
2532.060943181977
 20
-1904.320114121816
 30
0.0
 40
2.5
100
AcDbArc
 50
308.1896850000611
 51
31.81031500002374
  0
ARC
  5
B3DC
330
1E
100
AcDbEntity
  8
002
100
AcDbCircle
 10
2532.060943181977
 20
-1904.320114121816
 30
0.0
 40
2.5
100
AcDbArc
 50
308.1896850000611
 51
31.81031500002374
  0
LINE
  5
B3DD
330
1E
100
AcDbEntity
  8
002
100
AcDbLine
 10
2535.032730216827
 20
-1906.53649838193
 30
0.0
 11
2530.639034421209
 21
-1909.992714807378
 31
0.0
  0
ARC
  5
B3DE
330
1E
100
AcDbEntity
  8
002
100
AcDbCircle
 10
2533.487062985269
 20
-1904.571577520859
 30
0.0
 40
2.5
100
AcDbArc
 50
308.1896850000611
 51
31.81031500002374
  0
LINE
  5
B3DF
330
1E
100
AcDbEntity
  8
002
100
AcDbLine
 10
2532.664929711557
 20
-1898.503291678773
 30
0.0
 11
2535.611557591482
 21
-1903.253805215352
 31
0.0
  0
LINE
  5
B3E0
330
1E
100
AcDbEntity
  8
002
100
AcDbLine
 10
2531.238809908266
 20
-1898.25182827973
 30
0.0
 11
2534.18543778819
 21
-1903.002341816309
 31
0.0
  0
ARC
  5
B3E1
330
1E
100
AcDbEntity
  8
002
100
AcDbCircle
 10
2532.184701652766
 20
-1911.95763566845
 30
0.0
 40
2.5
100
AcDbArc
 50
128.1896850000611
 51
211.8103150000237
  0
LINE
  5
B3E2
330
1E
100
AcDbEntity
  8
002
100
AcDbLine
 10
2533.606610413535
 20
-1906.285034982887
 30
0.0
 11
2529.212914617917
 21
-1909.741251408335
 31
0.0
  0
ARC
  5
B3E3
330
1E
100
AcDbEntity
  8
002
100
AcDbCircle
 10
2526.851497851969
 20
-1933.864346712182
 30
0.0
 40
2.5
100
AcDbArc
 50
308.1896850000611
 51
31.81031500002374
  0
LINE
  5
B3E4
330
1E
100
AcDbEntity
  8
002
100
AcDbLine
 10
2532.428007551823
 20
-1921.308614677114
 30
0.0
 11
2528.034311756205
 21
-1924.76483110256
 31
0.0
  0
LINE
  5
B3E5
330
1E
100
AcDbEntity
  8
002
100
AcDbLine
 10
2527.45548438155
 20
-1928.047524269141
 30
0.0
 11
2530.402112261474
 21
-1932.798037805718
 31
0.0
  0
ARC
  5
B3E6
330
1E
100
AcDbEntity
  8
002
100
AcDbCircle
 10
2530.882340320265
 20
-1919.343693816041
 30
0.0
 40
2.5
100
AcDbArc
 50
308.1896850000611
 51
31.81031500002374
  0
ARC
  5
B3E7
330
1E
100
AcDbEntity
  8
002
100
AcDbCircle
 10
2529.456220516973
 20
-1919.092230416998
 30
0.0
 40
2.5
100
AcDbArc
 50
308.1896850000611
 51
31.81031500002374
  0
ARC
  5
B3E8
330
1E
100
AcDbEntity
  8
002
100
AcDbCircle
 10
2528.277617655261
 20
-1934.115810111225
 30
0.0
 40
2.5
100
AcDbArc
 50
308.1896850000611
 51
31.81031500002374
  0
LINE
  5
B3E9
330
1E
100
AcDbEntity
  8
002
100
AcDbLine
 10
2524.131832379691
 20
-1943.708300536898
 30
0.0
 11
2514.253189371338
 21
-1941.966429241738
 31
0.0
  0
ARC
  5
B3EA
330
1E
100
AcDbEntity
  8
002
100
AcDbCircle
 10
2526.975256322759
 20
-1941.501868258816
 30
0.0
 40
2.5
100
AcDbArc
 50
128.1896850000611
 51
211.8103150000237
  0
ARC
  5
B3EB
330
1E
100
AcDbEntity
  8
002
100
AcDbCircle
 10
2525.549136519467
 20
-1941.250404859772
 30
0.0
 40
2.5
100
AcDbArc
 50
128.1896850000611
 51
211.8103150000237
  0
LINE
  5
B3EC
330
1E
100
AcDbEntity
  8
002
100
AcDbLine
 10
2523.424641913254
 20
-1942.568177165279
 30
0.0
 11
2524.131832379691
 21
-1943.708300536898
 31
0.0
  0
ARC
  5
B3ED
330
1E
100
AcDbEntity
  8
002
100
AcDbCircle
 10
2528.153859184471
 20
-1926.478288564591
 30
0.0
 40
2.5
100
AcDbArc
 50
128.1896850000611
 51
211.8103150000237
  0
LINE
  5
B3EE
330
1E
100
AcDbEntity
  8
002
100
AcDbLine
 10
2526.029364578258
 20
-1927.796060870098
 30
0.0
 11
2528.975992458182
 21
-1932.546574406675
 31
0.0
  0
LINE
  5
B3EF
330
1E
100
AcDbEntity
  8
002
100
AcDbLine
 10
2529.823284886819
 20
-1936.080730972296
 30
0.0
 11
2525.429589091201
 21
-1939.536947397744
 31
0.0
  0
LINE
  5
B3F0
330
1E
100
AcDbEntity
  8
002
100
AcDbLine
 10
2531.00188774853
 20
-1921.057151278071
 30
0.0
 11
2526.608191952913
 21
-1924.513367703517
 31
0.0
  0
LINE
  5
B3F1
330
1E
100
AcDbEntity
  8
002
100
AcDbLine
 10
2528.397165083527
 20
-1935.829267573254
 30
0.0
 11
2524.003469287909
 21
-1939.285483998701
 31
0.0
  0
ARC
  5
B3F2
330
1E
100
AcDbEntity
  8
002
100
AcDbCircle
 10
2529.579978987763
 20
-1926.729751963634
 30
0.0
 40
2.5
100
AcDbArc
 50
128.1896850000611
 51
211.8103150000237
  0
LINE
  5
B3F3
330
1E
100
AcDbEntity
  8
002
100
AcDbLine
 10
2530.060207046554
 20
-1913.275407973957
 30
0.0
 11
2533.006834926478
 21
-1918.025921510534
 31
0.0
  0
LINE
  5
B3F4
330
1E
100
AcDbEntity
  8
002
100
AcDbLine
 10
2528.634087243262
 20
-1913.023944574914
 30
0.0
 11
2531.580715123186
 21
-1917.774458111491
 31
0.0
  0
ARC
  5
B3F5
330
1E
100
AcDbEntity
  8
002
100
AcDbCircle
 10
2525.672894990257
 20
-1948.887926406407
 30
0.0
 40
2.5
100
AcDbArc
 50
308.1896850000611
 51
31.81031500002374
  0
LINE
  5
B3F6
330
1E
100
AcDbEntity
  8
002
100
AcDbLine
 10
2524.850761716546
 20
-1942.819640564323
 30
0.0
 11
2527.79738959647
 21
-1947.570154100901
 31
0.0
  0
LINE
  5
B3F7
330
1E
100
AcDbEntity
  8
002
100
AcDbLine
 10
2535.269652376561
 20
-1883.731175383591
 30
0.0
 11
2538.216280256486
 21
-1888.481688920168
 31
0.0
  0
LINE
  5
B3F8
330
1E
100
AcDbEntity
  8
002
100
AcDbLine
 10
2533.843532573269
 20
-1883.479711984548
 30
0.0
 11
2536.790160453194
 21
-1888.230225521125
 31
0.0
  0
ARC
  5
B3F9
330
1E
100
AcDbEntity
  8
002
100
AcDbCircle
 10
2620.408234388128
 20
-1950.36092359054
 30
0.0
 40
2.5
100
AcDbArc
 50
308.1896850000611
 51
31.81031500002374
  0
ARC
  5
B3FA
330
1E
100
AcDbEntity
  8
002
100
AcDbCircle
 10
2619.417099245303
 20
-1950.186159723331
 30
0.0
 40
2.5
100
AcDbArc
 50
308.1896850000611
 51
31.81031500002374
  0
LINE
  5
B3FB
330
1E
100
AcDbEntity
  8
002
100
AcDbLine
 10
2629.475696473766
 20
-1962.283266028769
 30
0.0
 11
2617.68856891585
 21
-1960.204877415257
 31
0.0
  0
ARC
  5
B3FC
330
1E
100
AcDbEntity
  8
002
100
AcDbCircle
 10
2615.510015247798
 20
-1972.344334166105
 30
0.0
 40
2.5
100
AcDbArc
 50
128.1896850000611
 51
211.8103150000237
  0
ARC
  5
B3FD
330
1E
100
AcDbEntity
  8
002
100
AcDbCircle
 10
2618.114737912801
 20
-1957.572217870923
 30
0.0
 40
2.5
100
AcDbArc
 50
128.1896850000611
 51
211.8103150000237
  0
ARC
  5
B3FE
330
1E
100
AcDbEntity
  8
002
100
AcDbCircle
 10
2619.105873055626
 20
-1957.746981738131
 30
0.0
 40
2.5
100
AcDbArc
 50
128.1896850000611
 51
211.8103150000237
  0
LINE
  5
B3FF
330
1E
100
AcDbEntity
  8
002
100
AcDbLine
 10
2616.981378449414
 20
-1959.064754043638
 30
0.0
 11
2617.68856891585
 21
-1960.204877415257
 31
0.0
  0
LINE
  5
B400
330
1E
100
AcDbEntity
  8
002
100
AcDbLine
 10
2620.962766476861
 20
-1952.151080584404
 30
0.0
 11
2616.569070681244
 21
-1955.60729700985
 31
0.0
  0
LINE
  5
B401
330
1E
100
AcDbEntity
  8
002
100
AcDbLine
 10
2621.953901619686
 20
-1952.325844451612
 30
0.0
 11
2617.560205824069
 21
-1955.782060877059
 31
0.0
  0
LINE
  5
B402
330
1E
100
AcDbEntity
  8
002
100
AcDbLine
 10
2618.358043811857
 20
-1966.923196879586
 30
0.0
 11
2613.96434801624
 21
-1970.379413305034
 31
0.0
  0
ARC
  5
B403
330
1E
100
AcDbEntity
  8
002
100
AcDbCircle
 10
2616.8123765803
 20
-1964.958276018515
 30
0.0
 40
2.5
100
AcDbArc
 50
308.1896850000611
 51
31.81031500002374
  0
LINE
  5
B404
330
1E
100
AcDbEntity
  8
002
100
AcDbLine
 10
2615.990243306589
 20
-1958.88999017643
 30
0.0
 11
2618.936871186512
 21
-1963.640503713008
 31
0.0
  0
LINE
  5
B405
330
1E
100
AcDbEntity
  8
002
100
AcDbLine
 10
2615.753321146853
 20
-1981.69531317477
 30
0.0
 11
2611.359625351235
 21
-1985.151529600216
 31
0.0
  0
ARC
  5
B406
330
1E
100
AcDbEntity
  8
002
100
AcDbCircle
 10
2612.905292582794
 20
-1987.116450461289
 30
0.0
 40
2.5
100
AcDbArc
 50
128.1896850000611
 51
211.8103150000237
  0
LINE
  5
B407
330
1E
100
AcDbEntity
  8
002
100
AcDbLine
 10
2610.78079797658
 20
-1988.434222766796
 30
0.0
 11
2613.727425856505
 21
-1993.184736303374
 31
0.0
  0
ARC
  5
B408
330
1E
100
AcDbEntity
  8
002
100
AcDbCircle
 10
2611.602931250291
 20
-1994.502508608881
 30
0.0
 40
2.5
100
AcDbArc
 50
308.1896850000611
 51
31.81031500002374
  0
ARC
  5
B409
330
1E
100
AcDbEntity
  8
002
100
AcDbCircle
 10
2614.207653915296
 20
-1979.730392313698
 30
0.0
 40
2.5
100
AcDbArc
 50
308.1896850000611
 51
31.81031500002374
  0
ARC
  5
B40A
330
1E
100
AcDbEntity
  8
002
100
AcDbCircle
 10
2610.300569917789
 20
-2001.888566756471
 30
0.0
 40
2.5
100
AcDbArc
 50
128.1896850000611
 51
211.8103150000237
  0
LINE
  5
B40B
330
1E
100
AcDbEntity
  8
002
100
AcDbLine
 10
2613.148598481849
 20
-1996.467429469954
 30
0.0
 11
2608.754902686232
 21
-1999.9236458954
 31
0.0
  0
LINE
  5
B40C
330
1E
100
AcDbEntity
  8
002
100
AcDbLine
 10
2613.385520641585
 20
-1973.662106471612
 30
0.0
 11
2616.332148521508
 21
-1978.412620008191
 31
0.0
  0
ARC
  5
B40D
330
1E
100
AcDbEntity
  8
002
100
AcDbCircle
 10
2608.998208585287
 20
-2009.274624904064
 30
0.0
 40
2.5
100
AcDbArc
 50
308.1896850000611
 51
31.81031500002374
  0
LINE
  5
B40E
330
1E
100
AcDbEntity
  8
002
100
AcDbLine
 10
2607.939153151841
 20
-2026.01166206032
 30
0.0
 11
2603.545457356224
 21
-2029.467878485766
 31
0.0
  0
ARC
  5
B40F
330
1E
100
AcDbEntity
  8
002
100
AcDbCircle
 10
2607.695847252786
 20
-2016.660683051655
 30
0.0
 40
2.5
100
AcDbArc
 50
128.1896850000611
 51
211.8103150000237
  0
LINE
  5
B410
330
1E
100
AcDbEntity
  8
002
100
AcDbLine
 10
2605.571352646573
 20
-2017.978455357162
 30
0.0
 11
2608.517980526496
 21
-2022.72896889374
 31
0.0
  0
LINE
  5
B411
330
1E
100
AcDbEntity
  8
002
100
AcDbLine
 10
2610.543875816845
 20
-2011.239545765136
 30
0.0
 11
2606.150180021228
 21
-2014.695762190582
 31
0.0
  0
ARC
  5
B412
330
1E
100
AcDbEntity
  8
002
100
AcDbCircle
 10
2606.393485920284
 20
-2024.046741199247
 30
0.0
 40
2.5
100
AcDbArc
 50
308.1896850000611
 51
31.81031500002374
  0
LINE
  5
B413
330
1E
100
AcDbEntity
  8
002
100
AcDbLine
 10
2602.966629981569
 20
-2032.750571652346
 30
0.0
 11
2605.913257861493
 21
-2037.501085188924
 31
0.0
  0
LINE
  5
B414
330
1E
100
AcDbEntity
  8
002
100
AcDbLine
 10
2605.334430486837
 20
-2040.783778355502
 30
0.0
 11
2600.94073469122
 21
-2044.239994780949
 31
0.0
  0
ARC
  5
B415
330
1E
100
AcDbEntity
  8
002
100
AcDbCircle
 10
2601.184040590275
 20
-2053.590973789612
 30
0.0
 40
2.5
100
AcDbArc
 50
308.1896850000611
 51
31.81031500002374
  0
LINE
  5
B416
330
1E
100
AcDbEntity
  8
002
100
AcDbLine
 10
2602.729707821833
 20
-2055.555894650686
 30
0.0
 11
2598.336012026216
 21
-2059.012111076131
 31
0.0
  0
LINE
  5
B417
330
1E
100
AcDbEntity
  8
002
100
AcDbLine
 10
2600.361907316565
 20
-2047.522687947528
 30
0.0
 11
2603.308535196489
 21
-2052.273201484105
 31
0.0
  0
ARC
  5
B418
330
1E
100
AcDbEntity
  8
002
100
AcDbCircle
 10
2602.486401922778
 20
-2046.204915642021
 30
0.0
 40
2.5
100
AcDbArc
 50
128.1896850000611
 51
211.8103150000237
  0
ARC
  5
B419
330
1E
100
AcDbEntity
  8
002
100
AcDbCircle
 10
2603.78876325528
 20
-2038.81885749443
 30
0.0
 40
2.5
100
AcDbArc
 50
308.1896850000611
 51
31.81031500002374
  0
ARC
  5
B41A
330
1E
100
AcDbEntity
  8
002
100
AcDbCircle
 10
2605.091124587782
 20
-2031.432799346839
 30
0.0
 40
2.5
100
AcDbArc
 50
128.1896850000611
 51
211.8103150000237
  0
LINE
  5
B41B
330
1E
100
AcDbEntity
  8
002
100
AcDbLine
 10
2597.757184651561
 20
-2062.294804242712
 30
0.0
 11
2600.703812531484
 21
-2067.045317779289
 31
0.0
  0
ARC
  5
B41C
330
1E
100
AcDbEntity
  8
002
100
AcDbCircle
 10
2599.881679257774
 20
-2060.977031937205
 30
0.0
 40
2.5
100
AcDbArc
 50
128.1896850000611
 51
211.8103150000237
  0
LINE
  5
B41D
330
1E
100
AcDbEntity
  8
002
100
AcDbLine
 10
2608.176075311577
 20
-2003.206339061978
 30
0.0
 11
2611.1227031915
 21
-2007.956852598558
 31
0.0
  0
LINE
  5
B41E
330
1E
100
AcDbEntity
  8
002
100
AcDbLine
 10
2628.776934471873
 20
-1907.834731698854
 30
0.0
 11
2624.383238676255
 21
-1911.290948124302
 31
0.0
  0
ARC
  5
B41F
330
1E
100
AcDbEntity
  8
002
100
AcDbCircle
 10
2625.617679718136
 20
-1920.816691000174
 30
0.0
 40
2.5
100
AcDbArc
 50
308.1896850000611
 51
31.81031500002374
  0
LINE
  5
B420
330
1E
100
AcDbEntity
  8
002
100
AcDbLine
 10
2631.381657136877
 20
-1893.06261540367
 30
0.0
 11
2626.987961341259
 21
-1896.518831829118
 31
0.0
  0
LINE
  5
B421
330
1E
100
AcDbEntity
  8
002
100
AcDbLine
 10
2632.372792279702
 20
-1893.23737927088
 30
0.0
 11
2627.979096484085
 21
-1896.693595696326
 31
0.0
  0
LINE
  5
B422
330
1E
100
AcDbEntity
  8
002
100
AcDbLine
 10
2629.768069614698
 20
-1908.009495566062
 30
0.0
 11
2625.374373819081
 21
-1911.46571199151
 31
0.0
  0
LINE
  5
B423
330
1E
100
AcDbEntity
  8
002
100
AcDbLine
 10
2627.400269109429
 20
-1899.976288862906
 30
0.0
 11
2630.346896989354
 21
-1904.726802399483
 31
0.0
  0
LINE
  5
B424
330
1E
100
AcDbEntity
  8
002
100
AcDbLine
 10
2626.409133966604
 20
-1899.801524995697
 30
0.0
 11
2629.355761846528
 21
-1904.552038532276
 31
0.0
  0
ARC
  5
B425
330
1E
100
AcDbEntity
  8
002
100
AcDbCircle
 10
2625.928905907813
 20
-1913.255868985374
 30
0.0
 40
2.5
100
AcDbArc
 50
128.1896850000611
 51
211.8103150000237
  0
ARC
  5
B426
330
1E
100
AcDbEntity
  8
002
100
AcDbCircle
 10
2626.920041050638
 20
-1913.430632852581
 30
0.0
 40
2.5
100
AcDbArc
 50
128.1896850000611
 51
211.8103150000237
  0
ARC
  5
B427
330
1E
100
AcDbEntity
  8
002
100
AcDbCircle
 10
2628.533628572817
 20
-1898.48375269019
 30
0.0
 40
2.5
100
AcDbArc
 50
128.1896850000611
 51
211.8103150000237
  0
ARC
  5
B428
330
1E
100
AcDbEntity
  8
002
100
AcDbCircle
 10
2629.524763715642
 20
-1898.658516557399
 30
0.0
 40
2.5
100
AcDbArc
 50
128.1896850000611
 51
211.8103150000237
  0
LINE
  5
B429
330
1E
100
AcDbEntity
  8
002
100
AcDbLine
 10
2626.172211806869
 20
-1922.606847994038
 30
0.0
 11
2621.778516011251
 21
-1926.063064419484
 31
0.0
  0
LINE
  5
B42A
330
1E
100
AcDbEntity
  8
002
100
AcDbLine
 10
2627.163346949695
 20
-1922.781611861246
 30
0.0
 11
2622.769651154077
 21
-1926.237828286694
 31
0.0
  0
LINE
  5
B42B
330
1E
100
AcDbEntity
  8
002
100
AcDbLine
 10
2621.199688636596
 20
-1929.345757586064
 30
0.0
 11
2624.146316516521
 21
-1934.096271122642
 31
0.0
  0
LINE
  5
B42C
330
1E
100
AcDbEntity
  8
002
100
AcDbLine
 10
2622.190823779422
 20
-1929.520521453272
 30
0.0
 11
2625.137451659346
 21
-1934.271034989849
 31
0.0
  0
LINE
  5
B42D
330
1E
100
AcDbEntity
  8
002
100
AcDbLine
 10
2624.55862428469
 20
-1937.55372815643
 30
0.0
 11
2620.164928489073
 21
-1941.009944581876
 31
0.0
  0
ARC
  5
B42E
330
1E
100
AcDbEntity
  8
002
100
AcDbCircle
 10
2622.021821910307
 20
-1935.414043428149
 30
0.0
 40
2.5
100
AcDbArc
 50
308.1896850000611
 51
31.81031500002374
  0
ARC
  5
B42F
330
1E
100
AcDbEntity
  8
002
100
AcDbCircle
 10
2620.719460577805
 20
-1942.800101575739
 30
0.0
 40
2.5
100
AcDbArc
 50
128.1896850000611
 51
211.8103150000237
  0
ARC
  5
B430
330
1E
100
AcDbEntity
  8
002
100
AcDbCircle
 10
2621.71059572063
 20
-1942.974865442947
 30
0.0
 40
2.5
100
AcDbArc
 50
128.1896850000611
 51
211.8103150000237
  0
ARC
  5
B431
330
1E
100
AcDbEntity
  8
002
100
AcDbCircle
 10
2623.324183242809
 20
-1928.027985280555
 30
0.0
 40
2.5
100
AcDbArc
 50
128.1896850000611
 51
211.8103150000237
  0
ARC
  5
B432
330
1E
100
AcDbEntity
  8
002
100
AcDbCircle
 10
2624.315318385634
 20
-1928.202749147765
 30
0.0
 40
2.5
100
AcDbArc
 50
128.1896850000611
 51
211.8103150000237
  0
LINE
  5
B433
330
1E
100
AcDbEntity
  8
002
100
AcDbLine
 10
2623.567489141865
 20
-1937.37896428922
 30
0.0
 11
2619.173793346247
 21
-1940.835180714668
 31
0.0
  0
ARC
  5
B434
330
1E
100
AcDbEntity
  8
002
100
AcDbCircle
 10
2624.626544575312
 20
-1920.641927132965
 30
0.0
 40
2.5
100
AcDbArc
 50
308.1896850000611
 51
31.81031500002374
  0
ARC
  5
B435
330
1E
100
AcDbEntity
  8
002
100
AcDbCircle
 10
2623.012957053132
 20
-1935.588807295356
 30
0.0
 40
2.5
100
AcDbArc
 50
308.1896850000611
 51
31.81031500002374
  0
LINE
  5
B436
330
1E
100
AcDbEntity
  8
002
100
AcDbLine
 10
2623.8044113016
 20
-1914.573641290881
 30
0.0
 11
2626.751039181524
 21
-1919.324154827458
 31
0.0
  0
LINE
  5
B437
330
1E
100
AcDbEntity
  8
002
100
AcDbLine
 10
2624.795546444426
 20
-1914.748405158088
 30
0.0
 11
2627.74217432435
 21
-1919.498918694667
 31
0.0
  0
LINE
  5
B438
330
1E
100
AcDbEntity
  8
002
100
AcDbLine
 10
2618.594965971592
 20
-1944.117873881246
 30
0.0
 11
2621.541593851516
 21
-1948.868387417824
 31
0.0
  0
LINE
  5
B439
330
1E
100
AcDbEntity
  8
002
100
AcDbLine
 10
2619.586101114418
 20
-1944.292637748454
 30
0.0
 11
2622.532728994342
 21
-1949.043151285033
 31
0.0
  0
ARC
  5
B43A
330
1E
100
AcDbEntity
  8
002
100
AcDbCircle
 10
2638.952519232833
 20
-1839.395287509458
 30
0.0
 40
2.5
100
AcDbArc
 50
128.1896850000611
 51
211.8103150000237
  0
ARC
  5
B43B
330
1E
100
AcDbEntity
  8
002
100
AcDbCircle
 10
2639.943654375658
 20
-1839.570051376665
 30
0.0
 40
2.5
100
AcDbArc
 50
128.1896850000611
 51
211.8103150000237
  0
LINE
  5
B43C
330
1E
100
AcDbEntity
  8
002
100
AcDbLine
 10
2641.800547796893
 20
-1833.974150222939
 30
0.0
 11
2637.406852001275
 21
-1837.430366648386
 31
0.0
  0
LINE
  5
B43D
330
1E
100
AcDbEntity
  8
002
100
AcDbLine
 10
2642.791682939718
 20
-1834.148914090146
 30
0.0
 11
2638.397987144101
 21
-1837.605130515594
 31
0.0
  0
LINE
  5
B43E
330
1E
100
AcDbEntity
  8
002
100
AcDbLine
 10
2639.195825131888
 20
-1848.746266518123
 30
0.0
 11
2634.802129336272
 21
-1852.202482943568
 31
0.0
  0
LINE
  5
B43F
330
1E
100
AcDbEntity
  8
002
100
AcDbLine
 10
2640.186960274714
 20
-1848.92103038533
 30
0.0
 11
2635.793264479097
 21
-1852.377246810778
 31
0.0
  0
ARC
  5
B440
330
1E
100
AcDbEntity
  8
002
100
AcDbCircle
 10
2636.347796567829
 20
-1854.167403804642
 30
0.0
 40
2.5
100
AcDbArc
 50
128.1896850000611
 51
211.8103150000237
  0
ARC
  5
B441
330
1E
100
AcDbEntity
  8
002
100
AcDbCircle
 10
2637.338931710654
 20
-1854.342167671849
 30
0.0
 40
2.5
100
AcDbArc
 50
128.1896850000611
 51
211.8103150000237
  0
ARC
  5
B442
330
1E
100
AcDbEntity
  8
002
100
AcDbCircle
 10
2638.641293043156
 20
-1846.956109524258
 30
0.0
 40
2.5
100
AcDbArc
 50
308.1896850000611
 51
31.81031500002374
  0
LINE
  5
B443
330
1E
100
AcDbEntity
  8
002
100
AcDbLine
 10
2636.82802462662
 20
-1840.713059814965
 30
0.0
 11
2639.774652506543
 21
-1845.463573351542
 31
0.0
  0
ARC
  5
B444
330
1E
100
AcDbEntity
  8
002
100
AcDbCircle
 10
2637.650157900331
 20
-1846.781345657049
 30
0.0
 40
2.5
100
AcDbArc
 50
308.1896850000611
 51
31.81031500002374
  0
LINE
  5
B445
330
1E
100
AcDbEntity
  8
002
100
AcDbLine
 10
2637.819159769446
 20
-1840.887823682172
 30
0.0
 11
2640.765787649369
 21
-1845.638337218752
 31
0.0
  0
ARC
  5
B446
330
1E
100
AcDbEntity
  8
002
100
AcDbCircle
 10
2632.129486380646
 20
-1883.886400262215
 30
0.0
 40
2.5
100
AcDbArc
 50
128.1896850000611
 51
211.8103150000237
  0
LINE
  5
B447
330
1E
100
AcDbEntity
  8
002
100
AcDbLine
 10
2633.986379801881
 20
-1878.290499108488
 30
0.0
 11
2629.592684006263
 21
-1881.746715533934
 31
0.0
  0
LINE
  5
B448
330
1E
100
AcDbEntity
  8
002
100
AcDbLine
 10
2634.977514944706
 20
-1878.465262975696
 30
0.0
 11
2630.583819149089
 21
-1881.921479401144
 31
0.0
  0
ARC
  5
B449
330
1E
100
AcDbEntity
  8
002
100
AcDbCircle
 10
2633.431847713148
 20
-1876.500342114624
 30
0.0
 40
2.5
100
AcDbArc
 50
308.1896850000611
 51
31.81031500002374
  0
ARC
  5
B44A
330
1E
100
AcDbEntity
  8
002
100
AcDbCircle
 10
2632.440712570323
 20
-1876.325578247415
 30
0.0
 40
2.5
100
AcDbArc
 50
308.1896850000611
 51
31.81031500002374
  0
ARC
  5
B44B
330
1E
100
AcDbEntity
  8
002
100
AcDbCircle
 10
2633.743073902826
 20
-1868.939520099824
 30
0.0
 40
2.5
100
AcDbArc
 50
128.1896850000611
 51
211.8103150000237
  0
ARC
  5
B44C
330
1E
100
AcDbEntity
  8
002
100
AcDbCircle
 10
2634.73420904565
 20
-1869.114283967033
 30
0.0
 40
2.5
100
AcDbArc
 50
128.1896850000611
 51
211.8103150000237
  0
LINE
  5
B44D
330
1E
100
AcDbEntity
  8
002
100
AcDbLine
 10
2631.618579296612
 20
-1870.257292405331
 30
0.0
 11
2634.565207176536
 21
-1875.00780594191
 31
0.0
  0
LINE
  5
B44E
330
1E
100
AcDbEntity
  8
002
100
AcDbLine
 10
2632.609714439438
 20
-1870.43205627254
 30
0.0
 11
2635.556342319361
 21
-1875.182569809117
 31
0.0
  0
ARC
  5
B44F
330
1E
100
AcDbEntity
  8
002
100
AcDbCircle
 10
2636.036570378152
 20
-1861.728225819441
 30
0.0
 40
2.5
100
AcDbArc
 50
308.1896850000611
 51
31.81031500002374
  0
ARC
  5
B450
330
1E
100
AcDbEntity
  8
002
100
AcDbCircle
 10
2635.045435235327
 20
-1861.553461952233
 30
0.0
 40
2.5
100
AcDbArc
 50
308.1896850000611
 51
31.81031500002374
  0
LINE
  5
B451
330
1E
100
AcDbEntity
  8
002
100
AcDbLine
 10
2636.591102466885
 20
-1863.518382813304
 30
0.0
 11
2632.197406671267
 21
-1866.974599238752
 31
0.0
  0
LINE
  5
B452
330
1E
100
AcDbEntity
  8
002
100
AcDbLine
 10
2637.58223760971
 20
-1863.693146680514
 30
0.0
 11
2633.188541814092
 21
-1867.14936310596
 31
0.0
  0
LINE
  5
B453
330
1E
100
AcDbEntity
  8
002
100
AcDbLine
 10
2634.223301961617
 20
-1855.485176110149
 30
0.0
 11
2637.16992984154
 21
-1860.235689646726
 31
0.0
  0
LINE
  5
B454
330
1E
100
AcDbEntity
  8
002
100
AcDbLine
 10
2635.214437104442
 20
-1855.659939977356
 30
0.0
 11
2638.161064984365
 21
-1860.410453513934
 31
0.0
  0
ARC
  5
B455
330
1E
100
AcDbEntity
  8
002
100
AcDbCircle
 10
2631.138351237821
 20
-1883.711636395008
 30
0.0
 40
2.5
100
AcDbArc
 50
128.1896850000611
 51
211.8103150000237
  0
ARC
  5
B456
330
1E
100
AcDbEntity
  8
002
100
AcDbCircle
 10
2630.827125048144
 20
-1891.272458409806
 30
0.0
 40
2.5
100
AcDbArc
 50
308.1896850000611
 51
31.81031500002374
  0
ARC
  5
B457
330
1E
100
AcDbEntity
  8
002
100
AcDbCircle
 10
2629.835989905319
 20
-1891.097694542599
 30
0.0
 40
2.5
100
AcDbArc
 50
308.1896850000611
 51
31.81031500002374
  0
ARC
  5
B458
330
1E
100
AcDbEntity
  8
002
100
AcDbCircle
 10
2628.22240238314
 20
-1906.04457470499
 30
0.0
 40
2.5
100
AcDbArc
 50
308.1896850000611
 51
31.81031500002374
  0
ARC
  5
B459
330
1E
100
AcDbEntity
  8
002
100
AcDbCircle
 10
2627.231267240315
 20
-1905.869810837782
 30
0.0
 40
2.5
100
AcDbArc
 50
308.1896850000611
 51
31.81031500002374
  0
LINE
  5
B45A
330
1E
100
AcDbEntity
  8
002
100
AcDbLine
 10
2629.013856631608
 20
-1885.029408700514
 30
0.0
 11
2631.960484511532
 21
-1889.779922237092
 31
0.0
  0
LINE
  5
B45B
330
1E
100
AcDbEntity
  8
002
100
AcDbLine
 10
2630.004991774433
 20
-1885.204172567722
 30
0.0
 11
2632.951619654358
 21
-1889.954686104301
 31
0.0
  0
LINE
  5
B45C
330
1E
100
AcDbEntity
  8
002
100
AcDbLine
 10
2578.602028221119
 20
-1685.985001772587
 30
0.0
 11
2603.616145128677
 21
-1617.25928045689
 31
0.0
  0
LINE
  5
B45D
330
1E
100
AcDbEntity
  8
002
100
AcDbLine
 10
2568.602028191849
 20
-1742.697820134768
 30
0.0
 11
2593.616145099406
 21
-1673.972098819069
 31
0.0
  0
LINE
  5
B45E
330
1E
100
AcDbEntity
  8
002
100
AcDbLine
 10
2627.460989090858
 20
-1778.135802007611
 30
0.0
 11
2559.391586352835
 21
-1772.056651308377
 31
0.0
  0
LINE
  5
B45F
330
1E
100
AcDbEntity
  8
002
100
AcDbLine
 10
2644.304667845314
 20
-1794.644818179742
 30
0.0
 11
2556.786863687831
 21
-1786.828767603561
 31
0.0
  0
LINE
  5
B460
330
1E
100
AcDbEntity
  8
002
100
AcDbLine
 10
2645.32162261287
 20
-1817.671233510851
 30
0.0
 11
2547.955740925264
 21
-1808.118701158
 31
0.0
  0
LINE
  5
B461
330
1E
100
AcDbEntity
  8
002
100
AcDbLine
 10
2647.926345277873
 20
-1802.899117215667
 30
0.0
 11
2550.560463590268
 21
-1793.346584862818
 31
0.0
  0
LINE
  5
B462
330
1E
100
AcDbEntity
  8
002
100
AcDbLine
 10
2650.531067942877
 20
-1788.127000920485
 30
0.0
 11
2553.165186255272
 21
-1778.574468567634
 31
0.0
  0
LINE
  5
B463
330
1E
100
AcDbEntity
  8
002
100
AcDbLine
 10
2641.69994518031
 20
-1809.416934474924
 30
0.0
 11
2554.182141022827
 21
-1801.600883898743
 31
0.0
  0
LINE
  5
B464
330
1E
100
AcDbEntity
  8
002
100
AcDbLine
 10
2642.716899947866
 20
-1832.443349806033
 30
0.0
 11
2545.35101826026
 21
-1822.890817453184
 31
0.0
  0
LINE
  5
B465
330
1E
100
AcDbEntity
  8
002
100
AcDbLine
 10
2639.095222515306
 20
-1824.189050770108
 30
0.0
 11
2551.577418357823
 21
-1816.373000193927
 31
0.0
  0
LINE
  5
B466
330
1E
100
AcDbEntity
  8
002
100
AcDbLine
 10
2556.107433696593
 20
-1765.554245022125
 30
0.0
 11
2647.246915286636
 21
-1781.624594634233
 31
0.0
  0
LINE
  5
B467
330
1E
100
AcDbEntity
  8
002
100
AcDbLine
 10
2561.982706050647
 20
-1708.710897179667
 30
0.0
 11
2552.953000811966
 21
-1759.920900336302
 31
0.0
  0
LINE
  5
B468
330
1E
100
AcDbEntity
  8
002
100
AcDbLine
 10
2557.551071162092
 20
-1707.929480380167
 30
0.0
 11
2553.730811253419
 21
-1729.595250946434
 31
0.0
  0
LINE
  5
B469
330
1E
100
AcDbEntity
  8
002
100
AcDbLine
 10
2559.02828279161
 20
-1708.189952646667
 30
0.0
 11
2555.208022882938
 21
-1729.855723212937
 31
0.0
  0
LINE
  5
B46A
330
1E
100
AcDbEntity
  8
002
100
AcDbLine
 10
2533.33525500511
 20
-1695.53616573673
 30
0.0
 11
2528.125809675102
 21
-1725.080398327096
 31
0.0
  0
LINE
  5
B46B
330
1E
100
AcDbEntity
  8
002
100
AcDbLine
 10
2533.33525500511
 20
-1695.53616573673
 30
0.0
 11
2528.125809675102
 21
-1725.080398327096
 31
0.0
  0
LINE
  5
B46C
330
1E
100
AcDbEntity
  8
002
100
AcDbLine
 10
2535.263617971117
 20
-1693.238031630706
 30
0.0
 11
2529.753405141333
 21
-1724.488001474487
 31
0.0
  0
LINE
  5
B46D
330
1E
100
AcDbEntity
  8
002
100
AcDbLine
 10
2535.263617971117
 20
-1693.238031630706
 30
0.0
 11
2529.603021304621
 21
-1725.340870593596
 31
0.0
  0
LINE
  5
B46E
330
1E
100
AcDbEntity
  8
002
100
AcDbLine
 10
2518.625028500314
 20
-1721.374301044401
 30
0.0
 11
2526.960141028327
 21
-1674.103528899815
 31
0.0
  0
LINE
  5
B46F
330
1E
100
AcDbEntity
  8
002
100
AcDbLine
 10
2508.429654614857
 20
-1721.607434773757
 30
0.0
 11
2555.208022882938
 21
-1729.855723212937
 31
0.0
  0
ARC
  5
B470
330
1E
100
AcDbEntity
  8
002
100
AcDbCircle
 10
2548.991640504503
 20
-1808.301358203125
 30
0.0
 40
2.5
100
AcDbArc
 50
128.1896850000611
 51
211.8103150000237
  0
ARC
  5
B471
330
1E
100
AcDbEntity
  8
002
100
AcDbCircle
 10
2547.813037642791
 20
-1823.32493789735
 30
0.0
 40
2.5
100
AcDbArc
 50
128.1896850000611
 51
211.8103150000237
  0
LINE
  5
B472
330
1E
100
AcDbEntity
  8
002
100
AcDbLine
 10
2549.234946403558
 20
-1817.652337211789
 30
0.0
 11
2544.841250607941
 21
-1821.108553637236
 31
0.0
  0
LINE
  5
B473
330
1E
100
AcDbEntity
  8
002
100
AcDbLine
 10
2544.262423233286
 20
-1824.391246803816
 30
0.0
 11
2547.20905111321
 21
-1829.141760340393
 31
0.0
  0
LINE
  5
B474
330
1E
100
AcDbEntity
  8
002
100
AcDbLine
 10
2545.688543036578
 20
-1824.642710202859
 30
0.0
 11
2548.635170916502
 21
-1829.393223739436
 31
0.0
  0
LINE
  5
B475
330
1E
100
AcDbEntity
  8
002
100
AcDbLine
 10
2545.852349229322
 20
-1728.206065525099
 30
0.0
 11
2541.511144787648
 21
-1752.826259350403
 31
0.0
  0
LINE
  5
B476
330
1E
100
AcDbEntity
  8
002
100
AcDbLine
 10
2545.852349229322
 20
-1728.206065525099
 30
0.0
 11
2541.511144787648
 21
-1752.826259350403
 31
0.0
  0
LINE
  5
B477
330
1E
100
AcDbEntity
  8
002
100
AcDbLine
 10
2529.781922796145
 20
-1724.477621823047
 30
0.0
 11
2528.125809675102
 21
-1725.080398327096
 31
0.0
  0
LINE
  5
B478
330
1E
100
AcDbEntity
  8
002
100
AcDbLine
 10
2529.603021304621
 20
-1725.340870593596
 30
0.0
 11
2528.276193511814
 21
-1724.227529207984
 31
0.0
  0
LINE
  5
B479
330
1E
100
AcDbEntity
  8
002
100
AcDbLine
 10
2518.625028500314
 20
-1721.374301044401
 30
0.0
 11
2520.247347651004
 21
-1723.69121290576
 31
0.0
  0
ARC
  5
B47A
330
1E
100
AcDbEntity
  8
002
100
AcDbCircle
 10
2546.386917839499
 20
-1823.073474498307
 30
0.0
 40
2.5
100
AcDbArc
 50
128.1896850000611
 51
211.8103150000237
  0
LINE
  5
B47B
330
1E
100
AcDbEntity
  8
003
 62
     3
100
AcDbLine
 10
2540.624817809938
 20
-1752.669975990506
 30
0.0
 11
2536.804557901265
 21
-1774.335746556773
 31
0.0
  0
LINE
  5
B47C
330
1E
100
AcDbEntity
  8
003
 62
     3
100
AcDbLine
 10
2540.624817809938
 20
-1752.669975990506
 30
0.0
 11
2536.804557901265
 21
-1774.335746556773
 31
0.0
  0
LINE
  5
B47D
330
1E
100
AcDbEntity
  8
002
100
AcDbLine
 10
2553.730811253419
 20
-1729.595250946434
 30
0.0
 11
2555.35840671965
 21
-1729.002854093825
 31
0.0
  0
LINE
  5
B47E
330
1E
100
AcDbEntity
  8
002
100
AcDbLine
 10
2550.490981429436
 20
-1759.486779892136
 30
0.0
 11
2549.622740541101
 21
-1764.410818657197
 31
0.0
  0
LINE
  5
B47F
330
1E
100
AcDbEntity
  8
002
100
AcDbLine
 10
2549.622740541101
 20
-1764.410818657197
 30
0.0
 11
2554.681313893301
 21
-1765.302781623082
 31
0.0
  0
LINE
  5
B480
330
1E
100
AcDbEntity
  8
002
100
AcDbLine
 10
2550.490981429436
 20
-1759.486779892136
 30
0.0
 11
2552.953000811966
 21
-1759.920900336302
 31
0.0
  0
LINE
  5
B481
330
1E
100
AcDbEntity
  8
002
100
AcDbLine
 10
2570.03115386948
 20
-1768.00937256044
 30
0.0
 11
2583.616145070135
 21
-1730.68491718125
 31
0.0
  0
ARC
  5
B482
330
1E
100
AcDbEntity
  8
002
100
AcDbCircle
 10
2555.503447167013
 20
-1771.371067465166
 30
0.0
 40
2.5
100
AcDbArc
 50
308.1896850000611
 51
31.81031500002374
  0
ARC
  5
B483
330
1E
100
AcDbEntity
  8
002
100
AcDbCircle
 10
2556.929566970305
 20
-1771.622530864209
 30
0.0
 40
2.5
100
AcDbArc
 50
308.1896850000611
 51
31.81031500002374
  0
ARC
  5
B484
330
1E
100
AcDbEntity
  8
002
100
AcDbCircle
 10
2555.627205637802
 20
-1779.008589011802
 30
0.0
 40
2.5
100
AcDbArc
 50
128.1896850000611
 51
211.8103150000237
  0
ARC
  5
B485
330
1E
100
AcDbEntity
  8
002
100
AcDbCircle
 10
2554.20108583451
 20
-1778.757125612759
 30
0.0
 40
2.5
100
AcDbArc
 50
128.1896850000611
 51
211.8103150000237
  0
LINE
  5
B486
330
1E
100
AcDbEntity
  8
002
100
AcDbLine
 10
2558.475234201862
 20
-1773.587451725283
 30
0.0
 11
2554.081538406244
 21
-1777.043668150729
 31
0.0
  0
LINE
  5
B487
330
1E
100
AcDbEntity
  8
002
100
AcDbLine
 10
2557.04911439857
 20
-1773.33598832624
 30
0.0
 11
2552.655418602952
 21
-1776.792204751686
 31
0.0
  0
LINE
  5
B488
330
1E
100
AcDbEntity
  8
002
100
AcDbLine
 10
2555.870511536858
 20
-1788.359568020465
 30
0.0
 11
2551.47681574124
 21
-1791.815784445912
 31
0.0
  0
LINE
  5
B489
330
1E
100
AcDbEntity
  8
002
100
AcDbLine
 10
2554.444391733566
 20
-1788.108104621422
 30
0.0
 11
2550.050695937949
 21
-1791.564321046869
 31
0.0
  0
ARC
  5
B48A
330
1E
100
AcDbEntity
  8
002
100
AcDbCircle
 10
2553.022482972798
 20
-1793.780705306984
 30
0.0
 40
2.5
100
AcDbArc
 50
128.1896850000611
 51
211.8103150000237
  0
ARC
  5
B48B
330
1E
100
AcDbEntity
  8
002
100
AcDbCircle
 10
2551.596363169506
 20
-1793.529241907941
 30
0.0
 40
2.5
100
AcDbArc
 50
128.1896850000611
 51
211.8103150000237
  0
ARC
  5
B48C
330
1E
100
AcDbEntity
  8
002
100
AcDbCircle
 10
2554.324844305301
 20
-1786.394647159393
 30
0.0
 40
2.5
100
AcDbArc
 50
308.1896850000611
 51
31.81031500002374
  0
ARC
  5
B48D
330
1E
100
AcDbEntity
  8
002
100
AcDbCircle
 10
2552.898724502009
 20
-1786.14318376035
 30
0.0
 40
2.5
100
AcDbArc
 50
308.1896850000611
 51
31.81031500002374
  0
LINE
  5
B48E
330
1E
100
AcDbEntity
  8
002
100
AcDbLine
 10
2553.502711031589
 20
-1780.326361317309
 30
0.0
 11
2556.449338911514
 21
-1785.076874853887
 31
0.0
  0
LINE
  5
B48F
330
1E
100
AcDbEntity
  8
002
100
AcDbLine
 10
2552.076591228297
 20
-1780.074897918266
 30
0.0
 11
2555.023219108221
 21
-1784.825411454843
 31
0.0
  0
ARC
  5
B490
330
1E
100
AcDbEntity
  8
002
100
AcDbCircle
 10
2551.720121640296
 20
-1801.166763454577
 30
0.0
 40
2.5
100
AcDbArc
 50
308.1896850000611
 51
31.81031500002374
  0
ARC
  5
B491
330
1E
100
AcDbEntity
  8
002
100
AcDbCircle
 10
2550.294001837004
 20
-1800.915300055534
 30
0.0
 40
2.5
100
AcDbArc
 50
308.1896850000611
 51
31.81031500002374
  0
LINE
  5
B492
330
1E
100
AcDbEntity
  8
002
100
AcDbLine
 10
2548.293265701582
 20
-1809.870593907675
 30
0.0
 11
2551.239893581506
 21
-1814.621107444252
 31
0.0
  0
LINE
  5
B493
330
1E
100
AcDbEntity
  8
002
100
AcDbLine
 10
2553.265788871854
 20
-1803.131684315649
 30
0.0
 11
2548.872093076237
 21
-1806.587900741096
 31
0.0
  0
ARC
  5
B494
330
1E
100
AcDbEntity
  8
002
100
AcDbCircle
 10
2549.115398975292
 20
-1815.938879749759
 30
0.0
 40
2.5
100
AcDbArc
 50
308.1896850000611
 51
31.81031500002374
  0
ARC
  5
B495
330
1E
100
AcDbEntity
  8
002
100
AcDbCircle
 10
2547.689279172001
 20
-1815.687416350716
 30
0.0
 40
2.5
100
AcDbArc
 50
308.1896850000611
 51
31.81031500002374
  0
LINE
  5
B496
330
1E
100
AcDbEntity
  8
002
100
AcDbLine
 10
2550.897988366585
 20
-1795.098477612491
 30
0.0
 11
2553.84461624651
 21
-1799.84899114907
 31
0.0
  0
LINE
  5
B497
330
1E
100
AcDbEntity
  8
002
100
AcDbLine
 10
2549.471868563294
 20
-1794.847014213448
 30
0.0
 11
2552.418496443217
 21
-1799.597527750027
 31
0.0
  0
ARC
  5
B498
330
1E
100
AcDbEntity
  8
002
100
AcDbCircle
 10
2550.417760307794
 20
-1808.552821602168
 30
0.0
 40
2.5
100
AcDbArc
 50
128.1896850000611
 51
211.8103150000237
  0
LINE
  5
B499
330
1E
100
AcDbEntity
  8
002
100
AcDbLine
 10
2546.86714589829
 20
-1809.619130508632
 30
0.0
 11
2549.813773778213
 21
-1814.369644045209
 31
0.0
  0
LINE
  5
B49A
330
1E
100
AcDbEntity
  8
002
100
AcDbLine
 10
2551.839669068562
 20
-1802.880220916605
 30
0.0
 11
2547.445973272945
 21
-1806.336437342053
 31
0.0
  0
LINE
  5
B49B
330
1E
100
AcDbEntity
  8
002
100
AcDbLine
 10
2550.66106620685
 20
-1817.903800610833
 30
0.0
 11
2546.267370411233
 21
-1821.360017036278
 31
0.0
  0
ARC
  5
B49C
330
1E
100
AcDbEntity
  8
002
100
AcDbCircle
 10
2546.510676310288
 20
-1830.710996044943
 30
0.0
 40
2.5
100
AcDbArc
 50
308.1896850000611
 51
31.81031500002374
  0
ARC
  5
B49D
330
1E
100
AcDbEntity
  8
002
100
AcDbCircle
 10
2545.084556506997
 20
-1830.4595326459
 30
0.0
 40
2.5
100
AcDbArc
 50
308.1896850000611
 51
31.81031500002374
  0
LINE
  5
B49E
330
1E
100
AcDbEntity
  8
002
100
AcDbLine
 10
2556.107433696593
 20
-1765.554245022125
 30
0.0
 11
2559.054061576517
 21
-1770.304758558704
 31
0.0
  0
LINE
  5
B49F
330
1E
100
AcDbEntity
  8
002
100
AcDbLine
 10
2554.681313893301
 20
-1765.302781623082
 30
0.0
 11
2557.627941773225
 21
-1770.053295159661
 31
0.0
  0
LINE
  5
B4A0
330
1E
100
AcDbEntity
  8
002
100
AcDbLine
 10
2548.486521787656
 20
-1620.105020006356
 30
0.0
 11
2543.723804031206
 21
-1625.393554468966
 31
0.0
  0
LINE
  5
B4A1
330
1E
100
AcDbEntity
  8
002
100
AcDbLine
 10
2536.870108348836
 20
-1704.282868649161
 30
0.0
 11
2573.08200842078
 21
-1710.668003654564
 31
0.0
  0
LINE
  5
B4A2
330
1E
100
AcDbEntity
  8
002
100
AcDbLine
 10
2551.952565507412
 20
-1647.539855986282
 30
0.0
 11
2545.267110667235
 21
-1685.454954477252
 31
0.0
  0
LINE
  5
B4A3
330
1E
100
AcDbEntity
  8
002
100
AcDbLine
 10
2547.703282310806
 20
-1628.447959902023
 30
0.0
 11
2536.248425724129
 21
-1693.411679808374
 31
0.0
  0
ARC
  5
B4A4
330
1E
100
AcDbEntity
  8
002
100
AcDbCircle
 10
2547.439214396588
 20
-1628.739555989723
 30
0.0
 40
5.0
100
AcDbArc
 50
137.9946170000068
 51
161.4692339999961
  0
LINE
  5
B4A5
330
1E
100
AcDbEntity
  8
002
100
AcDbLine
 10
2539.505775909033
 20
-1703.732181340317
 30
0.0
 11
2542.554451846264
 21
-1686.442280923589
 31
0.0
  0
LINE
  5
B4A6
330
1E
100
AcDbEntity
  8
002
100
AcDbLine
 10
2535.263617971117
 20
-1693.238031630706
 30
0.0
 11
2536.248425724129
 21
-1693.411679808374
 31
0.0
  0
LINE
  5
B4A7
330
1E
100
AcDbEntity
  8
002
100
AcDbLine
 10
2535.248475150473
 20
-1693.256078276599
 30
0.0
 11
2533.33525500511
 21
-1695.53616573673
 31
0.0
  0
LINE
  5
B4A8
330
1E
100
AcDbEntity
  8
002
100
AcDbLine
 10
2539.505775909033
 20
-1703.732181340317
 30
0.0
 11
2540.316935484378
 21
-1704.890637270995
 31
0.0
  0
LINE
  5
B4A9
330
1E
100
AcDbEntity
  8
002
100
AcDbLine
 10
2533.336457124459
 20
-1704.167503903834
 30
0.0
 11
2534.321264877472
 21
-1704.3411520815
 31
0.0
  0
LINE
  5
B4AA
330
1E
100
AcDbEntity
  8
002
100
AcDbLine
 10
2533.336457124459
 20
-1704.167503903834
 30
0.0
 11
2531.708861831877
 21
-1704.759899771636
 31
0.0
  0
LINE
  5
B4AB
330
1E
100
AcDbEntity
  8
002
100
AcDbLine
 10
2535.653368985817
 20
-1702.545184753144
 30
0.0
 11
2538.231385919152
 21
-1702.999758695214
 31
0.0
  0
LINE
  5
B4AC
330
1E
100
AcDbEntity
  8
002
100
AcDbLine
 10
2534.494913055139
 20
-1703.356344328487
 30
0.0
 11
2534.321264877472
 21
-1704.3411520815
 31
0.0
  0
LINE
  5
B4AD
330
1E
100
AcDbEntity
  8
002
100
AcDbLine
 10
2536.870108348836
 20
-1704.282868649161
 30
0.0
 11
2536.59291989854
 21
-1702.710852928805
 31
0.0
  0
LINE
  5
B4AE
330
1E
100
AcDbEntity
  8
002
100
AcDbLine
 10
2535.653368985817
 20
-1702.545184753144
 30
0.0
 11
2534.494913055139
 21
-1703.356344328487
 31
0.0
  0
LINE
  5
B4AF
330
1E
100
AcDbEntity
  8
002
100
AcDbLine
 10
2545.267110667235
 20
-1685.454954477252
 30
0.0
 11
2542.554451846264
 21
-1686.442280923589
 31
0.0
  0
LINE
  5
B4B0
330
1E
100
AcDbEntity
  8
002
100
AcDbLine
 10
2542.69844842748
 20
-1627.150487091257
 30
0.0
 11
2526.960141028327
 21
-1674.103528899815
 31
0.0
  0
ARC
  5
B4B1
330
1E
100
AcDbEntity
  8
002
100
AcDbCircle
 10
2544.771112580731
 20
-1616.759017674437
 30
0.0
 40
5.0
100
AcDbArc
 50
317.9946170000068
 51
346.6725960000484
  0
ARC
  5
B4B2
330
1E
100
AcDbEntity
  8
002
100
AcDbCircle
 10
2549.703931548532
 20
-1617.626758633936
 30
0.0
 40
5.0
100
AcDbArc
 50
317.9511519999599
 51
346.6725960000484
  0
LINE
  5
B4B3
330
1E
100
AcDbEntity
  8
002
100
AcDbLine
 10
2578.799204244369
 20
-1647.704222983455
 30
0.0
 11
2584.661968653255
 21
-1648.737986530279
 31
0.0
  0
LINE
  5
B4B4
330
1E
100
AcDbEntity
  8
002
100
AcDbLine
 10
2578.799204244369
 20
-1647.704222983455
 30
0.0
 11
2584.661968653255
 21
-1648.737986530279
 31
0.0
  0
LINE
  5
B4B5
330
1E
100
AcDbEntity
  8
002
100
AcDbLine
 10
2578.058287812776
 20
-1651.123788072731
 30
0.0
 11
2577.592052562723
 21
-1650.53764940783
 31
0.0
  0
ARC
  5
B4B6
330
1E
100
AcDbEntity
  8
002
100
AcDbCircle
 10
2578.712380155534
 20
-1648.196626859961
 30
0.0
 40
0.5
100
AcDbArc
 50
79.9999999999961
 51
176.9999999999945
  0
LINE
  5
B4B7
330
1E
100
AcDbEntity
  8
002
100
AcDbLine
 10
2578.058287812776
 20
-1651.123788072731
 30
0.0
 11
2577.592052562723
 21
-1650.53764940783
 31
0.0
  0
ARC
  5
B4B8
330
1E
100
AcDbEntity
  8
002
100
AcDbCircle
 10
2578.712380155534
 20
-1648.196626859961
 30
0.0
 40
0.5
100
AcDbArc
 50
79.9999999999961
 51
176.9999999999945
  0
LINE
  5
B4B9
330
1E
100
AcDbEntity
  8
002
100
AcDbLine
 10
2584.661968653255
 20
-1648.737986530279
 30
0.0
 11
2585.104244642073
 21
-1649.109099997213
 31
0.0
  0
LINE
  5
B4BA
330
1E
100
AcDbEntity
  8
002
100
AcDbLine
 10
2584.661968653255
 20
-1648.737986530279
 30
0.0
 11
2585.104244642073
 21
-1649.109099997213
 31
0.0
  0
LINE
  5
B4BB
330
1E
100
AcDbEntity
  8
002
100
AcDbLine
 10
2553.69024940343
 20
-1646.323116623263
 30
0.0
 11
2551.952565507412
 21
-1647.539855986282
 31
0.0
  0
LINE
  5
B4BC
330
1E
100
AcDbEntity
  8
002
100
AcDbLine
 10
2553.69024940343
 20
-1646.323116623263
 30
0.0
 11
2577.592052562723
 21
-1650.53764940783
 31
0.0
  0
LINE
  5
B4BD
330
1E
100
AcDbEntity
  8
002
100
AcDbLine
 10
2553.416801854527
 20
-1620.975578901103
 30
0.0
 11
2548.914450596224
 21
-1625.967381508
 31
0.0
  0
ARC
  5
B4BE
330
1E
100
AcDbEntity
  8
002
100
AcDbCircle
 10
2552.627321075867
 20
-1629.316200790357
 30
0.0
 40
5.0
100
AcDbArc
 50
137.9511519999599
 51
169.9999999999938
  0
LINE
  5
B4BF
330
1E
100
AcDbEntity
  8
002
100
AcDbLine
 10
2577.677574795005
 20
-1687.690622328558
 30
0.0
 11
2578.467214895554
 21
-1686.749566134909
 31
0.0
  0
ARC
  5
B4C0
330
1E
100
AcDbEntity
  8
002
100
AcDbCircle
 10
2577.02442336901
 20
-1687.142563529048
 30
0.0
 40
0.8526290000000001
100
AcDbArc
 50
176.9999999999945
 51
319.9999999999791
  0
LINE
  5
B4C1
330
1E
100
AcDbEntity
  8
002
100
AcDbLine
 10
2573.950249309115
 20
-1705.743964889503
 30
0.0
 11
2572.477412290628
 21
-1710.561397044386
 31
0.0
  0
LINE
  5
B4C2
330
1E
100
AcDbEntity
  8
002
100
AcDbLine
 10
2575.722519106961
 20
-1695.692923405524
 30
0.0
 11
2573.950249309115
 21
-1705.743964889503
 31
0.0
  0
LINE
  5
B4C3
330
1E
100
AcDbEntity
  8
002
100
AcDbLine
 10
2559.02828279161
 20
-1708.189952646667
 30
0.0
 11
2557.400687499028
 21
-1708.782348514469
 31
0.0
  0
LINE
  5
B4C4
330
1E
100
AcDbEntity
  8
002
100
AcDbLine
 10
2557.551071162092
 20
-1707.929480380167
 30
0.0
 11
2558.877899128546
 21
-1709.042820780969
 31
0.0
  0
LINE
  5
B4C5
330
1E
100
AcDbEntity
  8
002
100
AcDbLine
 10
2577.824427182336
 20
-1687.515611165185
 30
0.0
 11
2584.661968653255
 21
-1648.737986530279
 31
0.0
  0
LINE
  5
B4C6
330
1E
100
AcDbEntity
  8
002
100
AcDbLine
 10
2578.213065579467
 20
-1648.170458233507
 30
0.0
 11
2575.722519106961
 21
-1695.692923405524
 31
0.0
  0
LINE
  5
B4C7
330
1E
100
AcDbEntity
  8
002
100
AcDbLine
 10
2623.416623749232
 20
-1714.466221341123
 30
0.0
 11
2621.943786730745
 21
-1719.283653496008
 31
0.0
  0
LINE
  5
B4C8
330
1E
100
AcDbEntity
  8
002
100
AcDbLine
 10
2639.961009842261
 20
-1707.019902522148
 30
0.0
 11
2638.188740044415
 21
-1717.070944006127
 31
0.0
  0
LINE
  5
B4C9
330
1E
100
AcDbEntity
  8
002
100
AcDbLine
 10
2617.534777440791
 20
-1754.446415431588
 30
0.0
 11
2642.548894348348
 21
-1685.720694115891
 31
0.0
  0
LINE
  5
B4CA
330
1E
100
AcDbEntity
  8
002
100
AcDbLine
 10
2587.601184723064
 20
-1713.22812617432
 30
0.0
 11
2622.295442867999
 21
-1719.345659960936
 31
0.0
  0
LINE
  5
B4CB
330
1E
100
AcDbEntity
  8
002
100
AcDbLine
 10
2587.854124715963
 20
-1713.272726319568
 30
0.0
 11
2622.548382860898
 21
-1719.390260106185
 31
0.0
  0
LINE
  5
B4CC
330
1E
100
AcDbEntity
  8
002
100
AcDbLine
 10
2620.031154269029
 20
-1776.825721666315
 30
0.0
 11
2632.548894492726
 21
-1742.433511493262
 31
0.0
  0
LINE
  5
B4CD
330
1E
100
AcDbEntity
  8
002
100
AcDbLine
 10
2668.834347252472
 20
-1727.55172445653
 30
0.0
 11
2667.20675195989
 21
-1728.144120324332
 31
0.0
  0
LINE
  5
B4CE
330
1E
100
AcDbEntity
  8
002
100
AcDbLine
 10
2667.357135622953
 20
-1727.29125219003
 30
0.0
 11
2668.683963589407
 21
-1728.404592590832
 31
0.0
  0
LINE
  5
B4CF
330
1E
100
AcDbEntity
  8
002
100
AcDbLine
 10
2638.188740044415
 20
-1717.070944006127
 30
0.0
 11
2637.925095286234
 21
-1722.101589381367
 31
0.0
  0
LINE
  5
B4D0
330
1E
100
AcDbEntity
  8
002
100
AcDbLine
 10
2665.014087343799
 20
-1749.217495022798
 30
0.0
 11
2663.687259550993
 21
-1748.104153637188
 31
0.0
  0
LINE
  5
B4D1
330
1E
100
AcDbEntity
  8
002
100
AcDbLine
 10
2668.834347252472
 20
-1727.55172445653
 30
0.0
 11
2665.014087343799
 21
-1749.217495022798
 31
0.0
  0
LINE
  5
B4D2
330
1E
100
AcDbEntity
  8
002
100
AcDbLine
 10
2667.357135622953
 20
-1727.29125219003
 30
0.0
 11
2663.536875714281
 21
-1748.957022756298
 31
0.0
  0
ARC
  5
B4D3
330
1E
100
AcDbEntity
  8
002
100
AcDbCircle
 10
2648.069048560347
 20
-1787.692880476317
 30
0.0
 40
2.5
100
AcDbArc
 50
308.1896850000611
 51
31.81031500002374
  0
LINE
  5
B4D4
330
1E
100
AcDbEntity
  8
002
100
AcDbLine
 10
2657.835026507767
 20
-1778.414431257832
 30
0.0
 11
2655.373007125236
 21
-1777.980310813664
 31
0.0
  0
LINE
  5
B4D5
330
1E
100
AcDbEntity
  8
002
100
AcDbLine
 10
2657.835026507767
 20
-1778.414431257832
 30
0.0
 11
2656.966785619432
 21
-1783.338470022892
 31
0.0
  0
ARC
  5
B4D6
330
1E
100
AcDbEntity
  8
002
100
AcDbCircle
 10
2649.060183703172
 20
-1787.867644343525
 30
0.0
 40
2.5
100
AcDbArc
 50
308.1896850000611
 51
31.81031500002374
  0
ARC
  5
B4D7
330
1E
100
AcDbEntity
  8
002
100
AcDbCircle
 10
2646.766687227845
 20
-1795.078938623908
 30
0.0
 40
2.5
100
AcDbArc
 50
128.1896850000611
 51
211.8103150000237
  0
ARC
  5
B4D8
330
1E
100
AcDbEntity
  8
002
100
AcDbCircle
 10
2647.75782237067
 20
-1795.253702491118
 30
0.0
 40
2.5
100
AcDbArc
 50
128.1896850000611
 51
211.8103150000237
  0
LINE
  5
B4D9
330
1E
100
AcDbEntity
  8
002
100
AcDbLine
 10
2648.238050429461
 20
-1781.799358501441
 30
0.0
 11
2656.966785619432
 21
-1783.338470022892
 31
0.0
  0
LINE
  5
B4DA
330
1E
100
AcDbEntity
  8
002
100
AcDbLine
 10
2650.60585093473
 20
-1789.832565204598
 30
0.0
 11
2646.212155139112
 21
-1793.288781630044
 31
0.0
  0
LINE
  5
B4DB
330
1E
100
AcDbEntity
  8
002
100
AcDbLine
 10
2647.246915286636
 20
-1781.624594634233
 30
0.0
 11
2650.193543166559
 21
-1786.37510817081
 31
0.0
  0
LINE
  5
B4DC
330
1E
100
AcDbEntity
  8
002
100
AcDbLine
 10
2648.238050429461
 20
-1781.799358501441
 30
0.0
 11
2651.184678309385
 21
-1786.549872038018
 31
0.0
  0
LINE
  5
B4DD
330
1E
100
AcDbEntity
  8
002
100
AcDbLine
 10
2649.614715791905
 20
-1789.657801337389
 30
0.0
 11
2645.221019996287
 21
-1793.114017762836
 31
0.0
  0
LINE
  5
B4DE
330
1E
100
AcDbEntity
  8
002
100
AcDbLine
 10
2642.037469956628
 20
-1811.168827224599
 30
0.0
 11
2644.984097836552
 21
-1815.919340761176
 31
0.0
  0
LINE
  5
B4DF
330
1E
100
AcDbEntity
  8
002
100
AcDbLine
 10
2643.028605099454
 20
-1811.343591091807
 30
0.0
 11
2645.975232979377
 21
-1816.094104628385
 31
0.0
  0
LINE
  5
B4E0
330
1E
100
AcDbEntity
  8
002
100
AcDbLine
 10
2647.0099931269
 20
-1804.429917632573
 30
0.0
 11
2642.616297331283
 21
-1807.88613405802
 31
0.0
  0
LINE
  5
B4E1
330
1E
100
AcDbEntity
  8
002
100
AcDbLine
 10
2648.001128269726
 20
-1804.60468149978
 30
0.0
 11
2643.607432474109
 21
-1808.060897925228
 31
0.0
  0
LINE
  5
B4E2
330
1E
100
AcDbEntity
  8
002
100
AcDbLine
 10
2644.405270461897
 20
-1819.202033927757
 30
0.0
 11
2640.011574666279
 21
-1822.658250353202
 31
0.0
  0
LINE
  5
B4E3
330
1E
100
AcDbEntity
  8
002
100
AcDbLine
 10
2645.396405604722
 20
-1819.376797794964
 30
0.0
 11
2641.002709809105
 21
-1822.833014220412
 31
0.0
  0
ARC
  5
B4E4
330
1E
100
AcDbEntity
  8
002
100
AcDbCircle
 10
2644.161964562841
 20
-1809.851054919092
 30
0.0
 40
2.5
100
AcDbArc
 50
128.1896850000611
 51
211.8103150000237
  0
ARC
  5
B4E5
330
1E
100
AcDbEntity
  8
002
100
AcDbCircle
 10
2645.153099705666
 20
-1810.0258187863
 30
0.0
 40
2.5
100
AcDbArc
 50
128.1896850000611
 51
211.8103150000237
  0
ARC
  5
B4E6
330
1E
100
AcDbEntity
  8
002
100
AcDbCircle
 10
2642.548377040662
 20
-1824.797935081484
 30
0.0
 40
2.5
100
AcDbArc
 50
128.1896850000611
 51
211.8103150000237
  0
ARC
  5
B4E7
330
1E
100
AcDbEntity
  8
002
100
AcDbCircle
 10
2641.557241897837
 20
-1824.623171214274
 30
0.0
 40
2.5
100
AcDbArc
 50
128.1896850000611
 51
211.8103150000237
  0
ARC
  5
B4E8
330
1E
100
AcDbEntity
  8
002
100
AcDbCircle
 10
2646.455461038168
 20
-1802.639760638708
 30
0.0
 40
2.5
100
AcDbArc
 50
308.1896850000611
 51
31.81031500002374
  0
ARC
  5
B4E9
330
1E
100
AcDbEntity
  8
002
100
AcDbCircle
 10
2645.464325895343
 20
-1802.464996771501
 30
0.0
 40
2.5
100
AcDbArc
 50
308.1896850000611
 51
31.81031500002374
  0
ARC
  5
B4EA
330
1E
100
AcDbEntity
  8
002
100
AcDbCircle
 10
2643.850738373163
 20
-1817.411876933891
 30
0.0
 40
2.5
100
AcDbArc
 50
308.1896850000611
 51
31.81031500002374
  0
ARC
  5
B4EB
330
1E
100
AcDbEntity
  8
002
100
AcDbCircle
 10
2642.859603230339
 20
-1817.237113066683
 30
0.0
 40
2.5
100
AcDbArc
 50
308.1896850000611
 51
31.81031500002374
  0
LINE
  5
B4EC
330
1E
100
AcDbEntity
  8
002
100
AcDbLine
 10
2644.642192621632
 20
-1796.396710929415
 30
0.0
 11
2647.588820501555
 21
-1801.147224465994
 31
0.0
  0
LINE
  5
B4ED
330
1E
100
AcDbEntity
  8
002
100
AcDbLine
 10
2645.633327764457
 20
-1796.571474796625
 30
0.0
 11
2648.579955644381
 21
-1801.321988333202
 31
0.0
  0
LINE
  5
B4EE
330
1E
100
AcDbEntity
  8
002
100
AcDbLine
 10
2640.42388243445
 20
-1826.115707386991
 30
0.0
 11
2643.370510314373
 21
-1830.866220923568
 31
0.0
  0
LINE
  5
B4EF
330
1E
100
AcDbEntity
  8
002
100
AcDbLine
 10
2639.432747291624
 20
-1825.940943519781
 30
0.0
 11
2642.379375171548
 21
-1830.69145705636
 31
0.0
  0
LINE
  5
B4F0
330
1E
100
AcDbEntity
  8
002
100
AcDbLine
 10
2664.402712363916
 20
-1726.770307657028
 30
0.0
 11
2655.373007125236
 21
-1777.980310813664
 31
0.0
  0
ARC
  5
B4F1
330
1E
100
AcDbEntity
  8
002
100
AcDbCircle
 10
2628.17875558046
 20
-1656.918883485228
 30
0.0
 40
0.5
100
AcDbArc
 50
79.9999999999961
 51
176.9999999999945
  0
ARC
  5
B4F2
330
1E
100
AcDbEntity
  8
002
100
AcDbCircle
 10
2628.17875558046
 20
-1656.918883485228
 30
0.0
 40
0.5
100
AcDbArc
 50
79.9999999999961
 51
176.9999999999945
  0
LINE
  5
B4F3
330
1E
100
AcDbEntity
  8
002
100
AcDbLine
 10
2627.290801622453
 20
-1696.237867616806
 30
0.0
 11
2634.128343093372
 21
-1657.460242981898
 31
0.0
  0
LINE
  5
B4F4
330
1E
100
AcDbEntity
  8
002
100
AcDbLine
 10
2627.534777470062
 20
-1697.733597069407
 30
0.0
 11
2652.548894377619
 21
-1629.00787575371
 31
0.0
  0
LINE
  5
B4F5
330
1E
100
AcDbEntity
  8
002
100
AcDbLine
 10
2604.016598293601
 20
-1652.150729937491
 30
0.0
 11
2598.153834869522
 21
-1651.116966564315
 31
0.0
  0
LINE
  5
B4F6
330
1E
100
AcDbEntity
  8
002
100
AcDbLine
 10
2604.016598293601
 20
-1652.150729937491
 30
0.0
 11
2598.153834869522
 21
-1651.116966564315
 31
0.0
  0
LINE
  5
B4F7
330
1E
100
AcDbEntity
  8
002
100
AcDbLine
 10
2598.153834869522
 20
-1651.116966564315
 30
0.0
 11
2597.611303105328
 21
-1651.314431853583
 31
0.0
  0
LINE
  5
B4F8
330
1E
100
AcDbEntity
  8
002
100
AcDbLine
 10
2598.153834869522
 20
-1651.116966564315
 30
0.0
 11
2597.611303105328
 21
-1651.314431853583
 31
0.0
  0
ARC
  5
B4F9
330
1E
100
AcDbEntity
  8
002
100
AcDbCircle
 10
2603.929774204767
 20
-1652.643133813997
 30
0.0
 40
0.5
100
AcDbArc
 50
343.0000000000192
 51
79.9999999999961
  0
ARC
  5
B4FA
330
1E
100
AcDbEntity
  8
002
100
AcDbCircle
 10
2603.929774204767
 20
-1652.643133813997
 30
0.0
 40
0.5
100
AcDbArc
 50
343.0000000000192
 51
79.9999999999961
  0
LINE
  5
B4FB
330
1E
100
AcDbEntity
  8
002
100
AcDbLine
 10
2627.524663237701
 20
-1659.846044698
 30
0.0
 11
2627.05842700284
 21
-1659.259905859451
 31
0.0
  0
LINE
  5
B4FC
330
1E
100
AcDbEntity
  8
002
100
AcDbLine
 10
2627.524663237701
 20
-1659.846044698
 30
0.0
 11
2627.05842700284
 21
-1659.259905859451
 31
0.0
  0
LINE
  5
B4FD
330
1E
100
AcDbEntity
  8
002
100
AcDbLine
 10
2603.543271855041
 20
-1655.617478362308
 30
0.0
 11
2604.181861894053
 21
-1655.226150204836
 31
0.0
  0
LINE
  5
B4FE
330
1E
100
AcDbEntity
  8
002
100
AcDbLine
 10
2603.543271855041
 20
-1655.617478362308
 30
0.0
 11
2604.181861894053
 21
-1655.226150204836
 31
0.0
  0
LINE
  5
B4FF
330
1E
100
AcDbEntity
  8
002
100
AcDbLine
 10
2604.181861894053
 20
-1655.226150204836
 30
0.0
 11
2627.05842700284
 21
-1659.259905859451
 31
0.0
  0
LINE
  5
B500
330
1E
100
AcDbEntity
  8
002
100
AcDbLine
 10
2604.181861894053
 20
-1655.226150204836
 30
0.0
 11
2627.05842700284
 21
-1659.259905859451
 31
0.0
  0
ARC
  5
B501
330
1E
100
AcDbEntity
  8
002
100
AcDbCircle
 10
2626.490797809128
 20
-1695.864819980668
 30
0.0
 40
0.8526290000000001
100
AcDbArc
 50
176.9999999999945
 51
319.9999999999791
  0
LINE
  5
B502
330
1E
100
AcDbEntity
  8
002
100
AcDbLine
 10
2627.14395021993
 20
-1696.412878953826
 30
0.0
 11
2627.933589335671
 21
-1695.471822586529
 31
0.0
  0
ARC
  5
B503
330
1E
100
AcDbEntity
  8
002
100
AcDbCircle
 10
2592.195640884564
 20
-1689.817658507237
 30
0.0
 40
0.8526290000000001
100
AcDbArc
 50
199.9999999999892
 51
343.0000000000192
  0
LINE
  5
B504
330
1E
100
AcDbEntity
  8
002
100
AcDbLine
 10
2591.394431175334
 20
-1690.109274198914
 30
0.0
 11
2590.974273358809
 21
-1688.954897991277
 31
0.0
  0
LINE
  5
B505
330
1E
100
AcDbEntity
  8
002
100
AcDbLine
 10
2590.494635402144
 20
-1698.297646070528
 30
0.0
 11
2588.722365604298
 21
-1708.348687554507
 31
0.0
  0
LINE
  5
B506
330
1E
100
AcDbEntity
  8
002
100
AcDbLine
 10
2627.679441004392
 20
-1656.892714858775
 30
0.0
 11
2625.188893547078
 21
-1704.415179857143
 31
0.0
  0
LINE
  5
B507
330
1E
100
AcDbEntity
  8
002
100
AcDbLine
 10
2625.188893547078
 20
-1704.415179857143
 30
0.0
 11
2623.416623749232
 21
-1714.466221341123
 31
0.0
  0
LINE
  5
B508
330
1E
100
AcDbEntity
  8
002
100
AcDbLine
 10
2591.316293398603
 20
-1689.894591199221
 30
0.0
 11
2598.153834869522
 21
-1651.116966564315
 31
0.0
  0
LINE
  5
B509
330
1E
100
AcDbEntity
  8
002
100
AcDbLine
 10
2604.40792662472
 20
-1652.789318991694
 30
0.0
 11
2590.494635402144
 21
-1698.297646070528
 31
0.0
  0
LINE
  5
B50A
330
1E
100
AcDbEntity
  8
002
100
AcDbLine
 10
2588.722365604298
 20
-1708.348687554507
 30
0.0
 11
2588.458720846116
 21
-1713.379332929746
 31
0.0
  0
LINE
  5
B50B
330
1E
100
AcDbEntity
  8
002
100
AcDbLine
 10
2653.009646295158
 20
-1664.339734813927
 30
0.0
 11
2653.64823633417
 21
-1663.948406656458
 31
0.0
  0
ARC
  5
B50C
330
1E
100
AcDbEntity
  8
002
100
AcDbCircle
 10
2653.396149629692
 20
-1661.365390439266
 30
0.0
 40
0.5
100
AcDbArc
 50
343.0000000000192
 51
79.9999999999961
  0
LINE
  5
B50D
330
1E
100
AcDbEntity
  8
002
100
AcDbLine
 10
2653.009646295158
 20
-1664.339734813927
 30
0.0
 11
2653.64823633417
 21
-1663.948406656458
 31
0.0
  0
ARC
  5
B50E
330
1E
100
AcDbEntity
  8
002
100
AcDbCircle
 10
2653.396149629692
 20
-1661.365390439266
 30
0.0
 40
0.5
100
AcDbArc
 50
343.0000000000192
 51
79.9999999999961
  0
LINE
  5
B50F
330
1E
100
AcDbEntity
  8
002
100
AcDbLine
 10
2634.128343093372
 20
-1657.460242981898
 30
0.0
 11
2634.57061908219
 21
-1657.831356448832
 31
0.0
  0
LINE
  5
B510
330
1E
100
AcDbEntity
  8
002
100
AcDbLine
 10
2634.128343093372
 20
-1657.460242981898
 30
0.0
 11
2634.57061908219
 21
-1657.831356448832
 31
0.0
  0
LINE
  5
B511
330
1E
100
AcDbEntity
  8
002
100
AcDbLine
 10
2647.62020930964
 20
-1659.839223015937
 30
0.0
 11
2647.077677545445
 21
-1660.036688305202
 31
0.0
  0
LINE
  5
B512
330
1E
100
AcDbEntity
  8
002
100
AcDbLine
 10
2647.62020930964
 20
-1659.839223015937
 30
0.0
 11
2647.077677545445
 21
-1660.036688305202
 31
0.0
  0
LINE
  5
B513
330
1E
100
AcDbEntity
  8
002
100
AcDbLine
 10
2653.482973718526
 20
-1660.872986562761
 30
0.0
 11
2647.62020930964
 21
-1659.839223015937
 31
0.0
  0
LINE
  5
B514
330
1E
100
AcDbEntity
  8
002
100
AcDbLine
 10
2653.482973718526
 20
-1660.872986562761
 30
0.0
 11
2647.62020930964
 21
-1659.839223015937
 31
0.0
  0
ARC
  5
B515
330
1E
100
AcDbEntity
  8
002
100
AcDbCircle
 10
2641.662015324681
 20
-1698.539914958857
 30
0.0
 40
0.8526290000000001
100
AcDbArc
 50
199.9999999999892
 51
343.0000000000192
  0
LINE
  5
B516
330
1E
100
AcDbEntity
  8
002
100
AcDbLine
 10
2640.860806600259
 20
-1698.831530824181
 30
0.0
 11
2640.440647798926
 21
-1697.677154442899
 31
0.0
  0
LINE
  5
B517
330
1E
100
AcDbEntity
  8
002
100
AcDbLine
 10
2653.874302049645
 20
-1661.511575616963
 30
0.0
 11
2639.961009842261
 21
-1707.019902522148
 31
0.0
  0
LINE
  5
B518
330
1E
100
AcDbEntity
  8
002
100
AcDbLine
 10
2640.78266783872
 20
-1698.616847650843
 30
0.0
 11
2647.62020930964
 21
-1659.839223015937
 31
0.0
  0
LINE
  5
B519
330
1E
100
AcDbEntity
  8
002
100
AcDbLine
 10
2628.265579669294
 20
-1656.426479608722
 30
0.0
 11
2634.128343093372
 21
-1657.460242981898
 31
0.0
  0
LINE
  5
B51A
330
1E
100
AcDbEntity
  8
002
100
AcDbLine
 10
2628.265579669294
 20
-1656.426479608722
 30
0.0
 11
2634.128343093372
 21
-1657.460242981898
 31
0.0
  0
LINE
  5
B51B
330
1E
100
AcDbEntity
  8
002
100
AcDbLine
 10
3212.198839319064
 20
-2566.016842571283
 30
0.0
 11
3212.198839319064
 21
-2485.016842571283
 31
0.0
  0
LINE
  5
B51C
330
1E
100
AcDbEntity
  8
002
100
AcDbLine
 10
3211.198839319064
 20
-2565.016842571283
 30
0.0
 11
3211.198839319064
 21
-2485.016842571283
 31
0.0
  0
LINE
  5
B51D
330
1E
100
AcDbEntity
  8
002
100
AcDbLine
 10
3232.832814319064
 20
-2567.516842571283
 30
0.0
 11
3232.832814319064
 21
-2528.878441571283
 31
0.0
  0
LINE
  5
B51E
330
1E
100
AcDbEntity
  8
002
100
AcDbLine
 10
3213.064864319064
 20
-2567.516842571283
 30
0.0
 11
3213.064864319064
 21
-2528.878441571283
 31
0.0
  0
DIMENSION
  5
B51F
330
1E
100
AcDbEntity
  8
001
  6
Continuous
100
AcDbDimension
  2
*D6
 10
3170.648930055364
 20
-2567.516842571283
 30
0.0
 11
3157.523930055365
 21
-2485.016842571282
 31
0.0
 70
    32
  1
M165
 71
     5
 42
165.0
  3
ISO-25
100
AcDbAlignedDimension
 13
3213.064864319064
 23
-2402.516842571284
 33
0.0
 14
3213.064864319064
 24
-2567.516842571283
 34
0.0
 50
90.0
100
AcDbRotatedDimension
  0
LINE
  5
B520
330
1E
100
AcDbEntity
  8
002
100
AcDbLine
 10
3233.698839319064
 20
-2566.016842571283
 30
0.0
 11
3233.698839319064
 21
-2404.016842571283
 31
0.0
  0
LINE
  5
B521
330
1E
100
AcDbEntity
  8
002
100
AcDbLine
 10
3210.198839319064
 20
-2406.016842571284
 30
0.0
 11
3210.198839319064
 21
-2564.016842571283
 31
0.0
  0
LINE
  5
B522
330
1E
100
AcDbEntity
  8
004
  6
CENTER
 62
     6
100
AcDbLine
 10
2996.290641319064
 20
-2388.973108571284
 30
0.0
 11
2996.290641319064
 21
-2583.675072571284
 31
0.0
  0
CIRCLE
  5
B523
330
1E
100
AcDbEntity
  8
002
100
AcDbCircle
 10
2996.290641319064
 20
-2485.016842571283
 30
0.0
 40
81.0
  0
CIRCLE
  5
B524
330
1E
100
AcDbEntity
  8
002
100
AcDbCircle
 10
2996.290641319064
 20
-2485.016842571283
 30
0.0
 40
80.0
  0
CIRCLE
  5
B525
330
1E
100
AcDbEntity
  8
002
100
AcDbCircle
 10
2996.290641319064
 20
-2485.016842571283
 30
0.0
 40
79.0
  0
CIRCLE
  5
B526
330
1E
100
AcDbEntity
  8
002
100
AcDbCircle
 10
2996.290641319064
 20
-2485.016842571283
 30
0.0
 40
77.5
  0
CIRCLE
  5
B527
330
1E
100
AcDbEntity
  8
002
100
AcDbCircle
 10
2996.290641319064
 20
-2485.016842571283
 30
0.0
 40
78.04595500000001
  0
CIRCLE
  5
B528
330
1E
100
AcDbEntity
  8
002
100
AcDbCircle
 10
2996.290641319064
 20
-2485.016842571283
 30
0.0
 40
82.5
  0
LINE
  5
B529
330
1E
100
AcDbEntity
  8
002
100
AcDbLine
 10
3233.698839319064
 20
-2566.016842571283
 30
0.0
 11
3232.832814319064
 21
-2567.516842571283
 31
0.0
  0
LINE
  5
B52A
330
1E
100
AcDbEntity
  8
002
100
AcDbLine
 10
3210.198839319064
 20
-2564.016842571283
 30
0.0
 11
3211.198839319064
 21
-2565.016842571283
 31
0.0
  0
LINE
  5
B52B
330
1E
100
AcDbEntity
  8
002
100
AcDbLine
 10
3212.198839319064
 20
-2566.016842571283
 30
0.0
 11
3213.064864319064
 21
-2567.516842571283
 31
0.0
  0
LINE
  5
B52C
330
1E
100
AcDbEntity
  8
002
100
AcDbLine
 10
3211.198839319064
 20
-2565.016842571283
 30
0.0
 11
3212.198839319064
 21
-2565.016842571283
 31
0.0
  0
LINE
  5
B52D
330
1E
100
AcDbEntity
  8
002
100
AcDbLine
 10
3212.198839319064
 20
-2566.016842571283
 30
0.0
 11
3233.698839319064
 21
-2566.016842571283
 31
0.0
  0
LINE
  5
B52E
330
1E
100
AcDbEntity
  8
002
100
AcDbLine
 10
3213.064864319064
 20
-2567.516842571283
 30
0.0
 11
3232.832814319064
 21
-2567.516842571283
 31
0.0
  0
CIRCLE
  5
B52F
330
1E
100
AcDbEntity
  8
002
100
AcDbCircle
 10
2996.290641319064
 20
-2485.016842571283
 30
0.0
 40
56.5
  0
CIRCLE
  5
B530
330
1E
100
AcDbEntity
  8
002
100
AcDbCircle
 10
2996.290641319064
 20
-2485.016842571283
 30
0.0
 40
55.0
  0
LINE
  5
B531
330
1E
100
AcDbEntity
  8
004
  6
CENTER
 62
     6
100
AcDbLine
 10
3092.754193319064
 20
-2485.016842571283
 30
0.0
 11
2897.314722319064
 21
-2485.016842571283
 31
0.0
  0
LINE
  5
B532
330
1E
100
AcDbEntity
  8
003
100
AcDbLine
 10
2952.599187232247
 20
-1866.551859134364
 30
0.0
 11
2952.599187232247
 21
-2095.070384505581
 31
0.0
  0
TEXT
  5
B533
330
1E
100
AcDbEntity
  8
001
100
AcDbText
 10
2815.723108319064
 20
-2363.664387571283
 30
0.0
 40
18.5
  1
両ネジジョイントプレート
 41
0.6756760000000001
100
AcDbText
  0
LINE
  5
B534
330
1E
100
AcDbEntity
  8
001
100
AcDbLine
 10
2815.723108319064
 20
-2363.664387571283
 30
0.0
 11
2996.723108319064
 21
-2363.664387571283
 31
0.0
  0
LINE
  5
B535
330
1E
100
AcDbEntity
  8
003
100
AcDbLine
 10
2878.893903881028
 20
-1612.904845849131
 30
0.0
 11
2716.377617066434
 21
-1612.904845849131
 31
0.0
  0
LINE
  5
B536
330
1E
100
AcDbEntity
  8
003
  6
Continuous
100
AcDbLine
 10
2717.288883826663
 20
-1672.123690043484
 30
0.0
 11
2810.498367449809
 21
-1688.559036864148
 31
0.0
  0
LINE
  5
B537
330
1E
100
AcDbEntity
  8
003
100
AcDbLine
 10
2712.100337396325
 20
-1805.245122086074
 30
0.0
 11
2810.498367449809
 21
-1688.559036864148
 31
0.0
  0
DIMENSION
  5
B538
330
1E
100
AcDbEntity
  8
001
  6
Continuous
100
AcDbDimension
  2
*D7
 10
2808.113879176572
 20
-1799.835514553825
 30
0.0
 11
2804.738927189967
 21
-1743.391955806274
 31
0.0
 70
    33
 71
     5
 42
110.0000000000011
  3
ISO-25
100
AcDbAlignedDimension
 13
2717.293413080447
 23
-1672.124488673127
 33
0.0
 14
2698.192113537085
 24
-1780.453341504471
 34
0.0
  0
LINE
  5
B539
330
1E
100
AcDbEntity
  8
003
100
AcDbLine
 10
2708.00219148475
 20
-1782.183122929497
 30
0.0
 11
2790.000549397773
 21
-1684.944718495921
 31
0.0
  0
LINE
  5
B53A
330
1E
100
AcDbEntity
  8
002
100
AcDbLine
 10
2687.226938860864
 20
-1729.779407990356
 30
0.0
 11
2690.275614798096
 21
-1712.489507573627
 31
0.0
  0
LINE
  5
B53B
330
1E
100
AcDbEntity
  8
002
100
AcDbLine
 10
2705.272522792759
 20
-1656.231668328731
 30
0.0
 11
2693.817666206082
 21
-1721.195388235082
 31
0.0
  0
LINE
  5
B53C
330
1E
100
AcDbEntity
  8
002
100
AcDbLine
 10
2700.814462807572
 20
-1753.499213912784
 30
0.0
 11
2709.149575335585
 21
-1706.228441768198
 31
0.0
  0
LINE
  5
B53D
330
1E
100
AcDbEntity
  8
002
100
AcDbLine
 10
2710.315243982361
 20
-1757.205311195477
 30
0.0
 11
2705.974039540687
 21
-1781.825505020782
 31
0.0
  0
LINE
  5
B53E
330
1E
100
AcDbEntity
  8
002
100
AcDbLine
 10
2692.064153537092
 20
-1731.140052755197
 30
0.0
 11
2691.252993961747
 21
-1729.981596824518
 31
0.0
  0
LINE
  5
B53F
330
1E
100
AcDbEntity
  8
002
100
AcDbLine
 10
2692.875313112437
 20
-1732.298508685877
 30
0.0
 11
2694.202141078891
 21
-1733.411849086678
 31
0.0
  0
LINE
  5
B540
330
1E
100
AcDbEntity
  8
002
100
AcDbLine
 10
2692.064153537092
 20
-1731.140052755197
 30
0.0
 11
2691.890505359424
 21
-1732.124860508209
 31
0.0
  0
LINE
  5
B541
330
1E
100
AcDbEntity
  8
002
100
AcDbLine
 10
2692.875313112437
 20
-1732.298508685877
 30
0.0
 11
2691.890505359424
 21
-1732.124860508209
 31
0.0
  0
LINE
  5
B542
330
1E
100
AcDbEntity
  8
002
100
AcDbLine
 10
2694.810531239496
 20
-1721.391173862412
 30
0.0
 11
2695.828534252124
 21
-1724.188115051773
 31
0.0
  0
LINE
  5
B543
330
1E
100
AcDbEntity
  8
002
100
AcDbLine
 10
2694.802473959095
 20
-1721.36903641275
 30
0.0
 11
2693.817666206082
 21
-1721.195388235082
 31
0.0
  0
LINE
  5
B544
330
1E
100
AcDbEntity
  8
002
100
AcDbLine
 10
2689.515310065728
 20
-1731.198336187535
 30
0.0
 11
2690.313443049024
 21
-1729.815928648855
 31
0.0
  0
LINE
  5
B545
330
1E
100
AcDbEntity
  8
002
100
AcDbLine
 10
2687.226938860864
 20
-1729.779407990356
 30
0.0
 11
2686.068482930185
 21
-1730.590567565701
 31
0.0
  0
LINE
  5
B546
330
1E
100
AcDbEntity
  8
002
100
AcDbLine
 10
2691.252993961747
 20
-1729.981596824518
 30
0.0
 11
2688.673253614844
 21
-1729.526718998137
 31
0.0
  0
LINE
  5
B547
330
1E
100
AcDbEntity
  8
002
100
AcDbLine
 10
2700.814462807572
 20
-1753.499213912784
 30
0.0
 11
2698.497550946214
 21
-1755.121533063475
 31
0.0
  0
LINE
  5
B548
330
1E
100
AcDbEntity
  8
002
100
AcDbLine
 10
2689.269013349394
 20
-1752.599498962279
 30
0.0
 11
2690.619088922116
 21
-1753.732347642138
 31
0.0
  0
LINE
  5
B549
330
1E
100
AcDbEntity
  8
002
100
AcDbLine
 10
2689.141877292598
 20
-1753.471875375638
 30
0.0
 11
2690.769472758829
 21
-1752.879478523029
 31
0.0
  0
LINE
  5
B54A
330
1E
100
AcDbEntity
  8
002
100
AcDbLine
 10
2695.828534252124
 20
-1724.188115051773
 30
0.0
 11
2690.619088922116
 21
-1753.732347642138
 31
0.0
  0
LINE
  5
B54B
330
1E
100
AcDbEntity
  8
002
100
AcDbLine
 10
2695.828534252124
 20
-1724.188115051773
 30
0.0
 11
2690.619088922116
 21
-1753.732347642138
 31
0.0
  0
LINE
  5
B54C
330
1E
100
AcDbEntity
  8
002
100
AcDbLine
 10
2694.802473959095
 20
-1721.36903641275
 30
0.0
 11
2689.29226112931
 21
-1752.619006256529
 31
0.0
  0
LINE
  5
B54D
330
1E
100
AcDbEntity
  8
002
100
AcDbLine
 10
2694.802473959095
 20
-1721.36903641275
 30
0.0
 11
2689.141877292598
 21
-1753.471875375638
 31
0.0
  0
LINE
  5
B54E
330
1E
100
AcDbEntity
  8
002
100
AcDbLine
 10
2710.263116710068
 20
-1662.813173723456
 30
0.0
 11
2704.269958961313
 21
-1661.917490359019
 31
0.0
  0
LINE
  5
B54F
330
1E
100
AcDbEntity
  8
002
100
AcDbLine
 10
2710.288954476367
 20
-1661.805784904743
 30
0.0
 11
2704.443691358346
 21
-1660.932204974247
 31
0.0
  0
ARC
  5
B550
330
1E
100
AcDbEntity
  8
002
100
AcDbCircle
 10
2705.420933727428
 20
-1656.595995566464
 30
0.0
 40
5.0
100
AcDbArc
 50
358.5307659999577
 51
22.00538300000975
  0
LINE
  5
B551
330
1E
100
AcDbEntity
  8
002
100
AcDbLine
 10
2710.41929009788
 20
-1656.724196704881
 30
0.0
 11
2709.149575335585
 21
-1706.228441768198
 31
0.0
  0
LINE
  5
B552
330
1E
100
AcDbEntity
  8
002
  6
CENTER
100
AcDbLine
 10
2699.219256573331
 20
-1663.836358004617
 30
0.0
 11
2713.947235754639
 21
-1666.433298105594
 31
0.0
  0
ARC
  5
B553
330
1E
100
AcDbEntity
  8
002
100
AcDbCircle
 10
2707.093596275955
 20
-1645.37880301004
 30
0.0
 40
5.0
100
AcDbArc
 50
173.3274040000282
 51
202.048848000017
  0
ARC
  5
B554
330
1E
100
AcDbEntity
  8
002
100
AcDbCircle
 10
2712.025715731815
 20
-1646.25051685766
 30
0.0
 40
5.0
100
AcDbArc
 50
173.3274040000282
 51
202.0053830000097
  0
LINE
  5
B555
330
1E
100
AcDbEntity
  8
002
100
AcDbLine
 10
2710.110825053009
 20
-1668.750777091619
 30
0.0
 11
2703.309073123581
 21
-1667.366944741275
 31
0.0
  0
LINE
  5
B556
330
1E
100
AcDbEntity
  8
002
100
AcDbLine
 10
2710.084783674023
 20
-1669.766110245666
 30
0.0
 11
2703.135340726548
 21
-1668.352230126047
 31
0.0
  0
LINE
  5
B557
330
1E
100
AcDbEntity
  8
002
100
AcDbLine
 10
2693.532950331164
 20
-1670.981157851969
 30
0.0
 11
2694.749689694182
 21
-1672.718841747986
 31
0.0
  0
ARC
  5
B558
330
1E
100
AcDbEntity
  8
002
100
AcDbCircle
 10
2700.348484027699
 20
-1655.363427440397
 30
0.0
 40
5.0
100
AcDbArc
 50
349.9999999999938
 51
22.04884800001705
  0
LINE
  5
B559
330
1E
100
AcDbEntity
  8
002
100
AcDbLine
 10
2694.749689694182
 20
-1672.718841747986
 30
0.0
 11
2688.064234854005
 21
-1710.633940238956
 31
0.0
  0
LINE
  5
B55A
330
1E
100
AcDbEntity
  8
002
100
AcDbLine
 10
2688.064234854005
 20
-1710.633940238956
 30
0.0
 11
2690.275614798096
 21
-1712.489507573627
 31
0.0
  0
LINE
  5
B55B
330
1E
100
AcDbEntity
  8
002
100
AcDbLine
 10
2702.459275459728
 20
-1647.255788269228
 30
0.0
 11
2704.982804670276
 21
-1653.486443166017
 31
0.0
  0
LINE
  5
B55C
330
1E
100
AcDbEntity
  8
002
100
AcDbLine
 10
2707.389971934929
 20
-1648.123985594982
 30
0.0
 11
2710.056677350666
 21
-1654.72252781395
 31
0.0
  0
LINE
  5
B55D
330
1E
100
AcDbEntity
  8
003
  6
Continuous
100
AcDbLine
 10
2798.36395621683
 20
-1686.419412768762
 30
0.0
 11
2822.339530083758
 21
-1612.904845849132
 31
0.0
  0
LINE
  5
B55E
330
1E
100
AcDbEntity
  8
003
100
AcDbLine
 10
2972.323070232247
 20
-1819.949822134363
 30
0.0
 11
2934.198789232247
 21
-1866.551859134364
 31
0.0
  0
LINE
  5
B55F
330
1E
100
AcDbEntity
  8
003
100
AcDbLine
 10
2934.198789232247
 20
-1866.551859134364
 30
0.0
 11
2952.599187232247
 21
-1866.551859134364
 31
0.0
  0
LINE
  5
B560
330
1E
100
AcDbEntity
  8
003
 48
0.25
100
AcDbLine
 10
2952.420580089205
 20
-1628.198394500432
 30
0.0
 11
2878.893903881028
 21
-1612.904845849131
 31
0.0
  0
LINE
  5
B561
330
1E
100
AcDbEntity
  8
003
100
AcDbLine
 10
2952.599187232247
 20
-1819.949822134363
 30
0.0
 11
2972.323070232247
 21
-1819.949822134363
 31
0.0
  0
LINE
  5
B562
330
1E
100
AcDbEntity
  8
003
 62
     3
100
AcDbLine
 10
3207.433277109323
 20
-1869.092768979624
 30
0.0
 11
3207.433277109323
 21
-2088.187727863052
 31
0.0
  0
DIMENSION
  5
B563
330
1E
100
AcDbEntity
  8
001
  6
Continuous
100
AcDbDimension
  2
*D8
 10
3210.832814319064
 20
-2369.660280931861
 30
0.0
 11
3274.332814319064
 21
-2369.660280931861
 31
0.0
 70
   160
 71
     5
 42
22.0
  3
ISO-25
100
AcDbAlignedDimension
 13
3232.832814319064
 23
-2402.516842571284
 33
0.0
 14
3210.832814319064
 24
-2402.516842571284
 34
0.0
100
AcDbRotatedDimension
  0
LINE
  5
B564
330
1E
100
AcDbEntity
  8
004
  6
CENTER
 62
     6
100
AcDbLine
 10
3194.129542319064
 20
-2485.016842571283
 30
0.0
 11
3252.746106319064
 21
-2485.016842571283
 31
0.0
  0
LINE
  5
B565
330
1E
100
AcDbEntity
  8
002
100
AcDbLine
 10
3229.425565319064
 20
-2428.516842571283
 30
0.0
 11
3233.698839319064
 21
-2424.243567571284
 31
0.0
  0
LINE
  5
B566
330
1E
100
AcDbEntity
  8
002
100
AcDbLine
 10
3215.283429319064
 20
-2428.516842571283
 30
0.0
 11
3233.698839319064
 21
-2410.101432571284
 31
0.0
  0
LINE
  5
B567
330
1E
100
AcDbEntity
  8
002
100
AcDbLine
 10
3211.698839319064
 20
-2485.016842571283
 30
0.0
 11
3211.698839319064
 21
-2407.516842571283
 31
0.0
  0
LINE
  5
B568
330
1E
100
AcDbEntity
  8
002
100
AcDbLine
 10
3233.698839319064
 20
-2428.516842571283
 30
0.0
 11
3232.832814319064
 21
-2430.016842571284
 31
0.0
  0
LINE
  5
B569
330
1E
100
AcDbEntity
  8
002
100
AcDbLine
 10
3211.698839319064
 20
-2428.516842571283
 30
0.0
 11
3212.564864319063
 21
-2430.016842571284
 31
0.0
  0
LINE
  5
B56A
330
1E
100
AcDbEntity
  8
002
100
AcDbLine
 10
3212.564864319063
 20
-2430.016842571284
 30
0.0
 11
3232.832814319064
 21
-2430.016842571284
 31
0.0
  0
LINE
  5
B56B
330
1E
100
AcDbEntity
  8
002
100
AcDbLine
 10
3211.698839319064
 20
-2428.516842571283
 30
0.0
 11
3233.698839319064
 21
-2428.516842571283
 31
0.0
  0
LINE
  5
B56C
330
1E
100
AcDbEntity
  8
002
100
AcDbLine
 10
3212.564864319063
 20
-2430.016842571284
 30
0.0
 11
3212.564864319063
 21
-2452.635756571284
 31
0.0
  0
LINE
  5
B56D
330
1E
100
AcDbEntity
  8
002
100
AcDbLine
 10
3232.832814319064
 20
-2430.016842571284
 30
0.0
 11
3232.832814319064
 21
-2452.635756571284
 31
0.0
  0
LINE
  5
B56E
330
1E
100
AcDbEntity
  8
002
100
AcDbLine
 10
3233.698839319064
 20
-2404.016842571283
 30
0.0
 11
3232.832814319064
 21
-2402.516842571284
 31
0.0
  0
LINE
  5
B56F
330
1E
100
AcDbEntity
  8
002
100
AcDbLine
 10
3211.698839319064
 20
-2407.516842571283
 30
0.0
 11
3210.198839319064
 21
-2406.970886571283
 31
0.0
  0
LINE
  5
B570
330
1E
100
AcDbEntity
  8
002
100
AcDbLine
 10
3211.198839319064
 20
-2405.016842571283
 30
0.0
 11
3210.198839319064
 21
-2406.016842571284
 31
0.0
  0
LINE
  5
B571
330
1E
100
AcDbEntity
  8
002
100
AcDbLine
 10
3212.198839319064
 20
-2404.016842571283
 30
0.0
 11
3213.064864319064
 21
-2402.516842571284
 31
0.0
  0
LINE
  5
B572
330
1E
100
AcDbEntity
  8
002
100
AcDbLine
 10
3211.198839319064
 20
-2405.016842571283
 30
0.0
 11
3212.198839319064
 21
-2405.016842571283
 31
0.0
  0
LINE
  5
B573
330
1E
100
AcDbEntity
  8
002
100
AcDbLine
 10
3212.198839319064
 20
-2404.016842571283
 30
0.0
 11
3212.198839319064
 21
-2405.016842571283
 31
0.0
  0
LINE
  5
B574
330
1E
100
AcDbEntity
  8
002
100
AcDbLine
 10
3212.198839319064
 20
-2404.016842571283
 30
0.0
 11
3233.698839319064
 21
-2404.016842571283
 31
0.0
  0
LINE
  5
B575
330
1E
100
AcDbEntity
  8
002
100
AcDbLine
 10
3213.064864319064
 20
-2402.516842571284
 30
0.0
 11
3232.832814319064
 21
-2402.516842571284
 31
0.0
  0
LINE
  5
B576
330
1E
100
AcDbEntity
  8
002
100
AcDbLine
 10
3211.698839319064
 20
-2417.959296571283
 30
0.0
 11
3225.641293319064
 21
-2404.016842571283
 31
0.0
  0
INSERT
  5
B577
330
1E
100
AcDbEntity
  8
001
  6
Continuous
100
AcDbBlockReference
  2
_Open30
 10
3276.405018329173
 20
-2428.516842571283
 30
0.0
 41
12.0
 42
12.0
 43
12.0
 50
90.0
  0
LINE
  5
B578
330
1E
100
AcDbEntity
  8
001
  6
Continuous
100
AcDbLine
 10
3243.073839319064
 20
-2428.516842571283
 30
0.0
 11
3277.905018329173
 21
-2428.516842571283
 31
0.0
  0
LINE
  5
B579
330
1E
100
AcDbEntity
  8
001
  6
Continuous
100
AcDbLine
 10
3276.405018329173
 20
-2440.516842571283
 30
0.0
 11
3276.405018329173
 21
-2497.691857279155
 31
0.0
  0
MTEXT
  5
B57A
330
1E
100
AcDbEntity
  8
001
  6
Continuous
100
AcDbMText
 10
3262.905018329172
 20
-2471.138279376162
 30
0.0
 40
12.0
 41
0.0
 71
     5
 72
     1
  1
\A1;M113
 11
0.0000000000000001
 21
1.0
 31
0.0
 73
     1
 44
1.0
  0
LINE
  5
B57B
330
1E
100
AcDbEntity
  8
003
 62
     3
100
AcDbLine
 10
3227.157160109324
 20
-1822.490731979625
 30
0.0
 11
3189.032879109324
 21
-1869.092768979624
 31
0.0
  0
LINE
  5
B57C
330
1E
100
AcDbEntity
  8
003
 62
     3
100
AcDbLine
 10
3189.032879109324
 20
-1869.092768979624
 30
0.0
 11
3207.433277109323
 21
-1869.092768979624
 31
0.0
  0
LINE
  5
B57D
330
1E
100
AcDbEntity
  8
003
 48
0.25
100
AcDbLine
 10
3207.433277109323
 20
-1628.155775622133
 30
0.0
 11
3280.817225264097
 21
-1612.891914405942
 31
0.0
  0
LINE
  5
B57E
330
1E
100
AcDbEntity
  8
003
 62
     3
100
AcDbLine
 10
3207.433277109323
 20
-1822.490731979625
 30
0.0
 11
3227.157160109324
 21
-1822.490731979625
 31
0.0
  0
LWPOLYLINE
  5
B57F
330
1E
100
AcDbEntity
  8
002
100
AcDbPolyline
 90
       37
 70
     0
 43
0.0
 10
2726.930481756205
 20
-1475.815574577883
 10
2726.97084627344
 20
-1474.052686572759
 10
2726.486254927312
 20
-1472.210705334675
 10
2725.480395309741
 20
-1470.303650192352
 10
2723.960923585396
 20
-1468.346034109365
 10
2721.939402377297
 20
-1466.352755250727
 10
2719.431217797804
 20
-1464.338985887707
 10
2716.455458940359
 20
-1462.320049606294
 10
2713.03477257977
 20
-1460.31131242197
 10
2709.195192324596
 20
-1458.328063297111
 10
2704.965939326652
 20
-1456.385394720291
 10
2700.379201210604
 20
-1454.498091630319
 10
2695.46988522489
 20
-1452.680516810223
 10
2690.275354536772
 20
-1450.946505494204
 10
2684.835143556184
 20
-1449.309252215103
 10
2679.190654319932
 20
-1447.781218682536
 10
2673.384846212949
 20
-1446.374033378173
 10
2667.461902520446
 20
-1445.098407374231
 10
2661.466902598689
 20
-1443.964047080955
 10
2655.445471340512
 20
-1442.979586345382
 10
2649.443436055446
 20
-1442.152516811196
 10
2643.506474315324
 20
-1441.489134963265
 10
2637.679771184096
 20
-1440.99448778055
 10
2632.007671468941
 20
-1440.672340865976
 10
2626.533342514036
 20
-1440.525144373539
 10
2621.298448293488
 20
-1440.554021236292
 10
2616.342827674221
 20
-1440.758749021628
 10
2611.704198055539
 20
-1441.137770631381
 10
2607.417861672902
 20
-1441.688201410008
 10
2603.516439362148
 20
-1442.405853279895
 10
2600.029623846234
 20
-1443.285263334448
 10
2596.983951619151
 20
-1444.319737895477
 10
2594.402602521025
 20
-1445.501406530425
 10
2592.305221036077
 20
-1446.821273807354
 10
2590.707770902793
 20
-1448.269295201458
 10
2589.622409303687
 20
-1449.834451376855
 10
2589.057396334495
 20
-1451.504829704514
  0
LWPOLYLINE
  5
B580
330
1E
100
AcDbEntity
  8
002
100
AcDbPolyline
 90
       37
 70
     0
 43
0.0
 10
2721.998128259285
 20
-1474.945867577986
 10
2721.981152042908
 20
-1473.612834927682
 10
2721.475455445744
 20
-1472.203790077756
 10
2720.484900144611
 20
-1470.729496116848
 10
2719.017054437424
 20
-1469.201215366067
 10
2717.083131885281
 20
-1467.630625449204
 10
2714.697907361056
 20
-1466.029725286573
 10
2711.879603323021
 20
-1464.41074294668
 10
2708.649751527772
 20
-1462.786050336893
 10
2705.033026007669
 20
-1461.168056580432
 10
2701.057059715735
 20
-1459.569124914589
 10
2696.752225020473
 20
-1458.001470014162
 10
2692.151412928073
 20
-1456.477068291042
 10
2687.289770074445
 20
-1455.007565824622
 10
2682.20443930919
 20
-1453.604188956403
 10
2676.934270968475
 20
-1452.277659870531
 10
2671.519529050211
 20
-1451.038112290905
 10
2666.001578390087
 20
-1449.895017028766
 10
2660.422576297765
 20
-1448.85710527045
 10
2654.825144963202
 20
-1447.932308782936
 10
2649.252047569059
 20
-1447.127690618599
 10
2643.745859424391
 20
-1446.449398296905
 10
2638.348648656217
 20
-1445.902614609702
 10
2633.101647459772
 20
-1445.491515900597
 10
2628.044942293259
 20
-1445.219243839028
 10
2623.217163898941
 20
-1445.087878179123
 10
2618.655196442365
 20
-1445.098422028477
 10
2614.393892329706
 20
-1445.25079522608
 10
2610.465805215512
 20
-1445.543833974021
 10
2606.900945777593
 20
-1445.975299560746
 10
2603.726549426171
 20
-1446.541894265832
 10
2600.966866896744
 20
-1447.239291453988
 10
2598.64298085232
 20
-1448.062162131846
 10
2596.772646818051
 20
-1449.004218995718
 10
2595.370152306255
 20
-1450.058266733122
 10
2594.446212610058
 20
-1451.216251681953
 10
2594.007886179032
 20
-1452.469327127648
  0
LINE
  5
B581
330
1E
100
AcDbEntity
  8
002
100
AcDbLine
 10
2661.883510863586
 20
-1502.932249847815
 30
0.0
 11
2674.390569326841
 21
-1505.137581704186
 31
0.0
  0
LINE
  5
B582
330
1E
100
AcDbEntity
  8
002
100
AcDbLine
 10
2661.883510863586
 20
-1502.932249847815
 30
0.0
 11
2674.390569326841
 21
-1505.137581704186
 31
0.0
  0
LINE
  5
B583
330
1E
100
AcDbEntity
  8
002
100
AcDbLine
 10
2661.883510863586
 20
-1502.932249847815
 30
0.0
 11
2674.390569326841
 21
-1505.137581704186
 31
0.0
  0
LINE
  5
B584
330
1E
100
AcDbEntity
  8
002
100
AcDbLine
 10
2647.534777528603
 20
-1584.307960345047
 30
0.0
 11
2672.548894436161
 21
-1515.58223902935
 31
0.0
  0
LINE
  5
B585
330
1E
100
AcDbEntity
  8
002
100
AcDbLine
 10
2647.534777528603
 20
-1584.307960345047
 30
0.0
 11
2672.548894436161
 21
-1515.58223902935
 31
0.0
  0
TEXT
  5
B586
330
1E
100
AcDbEntity
  8
001
100
AcDbText
 10
2346.681408501149
 20
-1390.149074958193
 30
0.0
 40
18.0
  1
10°振りアンカー頭部構造図
 41
0.787037
100
AcDbText
  0
LINE
  5
B587
330
1E
100
AcDbEntity
  8
001
100
AcDbLine
 10
2346.681408501149
 20
-1393.7906236178
 30
0.0
 11
2570.901328739728
 21
-1393.7906236178
 31
0.0
  0
LINE
  5
B588
330
1E
100
AcDbEntity
  8
002
100
AcDbLine
 10
2612.417136423469
 20
-1494.209993396196
 30
0.0
 11
2624.924194886724
 21
-1496.415325252564
 31
0.0
  0
LINE
  5
B589
330
1E
100
AcDbEntity
  8
002
100
AcDbLine
 10
2612.417136423469
 20
-1494.209993396196
 30
0.0
 11
2624.924194886724
 21
-1496.415325252564
 31
0.0
  0
LINE
  5
B58A
330
1E
100
AcDbEntity
  8
002
100
AcDbLine
 10
2612.417136423469
 20
-1494.209993396196
 30
0.0
 11
2624.924194886724
 21
-1496.415325252564
 31
0.0
  0
LINE
  5
B58B
330
1E
100
AcDbEntity
  8
002
100
AcDbLine
 10
2608.602028135284
 20
-1515.846547670855
 30
0.0
 11
2616.232244235944
 21
-1494.882699837846
 31
0.0
  0
LINE
  5
B58C
330
1E
100
AcDbEntity
  8
002
100
AcDbLine
 10
2608.602028135284
 20
-1515.846547670855
 30
0.0
 11
2616.232244235944
 21
-1494.882699837846
 31
0.0
  0
LINE
  5
B58D
330
1E
100
AcDbEntity
  8
002
100
AcDbLine
 10
2598.602028106013
 20
-1572.559366033036
 30
0.0
 11
2623.616145187218
 21
-1503.83364373253
 31
0.0
  0
LINE
  5
B58E
330
1E
100
AcDbEntity
  8
002
100
AcDbLine
 10
2598.602028106013
 20
-1572.559366033036
 30
0.0
 11
2623.616145187218
 21
-1503.83364373253
 31
0.0
  0
LINE
  5
B58F
330
1E
100
AcDbEntity
  8
002
100
AcDbLine
 10
2657.534777557874
 20
-1527.595141982868
 30
0.0
 11
2666.232244635493
 21
-1503.699048943721
 31
0.0
  0
LINE
  5
B590
330
1E
100
AcDbEntity
  8
002
100
AcDbLine
 10
2657.534777557874
 20
-1527.595141982868
 30
0.0
 11
2666.232244635493
 21
-1503.699048943721
 31
0.0
  0
LINE
  5
B591
330
1E
100
AcDbEntity
  8
002
100
AcDbLine
 10
2655.594941399882
 20
-1443.002153392966
 30
0.0
 11
2654.857378783245
 21
-1447.937300969577
 31
0.0
  0
LINE
  5
B592
330
1E
100
AcDbEntity
  8
002
100
AcDbLine
 10
2656.583215476247
 20
-1443.153764701814
 30
0.0
 11
2655.845166945165
 21
-1448.092163290444
 31
0.0
  0
LINE
  5
B593
330
1E
100
AcDbEntity
  8
002
100
AcDbLine
 10
2666.333200245322
 20
-1444.872950078097
 30
0.0
 11
2665.33782061496
 21
-1449.765397488634
 31
0.0
  0
LINE
  5
B594
330
1E
100
AcDbEntity
  8
002
100
AcDbLine
 10
2667.313728223778
 20
-1445.06849169119
 30
0.0
 11
2666.319027686999
 21
-1449.957600301208
 31
0.0
  0
LINE
  5
B595
330
1E
100
AcDbEntity
  8
003
 62
     3
100
AcDbLine
 10
3954.343901472276
 20
-1820.949822134363
 30
0.0
 11
3954.343901472276
 21
-1593.929288469826
 31
0.0
  0
LINE
  5
B596
330
1E
100
AcDbEntity
  8
002
100
AcDbLine
 10
3591.467225264098
 20
-1636.110681405942
 30
0.0
 11
3604.167225264097
 21
-1564.08540240594
 31
0.0
  0
LINE
  5
B597
330
1E
100
AcDbEntity
  8
002
100
AcDbLine
 10
3591.467225264098
 20
-1636.110681405942
 30
0.0
 11
3604.167225264097
 21
-1564.08540240594
 31
0.0
  0
LINE
  5
B598
330
1E
100
AcDbEntity
  8
002
100
AcDbLine
 10
3541.237752264098
 20
-1633.037656405942
 30
0.0
 11
3553.937752264098
 21
-1561.012377405941
 31
0.0
  0
LINE
  5
B599
330
1E
100
AcDbEntity
  8
002
100
AcDbLine
 10
3541.237752264098
 20
-1633.037656405942
 30
0.0
 11
3553.937752264098
 21
-1561.012377405941
 31
0.0
  0
LINE
  5
B59A
330
1E
100
AcDbEntity
  8
001
100
AcDbLine
 10
3508.317225264097
 20
-1676.641914405942
 30
0.0
 11
3404.481246264098
 21
-1584.736994405941
 31
0.0
  0
LINE
  5
B59B
330
1E
100
AcDbEntity
  8
002
100
AcDbLine
 10
3591.467225264098
 20
-1495.891914405941
 30
0.0
 11
3591.467225264098
 21
-1772.891914405941
 31
0.0
  0
LINE
  5
B59C
330
1E
100
AcDbEntity
  8
002
100
AcDbLine
 10
3604.167225264097
 20
-1495.891914405941
 30
0.0
 11
3604.167225264097
 21
-1772.891914405941
 31
0.0
  0
LINE
  5
B59D
330
1E
100
AcDbEntity
  8
002
  6
CENTER
100
AcDbLine
 10
3597.817225264098
 20
-1490.891914405942
 30
0.0
 11
3597.817225264098
 21
-1772.891914405941
 31
0.0
  0
LINE
  5
B59E
330
1E
100
AcDbEntity
  8
002
  6
CENTER
100
AcDbLine
 10
3547.587752264098
 20
-1490.891914405942
 30
0.0
 11
3547.587752264098
 21
-1772.891914405941
 31
0.0
  0
LINE
  5
B59F
330
1E
100
AcDbEntity
  8
002
100
AcDbLine
 10
3505.899969264098
 20
-1628.613943405942
 30
0.0
 11
3515.825669264098
 21
-1457.891914405942
 31
0.0
  0
LINE
  5
B5A0
330
1E
100
AcDbEntity
  8
002
100
AcDbLine
 10
3500.891408264098
 20
-1628.615960405941
 30
0.0
 11
3510.817225264098
 21
-1457.891914405942
 31
0.0
  0
LINE
  5
B5A1
330
1E
100
AcDbEntity
  8
002
100
AcDbLine
 10
3660.743042264098
 20
-1628.615960405941
 30
0.0
 11
3650.817225264098
 21
-1457.891914405942
 31
0.0
  0
LINE
  5
B5A2
330
1E
100
AcDbEntity
  8
002
100
AcDbLine
 10
3655.734481264098
 20
-1628.613943405942
 30
0.0
 11
3645.808782264097
 21
-1457.891914405942
 31
0.0
  0
LINE
  5
B5A3
330
1E
100
AcDbEntity
  8
002
100
AcDbLine
 10
3541.237752264098
 20
-1495.891914405941
 30
0.0
 11
3541.237752264098
 21
-1772.891914405941
 31
0.0
  0
LINE
  5
B5A4
330
1E
100
AcDbEntity
  8
002
100
AcDbLine
 10
3553.937752264098
 20
-1495.891914405941
 30
0.0
 11
3553.937752264098
 21
-1772.891914405941
 31
0.0
  0
LINE
  5
B5A5
330
1E
100
AcDbEntity
  8
001
 62
     3
100
AcDbLine
 10
4069.328015367055
 20
-2689.29909152069
 30
0.0
 11
4069.328015367055
 21
-1346.97909152069
 31
0.0
  0
LINE
  5
B5A6
330
1E
100
AcDbEntity
  8
004
  6
CENTER2
 62
     6
100
AcDbLine
 10
3580.817225264098
 20
-1470.037557632744
 30
0.0
 11
3580.817225264098
 21
-2215.672725405942
 31
0.0
  0
TEXT
  5
B5A7
330
1E
100
AcDbEntity
  8
001
100
AcDbText
 10
3709.418709367054
 20
-2612.74927252069
 30
0.0
 40
25.405405
  1
ＰＵＣ受圧板　アンカー頭部図面
 41
0.673759
100
AcDbText
  0
LINE
  5
B5A8
330
1E
100
AcDbEntity
  8
001
 62
     3
100
AcDbLine
 10
4069.328015367055
 20
-2629.29909152069
 30
0.0
 11
3629.328015367055
 21
-2629.29909152069
 31
0.0
  0
LINE
  5
B5A9
330
1E
100
AcDbEntity
  8
001
 62
     3
100
AcDbLine
 10
4069.328015367055
 20
-2549.29909152069
 30
0.0
 11
3629.328015367055
 21
-2549.29909152069
 31
0.0
  0
LINE
  5
B5AA
330
1E
100
AcDbEntity
  8
001
 62
     3
100
AcDbLine
 10
3629.328015367055
 20
-2689.29909152069
 30
0.0
 11
3629.328015367055
 21
-2549.29909152069
 31
0.0
  0
TEXT
  5
B5AB
330
1E
100
AcDbEntity
  8
001
100
AcDbText
 10
3766.527463367054
 20
-2673.37891452069
 30
0.0
 40
24.0
  1
ＶＳＬ協会
 41
0.9920629999999999
100
AcDbText
  0
TEXT
  5
B5AC
330
1E
100
AcDbEntity
  8
001
100
AcDbText
 10
3676.833517367055
 20
-2575.808082520691
 30
0.0
 40
18.5
  1
ＶＳＬ工法　Ｅ５－１２用
 41
0.7207210000000001
100
AcDbText
  0
LINE
  5
B5AD
330
1E
100
AcDbEntity
  8
001
 62
     3
100
AcDbLine
 10
3669.328015367055
 20
-2689.29909152069
 30
0.0
 11
3669.328015367055
 21
-2549.29909152069
 31
0.0
  0
LINE
  5
B5AE
330
1E
100
AcDbEntity
  8
003
100
AcDbLine
 10
3646.217225264098
 20
-1762.891914405942
 30
0.0
 11
3685.376665133412
 21
-1762.891914405942
 31
0.0
  0
LINE
  5
B5AF
330
1E
100
AcDbEntity
  8
002
100
AcDbLine
 10
3651.817225264098
 20
-1655.891914405942
 30
0.0
 11
3653.317225264098
 21
-1657.391914405942
 31
0.0
  0
LINE
  5
B5B0
330
1E
100
AcDbEntity
  8
002
100
AcDbLine
 10
3605.317225264098
 20
-1715.891914405941
 30
0.0
 11
3658.317225264098
 21
-1715.891914405941
 31
0.0
  0
LINE
  5
B5B1
330
1E
100
AcDbEntity
  8
003
  6
Continuous
100
AcDbLine
 10
3646.217225264098
 20
-1762.891914405942
 30
0.0
 11
3683.317225264098
 21
-1762.891914405942
 31
0.0
  0
LINE
  5
B5B2
330
1E
100
AcDbEntity
  8
002
100
AcDbLine
 10
3635.817225264098
 20
-1737.891914405942
 30
0.0
 11
3683.317225264098
 21
-1737.891914405942
 31
0.0
  0
LINE
  5
B5B3
330
1E
100
AcDbEntity
  8
002
100
AcDbLine
 10
3645.317225264098
 20
-1762.891914405942
 30
0.0
 11
3683.649497264098
 21
-1762.891914405942
 31
0.0
  0
LINE
  5
B5B4
330
1E
100
AcDbEntity
  8
002
100
AcDbLine
 10
3645.317225264098
 20
-1762.891914405942
 30
0.0
 11
3683.649497264098
 21
-1762.891914405942
 31
0.0
  0
LINE
  5
B5B5
330
1E
100
AcDbEntity
  8
003
 62
     3
100
AcDbLine
 10
3645.817225264098
 20
-1784.891914405942
 30
0.0
 11
3693.417225138331
 21
-1784.891914405942
 31
0.0
  0
LINE
  5
B5B6
330
1E
100
AcDbEntity
  8
001
100
AcDbLine
 10
3627.730504264098
 20
-2142.006004405941
 30
0.0
 11
3686.831957264097
 21
-2180.991654405941
 31
0.0
  0
CIRCLE
  5
B5B7
330
1E
100
AcDbEntity
  8
002
100
AcDbCircle
 10
3642.77510346437
 20
-2413.290715190209
 30
0.0
 40
64.5
  0
LWPOLYLINE
  5
B5B8
330
1E
100
AcDbEntity
  8
003
 62
     3
100
AcDbPolyline
 90
       64
 70
     0
 43
0.0
 10
3956.071069933079
 20
-2063.005474405942
 10
3645.695796617576
 20
-2063.005474405942
 10
3643.812883264098
 20
-2065.200666946871
 10
3642.763073264097
 20
-2067.563258946873
 10
3643.209046264098
 20
-2069.726405946872
 10
3644.616340264098
 20
-2071.922934946873
 10
3646.402885264097
 20
-2074.144460946872
 10
3647.986608264099
 20
-2076.382598946873
 10
3648.785441264097
 20
-2078.628961946872
 10
3648.443885264098
 20
-2080.770510946871
 10
3647.318091264099
 20
-2082.921713946872
 10
3645.862929264098
 20
-2085.092367946872
 10
3644.533271264098
 20
-2087.292271946871
 10
3643.783991264098
 20
-2089.531224946871
 10
3644.115862264098
 20
-2092.437142946871
 10
3645.440540264097
 20
-2095.379143946873
 10
3647.079677264097
 20
-2098.314460946872
 10
3648.354927264097
 20
-2101.200324946872
 10
3648.587942264097
 20
-2103.993968946872
 10
3647.690632264097
 20
-2106.162118946873
 10
3646.143895264099
 20
-2108.273941946872
 10
3644.419966264097
 20
-2110.361106946871
 10
3642.991083264098
 20
-2112.455286946871
 10
3642.329480264098
 20
-2114.588154946872
 10
3642.903435264098
 20
-2117.124560946873
 10
3644.455152264098
 20
-2119.718888946872
 10
3646.312113264098
 20
-2122.335387946872
 10
3647.801803264098
 20
-2124.938303946872
 10
3648.251704264097
 20
-2127.491886946873
 10
3647.458262264098
 20
-2129.619439946873
 10
3645.925802264097
 20
-2131.706862946872
 10
3644.170531264097
 20
-2133.776398946872
 10
3642.708661264098
 20
-2135.850290946871
 10
3642.056400264098
 20
-2137.950782946873
 10
3642.673780264098
 20
-2140.317798946873
 10
3644.261897264097
 20
-2142.714475946872
 10
3646.174989264098
 20
-2145.110921946872
 10
3647.767299264099
 20
-2147.477245946873
 10
3648.393066264098
 20
-2149.783556946871
 10
3647.781008264098
 20
-2151.746754946873
 10
3646.371844264098
 20
-2153.675268946872
 10
3644.614223264098
 20
-2155.603879946873
 10
3642.956795264097
 20
-2157.567367946872
 10
3641.848208264098
 20
-2159.600515946873
 10
3641.990390264098
 20
-2163.414850946872
 10
3644.015275264097
 20
-2167.416430946872
 10
3646.691387264098
 20
-2171.466437946872
 10
3648.787247264098
 20
-2175.426053946872
 10
3649.071375264097
 20
-2179.156460946873
 10
3647.903467264097
 20
-2181.337603946873
 10
3646.031991264097
 20
-2183.425103946873
 10
3643.957456264097
 20
-2185.470929946872
 10
3642.180373264098
 20
-2187.527050946872
 10
3641.201249264098
 20
-2189.645437946872
 10
3641.600593264098
 20
-2192.503182946871
 10
3643.317902264098
 20
-2195.499965946872
 10
3645.545743264098
 20
-2198.587840946873
 10
3647.476686264097
 20
-2201.718860946872
 10
3648.303298264098
 20
-2204.845080946872
 10
3647.713038264098
 20
-2207.442877946872
 10
3646.262135264098
 20
-2210.010189946872
 10
3644.443795264098
 20
-2212.553887946873
 10
3642.751226264098
 20
-2215.080838946872
 10
3641.677633264098
 20
-2217.597914946872
  0
CIRCLE
  5
B5B9
330
1E
100
AcDbEntity
  8
002
100
AcDbCircle
 10
3642.77510346437
 20
-2413.290715190209
 30
0.0
 40
102.4999999999999
  0
LINE
  5
B5BA
330
1E
100
AcDbEntity
  8
004
  6
CENTER
 62
     6
100
AcDbLine
 10
3761.290629464369
 20
-2413.290715190209
 30
0.0
 11
3520.923884464369
 21
-2413.290715190209
 31
0.0
  0
ARC
  5
B5BB
330
1E
100
AcDbEntity
  8
002
100
AcDbCircle
 10
3627.310800264098
 20
-2071.225247405942
 30
0.0
 40
2.5
100
AcDbArc
 50
138.1896850000205
 51
221.8103149999794
  0
ARC
  5
B5BC
330
1E
100
AcDbEntity
  8
002
100
AcDbCircle
 10
3534.765345264098
 20
-2071.225247405942
 30
0.0
 40
2.5
100
AcDbArc
 50
138.1896850000205
 51
221.8103149999794
  0
LINE
  5
B5BD
330
1E
100
AcDbEntity
  8
002
100
AcDbLine
 10
3629.810800264098
 20
-2063.725247405942
 30
0.0
 11
3532.265345264097
 21
-2071.225247405942
 31
0.0
  0
LINE
  5
B5BE
330
1E
100
AcDbEntity
  8
001
100
AcDbLine
 10
3464.84642746437
 20
-2272.022616190208
 30
0.0
 11
3630.846427464369
 21
-2272.022616190208
 31
0.0
  0
TEXT
  5
B5BF
330
1E
100
AcDbEntity
  8
001
100
AcDbText
 10
3464.84642746437
 20
-2272.022616190208
 30
0.0
 40
18.5
  1
メッキ付　円形プレート
 41
0.6756760000000001
100
AcDbText
  0
LINE
  5
B5C0
330
1E
100
AcDbEntity
  8
004
  6
CENTER
 62
     6
100
AcDbLine
 10
3642.77510346437
 20
-2298.805589190209
 30
0.0
 11
3642.77510346437
 21
-2531.147857190208
 31
0.0
  0
LINE
  5
B5C1
330
1E
100
AcDbEntity
  8
002
100
AcDbLine
 10
3629.810800264098
 20
-2093.725247405942
 30
0.0
 11
3532.265345264097
 21
-2101.225247405942
 31
0.0
  0
LINE
  5
B5C2
330
1E
100
AcDbEntity
  8
002
100
AcDbLine
 10
3629.810800264098
 20
-2078.725247405942
 30
0.0
 11
3532.265345264097
 21
-2086.225247405942
 31
0.0
  0
LINE
  5
B5C3
330
1E
100
AcDbEntity
  8
002
100
AcDbLine
 10
3624.810800264098
 20
-2071.225247405942
 30
0.0
 11
3537.265345264098
 21
-2078.725247405942
 31
0.0
  0
LINE
  5
B5C4
330
1E
100
AcDbEntity
  8
002
100
AcDbLine
 10
3624.810800264098
 20
-2086.225247405942
 30
0.0
 11
3537.265345264098
 21
-2093.725247405942
 31
0.0
  0
LINE
  5
B5C5
330
1E
100
AcDbEntity
  8
002
100
AcDbLine
 10
3629.810800264098
 20
-2153.725247405942
 30
0.0
 11
3532.265345264097
 21
-2161.225247405942
 31
0.0
  0
LINE
  5
B5C6
330
1E
100
AcDbEntity
  8
002
100
AcDbLine
 10
3629.810800264098
 20
-2138.725247405942
 30
0.0
 11
3532.265345264097
 21
-2146.225247405942
 31
0.0
  0
LINE
  5
B5C7
330
1E
100
AcDbEntity
  8
002
100
AcDbLine
 10
3629.810800264098
 20
-2123.725247405942
 30
0.0
 11
3532.265345264097
 21
-2131.225247405942
 31
0.0
  0
LINE
  5
B5C8
330
1E
100
AcDbEntity
  8
002
100
AcDbLine
 10
3629.810800264098
 20
-2108.725247405942
 30
0.0
 11
3532.265345264097
 21
-2116.225247405942
 31
0.0
  0
LINE
  5
B5C9
330
1E
100
AcDbEntity
  8
002
100
AcDbLine
 10
3624.810800264098
 20
-2161.225247405942
 30
0.0
 11
3537.265345264098
 21
-2168.725247405942
 31
0.0
  0
LINE
  5
B5CA
330
1E
100
AcDbEntity
  8
002
100
AcDbLine
 10
3624.810800264098
 20
-2146.225247405942
 30
0.0
 11
3537.265345264098
 21
-2153.725247405942
 31
0.0
  0
LINE
  5
B5CB
330
1E
100
AcDbEntity
  8
002
100
AcDbLine
 10
3624.810800264098
 20
-2131.225247405942
 30
0.0
 11
3537.265345264098
 21
-2138.725247405942
 31
0.0
  0
LINE
  5
B5CC
330
1E
100
AcDbEntity
  8
002
100
AcDbLine
 10
3624.810800264098
 20
-2116.225247405942
 30
0.0
 11
3537.265345264098
 21
-2123.725247405942
 31
0.0
  0
LWPOLYLINE
  5
B5CD
330
1E
100
AcDbEntity
  8
002
100
AcDbPolyline
 90
       46
 70
     0
 43
0.0
 10
3637.382267264098
 20
-2157.091123405942
 10
3632.370334264098
 20
-2160.480654405941
 10
3627.264422264097
 20
-2163.608891405942
 10
3622.036463264098
 20
-2166.397798405942
 10
3616.658390264098
 20
-2168.76934040594
 10
3611.102137264098
 20
-2170.645481405941
 10
3608.745781264098
 20
-2171.260977405942
 10
3606.357860264098
 20
-2171.788214405942
 10
3603.942109264098
 20
-2172.23707440594
 10
3601.502262264098
 20
-2172.617437405941
 10
3599.042054264098
 20
-2172.939186405941
 10
3596.565218264098
 20
-2173.212201405942
 10
3594.075488264098
 20
-2173.446366405942
 10
3591.576599264098
 20
-2173.651561405941
 10
3589.072285264097
 20
-2173.837667405942
 10
3586.566279264098
 20
-2174.014567405942
 10
3584.062316264098
 20
-2174.192142405942
 10
3581.564130264097
 20
-2174.380273405941
 10
3579.075455264097
 20
-2174.588843405941
 10
3576.600025264097
 20
-2174.827732405942
 10
3574.141575264098
 20
-2175.106822405941
 10
3571.703838264097
 20
-2175.435995405942
 10
3569.290548264098
 20
-2175.825132405941
 10
3566.905440264098
 20
-2176.284115405942
 10
3564.552248264098
 20
-2176.822826405941
 10
3562.234706264097
 20
-2177.451145405941
 10
3560.152588264098
 20
-2178.109585405942
 10
3558.102027264098
 20
-2178.847741405941
 10
3556.081756264098
 20
-2179.662413405942
 10
3554.090506264098
 20
-2180.550400405942
 10
3552.127012264098
 20
-2181.508502405941
 10
3550.190006264097
 20
-2182.533517405941
 10
3548.278220264097
 20
-2183.622244405942
 10
3546.390389264097
 20
-2184.771484405941
 10
3544.525245264098
 20
-2185.978035405942
 10
3542.681521264098
 20
-2187.238696405942
 10
3540.857950264098
 20
-2188.550268405941
 10
3539.053264264097
 20
-2189.909548405941
 10
3537.266198264097
 20
-2191.313336405941
 10
3535.495483264098
 20
-2192.75843240594
 10
3533.739853264098
 20
-2194.241634405942
 10
3531.998040264098
 20
-2195.759742405942
 10
3530.268778264098
 20
-2197.309555405941
 10
3528.550800264098
 20
-2198.887873405941
 10
3526.842839264098
 20
-2200.491494405941
 10
3525.143626264098
 20
-2202.117218405941
  0
LINE
  5
B5CE
330
1E
100
AcDbEntity
  8
002
100
AcDbLine
 10
3624.810800264098
 20
-2101.225247405942
 30
0.0
 11
3537.265345264098
 21
-2108.725247405942
 31
0.0
  0
LINE
  5
B5CF
330
1E
100
AcDbEntity
  8
002
100
AcDbLine
 10
3613.221213264098
 20
-2170.000774405942
 30
0.0
 11
3532.265345264097
 21
-2176.225247405942
 31
0.0
  0
LINE
  5
B5D0
330
1E
100
AcDbEntity
  8
002
100
AcDbLine
 10
3536.628735264098
 20
-2185.391914405941
 30
0.0
 11
3532.901955264097
 21
-2189.558580405941
 31
0.0
  0
LINE
  5
B5D1
330
1E
100
AcDbEntity
  8
002
100
AcDbLine
 10
3537.923884264098
 20
-2190.790177405941
 30
0.0
 11
3532.265345264097
 21
-2191.225247405942
 31
0.0
  0
ARC
  5
B5D2
330
1E
100
AcDbEntity
  8
002
100
AcDbCircle
 10
3534.765345264098
 20
-2191.225247405942
 30
0.0
 40
2.5
100
AcDbArc
 50
138.1896850000205
 51
221.8103149999794
  0
LINE
  5
B5D3
330
1E
100
AcDbEntity
  8
002
100
AcDbLine
 10
3532.901955264097
 20
-2192.891914405941
 30
0.0
 11
3533.948929264097
 21
-2194.062466405941
 31
0.0
  0
LINE
  5
B5D4
330
1E
100
AcDbEntity
  8
002
100
AcDbLine
 10
3532.901955264097
 20
-2072.891914405941
 30
0.0
 11
3536.628735264098
 21
-2077.058580405941
 31
0.0
  0
LINE
  5
B5D5
330
1E
100
AcDbEntity
  8
002
100
AcDbLine
 10
3536.628735264098
 20
-2080.391914405941
 30
0.0
 11
3532.901955264097
 21
-2084.55858040594
 31
0.0
  0
ARC
  5
B5D6
330
1E
100
AcDbEntity
  8
002
100
AcDbCircle
 10
3534.765345264098
 20
-2086.225247405942
 30
0.0
 40
2.5
100
AcDbArc
 50
138.1896850000205
 51
221.8103149999794
  0
ARC
  5
B5D7
330
1E
100
AcDbEntity
  8
002
100
AcDbCircle
 10
3534.765345264098
 20
-2078.725247405942
 30
0.0
 40
2.5
100
AcDbArc
 50
318.1896850000205
 51
41.81031499997946
  0
ARC
  5
B5D8
330
1E
100
AcDbEntity
  8
002
100
AcDbCircle
 10
3534.765345264098
 20
-2116.225247405942
 30
0.0
 40
2.5
100
AcDbArc
 50
138.1896850000205
 51
221.8103149999794
  0
LINE
  5
B5D9
330
1E
100
AcDbEntity
  8
002
100
AcDbLine
 10
3536.628735264098
 20
-2095.391914405941
 30
0.0
 11
3532.901955264097
 21
-2099.558580405941
 31
0.0
  0
LINE
  5
B5DA
330
1E
100
AcDbEntity
  8
002
100
AcDbLine
 10
3536.628735264098
 20
-2110.391914405941
 30
0.0
 11
3532.901955264097
 21
-2114.558580405941
 31
0.0
  0
LINE
  5
B5DB
330
1E
100
AcDbEntity
  8
002
100
AcDbLine
 10
3532.901955264097
 20
-2102.891914405942
 30
0.0
 11
3536.628735264098
 21
-2107.058580405941
 31
0.0
  0
ARC
  5
B5DC
330
1E
100
AcDbEntity
  8
002
100
AcDbCircle
 10
3534.765345264098
 20
-2101.225247405942
 30
0.0
 40
2.5
100
AcDbArc
 50
138.1896850000205
 51
221.8103149999794
  0
ARC
  5
B5DD
330
1E
100
AcDbEntity
  8
002
100
AcDbCircle
 10
3534.765345264098
 20
-2093.725247405942
 30
0.0
 40
2.5
100
AcDbArc
 50
318.1896850000205
 51
41.81031499997946
  0
ARC
  5
B5DE
330
1E
100
AcDbEntity
  8
002
100
AcDbCircle
 10
3534.765345264098
 20
-2108.725247405942
 30
0.0
 40
2.5
100
AcDbArc
 50
318.1896850000205
 51
41.81031499997946
  0
LINE
  5
B5DF
330
1E
100
AcDbEntity
  8
002
100
AcDbLine
 10
3532.901955264097
 20
-2087.891914405942
 30
0.0
 11
3536.628735264098
 21
-2092.058580405941
 31
0.0
  0
LINE
  5
B5E0
330
1E
100
AcDbEntity
  8
002
100
AcDbLine
 10
3536.628735264098
 20
-2140.391914405941
 30
0.0
 11
3532.901955264097
 21
-2144.558580405941
 31
0.0
  0
LINE
  5
B5E1
330
1E
100
AcDbEntity
  8
002
100
AcDbLine
 10
3532.901955264097
 20
-2132.891914405941
 30
0.0
 11
3536.628735264098
 21
-2137.058580405941
 31
0.0
  0
LINE
  5
B5E2
330
1E
100
AcDbEntity
  8
002
100
AcDbLine
 10
3536.628735264098
 20
-2125.391914405942
 30
0.0
 11
3532.901955264097
 21
-2129.55858040594
 31
0.0
  0
ARC
  5
B5E3
330
1E
100
AcDbEntity
  8
002
100
AcDbCircle
 10
3534.765345264098
 20
-2146.225247405942
 30
0.0
 40
2.5
100
AcDbArc
 50
138.1896850000205
 51
221.8103149999794
  0
ARC
  5
B5E4
330
1E
100
AcDbEntity
  8
002
100
AcDbCircle
 10
3534.765345264098
 20
-2131.225247405942
 30
0.0
 40
2.5
100
AcDbArc
 50
138.1896850000205
 51
221.8103149999794
  0
ARC
  5
B5E5
330
1E
100
AcDbEntity
  8
002
100
AcDbCircle
 10
3534.765345264098
 20
-2123.725247405942
 30
0.0
 40
2.5
100
AcDbArc
 50
318.1896850000205
 51
41.81031499997946
  0
ARC
  5
B5E6
330
1E
100
AcDbEntity
  8
002
100
AcDbCircle
 10
3534.765345264098
 20
-2138.725247405942
 30
0.0
 40
2.5
100
AcDbArc
 50
318.1896850000205
 51
41.81031499997946
  0
LINE
  5
B5E7
330
1E
100
AcDbEntity
  8
002
100
AcDbLine
 10
3536.628735264098
 20
-2170.391914405942
 30
0.0
 11
3532.901955264097
 21
-2174.55858040594
 31
0.0
  0
LINE
  5
B5E8
330
1E
100
AcDbEntity
  8
002
100
AcDbLine
 10
3532.901955264097
 20
-2162.891914405942
 30
0.0
 11
3536.628735264098
 21
-2167.058580405941
 31
0.0
  0
LINE
  5
B5E9
330
1E
100
AcDbEntity
  8
002
100
AcDbLine
 10
3536.628735264098
 20
-2155.391914405941
 30
0.0
 11
3532.901955264097
 21
-2159.558580405941
 31
0.0
  0
ARC
  5
B5EA
330
1E
100
AcDbEntity
  8
002
100
AcDbCircle
 10
3534.765345264098
 20
-2176.225247405942
 30
0.0
 40
2.5
100
AcDbArc
 50
138.1896850000205
 51
221.8103149999794
  0
ARC
  5
B5EB
330
1E
100
AcDbEntity
  8
002
100
AcDbCircle
 10
3534.765345264098
 20
-2161.225247405942
 30
0.0
 40
2.5
100
AcDbArc
 50
138.1896850000205
 51
221.8103149999794
  0
ARC
  5
B5EC
330
1E
100
AcDbEntity
  8
002
100
AcDbCircle
 10
3534.765345264098
 20
-2168.725247405942
 30
0.0
 40
2.5
100
AcDbArc
 50
318.1896850000205
 51
41.81031499997946
  0
ARC
  5
B5ED
330
1E
100
AcDbEntity
  8
002
100
AcDbCircle
 10
3534.765345264098
 20
-2153.725247405942
 30
0.0
 40
2.5
100
AcDbArc
 50
318.1896850000205
 51
41.81031499997946
  0
LINE
  5
B5EE
330
1E
100
AcDbEntity
  8
002
100
AcDbLine
 10
3532.901955264097
 20
-2147.891914405942
 30
0.0
 11
3536.628735264098
 21
-2152.058580405941
 31
0.0
  0
ARC
  5
B5EF
330
1E
100
AcDbEntity
  8
002
100
AcDbCircle
 10
3534.765345264098
 20
-2183.725247405942
 30
0.0
 40
2.5
100
AcDbArc
 50
318.1896850000205
 51
41.81031499997946
  0
LINE
  5
B5F0
330
1E
100
AcDbEntity
  8
002
100
AcDbLine
 10
3550.008628264098
 20
-2182.633533405942
 30
0.0
 11
3537.265345264098
 21
-2183.725247405942
 31
0.0
  0
LINE
  5
B5F1
330
1E
100
AcDbEntity
  8
002
100
AcDbLine
 10
3532.901955264097
 20
-2177.891914405941
 30
0.0
 11
3536.628735264098
 21
-2182.058580405941
 31
0.0
  0
LINE
  5
B5F2
330
1E
100
AcDbEntity
  8
002
100
AcDbLine
 10
3532.901955264097
 20
-2117.891914405941
 30
0.0
 11
3536.628735264098
 21
-2122.058580405941
 31
0.0
  0
ARC
  5
B5F3
330
1E
100
AcDbEntity
  8
002
100
AcDbCircle
 10
3627.310800264098
 20
-2078.725247405942
 30
0.0
 40
2.5
100
AcDbArc
 50
318.1896850000205
 51
41.81031499997946
  0
ARC
  5
B5F4
330
1E
100
AcDbEntity
  8
002
100
AcDbCircle
 10
3627.310800264098
 20
-2086.225247405942
 30
0.0
 40
2.5
100
AcDbArc
 50
138.1896850000205
 51
221.8103149999794
  0
LINE
  5
B5F5
330
1E
100
AcDbEntity
  8
002
100
AcDbLine
 10
3625.447410264097
 20
-2072.891914405941
 30
0.0
 11
3629.174190264098
 21
-2077.058580405941
 31
0.0
  0
LINE
  5
B5F6
330
1E
100
AcDbEntity
  8
002
100
AcDbLine
 10
3629.174190264098
 20
-2080.391914405941
 30
0.0
 11
3625.447410264097
 21
-2084.55858040594
 31
0.0
  0
ARC
  5
B5F7
330
1E
100
AcDbEntity
  8
002
100
AcDbCircle
 10
3627.310800264098
 20
-2093.725247405942
 30
0.0
 40
2.5
100
AcDbArc
 50
318.1896850000205
 51
41.81031499997946
  0
ARC
  5
B5F8
330
1E
100
AcDbEntity
  8
002
100
AcDbCircle
 10
3627.310800264098
 20
-2108.725247405942
 30
0.0
 40
2.5
100
AcDbArc
 50
318.1896850000205
 51
41.81031499997946
  0
ARC
  5
B5F9
330
1E
100
AcDbEntity
  8
002
100
AcDbCircle
 10
3627.310800264098
 20
-2116.225247405942
 30
0.0
 40
2.5
100
AcDbArc
 50
138.1896850000205
 51
221.8103149999794
  0
ARC
  5
B5FA
330
1E
100
AcDbEntity
  8
002
100
AcDbCircle
 10
3627.310800264098
 20
-2101.225247405942
 30
0.0
 40
2.5
100
AcDbArc
 50
138.1896850000205
 51
221.8103149999794
  0
LINE
  5
B5FB
330
1E
100
AcDbEntity
  8
002
100
AcDbLine
 10
3629.174190264098
 20
-2095.391914405941
 30
0.0
 11
3625.447410264097
 21
-2099.558580405941
 31
0.0
  0
LINE
  5
B5FC
330
1E
100
AcDbEntity
  8
002
100
AcDbLine
 10
3629.174190264098
 20
-2110.391914405941
 30
0.0
 11
3625.447410264097
 21
-2114.558580405941
 31
0.0
  0
LINE
  5
B5FD
330
1E
100
AcDbEntity
  8
002
100
AcDbLine
 10
3625.447410264097
 20
-2102.891914405942
 30
0.0
 11
3629.174190264098
 21
-2107.058580405941
 31
0.0
  0
LINE
  5
B5FE
330
1E
100
AcDbEntity
  8
002
100
AcDbLine
 10
3625.447410264097
 20
-2087.891914405942
 30
0.0
 11
3629.174190264098
 21
-2092.058580405941
 31
0.0
  0
LWPOLYLINE
  5
B5FF
330
1E
100
AcDbEntity
  8
001
100
AcDbPolyline
 90
        3
 70
     0
 43
0.0
 10
3635.588818264098
 20
-2144.621704405941
 10
3627.730504264098
 20
-2142.006004405941
 10
3633.228153264098
 20
-2148.20042440594
  0
ARC
  5
B600
330
1E
100
AcDbEntity
  8
002
100
AcDbCircle
 10
3627.310800264098
 20
-2123.725247405942
 30
0.0
 40
2.5
100
AcDbArc
 50
318.1896850000205
 51
41.81031499997946
  0
ARC
  5
B601
330
1E
100
AcDbEntity
  8
002
100
AcDbCircle
 10
3627.310800264098
 20
-2138.725247405942
 30
0.0
 40
2.5
100
AcDbArc
 50
318.1896850000205
 51
41.81031499997946
  0
ARC
  5
B602
330
1E
100
AcDbEntity
  8
002
100
AcDbCircle
 10
3627.310800264098
 20
-2146.225247405942
 30
0.0
 40
2.5
100
AcDbArc
 50
138.1896850000205
 51
221.8103149999794
  0
ARC
  5
B603
330
1E
100
AcDbEntity
  8
002
100
AcDbCircle
 10
3627.310800264098
 20
-2131.225247405942
 30
0.0
 40
2.5
100
AcDbArc
 50
138.1896850000205
 51
221.8103149999794
  0
LINE
  5
B604
330
1E
100
AcDbEntity
  8
002
100
AcDbLine
 10
3629.174190264098
 20
-2140.391914405941
 30
0.0
 11
3625.447410264097
 21
-2144.558580405941
 31
0.0
  0
LINE
  5
B605
330
1E
100
AcDbEntity
  8
002
100
AcDbLine
 10
3625.447410264097
 20
-2132.891914405941
 30
0.0
 11
3629.174190264098
 21
-2137.058580405941
 31
0.0
  0
LINE
  5
B606
330
1E
100
AcDbEntity
  8
002
100
AcDbLine
 10
3629.174190264098
 20
-2125.391914405942
 30
0.0
 11
3625.447410264097
 21
-2129.55858040594
 31
0.0
  0
ARC
  5
B607
330
1E
100
AcDbEntity
  8
002
100
AcDbCircle
 10
3627.310800264098
 20
-2153.725247405942
 30
0.0
 40
2.5
100
AcDbArc
 50
318.1896850000205
 51
41.81031499997946
  0
ARC
  5
B608
330
1E
100
AcDbEntity
  8
002
100
AcDbCircle
 10
3627.310800264098
 20
-2161.225247405942
 30
0.0
 40
2.5
100
AcDbArc
 50
138.1896850000205
 51
221.8103149999794
  0
LINE
  5
B609
330
1E
100
AcDbEntity
  8
002
100
AcDbLine
 10
3625.447410264097
 20
-2162.891914405942
 30
0.0
 11
3626.485520264098
 21
-2164.052556405941
 31
0.0
  0
LINE
  5
B60A
330
1E
100
AcDbEntity
  8
002
100
AcDbLine
 10
3629.174190264098
 20
-2155.391914405941
 30
0.0
 11
3625.447410264097
 21
-2159.558580405941
 31
0.0
  0
LINE
  5
B60B
330
1E
100
AcDbEntity
  8
002
100
AcDbLine
 10
3625.447410264097
 20
-2147.891914405942
 30
0.0
 11
3629.174190264098
 21
-2152.058580405941
 31
0.0
  0
LINE
  5
B60C
330
1E
100
AcDbEntity
  8
002
100
AcDbLine
 10
3625.447410264097
 20
-2117.891914405941
 30
0.0
 11
3629.174190264098
 21
-2122.058580405941
 31
0.0
  0
LINE
  5
B60D
330
1E
100
AcDbEntity
  8
003
100
AcDbLine
 10
3515.417225264098
 20
-1762.891914405942
 30
0.0
 11
3476.257786394784
 21
-1762.891914405942
 31
0.0
  0
LINE
  5
B60E
330
1E
100
AcDbEntity
  8
002
100
AcDbLine
 10
3488.317225264098
 20
-1735.891914405942
 30
0.0
 11
3490.317225264098
 21
-1737.891914405942
 31
0.0
  0
LINE
  5
B60F
330
1E
100
AcDbEntity
  8
003
  6
Continuous
100
AcDbLine
 10
3478.317225264098
 20
-1762.891914405942
 30
0.0
 11
3515.417225264098
 21
-1762.891914405942
 31
0.0
  0
LINE
  5
B610
330
1E
100
AcDbEntity
  8
002
100
AcDbLine
 10
3477.984954264098
 20
-1762.891914405942
 30
0.0
 11
3516.317225264098
 21
-1762.891914405942
 31
0.0
  0
LINE
  5
B611
330
1E
100
AcDbEntity
  8
002
100
AcDbLine
 10
3477.984954264098
 20
-1762.891914405942
 30
0.0
 11
3516.317225264098
 21
-1762.891914405942
 31
0.0
  0
LINE
  5
B612
330
1E
100
AcDbEntity
  8
002
100
AcDbLine
 10
3478.317225264098
 20
-1737.891914405942
 30
0.0
 11
3525.817225264098
 21
-1737.891914405942
 31
0.0
  0
LINE
  5
B613
330
1E
100
AcDbEntity
  8
002
100
AcDbLine
 10
3495.663122264097
 20
-1638.919266405941
 30
0.0
 11
3488.317225264098
 21
-1687.891914405942
 31
0.0
  0
LINE
  5
B614
330
1E
100
AcDbEntity
  8
003
 62
     3
100
AcDbLine
 10
3468.217225389865
 20
-1784.891914405942
 30
0.0
 11
3515.817225264098
 21
-1784.891914405942
 31
0.0
  0
LINE
  5
B615
330
1E
100
AcDbEntity
  8
001
100
AcDbLine
 10
3520.781836264097
 20
-1887.563091405942
 30
0.0
 11
3439.428977264098
 21
-1945.203807405942
 31
0.0
  0
LINE
  5
B616
330
1E
100
AcDbEntity
  8
003
 62
     3
100
AcDbLine
 10
3490.887243426728
 20
-1637.891914405942
 30
0.0
 11
3382.867225264098
 21
-1637.891914405942
 31
0.0
  0
TEXT
  5
B617
330
1E
100
AcDbEntity
  8
001
100
AcDbText
 10
3329.428977264098
 20
-1941.203807405942
 30
0.0
 40
12.8
  1
ジョイントコネクタ
 41
0.716146
100
AcDbText
  0
LINE
  5
B618
330
1E
100
AcDbEntity
  8
003
 62
     3
100
AcDbLine
 10
3476.257786394784
 20
-1762.891914405942
 30
0.0
 11
3403.681255264097
 21
-1637.891914405942
 31
0.0
  0
LINE
  5
B619
330
1E
100
AcDbEntity
  8
003
 62
     3
100
AcDbLine
 10
3468.217225389865
 20
-1784.891914405942
 30
0.0
 11
3382.867225264098
 21
-1637.891914405942
 31
0.0
  0
LINE
  5
B61A
330
1E
100
AcDbEntity
  8
002
100
AcDbLine
 10
3488.317225264098
 20
-1735.891914405942
 30
0.0
 11
3488.317225264098
 21
-1687.891914405942
 31
0.0
  0
LINE
  5
B61B
330
1E
100
AcDbEntity
  8
003
 62
     3
100
AcDbLine
 10
3453.404855264098
 20
-1759.380275405941
 30
0.0
 11
3468.971279264098
 21
-1750.342219405942
 31
0.0
  0
LINE
  5
B61C
330
1E
100
AcDbEntity
  8
004
  6
CENTER
100
AcDbLine
 10
3451.074101264098
 20
-1765.937047405941
 30
0.0
 11
3475.686961264098
 21
-1751.646519405942
 31
0.0
  0
LINE
  5
B61D
330
1E
100
AcDbEntity
  8
003
 62
     3
100
AcDbLine
 10
3457.923883264097
 20
-1767.163487405941
 30
0.0
 11
3473.490307264098
 21
-1758.12543140594
 31
0.0
  0
LINE
  5
B61E
330
1E
100
AcDbEntity
  8
002
100
AcDbLine
 10
3478.317225264098
 20
-1737.891914405942
 30
0.0
 11
3478.317225264098
 21
-1762.891914405942
 31
0.0
  0
LINE
  5
B61F
330
1E
100
AcDbEntity
  8
002
100
AcDbLine
 10
3626.453835264098
 20
-1832.891914405942
 30
0.0
 11
3630.180615264098
 21
-1837.05858040594
 31
0.0
  0
LINE
  5
B620
330
1E
100
AcDbEntity
  8
002
100
AcDbLine
 10
3625.447410264097
 20
-1832.891914405942
 30
0.0
 11
3629.174190264098
 21
-1837.05858040594
 31
0.0
  0
LINE
  5
B621
330
1E
100
AcDbEntity
  8
002
100
AcDbLine
 10
3531.453835264098
 20
-1832.891914405942
 30
0.0
 11
3535.180615264098
 21
-1837.05858040594
 31
0.0
  0
LINE
  5
B622
330
1E
100
AcDbEntity
  8
002
100
AcDbLine
 10
3532.901955264097
 20
-1832.891914405942
 30
0.0
 11
3536.628735264098
 21
-1837.05858040594
 31
0.0
  0
LINE
  5
B623
330
1E
100
AcDbEntity
  8
002
100
AcDbLine
 10
3624.810800264098
 20
-1831.225247405942
 30
0.0
 11
3537.265345264098
 21
-1838.725247405942
 31
0.0
  0
LINE
  5
B624
330
1E
100
AcDbEntity
  8
002
100
AcDbLine
 10
3644.317225264098
 20
-1737.891914405942
 30
0.0
 11
3639.317225264098
 21
-1953.891914405942
 31
0.0
  0
LINE
  5
B625
330
1E
100
AcDbEntity
  8
002
100
AcDbLine
 10
3517.317225264098
 20
-1737.891914405942
 30
0.0
 11
3522.317225264098
 21
-1953.891914405942
 31
0.0
  0
LINE
  5
B626
330
1E
100
AcDbEntity
  8
003
 62
     3
100
AcDbLine
 10
3507.817225264098
 20
-1784.891914405942
 30
0.0
 11
3507.817225264098
 21
-2063.005474405942
 31
0.0
  0
LINE
  5
B627
330
1E
100
AcDbEntity
  8
003
 62
     3
100
AcDbLine
 10
3498.317225264098
 20
-1784.891914405942
 30
0.0
 11
3498.317225264098
 21
-2063.005474405942
 31
0.0
  0
LINE
  5
B628
330
1E
100
AcDbEntity
  8
002
100
AcDbLine
 10
3629.810800264098
 20
-1988.725247405942
 30
0.0
 11
3532.265345264097
 21
-1996.225247405942
 31
0.0
  0
LINE
  5
B629
330
1E
100
AcDbEntity
  8
002
100
AcDbLine
 10
3624.810800264098
 20
-1981.225247405942
 30
0.0
 11
3537.265345264098
 21
-1988.725247405942
 31
0.0
  0
LINE
  5
B62A
330
1E
100
AcDbEntity
  8
002
100
AcDbLine
 10
3629.810800264098
 20
-1928.725247405942
 30
0.0
 11
3532.265345264097
 21
-1936.225247405942
 31
0.0
  0
LINE
  5
B62B
330
1E
100
AcDbEntity
  8
002
100
AcDbLine
 10
3629.810800264098
 20
-1913.725247405942
 30
0.0
 11
3532.265345264097
 21
-1921.225247405942
 31
0.0
  0
LINE
  5
B62C
330
1E
100
AcDbEntity
  8
002
100
AcDbLine
 10
3629.810800264098
 20
-1898.725247405942
 30
0.0
 11
3532.265345264097
 21
-1906.225247405942
 31
0.0
  0
LINE
  5
B62D
330
1E
100
AcDbEntity
  8
002
100
AcDbLine
 10
3629.810800264098
 20
-1883.725247405942
 30
0.0
 11
3532.265345264097
 21
-1891.225247405942
 31
0.0
  0
LINE
  5
B62E
330
1E
100
AcDbEntity
  8
002
100
AcDbLine
 10
3629.810800264098
 20
-1868.725247405942
 30
0.0
 11
3532.265345264097
 21
-1876.225247405942
 31
0.0
  0
LINE
  5
B62F
330
1E
100
AcDbEntity
  8
002
100
AcDbLine
 10
3629.810800264098
 20
-1853.725247405942
 30
0.0
 11
3532.265345264097
 21
-1861.225247405942
 31
0.0
  0
LINE
  5
B630
330
1E
100
AcDbEntity
  8
002
100
AcDbLine
 10
3629.810800264098
 20
-1838.725247405942
 30
0.0
 11
3532.265345264097
 21
-1846.225247405942
 31
0.0
  0
LINE
  5
B631
330
1E
100
AcDbEntity
  8
002
100
AcDbLine
 10
3624.810800264098
 20
-1921.225247405942
 30
0.0
 11
3537.265345264098
 21
-1928.725247405942
 31
0.0
  0
LINE
  5
B632
330
1E
100
AcDbEntity
  8
002
100
AcDbLine
 10
3624.810800264098
 20
-1906.225247405942
 30
0.0
 11
3537.265345264098
 21
-1913.725247405942
 31
0.0
  0
LINE
  5
B633
330
1E
100
AcDbEntity
  8
002
100
AcDbLine
 10
3624.810800264098
 20
-1891.225247405942
 30
0.0
 11
3537.265345264098
 21
-1898.725247405942
 31
0.0
  0
LINE
  5
B634
330
1E
100
AcDbEntity
  8
002
100
AcDbLine
 10
3624.810800264098
 20
-1876.225247405942
 30
0.0
 11
3537.265345264098
 21
-1883.725247405942
 31
0.0
  0
LINE
  5
B635
330
1E
100
AcDbEntity
  8
002
100
AcDbLine
 10
3624.810800264098
 20
-1861.225247405942
 30
0.0
 11
3537.265345264098
 21
-1868.725247405942
 31
0.0
  0
LINE
  5
B636
330
1E
100
AcDbEntity
  8
002
100
AcDbLine
 10
3624.810800264098
 20
-1846.225247405942
 30
0.0
 11
3537.265345264098
 21
-1853.725247405942
 31
0.0
  0
LINE
  5
B637
330
1E
100
AcDbEntity
  8
002
100
AcDbLine
 10
3629.810800264098
 20
-1973.725247405942
 30
0.0
 11
3532.265345264097
 21
-1981.225247405942
 31
0.0
  0
LINE
  5
B638
330
1E
100
AcDbEntity
  8
002
100
AcDbLine
 10
3629.810800264098
 20
-1958.725247405942
 30
0.0
 11
3532.265345264097
 21
-1966.225247405942
 31
0.0
  0
LINE
  5
B639
330
1E
100
AcDbEntity
  8
002
100
AcDbLine
 10
3629.810800264098
 20
-1943.725247405942
 30
0.0
 11
3532.265345264097
 21
-1951.225247405942
 31
0.0
  0
LINE
  5
B63A
330
1E
100
AcDbEntity
  8
002
100
AcDbLine
 10
3624.810800264098
 20
-1966.225247405942
 30
0.0
 11
3537.265345264098
 21
-1973.725247405942
 31
0.0
  0
LINE
  5
B63B
330
1E
100
AcDbEntity
  8
002
100
AcDbLine
 10
3624.810800264098
 20
-1951.225247405942
 30
0.0
 11
3537.265345264098
 21
-1958.725247405942
 31
0.0
  0
LINE
  5
B63C
330
1E
100
AcDbEntity
  8
002
100
AcDbLine
 10
3624.810800264098
 20
-1936.225247405942
 30
0.0
 11
3537.265345264098
 21
-1943.725247405942
 31
0.0
  0
LINE
  5
B63D
330
1E
100
AcDbEntity
  8
002
100
AcDbLine
 10
3629.810800264098
 20
-2003.725247405942
 30
0.0
 11
3532.265345264097
 21
-2011.225247405942
 31
0.0
  0
LINE
  5
B63E
330
1E
100
AcDbEntity
  8
002
100
AcDbLine
 10
3624.810800264098
 20
-2011.225247405942
 30
0.0
 11
3537.265345264098
 21
-2018.725247405942
 31
0.0
  0
LINE
  5
B63F
330
1E
100
AcDbEntity
  8
002
100
AcDbLine
 10
3624.810800264098
 20
-2026.225247405942
 30
0.0
 11
3537.265345264098
 21
-2033.725247405942
 31
0.0
  0
LINE
  5
B640
330
1E
100
AcDbEntity
  8
002
100
AcDbLine
 10
3629.810800264098
 20
-2048.725247405942
 30
0.0
 11
3532.265345264097
 21
-2056.225247405942
 31
0.0
  0
LINE
  5
B641
330
1E
100
AcDbEntity
  8
002
100
AcDbLine
 10
3629.810800264098
 20
-2033.725247405942
 30
0.0
 11
3532.265345264097
 21
-2041.225247405942
 31
0.0
  0
LINE
  5
B642
330
1E
100
AcDbEntity
  8
002
100
AcDbLine
 10
3624.810800264098
 20
-2041.225247405942
 30
0.0
 11
3537.265345264098
 21
-2048.725247405942
 31
0.0
  0
LINE
  5
B643
330
1E
100
AcDbEntity
  8
002
100
AcDbLine
 10
3624.810800264098
 20
-2056.225247405942
 30
0.0
 11
3537.265345264098
 21
-2063.725247405942
 31
0.0
  0
LINE
  5
B644
330
1E
100
AcDbEntity
  8
002
100
AcDbLine
 10
3629.810800264098
 20
-2018.725247405942
 30
0.0
 11
3532.265345264097
 21
-2026.225247405942
 31
0.0
  0
LINE
  5
B645
330
1E
100
AcDbEntity
  8
002
100
AcDbLine
 10
3624.810800264098
 20
-1996.225247405942
 30
0.0
 11
3537.265345264098
 21
-2003.725247405942
 31
0.0
  0
ARC
  5
B646
330
1E
100
AcDbEntity
  8
002
100
AcDbCircle
 10
3533.317225264097
 20
-1951.225247405942
 30
0.0
 40
2.5
100
AcDbArc
 50
138.1896850000205
 51
221.8103149999794
  0
ARC
  5
B647
330
1E
100
AcDbEntity
  8
002
100
AcDbCircle
 10
3534.765345264098
 20
-1951.225247405942
 30
0.0
 40
2.5
100
AcDbArc
 50
138.1896850000205
 51
221.8103149999794
  0
LINE
  5
B648
330
1E
100
AcDbEntity
  8
002
100
AcDbLine
 10
3532.348262264098
 20
-1953.891914405942
 30
0.0
 11
3522.317225264098
 21
-1953.891914405942
 31
0.0
  0
LINE
  5
B649
330
1E
100
AcDbEntity
  8
002
100
AcDbLine
 10
3532.901955264097
 20
-1952.891914405942
 30
0.0
 11
3536.628735264098
 21
-1957.058580405941
 31
0.0
  0
LINE
  5
B64A
330
1E
100
AcDbEntity
  8
002
100
AcDbLine
 10
3532.901955264097
 20
-1967.891914405941
 30
0.0
 11
3536.628735264098
 21
-1972.058580405941
 31
0.0
  0
LINE
  5
B64B
330
1E
100
AcDbEntity
  8
002
100
AcDbLine
 10
3536.628735264098
 20
-1960.391914405941
 30
0.0
 11
3532.901955264097
 21
-1964.558580405941
 31
0.0
  0
LINE
  5
B64C
330
1E
100
AcDbEntity
  8
002
100
AcDbLine
 10
3531.453835264098
 20
-1952.891914405942
 30
0.0
 11
3532.348262264098
 21
-1953.891914405942
 31
0.0
  0
ARC
  5
B64D
330
1E
100
AcDbEntity
  8
002
100
AcDbCircle
 10
3534.765345264098
 20
-1966.225247405942
 30
0.0
 40
2.5
100
AcDbArc
 50
138.1896850000205
 51
221.8103149999794
  0
ARC
  5
B64E
330
1E
100
AcDbEntity
  8
002
100
AcDbCircle
 10
3534.765345264098
 20
-1958.725247405942
 30
0.0
 40
2.5
100
AcDbArc
 50
318.1896850000205
 51
41.81031499997946
  0
LINE
  5
B64F
330
1E
100
AcDbEntity
  8
002
100
AcDbLine
 10
3532.901955264097
 20
-1997.891914405941
 30
0.0
 11
3536.628735264098
 21
-2002.058580405941
 31
0.0
  0
LINE
  5
B650
330
1E
100
AcDbEntity
  8
002
100
AcDbLine
 10
3532.901955264097
 20
-1982.891914405941
 30
0.0
 11
3536.628735264098
 21
-1987.058580405941
 31
0.0
  0
LINE
  5
B651
330
1E
100
AcDbEntity
  8
002
100
AcDbLine
 10
3536.628735264098
 20
-1990.391914405941
 30
0.0
 11
3532.901955264097
 21
-1994.558580405941
 31
0.0
  0
LINE
  5
B652
330
1E
100
AcDbEntity
  8
002
100
AcDbLine
 10
3536.628735264098
 20
-1975.391914405942
 30
0.0
 11
3532.901955264097
 21
-1979.558580405941
 31
0.0
  0
ARC
  5
B653
330
1E
100
AcDbEntity
  8
002
100
AcDbCircle
 10
3534.765345264098
 20
-1996.225247405942
 30
0.0
 40
2.5
100
AcDbArc
 50
138.1896850000205
 51
221.8103149999794
  0
ARC
  5
B654
330
1E
100
AcDbEntity
  8
002
100
AcDbCircle
 10
3534.765345264098
 20
-1981.225247405942
 30
0.0
 40
2.5
100
AcDbArc
 50
138.1896850000205
 51
221.8103149999794
  0
ARC
  5
B655
330
1E
100
AcDbEntity
  8
002
100
AcDbCircle
 10
3534.765345264098
 20
-1988.725247405942
 30
0.0
 40
2.5
100
AcDbArc
 50
318.1896850000205
 51
41.81031499997946
  0
ARC
  5
B656
330
1E
100
AcDbEntity
  8
002
100
AcDbCircle
 10
3534.765345264098
 20
-1973.725247405942
 30
0.0
 40
2.5
100
AcDbArc
 50
318.1896850000205
 51
41.81031499997946
  0
LINE
  5
B657
330
1E
100
AcDbEntity
  8
002
100
AcDbLine
 10
3532.901955264097
 20
-2027.891914405941
 30
0.0
 11
3536.628735264098
 21
-2032.058580405941
 31
0.0
  0
LINE
  5
B658
330
1E
100
AcDbEntity
  8
002
100
AcDbLine
 10
3536.628735264098
 20
-2005.391914405941
 30
0.0
 11
3532.901955264097
 21
-2009.558580405941
 31
0.0
  0
LINE
  5
B659
330
1E
100
AcDbEntity
  8
002
100
AcDbLine
 10
3532.901955264097
 20
-2012.891914405942
 30
0.0
 11
3536.628735264098
 21
-2017.058580405941
 31
0.0
  0
LINE
  5
B65A
330
1E
100
AcDbEntity
  8
002
100
AcDbLine
 10
3536.628735264098
 20
-2020.391914405942
 30
0.0
 11
3532.901955264097
 21
-2024.55858040594
 31
0.0
  0
ARC
  5
B65B
330
1E
100
AcDbEntity
  8
002
100
AcDbCircle
 10
3534.765345264098
 20
-2011.225247405942
 30
0.0
 40
2.5
100
AcDbArc
 50
138.1896850000205
 51
221.8103149999794
  0
ARC
  5
B65C
330
1E
100
AcDbEntity
  8
002
100
AcDbCircle
 10
3534.765345264098
 20
-2026.225247405942
 30
0.0
 40
2.5
100
AcDbArc
 50
138.1896850000205
 51
221.8103149999794
  0
ARC
  5
B65D
330
1E
100
AcDbEntity
  8
002
100
AcDbCircle
 10
3534.765345264098
 20
-2018.725247405942
 30
0.0
 40
2.5
100
AcDbArc
 50
318.1896850000205
 51
41.81031499997946
  0
LINE
  5
B65E
330
1E
100
AcDbEntity
  8
002
100
AcDbLine
 10
3536.628735264098
 20
-2050.391914405941
 30
0.0
 11
3532.901955264097
 21
-2054.558580405941
 31
0.0
  0
LINE
  5
B65F
330
1E
100
AcDbEntity
  8
002
100
AcDbLine
 10
3532.901955264097
 20
-2042.891914405941
 30
0.0
 11
3536.628735264098
 21
-2047.058580405941
 31
0.0
  0
LINE
  5
B660
330
1E
100
AcDbEntity
  8
002
100
AcDbLine
 10
3536.628735264098
 20
-2035.391914405941
 30
0.0
 11
3532.901955264097
 21
-2039.558580405941
 31
0.0
  0
ARC
  5
B661
330
1E
100
AcDbEntity
  8
002
100
AcDbCircle
 10
3534.765345264098
 20
-2056.225247405942
 30
0.0
 40
2.5
100
AcDbArc
 50
138.1896850000205
 51
221.8103149999794
  0
ARC
  5
B662
330
1E
100
AcDbEntity
  8
002
100
AcDbCircle
 10
3534.765345264098
 20
-2041.225247405942
 30
0.0
 40
2.5
100
AcDbArc
 50
138.1896850000205
 51
221.8103149999794
  0
ARC
  5
B663
330
1E
100
AcDbEntity
  8
002
100
AcDbCircle
 10
3534.765345264098
 20
-2048.725247405942
 30
0.0
 40
2.5
100
AcDbArc
 50
318.1896850000205
 51
41.81031499997946
  0
ARC
  5
B664
330
1E
100
AcDbEntity
  8
002
100
AcDbCircle
 10
3534.765345264098
 20
-2033.725247405942
 30
0.0
 40
2.5
100
AcDbArc
 50
318.1896850000205
 51
41.81031499997946
  0
LINE
  5
B665
330
1E
100
AcDbEntity
  8
002
100
AcDbLine
 10
3536.628735264098
 20
-2065.391914405942
 30
0.0
 11
3532.901955264097
 21
-2069.558580405941
 31
0.0
  0
ARC
  5
B666
330
1E
100
AcDbEntity
  8
002
100
AcDbCircle
 10
3534.765345264098
 20
-2063.725247405942
 30
0.0
 40
2.5
100
AcDbArc
 50
318.1896850000205
 51
41.81031499997946
  0
LINE
  5
B667
330
1E
100
AcDbEntity
  8
002
100
AcDbLine
 10
3532.901955264097
 20
-2057.891914405942
 30
0.0
 11
3536.628735264098
 21
-2062.058580405941
 31
0.0
  0
ARC
  5
B668
330
1E
100
AcDbEntity
  8
002
100
AcDbCircle
 10
3534.765345264098
 20
-2003.725247405942
 30
0.0
 40
2.5
100
AcDbArc
 50
318.1896850000205
 51
41.81031499997946
  0
LWPOLYLINE
  5
B669
330
1E
100
AcDbEntity
  8
001
100
AcDbPolyline
 90
        3
 70
     0
 43
0.0
 10
3515.493497264098
 20
-1893.937138405941
 10
3520.781836264097
 20
-1887.563091405942
 10
3513.014977264098
 20
-1890.439008405941
  0
LINE
  5
B66A
330
1E
100
AcDbEntity
  8
002
100
AcDbLine
 10
3531.453835264098
 20
-1847.891914405941
 30
0.0
 11
3535.180615264098
 21
-1852.058580405941
 31
0.0
  0
LINE
  5
B66B
330
1E
100
AcDbEntity
  8
002
100
AcDbLine
 10
3532.901955264097
 20
-1847.891914405941
 30
0.0
 11
3536.628735264098
 21
-1852.058580405941
 31
0.0
  0
LINE
  5
B66C
330
1E
100
AcDbEntity
  8
002
100
AcDbLine
 10
3535.180615264098
 20
-1840.391914405941
 30
0.0
 11
3531.453835264098
 21
-1844.558580405941
 31
0.0
  0
LINE
  5
B66D
330
1E
100
AcDbEntity
  8
002
100
AcDbLine
 10
3536.628735264098
 20
-1840.391914405941
 30
0.0
 11
3532.901955264097
 21
-1844.558580405941
 31
0.0
  0
ARC
  5
B66E
330
1E
100
AcDbEntity
  8
002
100
AcDbCircle
 10
3533.317225264097
 20
-1846.225247405942
 30
0.0
 40
2.5
100
AcDbArc
 50
138.1896850000205
 51
221.8103149999794
  0
ARC
  5
B66F
330
1E
100
AcDbEntity
  8
002
100
AcDbCircle
 10
3534.765345264098
 20
-1846.225247405942
 30
0.0
 40
2.5
100
AcDbArc
 50
138.1896850000205
 51
221.8103149999794
  0
ARC
  5
B670
330
1E
100
AcDbEntity
  8
002
100
AcDbCircle
 10
3533.317225264097
 20
-1853.725247405942
 30
0.0
 40
2.5
100
AcDbArc
 50
318.1896850000205
 51
41.81031499997946
  0
ARC
  5
B671
330
1E
100
AcDbEntity
  8
002
100
AcDbCircle
 10
3534.765345264098
 20
-1853.725247405942
 30
0.0
 40
2.5
100
AcDbArc
 50
318.1896850000205
 51
41.81031499997946
  0
ARC
  5
B672
330
1E
100
AcDbEntity
  8
002
100
AcDbCircle
 10
3533.317225264097
 20
-1838.725247405942
 30
0.0
 40
2.5
100
AcDbArc
 50
318.1896850000205
 51
41.81031499997946
  0
ARC
  5
B673
330
1E
100
AcDbEntity
  8
002
100
AcDbCircle
 10
3534.765345264098
 20
-1838.725247405942
 30
0.0
 40
2.5
100
AcDbArc
 50
318.1896850000205
 51
41.81031499997946
  0
LINE
  5
B674
330
1E
100
AcDbEntity
  8
002
100
AcDbLine
 10
3531.453835264098
 20
-1877.891914405942
 30
0.0
 11
3535.180615264098
 21
-1882.058580405941
 31
0.0
  0
LINE
  5
B675
330
1E
100
AcDbEntity
  8
002
100
AcDbLine
 10
3532.901955264097
 20
-1877.891914405942
 30
0.0
 11
3536.628735264098
 21
-1882.058580405941
 31
0.0
  0
LINE
  5
B676
330
1E
100
AcDbEntity
  8
002
100
AcDbLine
 10
3535.180615264098
 20
-1870.391914405941
 30
0.0
 11
3531.453835264098
 21
-1874.55858040594
 31
0.0
  0
LINE
  5
B677
330
1E
100
AcDbEntity
  8
002
100
AcDbLine
 10
3536.628735264098
 20
-1870.391914405941
 30
0.0
 11
3532.901955264097
 21
-1874.55858040594
 31
0.0
  0
LINE
  5
B678
330
1E
100
AcDbEntity
  8
002
100
AcDbLine
 10
3531.453835264098
 20
-1862.891914405942
 30
0.0
 11
3535.180615264098
 21
-1867.058580405941
 31
0.0
  0
LINE
  5
B679
330
1E
100
AcDbEntity
  8
002
100
AcDbLine
 10
3532.901955264097
 20
-1862.891914405942
 30
0.0
 11
3536.628735264098
 21
-1867.058580405941
 31
0.0
  0
ARC
  5
B67A
330
1E
100
AcDbEntity
  8
002
100
AcDbCircle
 10
3533.317225264097
 20
-1861.225247405942
 30
0.0
 40
2.5
100
AcDbArc
 50
138.1896850000205
 51
221.8103149999794
  0
ARC
  5
B67B
330
1E
100
AcDbEntity
  8
002
100
AcDbCircle
 10
3534.765345264098
 20
-1861.225247405942
 30
0.0
 40
2.5
100
AcDbArc
 50
138.1896850000205
 51
221.8103149999794
  0
ARC
  5
B67C
330
1E
100
AcDbEntity
  8
002
100
AcDbCircle
 10
3533.317225264097
 20
-1876.225247405942
 30
0.0
 40
2.5
100
AcDbArc
 50
138.1896850000205
 51
221.8103149999794
  0
ARC
  5
B67D
330
1E
100
AcDbEntity
  8
002
100
AcDbCircle
 10
3534.765345264098
 20
-1876.225247405942
 30
0.0
 40
2.5
100
AcDbArc
 50
138.1896850000205
 51
221.8103149999794
  0
ARC
  5
B67E
330
1E
100
AcDbEntity
  8
002
100
AcDbCircle
 10
3533.317225264097
 20
-1883.725247405942
 30
0.0
 40
2.5
100
AcDbArc
 50
318.1896850000205
 51
41.81031499997946
  0
ARC
  5
B67F
330
1E
100
AcDbEntity
  8
002
100
AcDbCircle
 10
3534.765345264098
 20
-1883.725247405942
 30
0.0
 40
2.5
100
AcDbArc
 50
318.1896850000205
 51
41.81031499997946
  0
ARC
  5
B680
330
1E
100
AcDbEntity
  8
002
100
AcDbCircle
 10
3533.317225264097
 20
-1868.725247405942
 30
0.0
 40
2.5
100
AcDbArc
 50
318.1896850000205
 51
41.81031499997946
  0
ARC
  5
B681
330
1E
100
AcDbEntity
  8
002
100
AcDbCircle
 10
3534.765345264098
 20
-1868.725247405942
 30
0.0
 40
2.5
100
AcDbArc
 50
318.1896850000205
 51
41.81031499997946
  0
LINE
  5
B682
330
1E
100
AcDbEntity
  8
002
100
AcDbLine
 10
3535.180615264098
 20
-1855.391914405941
 30
0.0
 11
3531.453835264098
 21
-1859.558580405941
 31
0.0
  0
LINE
  5
B683
330
1E
100
AcDbEntity
  8
002
100
AcDbLine
 10
3536.628735264098
 20
-1855.391914405941
 30
0.0
 11
3532.901955264097
 21
-1859.558580405941
 31
0.0
  0
LINE
  5
B684
330
1E
100
AcDbEntity
  8
002
100
AcDbLine
 10
3531.453835264098
 20
-1892.891914405941
 30
0.0
 11
3535.180615264098
 21
-1897.058580405941
 31
0.0
  0
LINE
  5
B685
330
1E
100
AcDbEntity
  8
002
100
AcDbLine
 10
3532.901955264097
 20
-1892.891914405941
 30
0.0
 11
3536.628735264098
 21
-1897.058580405941
 31
0.0
  0
LINE
  5
B686
330
1E
100
AcDbEntity
  8
002
100
AcDbLine
 10
3531.453835264098
 20
-1907.891914405942
 30
0.0
 11
3535.180615264098
 21
-1912.058580405941
 31
0.0
  0
LINE
  5
B687
330
1E
100
AcDbEntity
  8
002
100
AcDbLine
 10
3532.901955264097
 20
-1907.891914405942
 30
0.0
 11
3536.628735264098
 21
-1912.058580405941
 31
0.0
  0
LINE
  5
B688
330
1E
100
AcDbEntity
  8
002
100
AcDbLine
 10
3535.180615264098
 20
-1900.391914405942
 30
0.0
 11
3531.453835264098
 21
-1904.558580405941
 31
0.0
  0
LINE
  5
B689
330
1E
100
AcDbEntity
  8
002
100
AcDbLine
 10
3536.628735264098
 20
-1900.391914405942
 30
0.0
 11
3532.901955264097
 21
-1904.558580405941
 31
0.0
  0
ARC
  5
B68A
330
1E
100
AcDbEntity
  8
002
100
AcDbCircle
 10
3533.317225264097
 20
-1891.225247405942
 30
0.0
 40
2.5
100
AcDbArc
 50
138.1896850000205
 51
221.8103149999794
  0
ARC
  5
B68B
330
1E
100
AcDbEntity
  8
002
100
AcDbCircle
 10
3534.765345264098
 20
-1891.225247405942
 30
0.0
 40
2.5
100
AcDbArc
 50
138.1896850000205
 51
221.8103149999794
  0
ARC
  5
B68C
330
1E
100
AcDbEntity
  8
002
100
AcDbCircle
 10
3533.317225264097
 20
-1906.225247405942
 30
0.0
 40
2.5
100
AcDbArc
 50
138.1896850000205
 51
221.8103149999794
  0
ARC
  5
B68D
330
1E
100
AcDbEntity
  8
002
100
AcDbCircle
 10
3534.765345264098
 20
-1906.225247405942
 30
0.0
 40
2.5
100
AcDbArc
 50
138.1896850000205
 51
221.8103149999794
  0
ARC
  5
B68E
330
1E
100
AcDbEntity
  8
002
100
AcDbCircle
 10
3533.317225264097
 20
-1913.725247405942
 30
0.0
 40
2.5
100
AcDbArc
 50
318.1896850000205
 51
41.81031499997946
  0
ARC
  5
B68F
330
1E
100
AcDbEntity
  8
002
100
AcDbCircle
 10
3534.765345264098
 20
-1913.725247405942
 30
0.0
 40
2.5
100
AcDbArc
 50
318.1896850000205
 51
41.81031499997946
  0
ARC
  5
B690
330
1E
100
AcDbEntity
  8
002
100
AcDbCircle
 10
3533.317225264097
 20
-1898.725247405942
 30
0.0
 40
2.5
100
AcDbArc
 50
318.1896850000205
 51
41.81031499997946
  0
ARC
  5
B691
330
1E
100
AcDbEntity
  8
002
100
AcDbCircle
 10
3534.765345264098
 20
-1898.725247405942
 30
0.0
 40
2.5
100
AcDbArc
 50
318.1896850000205
 51
41.81031499997946
  0
LINE
  5
B692
330
1E
100
AcDbEntity
  8
002
100
AcDbLine
 10
3531.453835264098
 20
-1937.891914405942
 30
0.0
 11
3535.180615264098
 21
-1942.058580405941
 31
0.0
  0
LINE
  5
B693
330
1E
100
AcDbEntity
  8
002
100
AcDbLine
 10
3532.901955264097
 20
-1937.891914405942
 30
0.0
 11
3536.628735264098
 21
-1942.058580405941
 31
0.0
  0
LINE
  5
B694
330
1E
100
AcDbEntity
  8
002
100
AcDbLine
 10
3535.180615264098
 20
-1930.391914405941
 30
0.0
 11
3531.453835264098
 21
-1934.558580405941
 31
0.0
  0
LINE
  5
B695
330
1E
100
AcDbEntity
  8
002
100
AcDbLine
 10
3531.453835264098
 20
-1922.891914405941
 30
0.0
 11
3535.180615264098
 21
-1927.058580405941
 31
0.0
  0
LINE
  5
B696
330
1E
100
AcDbEntity
  8
002
100
AcDbLine
 10
3536.628735264098
 20
-1930.391914405941
 30
0.0
 11
3532.901955264097
 21
-1934.558580405941
 31
0.0
  0
LINE
  5
B697
330
1E
100
AcDbEntity
  8
002
100
AcDbLine
 10
3532.901955264097
 20
-1922.891914405941
 30
0.0
 11
3536.628735264098
 21
-1927.058580405941
 31
0.0
  0
ARC
  5
B698
330
1E
100
AcDbEntity
  8
002
100
AcDbCircle
 10
3533.317225264097
 20
-1936.225247405942
 30
0.0
 40
2.5
100
AcDbArc
 50
138.1896850000205
 51
221.8103149999794
  0
ARC
  5
B699
330
1E
100
AcDbEntity
  8
002
100
AcDbCircle
 10
3534.765345264098
 20
-1936.225247405942
 30
0.0
 40
2.5
100
AcDbArc
 50
138.1896850000205
 51
221.8103149999794
  0
ARC
  5
B69A
330
1E
100
AcDbEntity
  8
002
100
AcDbCircle
 10
3533.317225264097
 20
-1921.225247405942
 30
0.0
 40
2.5
100
AcDbArc
 50
138.1896850000205
 51
221.8103149999794
  0
ARC
  5
B69B
330
1E
100
AcDbEntity
  8
002
100
AcDbCircle
 10
3534.765345264098
 20
-1921.225247405942
 30
0.0
 40
2.5
100
AcDbArc
 50
138.1896850000205
 51
221.8103149999794
  0
ARC
  5
B69C
330
1E
100
AcDbEntity
  8
002
100
AcDbCircle
 10
3533.317225264097
 20
-1928.725247405942
 30
0.0
 40
2.5
100
AcDbArc
 50
318.1896850000205
 51
41.81031499997946
  0
ARC
  5
B69D
330
1E
100
AcDbEntity
  8
002
100
AcDbCircle
 10
3534.765345264098
 20
-1928.725247405942
 30
0.0
 40
2.5
100
AcDbArc
 50
318.1896850000205
 51
41.81031499997946
  0
LINE
  5
B69E
330
1E
100
AcDbEntity
  8
002
100
AcDbLine
 10
3535.180615264098
 20
-1915.391914405941
 30
0.0
 11
3531.453835264098
 21
-1919.558580405941
 31
0.0
  0
LINE
  5
B69F
330
1E
100
AcDbEntity
  8
002
100
AcDbLine
 10
3536.628735264098
 20
-1915.391914405941
 30
0.0
 11
3532.901955264097
 21
-1919.558580405941
 31
0.0
  0
LINE
  5
B6A0
330
1E
100
AcDbEntity
  8
002
100
AcDbLine
 10
3535.180615264098
 20
-1945.391914405941
 30
0.0
 11
3531.453835264098
 21
-1949.55858040594
 31
0.0
  0
LINE
  5
B6A1
330
1E
100
AcDbEntity
  8
002
100
AcDbLine
 10
3536.628735264098
 20
-1945.391914405941
 30
0.0
 11
3532.901955264097
 21
-1949.55858040594
 31
0.0
  0
ARC
  5
B6A2
330
1E
100
AcDbEntity
  8
002
100
AcDbCircle
 10
3533.317225264097
 20
-1943.725247405942
 30
0.0
 40
2.5
100
AcDbArc
 50
318.1896850000205
 51
41.81031499997946
  0
ARC
  5
B6A3
330
1E
100
AcDbEntity
  8
002
100
AcDbCircle
 10
3534.765345264098
 20
-1943.725247405942
 30
0.0
 40
2.5
100
AcDbArc
 50
318.1896850000205
 51
41.81031499997946
  0
LINE
  5
B6A4
330
1E
100
AcDbEntity
  8
002
100
AcDbLine
 10
3535.180615264098
 20
-1885.391914405941
 30
0.0
 11
3531.453835264098
 21
-1889.558580405941
 31
0.0
  0
LINE
  5
B6A5
330
1E
100
AcDbEntity
  8
002
100
AcDbLine
 10
3536.628735264098
 20
-1885.391914405941
 30
0.0
 11
3532.901955264097
 21
-1889.558580405941
 31
0.0
  0
ARC
  5
B6A6
330
1E
100
AcDbEntity
  8
002
100
AcDbCircle
 10
3628.317225264098
 20
-1951.225247405942
 30
0.0
 40
2.5
100
AcDbArc
 50
138.1896850000205
 51
221.8103149999794
  0
ARC
  5
B6A7
330
1E
100
AcDbEntity
  8
002
100
AcDbCircle
 10
3627.310800264098
 20
-1951.225247405942
 30
0.0
 40
2.5
100
AcDbArc
 50
138.1896850000205
 51
221.8103149999794
  0
LINE
  5
B6A8
330
1E
100
AcDbEntity
  8
002
100
AcDbLine
 10
3639.317225264098
 20
-1953.891914405942
 30
0.0
 11
3627.348262264098
 21
-1953.891914405942
 31
0.0
  0
ARC
  5
B6A9
330
1E
100
AcDbEntity
  8
002
100
AcDbCircle
 10
3627.310800264098
 20
-1958.725247405942
 30
0.0
 40
2.5
100
AcDbArc
 50
318.1896850000205
 51
41.81031499997946
  0
ARC
  5
B6AA
330
1E
100
AcDbEntity
  8
002
100
AcDbCircle
 10
3627.310800264098
 20
-1966.225247405942
 30
0.0
 40
2.5
100
AcDbArc
 50
138.1896850000205
 51
221.8103149999794
  0
LINE
  5
B6AB
330
1E
100
AcDbEntity
  8
002
100
AcDbLine
 10
3626.453835264098
 20
-1952.891914405942
 30
0.0
 11
3627.348262264098
 21
-1953.891914405942
 31
0.0
  0
LINE
  5
B6AC
330
1E
100
AcDbEntity
  8
002
100
AcDbLine
 10
3625.447410264097
 20
-1952.891914405942
 30
0.0
 11
3629.174190264098
 21
-1957.058580405941
 31
0.0
  0
LINE
  5
B6AD
330
1E
100
AcDbEntity
  8
002
100
AcDbLine
 10
3625.447410264097
 20
-1967.891914405941
 30
0.0
 11
3629.174190264098
 21
-1972.058580405941
 31
0.0
  0
LINE
  5
B6AE
330
1E
100
AcDbEntity
  8
002
100
AcDbLine
 10
3629.174190264098
 20
-1960.391914405941
 30
0.0
 11
3625.447410264097
 21
-1964.558580405941
 31
0.0
  0
ARC
  5
B6AF
330
1E
100
AcDbEntity
  8
002
100
AcDbCircle
 10
3627.310800264098
 20
-1988.725247405942
 30
0.0
 40
2.5
100
AcDbArc
 50
318.1896850000205
 51
41.81031499997946
  0
ARC
  5
B6B0
330
1E
100
AcDbEntity
  8
002
100
AcDbCircle
 10
3627.310800264098
 20
-1996.225247405942
 30
0.0
 40
2.5
100
AcDbArc
 50
138.1896850000205
 51
221.8103149999794
  0
ARC
  5
B6B1
330
1E
100
AcDbEntity
  8
002
100
AcDbCircle
 10
3627.310800264098
 20
-1981.225247405942
 30
0.0
 40
2.5
100
AcDbArc
 50
138.1896850000205
 51
221.8103149999794
  0
LINE
  5
B6B2
330
1E
100
AcDbEntity
  8
002
100
AcDbLine
 10
3625.447410264097
 20
-1997.891914405941
 30
0.0
 11
3629.174190264098
 21
-2002.058580405941
 31
0.0
  0
LINE
  5
B6B3
330
1E
100
AcDbEntity
  8
002
100
AcDbLine
 10
3625.447410264097
 20
-1982.891914405941
 30
0.0
 11
3629.174190264098
 21
-1987.058580405941
 31
0.0
  0
LINE
  5
B6B4
330
1E
100
AcDbEntity
  8
002
100
AcDbLine
 10
3629.174190264098
 20
-1990.391914405941
 30
0.0
 11
3625.447410264097
 21
-1994.558580405941
 31
0.0
  0
LINE
  5
B6B5
330
1E
100
AcDbEntity
  8
002
100
AcDbLine
 10
3629.174190264098
 20
-1975.391914405942
 30
0.0
 11
3625.447410264097
 21
-1979.558580405941
 31
0.0
  0
ARC
  5
B6B6
330
1E
100
AcDbEntity
  8
002
100
AcDbCircle
 10
3627.310800264098
 20
-1973.725247405942
 30
0.0
 40
2.5
100
AcDbArc
 50
318.1896850000205
 51
41.81031499997946
  0
ARC
  5
B6B7
330
1E
100
AcDbEntity
  8
002
100
AcDbCircle
 10
3627.310800264098
 20
-2018.725247405942
 30
0.0
 40
2.5
100
AcDbArc
 50
318.1896850000205
 51
41.81031499997946
  0
ARC
  5
B6B8
330
1E
100
AcDbEntity
  8
002
100
AcDbCircle
 10
3627.310800264098
 20
-2011.225247405942
 30
0.0
 40
2.5
100
AcDbArc
 50
138.1896850000205
 51
221.8103149999794
  0
ARC
  5
B6B9
330
1E
100
AcDbEntity
  8
002
100
AcDbCircle
 10
3627.310800264098
 20
-2026.225247405942
 30
0.0
 40
2.5
100
AcDbArc
 50
138.1896850000205
 51
221.8103149999794
  0
LINE
  5
B6BA
330
1E
100
AcDbEntity
  8
002
100
AcDbLine
 10
3625.447410264097
 20
-2027.891914405941
 30
0.0
 11
3629.174190264098
 21
-2032.058580405941
 31
0.0
  0
LINE
  5
B6BB
330
1E
100
AcDbEntity
  8
002
100
AcDbLine
 10
3629.174190264098
 20
-2005.391914405941
 30
0.0
 11
3625.447410264097
 21
-2009.558580405941
 31
0.0
  0
LINE
  5
B6BC
330
1E
100
AcDbEntity
  8
002
100
AcDbLine
 10
3625.447410264097
 20
-2012.891914405942
 30
0.0
 11
3629.174190264098
 21
-2017.058580405941
 31
0.0
  0
LINE
  5
B6BD
330
1E
100
AcDbEntity
  8
002
100
AcDbLine
 10
3629.174190264098
 20
-2020.391914405942
 30
0.0
 11
3625.447410264097
 21
-2024.55858040594
 31
0.0
  0
ARC
  5
B6BE
330
1E
100
AcDbEntity
  8
002
100
AcDbCircle
 10
3627.310800264098
 20
-2048.725247405942
 30
0.0
 40
2.5
100
AcDbArc
 50
318.1896850000205
 51
41.81031499997946
  0
ARC
  5
B6BF
330
1E
100
AcDbEntity
  8
002
100
AcDbCircle
 10
3627.310800264098
 20
-2056.225247405942
 30
0.0
 40
2.5
100
AcDbArc
 50
138.1896850000205
 51
221.8103149999794
  0
ARC
  5
B6C0
330
1E
100
AcDbEntity
  8
002
100
AcDbCircle
 10
3627.310800264098
 20
-2041.225247405942
 30
0.0
 40
2.5
100
AcDbArc
 50
138.1896850000205
 51
221.8103149999794
  0
LINE
  5
B6C1
330
1E
100
AcDbEntity
  8
002
100
AcDbLine
 10
3629.174190264098
 20
-2050.391914405941
 30
0.0
 11
3625.447410264097
 21
-2054.558580405941
 31
0.0
  0
LINE
  5
B6C2
330
1E
100
AcDbEntity
  8
002
100
AcDbLine
 10
3625.447410264097
 20
-2042.891914405941
 30
0.0
 11
3629.174190264098
 21
-2047.058580405941
 31
0.0
  0
LINE
  5
B6C3
330
1E
100
AcDbEntity
  8
002
100
AcDbLine
 10
3629.174190264098
 20
-2035.391914405941
 30
0.0
 11
3625.447410264097
 21
-2039.558580405941
 31
0.0
  0
ARC
  5
B6C4
330
1E
100
AcDbEntity
  8
002
100
AcDbCircle
 10
3627.310800264098
 20
-2033.725247405942
 30
0.0
 40
2.5
100
AcDbArc
 50
318.1896850000205
 51
41.81031499997946
  0
ARC
  5
B6C5
330
1E
100
AcDbEntity
  8
002
100
AcDbCircle
 10
3627.310800264098
 20
-2063.725247405942
 30
0.0
 40
2.5
100
AcDbArc
 50
318.1896850000205
 51
41.81031499997946
  0
LINE
  5
B6C6
330
1E
100
AcDbEntity
  8
002
100
AcDbLine
 10
3629.174190264098
 20
-2065.391914405942
 30
0.0
 11
3625.447410264097
 21
-2069.558580405941
 31
0.0
  0
LINE
  5
B6C7
330
1E
100
AcDbEntity
  8
002
100
AcDbLine
 10
3625.447410264097
 20
-2057.891914405942
 30
0.0
 11
3629.174190264098
 21
-2062.058580405941
 31
0.0
  0
ARC
  5
B6C8
330
1E
100
AcDbEntity
  8
002
100
AcDbCircle
 10
3627.310800264098
 20
-2003.725247405942
 30
0.0
 40
2.5
100
AcDbArc
 50
318.1896850000205
 51
41.81031499997946
  0
ARC
  5
B6C9
330
1E
100
AcDbEntity
  8
002
100
AcDbCircle
 10
3627.310800264098
 20
-1853.725247405942
 30
0.0
 40
2.5
100
AcDbArc
 50
318.1896850000205
 51
41.81031499997946
  0
ARC
  5
B6CA
330
1E
100
AcDbEntity
  8
002
100
AcDbCircle
 10
3628.317225264098
 20
-1853.725247405942
 30
0.0
 40
2.5
100
AcDbArc
 50
318.1896850000205
 51
41.81031499997946
  0
ARC
  5
B6CB
330
1E
100
AcDbEntity
  8
002
100
AcDbCircle
 10
3627.310800264098
 20
-1838.725247405942
 30
0.0
 40
2.5
100
AcDbArc
 50
318.1896850000205
 51
41.81031499997946
  0
ARC
  5
B6CC
330
1E
100
AcDbEntity
  8
002
100
AcDbCircle
 10
3628.317225264098
 20
-1838.725247405942
 30
0.0
 40
2.5
100
AcDbArc
 50
318.1896850000205
 51
41.81031499997946
  0
ARC
  5
B6CD
330
1E
100
AcDbEntity
  8
002
100
AcDbCircle
 10
3628.317225264098
 20
-1846.225247405942
 30
0.0
 40
2.5
100
AcDbArc
 50
138.1896850000205
 51
221.8103149999794
  0
ARC
  5
B6CE
330
1E
100
AcDbEntity
  8
002
100
AcDbCircle
 10
3627.310800264098
 20
-1846.225247405942
 30
0.0
 40
2.5
100
AcDbArc
 50
138.1896850000205
 51
221.8103149999794
  0
LINE
  5
B6CF
330
1E
100
AcDbEntity
  8
002
100
AcDbLine
 10
3626.453835264098
 20
-1847.891914405941
 30
0.0
 11
3630.180615264098
 21
-1852.058580405941
 31
0.0
  0
LINE
  5
B6D0
330
1E
100
AcDbEntity
  8
002
100
AcDbLine
 10
3625.447410264097
 20
-1847.891914405941
 30
0.0
 11
3629.174190264098
 21
-1852.058580405941
 31
0.0
  0
LINE
  5
B6D1
330
1E
100
AcDbEntity
  8
002
100
AcDbLine
 10
3630.180615264098
 20
-1840.391914405941
 30
0.0
 11
3626.453835264098
 21
-1844.558580405941
 31
0.0
  0
LINE
  5
B6D2
330
1E
100
AcDbEntity
  8
002
100
AcDbLine
 10
3629.174190264098
 20
-1840.391914405941
 30
0.0
 11
3625.447410264097
 21
-1844.558580405941
 31
0.0
  0
ARC
  5
B6D3
330
1E
100
AcDbEntity
  8
002
100
AcDbCircle
 10
3627.310800264098
 20
-1883.725247405942
 30
0.0
 40
2.5
100
AcDbArc
 50
318.1896850000205
 51
41.81031499997946
  0
ARC
  5
B6D4
330
1E
100
AcDbEntity
  8
002
100
AcDbCircle
 10
3628.317225264098
 20
-1883.725247405942
 30
0.0
 40
2.5
100
AcDbArc
 50
318.1896850000205
 51
41.81031499997946
  0
ARC
  5
B6D5
330
1E
100
AcDbEntity
  8
002
100
AcDbCircle
 10
3627.310800264098
 20
-1868.725247405942
 30
0.0
 40
2.5
100
AcDbArc
 50
318.1896850000205
 51
41.81031499997946
  0
ARC
  5
B6D6
330
1E
100
AcDbEntity
  8
002
100
AcDbCircle
 10
3628.317225264098
 20
-1868.725247405942
 30
0.0
 40
2.5
100
AcDbArc
 50
318.1896850000205
 51
41.81031499997946
  0
ARC
  5
B6D7
330
1E
100
AcDbEntity
  8
002
100
AcDbCircle
 10
3628.317225264098
 20
-1861.225247405942
 30
0.0
 40
2.5
100
AcDbArc
 50
138.1896850000205
 51
221.8103149999794
  0
ARC
  5
B6D8
330
1E
100
AcDbEntity
  8
002
100
AcDbCircle
 10
3627.310800264098
 20
-1861.225247405942
 30
0.0
 40
2.5
100
AcDbArc
 50
138.1896850000205
 51
221.8103149999794
  0
ARC
  5
B6D9
330
1E
100
AcDbEntity
  8
002
100
AcDbCircle
 10
3628.317225264098
 20
-1876.225247405942
 30
0.0
 40
2.5
100
AcDbArc
 50
138.1896850000205
 51
221.8103149999794
  0
ARC
  5
B6DA
330
1E
100
AcDbEntity
  8
002
100
AcDbCircle
 10
3627.310800264098
 20
-1876.225247405942
 30
0.0
 40
2.5
100
AcDbArc
 50
138.1896850000205
 51
221.8103149999794
  0
LINE
  5
B6DB
330
1E
100
AcDbEntity
  8
002
100
AcDbLine
 10
3626.453835264098
 20
-1877.891914405942
 30
0.0
 11
3630.180615264098
 21
-1882.058580405941
 31
0.0
  0
LINE
  5
B6DC
330
1E
100
AcDbEntity
  8
002
100
AcDbLine
 10
3625.447410264097
 20
-1877.891914405942
 30
0.0
 11
3629.174190264098
 21
-1882.058580405941
 31
0.0
  0
LINE
  5
B6DD
330
1E
100
AcDbEntity
  8
002
100
AcDbLine
 10
3626.453835264098
 20
-1862.891914405942
 30
0.0
 11
3630.180615264098
 21
-1867.058580405941
 31
0.0
  0
LINE
  5
B6DE
330
1E
100
AcDbEntity
  8
002
100
AcDbLine
 10
3630.180615264098
 20
-1870.391914405941
 30
0.0
 11
3626.453835264098
 21
-1874.55858040594
 31
0.0
  0
LINE
  5
B6DF
330
1E
100
AcDbEntity
  8
002
100
AcDbLine
 10
3629.174190264098
 20
-1870.391914405941
 30
0.0
 11
3625.447410264097
 21
-1874.55858040594
 31
0.0
  0
LINE
  5
B6E0
330
1E
100
AcDbEntity
  8
002
100
AcDbLine
 10
3625.447410264097
 20
-1862.891914405942
 30
0.0
 11
3629.174190264098
 21
-1867.058580405941
 31
0.0
  0
LINE
  5
B6E1
330
1E
100
AcDbEntity
  8
002
100
AcDbLine
 10
3630.180615264098
 20
-1855.391914405941
 30
0.0
 11
3626.453835264098
 21
-1859.558580405941
 31
0.0
  0
LINE
  5
B6E2
330
1E
100
AcDbEntity
  8
002
100
AcDbLine
 10
3629.174190264098
 20
-1855.391914405941
 30
0.0
 11
3625.447410264097
 21
-1859.558580405941
 31
0.0
  0
ARC
  5
B6E3
330
1E
100
AcDbEntity
  8
002
100
AcDbCircle
 10
3627.310800264098
 20
-1913.725247405942
 30
0.0
 40
2.5
100
AcDbArc
 50
318.1896850000205
 51
41.81031499997946
  0
ARC
  5
B6E4
330
1E
100
AcDbEntity
  8
002
100
AcDbCircle
 10
3628.317225264098
 20
-1913.725247405942
 30
0.0
 40
2.5
100
AcDbArc
 50
318.1896850000205
 51
41.81031499997946
  0
ARC
  5
B6E5
330
1E
100
AcDbEntity
  8
002
100
AcDbCircle
 10
3627.310800264098
 20
-1898.725247405942
 30
0.0
 40
2.5
100
AcDbArc
 50
318.1896850000205
 51
41.81031499997946
  0
ARC
  5
B6E6
330
1E
100
AcDbEntity
  8
002
100
AcDbCircle
 10
3628.317225264098
 20
-1898.725247405942
 30
0.0
 40
2.5
100
AcDbArc
 50
318.1896850000205
 51
41.81031499997946
  0
ARC
  5
B6E7
330
1E
100
AcDbEntity
  8
002
100
AcDbCircle
 10
3628.317225264098
 20
-1891.225247405942
 30
0.0
 40
2.5
100
AcDbArc
 50
138.1896850000205
 51
221.8103149999794
  0
ARC
  5
B6E8
330
1E
100
AcDbEntity
  8
002
100
AcDbCircle
 10
3627.310800264098
 20
-1891.225247405942
 30
0.0
 40
2.5
100
AcDbArc
 50
138.1896850000205
 51
221.8103149999794
  0
ARC
  5
B6E9
330
1E
100
AcDbEntity
  8
002
100
AcDbCircle
 10
3628.317225264098
 20
-1906.225247405942
 30
0.0
 40
2.5
100
AcDbArc
 50
138.1896850000205
 51
221.8103149999794
  0
ARC
  5
B6EA
330
1E
100
AcDbEntity
  8
002
100
AcDbCircle
 10
3627.310800264098
 20
-1906.225247405942
 30
0.0
 40
2.5
100
AcDbArc
 50
138.1896850000205
 51
221.8103149999794
  0
LINE
  5
B6EB
330
1E
100
AcDbEntity
  8
002
100
AcDbLine
 10
3626.453835264098
 20
-1892.891914405941
 30
0.0
 11
3630.180615264098
 21
-1897.058580405941
 31
0.0
  0
LINE
  5
B6EC
330
1E
100
AcDbEntity
  8
002
100
AcDbLine
 10
3625.447410264097
 20
-1892.891914405941
 30
0.0
 11
3629.174190264098
 21
-1897.058580405941
 31
0.0
  0
LINE
  5
B6ED
330
1E
100
AcDbEntity
  8
002
100
AcDbLine
 10
3626.453835264098
 20
-1907.891914405942
 30
0.0
 11
3630.180615264098
 21
-1912.058580405941
 31
0.0
  0
LINE
  5
B6EE
330
1E
100
AcDbEntity
  8
002
100
AcDbLine
 10
3625.447410264097
 20
-1907.891914405942
 30
0.0
 11
3629.174190264098
 21
-1912.058580405941
 31
0.0
  0
LINE
  5
B6EF
330
1E
100
AcDbEntity
  8
002
100
AcDbLine
 10
3630.180615264098
 20
-1900.391914405942
 30
0.0
 11
3626.453835264098
 21
-1904.558580405941
 31
0.0
  0
LINE
  5
B6F0
330
1E
100
AcDbEntity
  8
002
100
AcDbLine
 10
3629.174190264098
 20
-1900.391914405942
 30
0.0
 11
3625.447410264097
 21
-1904.558580405941
 31
0.0
  0
ARC
  5
B6F1
330
1E
100
AcDbEntity
  8
002
100
AcDbCircle
 10
3627.310800264098
 20
-1928.725247405942
 30
0.0
 40
2.5
100
AcDbArc
 50
318.1896850000205
 51
41.81031499997946
  0
ARC
  5
B6F2
330
1E
100
AcDbEntity
  8
002
100
AcDbCircle
 10
3628.317225264098
 20
-1928.725247405942
 30
0.0
 40
2.5
100
AcDbArc
 50
318.1896850000205
 51
41.81031499997946
  0
ARC
  5
B6F3
330
1E
100
AcDbEntity
  8
002
100
AcDbCircle
 10
3628.317225264098
 20
-1936.225247405942
 30
0.0
 40
2.5
100
AcDbArc
 50
138.1896850000205
 51
221.8103149999794
  0
ARC
  5
B6F4
330
1E
100
AcDbEntity
  8
002
100
AcDbCircle
 10
3627.310800264098
 20
-1936.225247405942
 30
0.0
 40
2.5
100
AcDbArc
 50
138.1896850000205
 51
221.8103149999794
  0
ARC
  5
B6F5
330
1E
100
AcDbEntity
  8
002
100
AcDbCircle
 10
3628.317225264098
 20
-1921.225247405942
 30
0.0
 40
2.5
100
AcDbArc
 50
138.1896850000205
 51
221.8103149999794
  0
ARC
  5
B6F6
330
1E
100
AcDbEntity
  8
002
100
AcDbCircle
 10
3627.310800264098
 20
-1921.225247405942
 30
0.0
 40
2.5
100
AcDbArc
 50
138.1896850000205
 51
221.8103149999794
  0
LINE
  5
B6F7
330
1E
100
AcDbEntity
  8
002
100
AcDbLine
 10
3626.453835264098
 20
-1937.891914405942
 30
0.0
 11
3630.180615264098
 21
-1942.058580405941
 31
0.0
  0
LINE
  5
B6F8
330
1E
100
AcDbEntity
  8
002
100
AcDbLine
 10
3625.447410264097
 20
-1937.891914405942
 30
0.0
 11
3629.174190264098
 21
-1942.058580405941
 31
0.0
  0
LINE
  5
B6F9
330
1E
100
AcDbEntity
  8
002
100
AcDbLine
 10
3630.180615264098
 20
-1930.391914405941
 30
0.0
 11
3626.453835264098
 21
-1934.558580405941
 31
0.0
  0
LINE
  5
B6FA
330
1E
100
AcDbEntity
  8
002
100
AcDbLine
 10
3626.453835264098
 20
-1922.891914405941
 30
0.0
 11
3630.180615264098
 21
-1927.058580405941
 31
0.0
  0
LINE
  5
B6FB
330
1E
100
AcDbEntity
  8
002
100
AcDbLine
 10
3625.447410264097
 20
-1922.891914405941
 30
0.0
 11
3629.174190264098
 21
-1927.058580405941
 31
0.0
  0
LINE
  5
B6FC
330
1E
100
AcDbEntity
  8
002
100
AcDbLine
 10
3629.174190264098
 20
-1930.391914405941
 30
0.0
 11
3625.447410264097
 21
-1934.558580405941
 31
0.0
  0
LINE
  5
B6FD
330
1E
100
AcDbEntity
  8
002
100
AcDbLine
 10
3630.180615264098
 20
-1915.391914405941
 30
0.0
 11
3626.453835264098
 21
-1919.558580405941
 31
0.0
  0
LINE
  5
B6FE
330
1E
100
AcDbEntity
  8
002
100
AcDbLine
 10
3629.174190264098
 20
-1915.391914405941
 30
0.0
 11
3625.447410264097
 21
-1919.558580405941
 31
0.0
  0
LINE
  5
B6FF
330
1E
100
AcDbEntity
  8
002
100
AcDbLine
 10
3630.180615264098
 20
-1945.391914405941
 30
0.0
 11
3626.453835264098
 21
-1949.55858040594
 31
0.0
  0
LINE
  5
B700
330
1E
100
AcDbEntity
  8
002
100
AcDbLine
 10
3629.174190264098
 20
-1945.391914405941
 30
0.0
 11
3625.447410264097
 21
-1949.55858040594
 31
0.0
  0
ARC
  5
B701
330
1E
100
AcDbEntity
  8
002
100
AcDbCircle
 10
3627.310800264098
 20
-1943.725247405942
 30
0.0
 40
2.5
100
AcDbArc
 50
318.1896850000205
 51
41.81031499997946
  0
ARC
  5
B702
330
1E
100
AcDbEntity
  8
002
100
AcDbCircle
 10
3628.317225264098
 20
-1943.725247405942
 30
0.0
 40
2.5
100
AcDbArc
 50
318.1896850000205
 51
41.81031499997946
  0
LINE
  5
B703
330
1E
100
AcDbEntity
  8
002
100
AcDbLine
 10
3630.180615264098
 20
-1885.391914405941
 30
0.0
 11
3626.453835264098
 21
-1889.558580405941
 31
0.0
  0
LINE
  5
B704
330
1E
100
AcDbEntity
  8
002
100
AcDbLine
 10
3629.174190264098
 20
-1885.391914405941
 30
0.0
 11
3625.447410264097
 21
-1889.558580405941
 31
0.0
  0
LINE
  5
B705
330
1E
100
AcDbEntity
  8
002
100
AcDbLine
 10
3555.087752264098
 20
-1715.891914405941
 30
0.0
 11
3590.317225264097
 21
-1715.891914405941
 31
0.0
  0
LINE
  5
B706
330
1E
100
AcDbEntity
  8
002
100
AcDbLine
 10
3554.830910264098
 20
-1715.891914405941
 30
0.0
 11
3590.060383264098
 21
-1715.891914405941
 31
0.0
  0
LINE
  5
B707
330
1E
100
AcDbEntity
  8
002
100
AcDbLine
 10
3561.087752264098
 20
-1655.891914405942
 30
0.0
 11
3584.317225264098
 21
-1655.891914405942
 31
0.0
  0
LINE
  5
B708
330
1E
100
AcDbEntity
  8
002
100
AcDbLine
 10
3561.087752264098
 20
-1655.891914405942
 30
0.0
 11
3584.317225264098
 21
-1655.891914405942
 31
0.0
  0
LINE
  5
B709
330
1E
100
AcDbEntity
  8
002
100
AcDbLine
 10
3605.356254264098
 20
-1772.891914405941
 30
0.0
 11
3537.265345264098
 21
-1778.725247405942
 31
0.0
  0
LINE
  5
B70A
330
1E
100
AcDbEntity
  8
002
100
AcDbLine
 10
3624.810800264098
 20
-1786.225247405942
 30
0.0
 11
3537.265345264098
 21
-1793.725247405942
 31
0.0
  0
LINE
  5
B70B
330
1E
100
AcDbEntity
  8
002
100
AcDbLine
 10
3629.810800264098
 20
-1793.725247405942
 30
0.0
 11
3532.265345264097
 21
-1801.225247405942
 31
0.0
  0
LINE
  5
B70C
330
1E
100
AcDbEntity
  8
002
100
AcDbLine
 10
3629.810800264098
 20
-1808.725247405942
 30
0.0
 11
3532.265345264097
 21
-1816.225247405942
 31
0.0
  0
LINE
  5
B70D
330
1E
100
AcDbEntity
  8
002
100
AcDbLine
 10
3624.810800264098
 20
-1816.225247405942
 30
0.0
 11
3537.265345264098
 21
-1823.725247405942
 31
0.0
  0
LINE
  5
B70E
330
1E
100
AcDbEntity
  8
002
100
AcDbLine
 10
3624.810800264098
 20
-1801.225247405942
 30
0.0
 11
3537.265345264098
 21
-1808.725247405942
 31
0.0
  0
LINE
  5
B70F
330
1E
100
AcDbEntity
  8
002
100
AcDbLine
 10
3629.810800264098
 20
-1823.725247405942
 30
0.0
 11
3532.265345264097
 21
-1831.225247405942
 31
0.0
  0
LINE
  5
B710
330
1E
100
AcDbEntity
  8
002
100
AcDbLine
 10
3629.810800264098
 20
-1778.725247405942
 30
0.0
 11
3532.265345264097
 21
-1786.225247405942
 31
0.0
  0
LINE
  5
B711
330
1E
100
AcDbEntity
  8
002
100
AcDbLine
 10
3532.901955264097
 20
-1772.891914405941
 30
0.0
 11
3625.447410264097
 21
-1772.891914405941
 31
0.0
  0
LINE
  5
B712
330
1E
100
AcDbEntity
  8
002
100
AcDbLine
 10
3501.817225264097
 20
-1714.391914405942
 30
0.0
 11
3500.817225264098
 21
-1715.391914405941
 31
0.0
  0
LINE
  5
B713
330
1E
100
AcDbEntity
  8
002
100
AcDbLine
 10
3503.317225264098
 20
-1715.891914405941
 30
0.0
 11
3502.771270264098
 21
-1714.391914405942
 31
0.0
  0
LINE
  5
B714
330
1E
100
AcDbEntity
  8
002
100
AcDbLine
 10
3499.817225264097
 20
-1705.293837405941
 30
0.0
 11
3499.817225264097
 21
-1737.891914405942
 31
0.0
  0
LINE
  5
B715
330
1E
100
AcDbEntity
  8
002
100
AcDbLine
 10
3499.817225264097
 20
-1705.293837405941
 30
0.0
 11
3499.817225264097
 21
-1737.025888405942
 31
0.0
  0
LINE
  5
B716
330
1E
100
AcDbEntity
  8
002
100
AcDbLine
 10
3498.317225264098
 20
-1707.891914405942
 30
0.0
 11
3498.317225264098
 21
-1737.891914405942
 31
0.0
  0
LINE
  5
B717
330
1E
100
AcDbEntity
  8
002
100
AcDbLine
 10
3498.317225264098
 20
-1707.891914405942
 30
0.0
 11
3498.317225264098
 21
-1737.891914405942
 31
0.0
  0
LINE
  5
B718
330
1E
100
AcDbEntity
  8
002
100
AcDbLine
 10
3505.817225264098
 20
-1714.891914405941
 30
0.0
 11
3505.817225264098
 21
-1697.33528940594
 31
0.0
  0
LINE
  5
B719
330
1E
100
AcDbEntity
  8
002
100
AcDbLine
 10
3541.237752264098
 20
-1748.213066405942
 30
0.0
 11
3553.937752264098
 21
-1676.187787405941
 31
0.0
  0
LINE
  5
B71A
330
1E
100
AcDbEntity
  8
002
100
AcDbLine
 10
3540.087752264098
 20
-1710.891914405942
 30
0.0
 11
3539.473829264098
 21
-1715.891914405941
 31
0.0
  0
LINE
  5
B71B
330
1E
100
AcDbEntity
  8
002
100
AcDbLine
 10
3555.087752264098
 20
-1710.891914405942
 30
0.0
 11
3555.701675264098
 21
-1715.891914405941
 31
0.0
  0
LINE
  5
B71C
330
1E
100
AcDbEntity
  8
002
100
AcDbLine
 10
3503.317225264098
 20
-1715.891914405941
 30
0.0
 11
3540.087752264098
 21
-1715.891914405941
 31
0.0
  0
LINE
  5
B71D
330
1E
100
AcDbEntity
  8
002
100
AcDbLine
 10
3526.317225264097
 20
-1772.891914405941
 30
0.0
 11
3531.453835264098
 21
-1772.891914405941
 31
0.0
  0
LINE
  5
B71E
330
1E
100
AcDbEntity
  8
002
100
AcDbLine
 10
3525.817225264098
 20
-1715.891914405941
 30
0.0
 11
3525.817225264098
 21
-1737.891914405942
 31
0.0
  0
LINE
  5
B71F
330
1E
100
AcDbEntity
  8
002
100
AcDbLine
 10
3526.317225264097
 20
-1767.891914405941
 30
0.0
 11
3528.817225264098
 21
-1767.891914405941
 31
0.0
  0
LINE
  5
B720
330
1E
100
AcDbEntity
  8
002
100
AcDbLine
 10
3528.817225264098
 20
-1715.891914405941
 30
0.0
 11
3528.817225264098
 21
-1767.891914405941
 31
0.0
  0
LINE
  5
B721
330
1E
100
AcDbEntity
  8
002
100
AcDbLine
 10
3524.317225264098
 20
-1715.891914405941
 30
0.0
 11
3524.317225264098
 21
-1737.891914405942
 31
0.0
  0
LINE
  5
B722
330
1E
100
AcDbEntity
  8
002
100
AcDbLine
 10
3505.817225264098
 20
-1714.891914405941
 30
0.0
 11
3506.817225264097
 21
-1715.891914405941
 31
0.0
  0
LINE
  5
B723
330
1E
100
AcDbEntity
  8
002
100
AcDbLine
 10
3499.817225264097
 20
-1716.391914405942
 30
0.0
 11
3498.317225264098
 21
-1717.257939405941
 31
0.0
  0
LINE
  5
B724
330
1E
100
AcDbEntity
  8
002
100
AcDbLine
 10
3499.817225264097
 20
-1737.891914405942
 30
0.0
 11
3498.317225264098
 21
-1737.025888405942
 31
0.0
  0
LINE
  5
B725
330
1E
100
AcDbEntity
  8
002
100
AcDbLine
 10
3499.843507264098
 20
-1737.010714405942
 30
0.0
 11
3498.317225264098
 21
-1737.891914405942
 31
0.0
  0
LINE
  5
B726
330
1E
100
AcDbEntity
  8
002
100
AcDbLine
 10
3499.817225264097
 20
-1716.391914405942
 30
0.0
 11
3500.817225264098
 21
-1716.391914405942
 31
0.0
  0
LINE
  5
B727
330
1E
100
AcDbEntity
  8
002
100
AcDbLine
 10
3500.817225264098
 20
-1715.391914405941
 30
0.0
 11
3500.817225264098
 21
-1716.391914405942
 31
0.0
  0
LINE
  5
B728
330
1E
100
AcDbEntity
  8
002
100
AcDbLine
 10
3516.317225264098
 20
-1737.891914405942
 30
0.0
 11
3516.317225264098
 21
-1762.891914405942
 31
0.0
  0
LINE
  5
B729
330
1E
100
AcDbEntity
  8
002
100
AcDbLine
 10
3524.317225264098
 20
-1715.891914405941
 30
0.0
 11
3525.817225264098
 21
-1716.757939405941
 31
0.0
  0
LINE
  5
B72A
330
1E
100
AcDbEntity
  8
002
100
AcDbLine
 10
3525.817225264098
 20
-1715.891914405941
 30
0.0
 11
3524.317225264098
 21
-1716.757939405941
 31
0.0
  0
LINE
  5
B72B
330
1E
100
AcDbEntity
  8
002
100
AcDbLine
 10
3524.317225264098
 20
-1737.891914405942
 30
0.0
 11
3525.817225264098
 21
-1737.025888405942
 31
0.0
  0
LINE
  5
B72C
330
1E
100
AcDbEntity
  8
003
 62
     3
100
AcDbLine
 10
3515.417225264098
 20
-1762.891914405942
 30
0.0
 11
3515.417225264098
 21
-1784.891914405942
 31
0.0
  0
LINE
  5
B72D
330
1E
100
AcDbEntity
  8
003
 62
     3
100
AcDbLine
 10
3515.417225264098
 20
-1762.891914405942
 30
0.0
 11
3515.417225264098
 21
-1784.891914405942
 31
0.0
  0
LINE
  5
B72E
330
1E
100
AcDbEntity
  8
002
100
AcDbLine
 10
3526.317225264097
 20
-1767.891914405941
 30
0.0
 11
3526.317225264097
 21
-1772.891914405941
 31
0.0
  0
LINE
  5
B72F
330
1E
100
AcDbEntity
  8
002
100
AcDbLine
 10
3531.453835264098
 20
-1772.891914405941
 30
0.0
 11
3535.180615264098
 21
-1777.058580405941
 31
0.0
  0
LINE
  5
B730
330
1E
100
AcDbEntity
  8
002
100
AcDbLine
 10
3532.901955264097
 20
-1772.891914405941
 30
0.0
 11
3536.628735264098
 21
-1777.058580405941
 31
0.0
  0
LINE
  5
B731
330
1E
100
AcDbEntity
  8
002
100
AcDbLine
 10
3535.180615264098
 20
-1780.391914405941
 30
0.0
 11
3531.453835264098
 21
-1784.558580405941
 31
0.0
  0
LINE
  5
B732
330
1E
100
AcDbEntity
  8
002
100
AcDbLine
 10
3536.628735264098
 20
-1780.391914405941
 30
0.0
 11
3532.901955264097
 21
-1784.558580405941
 31
0.0
  0
LINE
  5
B733
330
1E
100
AcDbEntity
  8
002
100
AcDbLine
 10
3531.453835264098
 20
-1787.891914405942
 30
0.0
 11
3535.180615264098
 21
-1792.058580405941
 31
0.0
  0
LINE
  5
B734
330
1E
100
AcDbEntity
  8
002
100
AcDbLine
 10
3532.901955264097
 20
-1787.891914405942
 30
0.0
 11
3536.628735264098
 21
-1792.058580405941
 31
0.0
  0
ARC
  5
B735
330
1E
100
AcDbEntity
  8
002
100
AcDbCircle
 10
3533.317225264097
 20
-1786.225247405942
 30
0.0
 40
2.5
100
AcDbArc
 50
138.1896850000205
 51
221.8103149999794
  0
ARC
  5
B736
330
1E
100
AcDbEntity
  8
002
100
AcDbCircle
 10
3534.765345264098
 20
-1786.225247405942
 30
0.0
 40
2.5
100
AcDbArc
 50
138.1896850000205
 51
221.8103149999794
  0
ARC
  5
B737
330
1E
100
AcDbEntity
  8
002
100
AcDbCircle
 10
3533.317225264097
 20
-1778.725247405942
 30
0.0
 40
2.5
100
AcDbArc
 50
318.1896850000205
 51
41.81031499997946
  0
ARC
  5
B738
330
1E
100
AcDbEntity
  8
002
100
AcDbCircle
 10
3534.765345264098
 20
-1778.725247405942
 30
0.0
 40
2.5
100
AcDbArc
 50
318.1896850000205
 51
41.81031499997946
  0
ARC
  5
B739
330
1E
100
AcDbEntity
  8
002
100
AcDbCircle
 10
3533.317225264097
 20
-1793.725247405942
 30
0.0
 40
2.5
100
AcDbArc
 50
318.1896850000205
 51
41.81031499997946
  0
ARC
  5
B73A
330
1E
100
AcDbEntity
  8
002
100
AcDbCircle
 10
3534.765345264098
 20
-1793.725247405942
 30
0.0
 40
2.5
100
AcDbArc
 50
318.1896850000205
 51
41.81031499997946
  0
LINE
  5
B73B
330
1E
100
AcDbEntity
  8
002
100
AcDbLine
 10
3535.180615264098
 20
-1810.391914405941
 30
0.0
 11
3531.453835264098
 21
-1814.558580405941
 31
0.0
  0
LINE
  5
B73C
330
1E
100
AcDbEntity
  8
002
100
AcDbLine
 10
3531.453835264098
 20
-1802.891914405941
 30
0.0
 11
3535.180615264098
 21
-1807.058580405941
 31
0.0
  0
LINE
  5
B73D
330
1E
100
AcDbEntity
  8
002
100
AcDbLine
 10
3536.628735264098
 20
-1810.391914405941
 30
0.0
 11
3532.901955264097
 21
-1814.558580405941
 31
0.0
  0
LINE
  5
B73E
330
1E
100
AcDbEntity
  8
002
100
AcDbLine
 10
3532.901955264097
 20
-1802.891914405941
 30
0.0
 11
3536.628735264098
 21
-1807.058580405941
 31
0.0
  0
LINE
  5
B73F
330
1E
100
AcDbEntity
  8
002
100
AcDbLine
 10
3531.453835264098
 20
-1817.891914405941
 30
0.0
 11
3535.180615264098
 21
-1822.058580405941
 31
0.0
  0
LINE
  5
B740
330
1E
100
AcDbEntity
  8
002
100
AcDbLine
 10
3532.901955264097
 20
-1817.891914405941
 30
0.0
 11
3536.628735264098
 21
-1822.058580405941
 31
0.0
  0
ARC
  5
B741
330
1E
100
AcDbEntity
  8
002
100
AcDbCircle
 10
3533.317225264097
 20
-1801.225247405942
 30
0.0
 40
2.5
100
AcDbArc
 50
138.1896850000205
 51
221.8103149999794
  0
ARC
  5
B742
330
1E
100
AcDbEntity
  8
002
100
AcDbCircle
 10
3534.765345264098
 20
-1801.225247405942
 30
0.0
 40
2.5
100
AcDbArc
 50
138.1896850000205
 51
221.8103149999794
  0
ARC
  5
B743
330
1E
100
AcDbEntity
  8
002
100
AcDbCircle
 10
3533.317225264097
 20
-1816.225247405942
 30
0.0
 40
2.5
100
AcDbArc
 50
138.1896850000205
 51
221.8103149999794
  0
ARC
  5
B744
330
1E
100
AcDbEntity
  8
002
100
AcDbCircle
 10
3534.765345264098
 20
-1816.225247405942
 30
0.0
 40
2.5
100
AcDbArc
 50
138.1896850000205
 51
221.8103149999794
  0
ARC
  5
B745
330
1E
100
AcDbEntity
  8
002
100
AcDbCircle
 10
3533.317225264097
 20
-1808.725247405942
 30
0.0
 40
2.5
100
AcDbArc
 50
318.1896850000205
 51
41.81031499997946
  0
ARC
  5
B746
330
1E
100
AcDbEntity
  8
002
100
AcDbCircle
 10
3534.765345264098
 20
-1808.725247405942
 30
0.0
 40
2.5
100
AcDbArc
 50
318.1896850000205
 51
41.81031499997946
  0
ARC
  5
B747
330
1E
100
AcDbEntity
  8
002
100
AcDbCircle
 10
3533.317225264097
 20
-1823.725247405942
 30
0.0
 40
2.5
100
AcDbArc
 50
318.1896850000205
 51
41.81031499997946
  0
ARC
  5
B748
330
1E
100
AcDbEntity
  8
002
100
AcDbCircle
 10
3534.765345264098
 20
-1823.725247405942
 30
0.0
 40
2.5
100
AcDbArc
 50
318.1896850000205
 51
41.81031499997946
  0
LINE
  5
B749
330
1E
100
AcDbEntity
  8
002
100
AcDbLine
 10
3535.180615264098
 20
-1795.391914405942
 30
0.0
 11
3531.453835264098
 21
-1799.558580405941
 31
0.0
  0
LINE
  5
B74A
330
1E
100
AcDbEntity
  8
002
100
AcDbLine
 10
3536.628735264098
 20
-1795.391914405942
 30
0.0
 11
3532.901955264097
 21
-1799.558580405941
 31
0.0
  0
ARC
  5
B74B
330
1E
100
AcDbEntity
  8
002
100
AcDbCircle
 10
3533.317225264097
 20
-1831.225247405942
 30
0.0
 40
2.5
100
AcDbArc
 50
138.1896850000205
 51
221.8103149999794
  0
ARC
  5
B74C
330
1E
100
AcDbEntity
  8
002
100
AcDbCircle
 10
3534.765345264098
 20
-1831.225247405942
 30
0.0
 40
2.5
100
AcDbArc
 50
138.1896850000205
 51
221.8103149999794
  0
LINE
  5
B74D
330
1E
100
AcDbEntity
  8
002
100
AcDbLine
 10
3535.180615264098
 20
-1825.391914405942
 30
0.0
 11
3531.453835264098
 21
-1829.558580405941
 31
0.0
  0
LINE
  5
B74E
330
1E
100
AcDbEntity
  8
002
100
AcDbLine
 10
3536.628735264098
 20
-1825.391914405942
 30
0.0
 11
3532.901955264097
 21
-1829.558580405941
 31
0.0
  0
LINE
  5
B74F
330
1E
100
AcDbEntity
  8
002
100
AcDbLine
 10
3547.040471264097
 20
-1772.891914405941
 30
0.0
 11
3553.937752264098
 21
-1733.775492405941
 31
0.0
  0
LINE
  5
B750
330
1E
100
AcDbEntity
  8
002
100
AcDbLine
 10
3509.817225264098
 20
-1655.891914405942
 30
0.0
 11
3534.087752264098
 21
-1655.891914405942
 31
0.0
  0
ARC
  5
B751
330
1E
100
AcDbEntity
  8
002
100
AcDbCircle
 10
3500.908398264098
 20
-1628.323735405942
 30
0.0
 40
5.0
100
AcDbArc
 50
327.9511519999843
 51
356.6725960000098
  0
ARC
  5
B752
330
1E
100
AcDbEntity
  8
002
100
AcDbCircle
 10
3495.899838264097
 20
-1628.32575240594
 30
0.0
 40
5.0
100
AcDbArc
 50
327.99461699996
 51
356.6725960000098
  0
LINE
  5
B753
330
1E
100
AcDbEntity
  8
002
100
AcDbLine
 10
3500.139829264098
 20
-1630.975747405942
 30
0.0
 11
3496.367812264098
 21
-1637.01097440594
 31
0.0
  0
ARC
  5
B754
330
1E
100
AcDbEntity
  8
002
100
AcDbCircle
 10
3500.607804264098
 20
-1639.660968405942
 30
0.0
 40
5.0
100
AcDbArc
 50
147.99461699996
 51
171.4692340000353
  0
ARC
  5
B755
330
1E
100
AcDbEntity
  8
002
100
AcDbCircle
 10
3505.817225264098
 20
-1639.327947405941
 30
0.0
 40
5.0
100
AcDbArc
 50
147.9511519999843
 51
180.0
  0
LINE
  5
B756
330
1E
100
AcDbEntity
  8
002
100
AcDbLine
 10
3505.146378264098
 20
-1630.976946405941
 30
0.0
 11
3501.579245264098
 21
-1636.674737405941
 31
0.0
  0
LINE
  5
B757
330
1E
100
AcDbEntity
  8
002
100
AcDbLine
 10
3509.817225264098
 20
-1655.891914405942
 30
0.0
 11
3508.317225264097
 21
-1657.391914405942
 31
0.0
  0
LWPOLYLINE
  5
B758
330
1E
100
AcDbEntity
  8
001
100
AcDbPolyline
 90
        3
 70
     0
 43
0.0
 10
3500.905962264098
 20
-1672.944864405941
 10
3508.317225264097
 20
-1676.641914405942
 10
3503.747408264097
 20
-1669.734544405941
  0
LINE
  5
B759
330
1E
100
AcDbEntity
  8
002
100
AcDbLine
 10
3508.317225264097
 20
-1695.891914405941
 30
0.0
 11
3505.817225264098
 21
-1697.33528940594
 31
0.0
  0
LINE
  5
B75A
330
1E
100
AcDbEntity
  8
002
100
AcDbLine
 10
3499.817225264097
 20
-1705.293837405941
 30
0.0
 11
3500.817225264098
 21
-1705.293837405941
 31
0.0
  0
LINE
  5
B75B
330
1E
100
AcDbEntity
  8
002
100
AcDbLine
 10
3499.805446264097
 20
-1705.314239405941
 30
0.0
 11
3498.317225264098
 21
-1707.891914405942
 31
0.0
  0
LINE
  5
B75C
330
1E
100
AcDbEntity
  8
002
100
AcDbLine
 10
3508.317225264097
 20
-1657.391914405942
 30
0.0
 11
3508.317225264097
 21
-1695.891914405941
 31
0.0
  0
LINE
  5
B75D
330
1E
100
AcDbEntity
  8
002
100
AcDbLine
 10
3501.817225264097
 20
-1714.391914405942
 30
0.0
 11
3504.435012264098
 21
-1714.391914405942
 31
0.0
  0
LINE
  5
B75E
330
1E
100
AcDbEntity
  8
002
100
AcDbLine
 10
3500.817225264098
 20
-1639.327947405941
 30
0.0
 11
3500.817225264098
 21
-1705.293837405941
 31
0.0
  0
LINE
  5
B75F
330
1E
100
AcDbEntity
  8
002
100
AcDbLine
 10
3560.390958264098
 20
-1652.891914405941
 30
0.0
 11
3554.437752264098
 21
-1652.891914405941
 31
0.0
  0
LINE
  5
B760
330
1E
100
AcDbEntity
  8
002
100
AcDbLine
 10
3560.390958264098
 20
-1652.891914405941
 30
0.0
 11
3554.437752264098
 21
-1652.891914405941
 31
0.0
  0
LINE
  5
B761
330
1E
100
AcDbEntity
  8
002
100
AcDbLine
 10
3554.437752264098
 20
-1652.891914405941
 30
0.0
 11
3553.937752264098
 21
-1653.180589405941
 31
0.0
  0
LINE
  5
B762
330
1E
100
AcDbEntity
  8
002
100
AcDbLine
 10
3554.437752264098
 20
-1652.891914405941
 30
0.0
 11
3553.937752264098
 21
-1653.180589405941
 31
0.0
  0
LINE
  5
B763
330
1E
100
AcDbEntity
  8
002
100
AcDbLine
 10
3534.784545264098
 20
-1652.891914405941
 30
0.0
 11
3540.737752264098
 21
-1652.891914405941
 31
0.0
  0
LINE
  5
B764
330
1E
100
AcDbEntity
  8
002
100
AcDbLine
 10
3534.784545264098
 20
-1652.891914405941
 30
0.0
 11
3540.737752264098
 21
-1652.891914405941
 31
0.0
  0
LINE
  5
B765
330
1E
100
AcDbEntity
  8
002
100
AcDbLine
 10
3540.737752264098
 20
-1652.891914405941
 30
0.0
 11
3541.237752264098
 21
-1653.180589405941
 31
0.0
  0
LINE
  5
B766
330
1E
100
AcDbEntity
  8
002
100
AcDbLine
 10
3540.737752264098
 20
-1652.891914405941
 30
0.0
 11
3541.237752264098
 21
-1653.180589405941
 31
0.0
  0
LINE
  5
B767
330
1E
100
AcDbEntity
  8
002
100
AcDbLine
 10
3560.526817264098
 20
-1656.388187405941
 30
0.0
 11
3561.087752264098
 21
-1655.891914405942
 31
0.0
  0
LINE
  5
B768
330
1E
100
AcDbEntity
  8
002
100
AcDbLine
 10
3560.526817264098
 20
-1656.388187405941
 30
0.0
 11
3561.087752264098
 21
-1655.891914405942
 31
0.0
  0
LINE
  5
B769
330
1E
100
AcDbEntity
  8
002
100
AcDbLine
 10
3534.648686264098
 20
-1656.388187405941
 30
0.0
 11
3534.087752264098
 21
-1655.891914405942
 31
0.0
  0
LINE
  5
B76A
330
1E
100
AcDbEntity
  8
002
100
AcDbLine
 10
3534.648686264098
 20
-1656.388187405941
 30
0.0
 11
3534.087752264098
 21
-1655.891914405942
 31
0.0
  0
ARC
  5
B76B
330
1E
100
AcDbEntity
  8
002
100
AcDbCircle
 10
3555.290381264097
 20
-1692.039285405941
 30
0.0
 40
0.8526290000000001
100
AcDbArc
 50
209.9999999999972
 51
353.0000000000202
  0
LINE
  5
B76C
330
1E
100
AcDbEntity
  8
002
100
AcDbLine
 10
3554.551982264098
 20
-1692.465599405941
 30
0.0
 11
3553.937752264098
 21
-1691.401720405941
 31
0.0
  0
LINE
  5
B76D
330
1E
100
AcDbEntity
  8
002
100
AcDbLine
 10
3555.087752264098
 20
-1700.685819405942
 30
0.0
 11
3555.087752264098
 21
-1710.891914405942
 31
0.0
  0
ARC
  5
B76E
330
1E
100
AcDbEntity
  8
002
100
AcDbCircle
 10
3539.885123264098
 20
-1692.039285405941
 30
0.0
 40
0.8526290000000001
100
AcDbArc
 50
186.9999999999797
 51
330.0000000000027
  0
LINE
  5
B76F
330
1E
100
AcDbEntity
  8
002
100
AcDbLine
 10
3540.087752264098
 20
-1700.685819405942
 30
0.0
 11
3540.087752264098
 21
-1710.891914405942
 31
0.0
  0
LINE
  5
B770
330
1E
100
AcDbEntity
  8
002
100
AcDbLine
 10
3540.623521264098
 20
-1692.465599405941
 30
0.0
 11
3541.237752264098
 21
-1691.401720405941
 31
0.0
  0
LINE
  5
B771
330
1E
100
AcDbEntity
  8
002
100
AcDbLine
 10
3560.887231264097
 20
-1653.452848405941
 30
0.0
 11
3555.087752264098
 21
-1700.685819405942
 31
0.0
  0
LINE
  5
B772
330
1E
100
AcDbEntity
  8
002
100
AcDbLine
 10
3534.288272264098
 20
-1653.452848405941
 30
0.0
 11
3540.087752264098
 21
-1700.685819405942
 31
0.0
  0
LINE
  5
B773
330
1E
100
AcDbEntity
  8
002
100
AcDbLine
 10
3554.437752264098
 20
-1692.267746405941
 30
0.0
 11
3554.437752264098
 21
-1652.891914405941
 31
0.0
  0
LINE
  5
B774
330
1E
100
AcDbEntity
  8
002
100
AcDbLine
 10
3540.737752264098
 20
-1692.267746405941
 30
0.0
 11
3540.737752264098
 21
-1652.891914405941
 31
0.0
  0
LINE
  5
B775
330
1E
100
AcDbEntity
  8
002
100
AcDbLine
 10
3541.237752264098
 20
-1690.625361405942
 30
0.0
 11
3553.937752264098
 21
-1618.600082405941
 31
0.0
  0
ARC
  5
B776
330
1E
100
AcDbEntity
  8
002
100
AcDbCircle
 10
3534.784545264098
 20
-1653.391914405941
 30
0.0
 40
0.5
100
AcDbArc
 50
90.0
 51
186.9999999999797
  0
ARC
  5
B777
330
1E
100
AcDbEntity
  8
002
100
AcDbCircle
 10
3534.784545264098
 20
-1653.391914405941
 30
0.0
 40
0.5
100
AcDbArc
 50
90.0
 51
186.9999999999797
  0
ARC
  5
B778
330
1E
100
AcDbEntity
  8
002
100
AcDbCircle
 10
3560.390958264098
 20
-1653.391914405941
 30
0.0
 40
0.5
100
AcDbArc
 50
353.0000000000202
 51
90.0
  0
ARC
  5
B779
330
1E
100
AcDbEntity
  8
002
100
AcDbCircle
 10
3560.390958264098
 20
-1653.391914405941
 30
0.0
 40
0.5
100
AcDbArc
 50
353.0000000000202
 51
90.0
  0
LINE
  5
B77A
330
1E
100
AcDbEntity
  8
002
100
AcDbLine
 10
3591.467225264098
 20
-1751.286091405942
 30
0.0
 11
3604.167225264097
 21
-1679.26081240594
 31
0.0
  0
LINE
  5
B77B
330
1E
100
AcDbEntity
  8
002
100
AcDbLine
 10
3590.317225264097
 20
-1710.891914405942
 30
0.0
 11
3589.703302264098
 21
-1715.891914405941
 31
0.0
  0
LINE
  5
B77C
330
1E
100
AcDbEntity
  8
002
100
AcDbLine
 10
3605.317225264098
 20
-1710.891914405942
 30
0.0
 11
3605.931148264098
 21
-1715.891914405941
 31
0.0
  0
LINE
  5
B77D
330
1E
100
AcDbEntity
  8
002
100
AcDbLine
 10
3597.811802264097
 20
-1772.891914405941
 30
0.0
 11
3604.167225264097
 21
-1736.848516405942
 31
0.0
  0
LINE
  5
B77E
330
1E
100
AcDbEntity
  8
002
100
AcDbLine
 10
3635.817225264098
 20
-1715.891914405941
 30
0.0
 11
3635.817225264098
 21
-1737.891914405942
 31
0.0
  0
LINE
  5
B77F
330
1E
100
AcDbEntity
  8
002
100
AcDbLine
 10
3637.317225264097
 20
-1715.891914405941
 30
0.0
 11
3637.317225264097
 21
-1737.891914405942
 31
0.0
  0
LINE
  5
B780
330
1E
100
AcDbEntity
  8
002
100
AcDbLine
 10
3635.817225264098
 20
-1715.891914405941
 30
0.0
 11
3637.317225264097
 21
-1716.757939405941
 31
0.0
  0
LINE
  5
B781
330
1E
100
AcDbEntity
  8
002
100
AcDbLine
 10
3637.317225264097
 20
-1715.891914405941
 30
0.0
 11
3635.817225264098
 21
-1716.757939405941
 31
0.0
  0
LINE
  5
B782
330
1E
100
AcDbEntity
  8
002
100
AcDbLine
 10
3637.317225264097
 20
-1737.891914405942
 30
0.0
 11
3635.817225264098
 21
-1737.025888405942
 31
0.0
  0
LINE
  5
B783
330
1E
100
AcDbEntity
  8
002
100
AcDbLine
 10
3635.317225264098
 20
-1767.891914405941
 30
0.0
 11
3632.817225264098
 21
-1767.891914405941
 31
0.0
  0
LINE
  5
B784
330
1E
100
AcDbEntity
  8
002
100
AcDbLine
 10
3632.817225264098
 20
-1715.891914405941
 30
0.0
 11
3632.817225264098
 21
-1767.891914405941
 31
0.0
  0
LINE
  5
B785
330
1E
100
AcDbEntity
  8
002
100
AcDbLine
 10
3645.317225264098
 20
-1737.891914405942
 30
0.0
 11
3645.317225264098
 21
-1762.891914405942
 31
0.0
  0
ARC
  5
B786
330
1E
100
AcDbEntity
  8
002
100
AcDbCircle
 10
3627.310800264098
 20
-1778.725247405942
 30
0.0
 40
2.5
100
AcDbArc
 50
318.1896850000205
 51
41.81031499997946
  0
ARC
  5
B787
330
1E
100
AcDbEntity
  8
002
100
AcDbCircle
 10
3628.317225264098
 20
-1778.725247405942
 30
0.0
 40
2.5
100
AcDbArc
 50
318.1896850000205
 51
41.81031499997946
  0
ARC
  5
B788
330
1E
100
AcDbEntity
  8
002
100
AcDbCircle
 10
3627.310800264098
 20
-1793.725247405942
 30
0.0
 40
2.5
100
AcDbArc
 50
318.1896850000205
 51
41.81031499997946
  0
ARC
  5
B789
330
1E
100
AcDbEntity
  8
002
100
AcDbCircle
 10
3628.317225264098
 20
-1793.725247405942
 30
0.0
 40
2.5
100
AcDbArc
 50
318.1896850000205
 51
41.81031499997946
  0
ARC
  5
B78A
330
1E
100
AcDbEntity
  8
002
100
AcDbCircle
 10
3628.317225264098
 20
-1786.225247405942
 30
0.0
 40
2.5
100
AcDbArc
 50
138.1896850000205
 51
221.8103149999794
  0
ARC
  5
B78B
330
1E
100
AcDbEntity
  8
002
100
AcDbCircle
 10
3627.310800264098
 20
-1786.225247405942
 30
0.0
 40
2.5
100
AcDbArc
 50
138.1896850000205
 51
221.8103149999794
  0
LINE
  5
B78C
330
1E
100
AcDbEntity
  8
002
100
AcDbLine
 10
3626.453835264098
 20
-1772.891914405941
 30
0.0
 11
3630.180615264098
 21
-1777.058580405941
 31
0.0
  0
LINE
  5
B78D
330
1E
100
AcDbEntity
  8
002
100
AcDbLine
 10
3625.447410264097
 20
-1772.891914405941
 30
0.0
 11
3629.174190264098
 21
-1777.058580405941
 31
0.0
  0
LINE
  5
B78E
330
1E
100
AcDbEntity
  8
002
100
AcDbLine
 10
3630.180615264098
 20
-1780.391914405941
 30
0.0
 11
3626.453835264098
 21
-1784.558580405941
 31
0.0
  0
LINE
  5
B78F
330
1E
100
AcDbEntity
  8
002
100
AcDbLine
 10
3629.174190264098
 20
-1780.391914405941
 30
0.0
 11
3625.447410264097
 21
-1784.558580405941
 31
0.0
  0
LINE
  5
B790
330
1E
100
AcDbEntity
  8
002
100
AcDbLine
 10
3626.453835264098
 20
-1787.891914405942
 30
0.0
 11
3630.180615264098
 21
-1792.058580405941
 31
0.0
  0
LINE
  5
B791
330
1E
100
AcDbEntity
  8
002
100
AcDbLine
 10
3625.447410264097
 20
-1787.891914405942
 30
0.0
 11
3629.174190264098
 21
-1792.058580405941
 31
0.0
  0
LINE
  5
B792
330
1E
100
AcDbEntity
  8
002
100
AcDbLine
 10
3626.453835264098
 20
-1772.891914405941
 30
0.0
 11
3635.317225264098
 21
-1772.891914405941
 31
0.0
  0
ARC
  5
B793
330
1E
100
AcDbEntity
  8
002
100
AcDbCircle
 10
3627.310800264098
 20
-1808.725247405942
 30
0.0
 40
2.5
100
AcDbArc
 50
318.1896850000205
 51
41.81031499997946
  0
ARC
  5
B794
330
1E
100
AcDbEntity
  8
002
100
AcDbCircle
 10
3628.317225264098
 20
-1808.725247405942
 30
0.0
 40
2.5
100
AcDbArc
 50
318.1896850000205
 51
41.81031499997946
  0
ARC
  5
B795
330
1E
100
AcDbEntity
  8
002
100
AcDbCircle
 10
3627.310800264098
 20
-1823.725247405942
 30
0.0
 40
2.5
100
AcDbArc
 50
318.1896850000205
 51
41.81031499997946
  0
ARC
  5
B796
330
1E
100
AcDbEntity
  8
002
100
AcDbCircle
 10
3628.317225264098
 20
-1823.725247405942
 30
0.0
 40
2.5
100
AcDbArc
 50
318.1896850000205
 51
41.81031499997946
  0
ARC
  5
B797
330
1E
100
AcDbEntity
  8
002
100
AcDbCircle
 10
3628.317225264098
 20
-1801.225247405942
 30
0.0
 40
2.5
100
AcDbArc
 50
138.1896850000205
 51
221.8103149999794
  0
ARC
  5
B798
330
1E
100
AcDbEntity
  8
002
100
AcDbCircle
 10
3627.310800264098
 20
-1801.225247405942
 30
0.0
 40
2.5
100
AcDbArc
 50
138.1896850000205
 51
221.8103149999794
  0
ARC
  5
B799
330
1E
100
AcDbEntity
  8
002
100
AcDbCircle
 10
3628.317225264098
 20
-1816.225247405942
 30
0.0
 40
2.5
100
AcDbArc
 50
138.1896850000205
 51
221.8103149999794
  0
ARC
  5
B79A
330
1E
100
AcDbEntity
  8
002
100
AcDbCircle
 10
3627.310800264098
 20
-1816.225247405942
 30
0.0
 40
2.5
100
AcDbArc
 50
138.1896850000205
 51
221.8103149999794
  0
LINE
  5
B79B
330
1E
100
AcDbEntity
  8
002
100
AcDbLine
 10
3626.453835264098
 20
-1802.891914405941
 30
0.0
 11
3630.180615264098
 21
-1807.058580405941
 31
0.0
  0
LINE
  5
B79C
330
1E
100
AcDbEntity
  8
002
100
AcDbLine
 10
3630.180615264098
 20
-1810.391914405941
 30
0.0
 11
3626.453835264098
 21
-1814.558580405941
 31
0.0
  0
LINE
  5
B79D
330
1E
100
AcDbEntity
  8
002
100
AcDbLine
 10
3625.447410264097
 20
-1802.891914405941
 30
0.0
 11
3629.174190264098
 21
-1807.058580405941
 31
0.0
  0
LINE
  5
B79E
330
1E
100
AcDbEntity
  8
002
100
AcDbLine
 10
3629.174190264098
 20
-1810.391914405941
 30
0.0
 11
3625.447410264097
 21
-1814.558580405941
 31
0.0
  0
LINE
  5
B79F
330
1E
100
AcDbEntity
  8
002
100
AcDbLine
 10
3626.453835264098
 20
-1817.891914405941
 30
0.0
 11
3630.180615264098
 21
-1822.058580405941
 31
0.0
  0
LINE
  5
B7A0
330
1E
100
AcDbEntity
  8
002
100
AcDbLine
 10
3625.447410264097
 20
-1817.891914405941
 30
0.0
 11
3629.174190264098
 21
-1822.058580405941
 31
0.0
  0
LINE
  5
B7A1
330
1E
100
AcDbEntity
  8
002
100
AcDbLine
 10
3630.180615264098
 20
-1795.391914405942
 30
0.0
 11
3626.453835264098
 21
-1799.558580405941
 31
0.0
  0
LINE
  5
B7A2
330
1E
100
AcDbEntity
  8
002
100
AcDbLine
 10
3629.174190264098
 20
-1795.391914405942
 30
0.0
 11
3625.447410264097
 21
-1799.558580405941
 31
0.0
  0
ARC
  5
B7A3
330
1E
100
AcDbEntity
  8
002
100
AcDbCircle
 10
3628.317225264098
 20
-1831.225247405942
 30
0.0
 40
2.5
100
AcDbArc
 50
138.1896850000205
 51
221.8103149999794
  0
ARC
  5
B7A4
330
1E
100
AcDbEntity
  8
002
100
AcDbCircle
 10
3627.310800264098
 20
-1831.225247405942
 30
0.0
 40
2.5
100
AcDbArc
 50
138.1896850000205
 51
221.8103149999794
  0
LINE
  5
B7A5
330
1E
100
AcDbEntity
  8
002
100
AcDbLine
 10
3630.180615264098
 20
-1825.391914405942
 30
0.0
 11
3626.453835264098
 21
-1829.558580405941
 31
0.0
  0
LINE
  5
B7A6
330
1E
100
AcDbEntity
  8
002
100
AcDbLine
 10
3629.174190264098
 20
-1825.391914405942
 30
0.0
 11
3625.447410264097
 21
-1829.558580405941
 31
0.0
  0
LINE
  5
B7A7
330
1E
100
AcDbEntity
  8
003
 62
     3
100
AcDbLine
 10
3646.217225264098
 20
-1762.891914405942
 30
0.0
 11
3646.217225264098
 21
-1784.891914405942
 31
0.0
  0
LINE
  5
B7A8
330
1E
100
AcDbEntity
  8
003
 62
     3
100
AcDbLine
 10
3646.217225264098
 20
-1762.891914405942
 30
0.0
 11
3646.217225264098
 21
-1784.891914405942
 31
0.0
  0
LINE
  5
B7A9
330
1E
100
AcDbEntity
  8
002
100
AcDbLine
 10
3635.317225264098
 20
-1767.891914405941
 30
0.0
 11
3635.317225264098
 21
-1772.891914405941
 31
0.0
  0
LINE
  5
B7AA
330
1E
100
AcDbEntity
  8
002
100
AcDbLine
 10
3611.317225264098
 20
-1655.891914405942
 30
0.0
 11
3651.817225264098
 21
-1655.891914405942
 31
0.0
  0
LINE
  5
B7AB
330
1E
100
AcDbEntity
  8
002
100
AcDbLine
 10
3590.967225264098
 20
-1652.891914405941
 30
0.0
 11
3591.467225264098
 21
-1653.180589405941
 31
0.0
  0
LINE
  5
B7AC
330
1E
100
AcDbEntity
  8
002
100
AcDbLine
 10
3590.967225264098
 20
-1652.891914405941
 30
0.0
 11
3591.467225264098
 21
-1653.180589405941
 31
0.0
  0
LINE
  5
B7AD
330
1E
100
AcDbEntity
  8
002
100
AcDbLine
 10
3604.667225264098
 20
-1652.891914405941
 30
0.0
 11
3604.167225264097
 21
-1653.180589405941
 31
0.0
  0
LINE
  5
B7AE
330
1E
100
AcDbEntity
  8
002
100
AcDbLine
 10
3604.667225264098
 20
-1652.891914405941
 30
0.0
 11
3604.167225264097
 21
-1653.180589405941
 31
0.0
  0
LINE
  5
B7AF
330
1E
100
AcDbEntity
  8
002
100
AcDbLine
 10
3585.014019264098
 20
-1652.891914405941
 30
0.0
 11
3590.967225264098
 21
-1652.891914405941
 31
0.0
  0
LINE
  5
B7B0
330
1E
100
AcDbEntity
  8
002
100
AcDbLine
 10
3585.014019264098
 20
-1652.891914405941
 30
0.0
 11
3590.967225264098
 21
-1652.891914405941
 31
0.0
  0
LINE
  5
B7B1
330
1E
100
AcDbEntity
  8
002
100
AcDbLine
 10
3610.620432264097
 20
-1652.891914405941
 30
0.0
 11
3604.667225264098
 21
-1652.891914405941
 31
0.0
  0
LINE
  5
B7B2
330
1E
100
AcDbEntity
  8
002
100
AcDbLine
 10
3610.620432264097
 20
-1652.891914405941
 30
0.0
 11
3604.667225264098
 21
-1652.891914405941
 31
0.0
  0
LINE
  5
B7B3
330
1E
100
AcDbEntity
  8
002
100
AcDbLine
 10
3610.756290264097
 20
-1656.388187405941
 30
0.0
 11
3611.317225264098
 21
-1655.891914405942
 31
0.0
  0
LINE
  5
B7B4
330
1E
100
AcDbEntity
  8
002
100
AcDbLine
 10
3610.756290264097
 20
-1656.388187405941
 30
0.0
 11
3611.317225264098
 21
-1655.891914405942
 31
0.0
  0
LINE
  5
B7B5
330
1E
100
AcDbEntity
  8
002
100
AcDbLine
 10
3584.878160264098
 20
-1656.388187405941
 30
0.0
 11
3584.317225264098
 21
-1655.891914405942
 31
0.0
  0
LINE
  5
B7B6
330
1E
100
AcDbEntity
  8
002
100
AcDbLine
 10
3584.878160264098
 20
-1656.388187405941
 30
0.0
 11
3584.317225264098
 21
-1655.891914405942
 31
0.0
  0
LINE
  5
B7B7
330
1E
100
AcDbEntity
  8
002
100
AcDbLine
 10
3590.317225264097
 20
-1700.685819405942
 30
0.0
 11
3590.317225264097
 21
-1710.891914405942
 31
0.0
  0
LINE
  5
B7B8
330
1E
100
AcDbEntity
  8
002
100
AcDbLine
 10
3590.852995264098
 20
-1692.465599405941
 30
0.0
 11
3591.467225264098
 21
-1691.401720405941
 31
0.0
  0
ARC
  5
B7B9
330
1E
100
AcDbEntity
  8
002
100
AcDbCircle
 10
3590.114596264098
 20
-1692.039285405941
 30
0.0
 40
0.8526290000000001
100
AcDbArc
 50
186.9999999999797
 51
330.0000000000027
  0
LINE
  5
B7BA
330
1E
100
AcDbEntity
  8
002
100
AcDbLine
 10
3605.317225264098
 20
-1700.685819405942
 30
0.0
 11
3605.317225264098
 21
-1710.891914405942
 31
0.0
  0
LINE
  5
B7BB
330
1E
100
AcDbEntity
  8
002
100
AcDbLine
 10
3604.781456264098
 20
-1692.465599405941
 30
0.0
 11
3604.167225264097
 21
-1691.401720405941
 31
0.0
  0
ARC
  5
B7BC
330
1E
100
AcDbEntity
  8
002
100
AcDbCircle
 10
3605.519854264098
 20
-1692.039285405941
 30
0.0
 40
0.8526290000000001
100
AcDbArc
 50
209.9999999999972
 51
353.0000000000202
  0
LINE
  5
B7BD
330
1E
100
AcDbEntity
  8
002
100
AcDbLine
 10
3584.517746264098
 20
-1653.452848405941
 30
0.0
 11
3590.317225264097
 21
-1700.685819405942
 31
0.0
  0
LINE
  5
B7BE
330
1E
100
AcDbEntity
  8
002
100
AcDbLine
 10
3611.116705264098
 20
-1653.452848405941
 30
0.0
 11
3605.317225264098
 21
-1700.685819405942
 31
0.0
  0
LINE
  5
B7BF
330
1E
100
AcDbEntity
  8
002
100
AcDbLine
 10
3591.467225264098
 20
-1693.698386405942
 30
0.0
 11
3604.167225264097
 21
-1621.67310740594
 31
0.0
  0
LINE
  5
B7C0
330
1E
100
AcDbEntity
  8
002
100
AcDbLine
 10
3590.967225264098
 20
-1692.267746405941
 30
0.0
 11
3590.967225264098
 21
-1652.891914405941
 31
0.0
  0
LINE
  5
B7C1
330
1E
100
AcDbEntity
  8
002
100
AcDbLine
 10
3604.667225264098
 20
-1692.267746405941
 30
0.0
 11
3604.667225264098
 21
-1652.891914405941
 31
0.0
  0
ARC
  5
B7C2
330
1E
100
AcDbEntity
  8
002
100
AcDbCircle
 10
3585.014019264098
 20
-1653.391914405941
 30
0.0
 40
0.5
100
AcDbArc
 50
90.0
 51
186.9999999999797
  0
ARC
  5
B7C3
330
1E
100
AcDbEntity
  8
002
100
AcDbCircle
 10
3585.014019264098
 20
-1653.391914405941
 30
0.0
 40
0.5
100
AcDbArc
 50
90.0
 51
186.9999999999797
  0
ARC
  5
B7C4
330
1E
100
AcDbEntity
  8
002
100
AcDbCircle
 10
3610.620432264097
 20
-1653.391914405941
 30
0.0
 40
0.5
100
AcDbArc
 50
353.0000000000202
 51
90.0
  0
ARC
  5
B7C5
330
1E
100
AcDbEntity
  8
002
100
AcDbCircle
 10
3610.620432264097
 20
-1653.391914405941
 30
0.0
 40
0.5
100
AcDbArc
 50
353.0000000000202
 51
90.0
  0
LINE
  5
B7C6
330
1E
100
AcDbEntity
  8
003
 62
     3
100
AcDbLine
 10
3954.343901472276
 20
-1867.551859134364
 30
0.0
 11
3954.343901472276
 21
-2096.070384505581
 31
0.0
  0
TEXT
  5
B7C7
330
1E
100
AcDbEntity
  8
001
100
AcDbText
 10
3697.831957264098
 20
-2176.991654405941
 30
0.0
 40
12.8
  1
コルゲートシース
 41
0.716146
100
AcDbText
  0
LINE
  5
B7C8
330
1E
100
AcDbEntity
  8
001
100
AcDbLine
 10
3686.831957264097
 20
-2180.991654405941
 30
0.0
 11
3796.831957264098
 21
-2180.991654405941
 31
0.0
  0
DIMENSION
  5
B7C9
330
1E
100
AcDbEntity
  8
001
  6
Continuous
100
AcDbDimension
  2
*D9
 10
3920.98938846437
 20
-2281.577403790519
 30
0.0
 11
3960.36438846437
 21
-2268.452403790519
 31
0.0
 70
    32
 71
     5
 42
25.0
  3
ISO-25
100
AcDbAlignedDimension
 13
3895.98938846437
 23
-2310.790715190209
 33
0.0
 14
3920.98938846437
 24
-2310.790715190209
 34
0.0
100
AcDbRotatedDimension
  0
LINE
  5
B7CA
330
1E
100
AcDbEntity
  8
002
100
AcDbLine
 10
3895.98938846437
 20
-2316.237904190209
 30
0.0
 11
3901.43657846437
 21
-2310.790715190209
 31
0.0
  0
LINE
  5
B7CB
330
1E
100
AcDbEntity
  8
002
100
AcDbLine
 10
3895.98938846437
 20
-2310.790715190209
 30
0.0
 11
3920.98938846437
 21
-2310.790715190209
 31
0.0
  0
LINE
  5
B7CC
330
1E
100
AcDbEntity
  8
002
100
AcDbLine
 10
3895.98938846437
 20
-2348.790715190209
 30
0.0
 11
3920.98938846437
 21
-2348.790715190209
 31
0.0
  0
LINE
  5
B7CD
330
1E
100
AcDbEntity
  8
002
100
AcDbLine
 10
3895.98938846437
 20
-2344.522175190208
 30
0.0
 11
3920.98938846437
 21
-2319.522175190208
 31
0.0
  0
LINE
  5
B7CE
330
1E
100
AcDbEntity
  8
002
100
AcDbLine
 10
3895.98938846437
 20
-2330.380040190207
 30
0.0
 11
3915.578714464369
 21
-2310.790715190209
 31
0.0
  0
LINE
  5
B7CF
330
1E
100
AcDbEntity
  8
004
  6
CENTER
 62
     6
100
AcDbLine
 10
3877.382244464369
 20
-2413.290715190209
 30
0.0
 11
3939.093559464369
 21
-2413.290715190209
 31
0.0
  0
LINE
  5
B7D0
330
1E
100
AcDbEntity
  8
002
100
AcDbLine
 10
3895.98938846437
 20
-2515.790715190209
 30
0.0
 11
3920.98938846437
 21
-2515.790715190209
 31
0.0
  0
DIMENSION
  5
B7D1
330
1E
100
AcDbEntity
  8
001
  6
Continuous
100
AcDbDimension
  2
*D10
 10
3857.116991393164
 20
-2515.790715190209
 30
0.0
 11
3843.991991393165
 21
-2413.290715190209
 31
0.0
 70
    32
  1
φ205
 71
     5
 42
205.0
  3
ISO-25
100
AcDbAlignedDimension
 13
3895.98938846437
 23
-2310.790715190209
 33
0.0
 14
3895.98938846437
 24
-2515.790715190209
 34
0.0
 50
90.0
100
AcDbRotatedDimension
  0
LINE
  5
B7D2
330
1E
100
AcDbEntity
  8
002
100
AcDbLine
 10
3895.98938846437
 20
-2515.790715190209
 30
0.0
 11
3895.98938846437
 21
-2310.790715190209
 31
0.0
  0
LINE
  5
B7D3
330
1E
100
AcDbEntity
  8
002
100
AcDbLine
 10
3920.98938846437
 20
-2310.790715190209
 30
0.0
 11
3920.98938846437
 21
-2515.790715190209
 31
0.0
  0
LINE
  5
B7D4
330
1E
100
AcDbEntity
  8
001
  6
Continuous
100
AcDbLine
 10
3930.36438846437
 20
-2348.790715190209
 30
0.0
 11
3968.440192771097
 21
-2348.790715190209
 31
0.0
  0
LINE
  5
B7D5
330
1E
100
AcDbEntity
  8
002
100
AcDbLine
 10
3920.00512046437
 20
-2348.790715190209
 30
0.0
 11
3920.98938846437
 21
-2347.806447190209
 31
0.0
  0
LINE
  5
B7D6
330
1E
100
AcDbEntity
  8
002
100
AcDbLine
 10
3905.86298546437
 20
-2348.790715190209
 30
0.0
 11
3920.98938846437
 21
-2333.664311190208
 31
0.0
  0
MTEXT
  5
B7D7
330
1E
100
AcDbEntity
  8
001
  6
Continuous
100
AcDbMText
 10
3955.315192771098
 20
-2387.581538021868
 30
0.0
 40
11.25
 41
0.0
 71
     5
 72
     1
  1
\A1;φ129
 11
0.0000000000000001
 21
1.0
 31
0.0
 73
     1
 44
1.0
  0
LINE
  5
B7D8
330
1E
100
AcDbEntity
  8
001
  6
Continuous
100
AcDbLine
 10
3968.440192771097
 20
-2360.040715190208
 30
0.0
 11
3968.440192771097
 21
-2421.461608528993
 31
0.0
  0
INSERT
  5
B7D9
330
1E
100
AcDbEntity
  8
001
  6
Continuous
100
AcDbBlockReference
  2
_Open
 10
3968.440192771097
 20
-2348.790715190209
 30
0.0
 41
11.25
 42
11.25
 43
11.25
 50
90.0
  0
LINE
  5
B7DA
330
1E
100
AcDbEntity
  8
001
100
AcDbLine
 10
3731.032353816065
 20
-1650.383642402826
 30
0.0
 11
3945.914849264098
 21
-1650.383642402826
 31
0.0
  0
LINE
  5
B7DB
330
1E
100
AcDbEntity
  8
001
100
AcDbLine
 10
3807.629728264098
 20
-1694.316238405941
 30
0.0
 11
3950.629728264098
 21
-1694.316238405941
 31
0.0
  0
TEXT
  5
B7DC
330
1E
100
AcDbEntity
  8
001
100
AcDbText
 10
3791.914849264098
 20
-1646.383642402827
 30
0.0
 40
12.8
  1
両ネジ　ジョイントプレート
 41
0.716146
100
AcDbText
  0
LINE
  5
B7DD
330
1E
100
AcDbEntity
  8
003
  6
Continuous
100
AcDbLine
 10
3880.817225264098
 20
-1612.891914405942
 30
0.0
 11
3665.347766689029
 21
-1612.891914405942
 31
0.0
  0
LINE
  5
B7DE
330
1E
100
AcDbEntity
  8
003
 62
     3
100
AcDbLine
 10
3653.817225264098
 20
-1784.891914405942
 30
0.0
 11
3653.817225264098
 21
-2063.005474405942
 31
0.0
  0
LINE
  5
B7DF
330
1E
100
AcDbEntity
  8
003
 62
     3
100
AcDbLine
 10
3663.317225264098
 20
-1784.891914405942
 30
0.0
 11
3663.317225264098
 21
-2063.005474405942
 31
0.0
  0
LINE
  5
B7E0
330
1E
100
AcDbEntity
  8
003
 62
     3
100
AcDbLine
 10
3672.336075630425
 20
-1637.891914405942
 30
0.0
 11
3778.767225264097
 21
-1637.891914405942
 31
0.0
  0
LINE
  5
B7E1
330
1E
100
AcDbEntity
  8
003
 62
     3
100
AcDbLine
 10
3693.417225138331
 20
-1784.891914405942
 30
0.0
 11
3778.767225264097
 21
-1637.891914405942
 31
0.0
  0
LINE
  5
B7E2
330
1E
100
AcDbEntity
  8
001
100
AcDbLine
 10
3683.317225264098
 20
-1750.391914405942
 30
0.0
 11
3807.629728264098
 21
-1694.316238405941
 31
0.0
  0
LINE
  5
B7E3
330
1E
100
AcDbEntity
  8
003
 62
     3
100
AcDbLine
 10
3685.376665133412
 20
-1762.891914405942
 30
0.0
 11
3757.953196264098
 21
-1637.891914405942
 31
0.0
  0
LINE
  5
B7E4
330
1E
100
AcDbEntity
  8
002
100
AcDbLine
 10
3660.817225264098
 20
-1715.391914405941
 30
0.0
 11
3659.817225264098
 21
-1714.391914405942
 31
0.0
  0
LINE
  5
B7E5
330
1E
100
AcDbEntity
  8
002
100
AcDbLine
 10
3658.317225264098
 20
-1715.891914405941
 30
0.0
 11
3658.863180264098
 21
-1714.391914405942
 31
0.0
  0
LINE
  5
B7E6
330
1E
100
AcDbEntity
  8
002
100
AcDbLine
 10
3661.817225264098
 20
-1705.293837405941
 30
0.0
 11
3661.817225264098
 21
-1737.891914405942
 31
0.0
  0
LINE
  5
B7E7
330
1E
100
AcDbEntity
  8
002
100
AcDbLine
 10
3661.817225264098
 20
-1705.293837405941
 30
0.0
 11
3661.817225264098
 21
-1737.025888405942
 31
0.0
  0
LINE
  5
B7E8
330
1E
100
AcDbEntity
  8
002
100
AcDbLine
 10
3673.317225264098
 20
-1735.891914405942
 30
0.0
 11
3673.317225264098
 21
-1687.891914405942
 31
0.0
  0
LINE
  5
B7E9
330
1E
100
AcDbEntity
  8
002
100
AcDbLine
 10
3663.317225264098
 20
-1707.891914405942
 30
0.0
 11
3663.317225264098
 21
-1737.891914405942
 31
0.0
  0
LINE
  5
B7EA
330
1E
100
AcDbEntity
  8
002
100
AcDbLine
 10
3663.317225264098
 20
-1707.891914405942
 30
0.0
 11
3663.317225264098
 21
-1737.891914405942
 31
0.0
  0
LINE
  5
B7EB
330
1E
100
AcDbEntity
  8
002
100
AcDbLine
 10
3655.817225264098
 20
-1714.891914405941
 30
0.0
 11
3655.817225264098
 21
-1697.33528940594
 31
0.0
  0
LWPOLYLINE
  5
B7EC
330
1E
100
AcDbEntity
  8
001
100
AcDbPolyline
 90
        3
 70
     0
 43
0.0
 10
3664.782856264097
 20
-1707.916734405942
 10
3660.317225264098
 20
-1714.891914405941
 10
3667.672165264098
 20
-1711.084046405942
  0
LINE
  5
B7ED
330
1E
100
AcDbEntity
  8
001
100
AcDbLine
 10
3660.317225264098
 20
-1714.891914405941
 30
0.0
 11
3731.032353816065
 21
-1650.383642402826
 31
0.0
  0
LINE
  5
B7EE
330
1E
100
AcDbEntity
  8
002
100
AcDbLine
 10
3673.317225264098
 20
-1735.891914405942
 30
0.0
 11
3671.317225264099
 21
-1737.891914405942
 31
0.0
  0
LINE
  5
B7EF
330
1E
100
AcDbEntity
  8
002
100
AcDbLine
 10
3661.817225264098
 20
-1716.391914405942
 30
0.0
 11
3663.317225264098
 21
-1717.257939405941
 31
0.0
  0
LINE
  5
B7F0
330
1E
100
AcDbEntity
  8
002
100
AcDbLine
 10
3661.817225264098
 20
-1737.891914405942
 30
0.0
 11
3663.317225264098
 21
-1737.025888405942
 31
0.0
  0
LINE
  5
B7F1
330
1E
100
AcDbEntity
  8
002
100
AcDbLine
 10
3661.790943264097
 20
-1737.010714405942
 30
0.0
 11
3663.317225264098
 21
-1737.891914405942
 31
0.0
  0
LINE
  5
B7F2
330
1E
100
AcDbEntity
  8
002
100
AcDbLine
 10
3655.817225264098
 20
-1714.891914405941
 30
0.0
 11
3654.817225264098
 21
-1715.891914405941
 31
0.0
  0
LINE
  5
B7F3
330
1E
100
AcDbEntity
  8
002
100
AcDbLine
 10
3661.817225264098
 20
-1716.391914405942
 30
0.0
 11
3660.817225264098
 21
-1716.391914405942
 31
0.0
  0
LINE
  5
B7F4
330
1E
100
AcDbEntity
  8
002
100
AcDbLine
 10
3660.817225264098
 20
-1715.391914405941
 30
0.0
 11
3660.817225264098
 21
-1716.391914405942
 31
0.0
  0
LINE
  5
B7F5
330
1E
100
AcDbEntity
  8
002
100
AcDbLine
 10
3683.317225264098
 20
-1737.891914405942
 30
0.0
 11
3683.317225264098
 21
-1762.891914405942
 31
0.0
  0
LWPOLYLINE
  5
B7F6
330
1E
100
AcDbEntity
  8
001
100
AcDbPolyline
 90
        3
 70
     0
 43
0.0
 10
3689.728210264098
 20
-1745.148415405942
 10
3683.317225264098
 20
-1750.391914405942
 10
3691.491050264098
 20
-1749.05640340594
  0
ARC
  5
B7F7
330
1E
100
AcDbEntity
  8
002
100
AcDbCircle
 10
3660.726052264097
 20
-1628.323735405942
 30
0.0
 40
5.0
100
AcDbArc
 50
183.3274039999901
 51
212.0488480000156
  0
ARC
  5
B7F8
330
1E
100
AcDbEntity
  8
002
100
AcDbCircle
 10
3665.734613264098
 20
-1628.32575240594
 30
0.0
 40
5.0
100
AcDbArc
 50
183.3274039999901
 51
212.0053830000399
  0
LINE
  5
B7F9
330
1E
100
AcDbEntity
  8
002
100
AcDbLine
 10
3667.906608264098
 20
-1651.821130405942
 30
0.0
 11
3660.817225264098
 21
-1651.635488405942
 31
0.0
  0
LINE
  5
B7FA
330
1E
100
AcDbEntity
  8
002
100
AcDbLine
 10
3667.755943264097
 20
-1650.816700405941
 30
0.0
 11
3660.817225264098
 21
-1650.635003405941
 31
0.0
  0
LINE
  5
B7FB
330
1E
100
AcDbEntity
  8
002
100
AcDbLine
 10
3666.725381264098
 20
-1643.946286405942
 30
0.0
 11
3660.817225264098
 21
-1644.100997405941
 31
0.0
  0
LINE
  5
B7FC
330
1E
100
AcDbEntity
  8
002
100
AcDbLine
 10
3666.874867264098
 20
-1644.942857405942
 30
0.0
 11
3660.817225264098
 21
-1645.101482405942
 31
0.0
  0
LINE
  5
B7FD
330
1E
100
AcDbEntity
  8
002
100
AcDbLine
 10
3661.494621264097
 20
-1630.975747405942
 30
0.0
 11
3665.266638264098
 21
-1637.01097440594
 31
0.0
  0
LINE
  5
B7FE
330
1E
100
AcDbEntity
  8
002
100
AcDbLine
 10
3656.488072264098
 20
-1630.976946405941
 30
0.0
 11
3660.055205264098
 21
-1636.674737405941
 31
0.0
  0
ARC
  5
B7FF
330
1E
100
AcDbEntity
  8
002
100
AcDbCircle
 10
3655.817225264098
 20
-1639.327947405941
 30
0.0
 40
5.0
100
AcDbArc
 50
0.0
 51
32.04884800001563
  0
ARC
  5
B800
330
1E
100
AcDbEntity
  8
002
100
AcDbCircle
 10
3661.026646264097
 20
-1639.660968405942
 30
0.0
 40
5.0
100
AcDbArc
 50
8.530765999964678
 51
32.00538300003995
  0
LINE
  5
B801
330
1E
100
AcDbEntity
  8
002
  6
CENTER
100
AcDbLine
 10
3656.176462264097
 20
-1647.868243405941
 30
0.0
 11
3671.131644264097
 21
-1647.868243405941
 31
0.0
  0
LINE
  5
B802
330
1E
100
AcDbEntity
  8
002
100
AcDbLine
 10
3653.317225264098
 20
-1695.891914405941
 30
0.0
 11
3655.817225264098
 21
-1697.33528940594
 31
0.0
  0
LINE
  5
B803
330
1E
100
AcDbEntity
  8
002
100
AcDbLine
 10
3661.829004264097
 20
-1705.314239405941
 30
0.0
 11
3663.317225264098
 21
-1707.891914405942
 31
0.0
  0
LINE
  5
B804
330
1E
100
AcDbEntity
  8
002
100
AcDbLine
 10
3661.817225264098
 20
-1705.293837405941
 30
0.0
 11
3660.817225264098
 21
-1705.293837405941
 31
0.0
  0
LINE
  5
B805
330
1E
100
AcDbEntity
  8
002
100
AcDbLine
 10
3653.317225264098
 20
-1657.391914405942
 30
0.0
 11
3653.317225264098
 21
-1695.891914405941
 31
0.0
  0
LINE
  5
B806
330
1E
100
AcDbEntity
  8
002
100
AcDbLine
 10
3659.817225264098
 20
-1714.391914405942
 30
0.0
 11
3657.197688264098
 21
-1714.391914405942
 31
0.0
  0
LINE
  5
B807
330
1E
100
AcDbEntity
  8
002
100
AcDbLine
 10
3660.817225264098
 20
-1639.327947405941
 30
0.0
 11
3660.817225264098
 21
-1705.293837405941
 31
0.0
  0
LINE
  5
B808
330
1E
100
AcDbEntity
  8
002
100
AcDbLine
 10
3665.971328264098
 20
-1638.919266405941
 30
0.0
 11
3673.317225264098
 21
-1687.891914405942
 31
0.0
  0
LINE
  5
B809
330
1E
100
AcDbEntity
  8
003
 62
     3
100
AcDbLine
 10
3974.067784472275
 20
-1820.949822134363
 30
0.0
 11
3935.943503472275
 21
-1867.551859134364
 31
0.0
  0
LINE
  5
B80A
330
1E
100
AcDbEntity
  8
003
 62
     3
100
AcDbLine
 10
3935.943503472275
 20
-1867.551859134364
 30
0.0
 11
3954.343901472276
 21
-1867.551859134364
 31
0.0
  0
LINE
  5
B80B
330
1E
100
AcDbEntity
  8
003
 48
0.25
100
AcDbLine
 10
3954.343901472276
 20
-1628.185463057243
 30
0.0
 11
3880.817225264098
 21
-1612.891914405942
 31
0.0
  0
TEXT
  5
B80C
330
1E
100
AcDbEntity
  8
001
100
AcDbText
 10
3818.629728264097
 20
-1690.316238405941
 30
0.0
 40
12.8
  1
メッキ付　円形プレート
 41
0.716146
100
AcDbText
  0
LINE
  5
B80D
330
1E
100
AcDbEntity
  8
003
 62
     3
100
AcDbLine
 10
3954.343901472276
 20
-1820.949822134363
 30
0.0
 11
3974.067784472275
 21
-1820.949822134363
 31
0.0
  0
LINE
  5
B80E
330
1E
100
AcDbEntity
  8
001
 62
     3
100
AcDbLine
 10
4009.328015367056
 20
-2689.29909152069
 30
0.0
 11
4009.328015367056
 21
-2629.29909152069
 31
0.0
  0
LINE
  5
B80F
330
1E
100
AcDbEntity
  8
001
100
AcDbLine
 10
3604.167225264097
 20
-1534.830348405941
 30
0.0
 11
3681.633936264098
 21
-1468.356407405941
 31
0.0
  0
LINE
  5
B810
330
1E
100
AcDbEntity
  8
001
100
AcDbLine
 10
3505.485259264097
 20
-1549.601724405942
 30
0.0
 11
3455.243358264098
 21
-1479.330876405942
 31
0.0
  0
LWPOLYLINE
  5
B811
330
1E
100
AcDbEntity
  8
002
100
AcDbPolyline
 90
       37
 70
     0
 43
0.0
 10
3645.808782264097
 20
-1457.891914405942
 10
3645.560585264098
 20
-1456.58208140594
 10
3644.817893264097
 20
-1455.282256405942
 10
3643.586378264098
 20
-1454.002368405941
 10
3641.875449264098
 20
-1452.75219440594
 10
3639.698177264097
 20
-1451.541287405942
 10
3637.071196264098
 20
-1450.378898405941
 10
3634.014575264098
 20
-1449.273905405942
 10
3630.551667264097
 20
-1448.23475340594
 10
3626.708926264098
 20
-1447.269378405941
 10
3622.515712264098
 20
-1446.38515740594
 10
3618.004057264097
 20
-1445.588845405942
 10
3613.208432264098
 20
-1444.886525405942
 10
3608.165472264098
 20
-1444.283563405941
 10
3602.913705264098
 20
-1443.784565405942
 10
3597.493253264098
 20
-1443.393344405942
 10
3591.945528264098
 20
-1443.112888405941
 10
3586.312911264098
 20
-1442.94534140594
 10
3580.638435264098
 20
-1442.89198140594
 10
3574.965452264098
 20
-1442.95321840594
 10
3569.337302264098
 20
-1443.128582405941
 10
3563.796981264098
 20
-1443.416734405942
 10
3558.386818264098
 20
-1443.81547340594
 10
3553.148144264098
 20
-1444.321752405941
 10
3548.120982264098
 20
-1444.93170440594
 10
3543.343737264098
 20
-1445.640669405942
 10
3538.852907264098
 20
-1446.443230405941
 10
3534.682801264098
 20
-1447.333256405942
 10
3530.865276264098
 20
-1448.303948405941
 10
3527.429498264098
 20
-1449.347890405941
 10
3524.401716264097
 20
-1450.457105405941
 10
3521.805061264098
 20
-1451.62312140594
 10
3519.659370264098
 20
-1452.837029405942
 10
3517.981037264098
 20
-1454.089554405942
 10
3516.782883264097
 20
-1455.371129405941
 10
3516.074062264098
 20
-1456.671962405942
 10
3515.859989264098
 20
-1457.982115405941
  0
LWPOLYLINE
  5
B812
330
1E
100
AcDbEntity
  8
002
100
AcDbPolyline
 90
       37
 70
     0
 43
0.0
 10
3650.817225264098
 20
-1457.891914405942
 10
3650.550854264098
 20
-1456.14879940594
 10
3649.753768264098
 20
-1454.418950405941
 10
3648.432033264097
 20
-1452.71553340594
 10
3646.595709264097
 20
-1451.051511405941
 10
3644.258770264098
 20
-1449.439548405942
 10
3641.439003264098
 20
-1447.891914405941
 10
3638.157868264098
 20
-1446.420385405941
 10
3634.440336264098
 20
-1445.036161405942
 10
3630.314700264098
 20
-1443.749778405941
 10
3625.812358264097
 20
-1442.571025405941
 10
3620.967576264098
 20
-1441.508873405941
 10
3615.817225264098
 20
-1440.571405405941
 10
3610.400503264098
 20
-1439.765758405941
 10
3604.758635264097
 20
-1439.098061405941
 10
3598.934558264097
 20
-1438.573397405942
 10
3592.972598264098
 20
-1438.195758405941
 10
3586.918127264098
 20
-1437.968020405942
 10
3580.817225264098
 20
-1437.891914405941
 10
3574.716323264098
 20
-1437.968020405942
 10
3568.661853264098
 20
-1438.195758405941
 10
3562.699892264098
 20
-1438.573397405942
 10
3556.875815264098
 20
-1439.098061405941
 10
3551.233947264098
 20
-1439.765758405941
 10
3545.817225264098
 20
-1440.571405405941
 10
3540.666875264098
 20
-1441.508873405941
 10
3535.822092264098
 20
-1442.571025405941
 10
3531.319750264098
 20
-1443.749778405941
 10
3527.194114264098
 20
-1445.036161405942
 10
3523.476582264098
 20
-1446.420385405941
 10
3520.195447264098
 20
-1447.891914405941
 10
3517.375680264098
 20
-1449.439548405942
 10
3515.038742264098
 20
-1451.051511405941
 10
3513.202417264098
 20
-1452.71553340594
 10
3511.880682264098
 20
-1454.418950405941
 10
3511.083596264098
 20
-1456.14879940594
 10
3510.817225264098
 20
-1457.891914405942
  0
LWPOLYLINE
  5
B813
330
1E
100
AcDbEntity
  8
001
100
AcDbPolyline
 90
        3
 70
     0
 43
0.0
 10
3499.088639264098
 20
-1544.340713405941
 10
3505.485259264097
 20
-1549.601724405942
 10
3502.576129264098
 20
-1541.847245405941
  0
LINE
  5
B814
330
1E
100
AcDbEntity
  8
002
100
AcDbLine
 10
3541.237752264098
 20
-1495.891914405941
 30
0.0
 11
3553.937752264098
 21
-1495.891914405941
 31
0.0
  0
LINE
  5
B815
330
1E
100
AcDbEntity
  8
002
100
AcDbLine
 10
3541.237752264098
 20
-1495.891914405941
 30
0.0
 11
3553.937752264098
 21
-1495.891914405941
 31
0.0
  0
LINE
  5
B816
330
1E
100
AcDbEntity
  8
002
100
AcDbLine
 10
3541.237752264098
 20
-1495.891914405941
 30
0.0
 11
3553.937752264098
 21
-1495.891914405941
 31
0.0
  0
LINE
  5
B817
330
1E
100
AcDbEntity
  8
002
100
AcDbLine
 10
3541.237752264098
 20
-1517.862247405941
 30
0.0
 11
3545.111714264098
 21
-1495.891914405941
 31
0.0
  0
LINE
  5
B818
330
1E
100
AcDbEntity
  8
002
100
AcDbLine
 10
3541.237752264098
 20
-1517.862247405941
 30
0.0
 11
3545.111714264098
 21
-1495.891914405941
 31
0.0
  0
LINE
  5
B819
330
1E
100
AcDbEntity
  8
002
100
AcDbLine
 10
3541.237752264098
 20
-1575.449952405941
 30
0.0
 11
3553.937752264098
 21
-1503.424672405941
 31
0.0
  0
LINE
  5
B81A
330
1E
100
AcDbEntity
  8
002
100
AcDbLine
 10
3541.237752264098
 20
-1575.449952405941
 30
0.0
 11
3553.937752264098
 21
-1503.424672405941
 31
0.0
  0
LWPOLYLINE
  5
B81B
330
1E
100
AcDbEntity
  8
002
100
AcDbPolyline
 90
        3
 70
     0
 43
0.0
 10
3608.842489264098
 20
-1527.993909405941
 10
3604.167225264097
 20
-1534.830348405941
 10
3611.634342264098
 20
-1531.247450405941
  0
LWPOLYLINE
  5
B81C
330
1E
100
AcDbEntity
  8
001
100
AcDbPolyline
 90
        3
 70
     0
 43
0.0
 10
3608.842489264098
 20
-1527.993909405941
 10
3604.167225264097
 20
-1534.830348405941
 10
3611.634342264098
 20
-1531.247450405941
  0
LINE
  5
B81D
330
1E
100
AcDbEntity
  8
002
100
AcDbLine
 10
3591.467225264098
 20
-1495.891914405941
 30
0.0
 11
3604.167225264097
 21
-1495.891914405941
 31
0.0
  0
LINE
  5
B81E
330
1E
100
AcDbEntity
  8
002
100
AcDbLine
 10
3591.467225264098
 20
-1495.891914405941
 30
0.0
 11
3604.167225264097
 21
-1495.891914405941
 31
0.0
  0
LINE
  5
B81F
330
1E
100
AcDbEntity
  8
002
100
AcDbLine
 10
3591.467225264098
 20
-1495.891914405941
 30
0.0
 11
3604.167225264097
 21
-1495.891914405941
 31
0.0
  0
LINE
  5
B820
330
1E
100
AcDbEntity
  8
002
100
AcDbLine
 10
3591.467225264098
 20
-1520.935271405942
 30
0.0
 11
3595.883045264098
 21
-1495.891914405941
 31
0.0
  0
LINE
  5
B821
330
1E
100
AcDbEntity
  8
002
100
AcDbLine
 10
3591.467225264098
 20
-1520.935271405942
 30
0.0
 11
3595.883045264098
 21
-1495.891914405941
 31
0.0
  0
LINE
  5
B822
330
1E
100
AcDbEntity
  8
002
100
AcDbLine
 10
3591.467225264098
 20
-1578.522976405942
 30
0.0
 11
3604.167225264097
 21
-1506.49769740594
 31
0.0
  0
LINE
  5
B823
330
1E
100
AcDbEntity
  8
002
100
AcDbLine
 10
3591.467225264098
 20
-1578.522976405942
 30
0.0
 11
3604.167225264097
 21
-1506.49769740594
 31
0.0
  0
LINE
  5
B824
330
1E
100
AcDbEntity
  8
002
100
AcDbLine
 10
3586.767009264097
 20
-1437.964289405941
 30
0.0
 11
3586.636405264098
 21
-1442.951849405941
 31
0.0
  0
LINE
  5
B825
330
1E
100
AcDbEntity
  8
002
100
AcDbLine
 10
3574.867441264098
 20
-1437.964289405941
 30
0.0
 11
3574.998063264097
 21
-1442.952537405941
 31
0.0
  0
LINE
  5
B826
330
1E
100
AcDbEntity
  8
002
100
AcDbLine
 10
3585.767422264098
 20
-1437.941985405941
 30
0.0
 11
3585.636729264098
 21
-1442.932951405941
 31
0.0
  0
LINE
  5
B827
330
1E
100
AcDbEntity
  8
002
100
AcDbLine
 10
3575.867028264098
 20
-1437.941985405941
 30
0.0
 11
3575.997736264098
 21
-1442.933519405942
 31
0.0
  0
LINE
  5
B828
330
1E
100
AcDbEntity
  8
001
100
AcDbLine
 10
3765.031568156249
 20
-1491.410076480639
 30
0.0
 11
3832.212851156249
 21
-1447.720556480639
 31
0.0
  0
TEXT
  5
B829
330
1E
100
AcDbEntity
  8
001
100
AcDbText
 10
3692.633936264098
 20
-1464.356407405941
 30
0.0
 40
12.8
  1
ＰＣ鋼より線
 41
0.716146
100
AcDbText
  0
LINE
  5
B82A
330
1E
100
AcDbEntity
  8
001
100
AcDbLine
 10
3681.633936264098
 20
-1468.356407405941
 30
0.0
 11
3769.633936264098
 21
-1468.356407405941
 31
0.0
  0
LWPOLYLINE
  5
B82B
330
1E
100
AcDbEntity
  8
001
100
AcDbPolyline
 90
        3
 70
     0
 43
0.0
 10
3769.877247156249
 20
-1486.021436480638
 10
3765.031568156249
 20
-1491.410076480639
 10
3771.922369156248
 20
-1489.166216480638
  0
LINE
  5
B82C
330
1E
100
AcDbEntity
  8
001
100
AcDbLine
 10
3832.212851156249
 20
-1447.720556480639
 30
0.0
 11
3894.673051600027
 21
-1447.720556480639
 31
0.0
  0
TEXT
  5
B82D
330
1E
100
AcDbEntity
  8
001
100
AcDbText
 10
3832.908631733998
 20
-1461.985982337793
 30
0.0
 40
11.19999999999999
  1
(高さ180mm)
 41
0.716146
100
AcDbText
  0
TEXT
  5
B82E
330
1E
100
AcDbEntity
  8
001
100
AcDbText
 10
3841.837851156249
 20
-1444.220538480638
 30
0.0
 40
11.19999999999999
  1
蓋
 41
0.716146
100
AcDbText
  0
ENDSEC
  0
SECTION
  2
OBJECTS
  0
DICTIONARY
  5
C
330
0
100
AcDbDictionary
281
     1
  3
ACAD_GROUP
350
D
  3
ACAD_LAYOUT
350
19
  3
ACAD_MLINESTYLE
350
16
  3
ACAD_PLOTSETTINGS
350
18
  3
ACAD_PLOTSTYLENAME
350
E
  3
AcDbVariableDictionary
350
4BD
  3
DWGPROPS
350
AA75
  0
DICTIONARY
  5
A83C
330
1E
100
AcDbDictionary
280
     1
281
     1
  3
ACAD_LAYOUTSELFREF
360
AA3D
  0
DICTIONARY
  5
A83E
330
1A
100
AcDbDictionary
280
     1
281
     1
  3
ACAD_LAYOUTSELFREF
360
AA3C
  0
DICTIONARY
  5
D
102
{ACAD_REACTORS
330
C
102
}
330
C
100
AcDbDictionary
281
     1
  0
DICTIONARY
  5
19
102
{ACAD_REACTORS
330
C
102
}
330
C
100
AcDbDictionary
281
     1
  3
Model
350
21
  3
ﾚｲｱｳﾄ1
350
1D
  0
DICTIONARY
  5
16
102
{ACAD_REACTORS
330
C
102
}
330
C
100
AcDbDictionary
281
     1
  3
Standard
350
17
  0
DICTIONARY
  5
18
102
{ACAD_REACTORS
330
C
102
}
330
C
100
AcDbDictionary
281
     1
  0
ACDBDICTIONARYWDFLT
  5
E
102
{ACAD_REACTORS
330
C
102
}
330
C
100
AcDbDictionary
281
     1
  3
Normal
350
F
100
AcDbDictionaryWithDefault
340
F
  0
DICTIONARY
  5
4BD
102
{ACAD_REACTORS
330
C
102
}
330
C
100
AcDbDictionary
281
     1
  3
DIMASSOC
350
4BE
  0
XRECORD
  5
AA75
102
{ACAD_REACTORS
330
C
102
}
330
C
100
AcDbXrecord
280
     1
  1
DWGPROPS COOKIE
  2

  3

  4

  6

  7

  8

  9

300
=
301
=
302
=
303
=
304
=
305
=
306
=
307
=
308
=
309
=
 40
0.812719548611111
 41
2453874.389934525
 42
2454273.74762022
  1

 90
        0
  0
XRECORD
  5
AA3D
102
{ACAD_REACTORS
330
A83C
102
}
330
A83C
100
AcDbXrecord
280
     1
340
1E
  0
XRECORD
  5
AA3C
102
{ACAD_REACTORS
330
A83E
102
}
330
A83E
100
AcDbXrecord
280
     1
340
1A
  0
LAYOUT
  5
21
102
{ACAD_REACTORS
330
19
102
}
330
19
100
AcDbPlotSettings
  1

  2
EPSON LP-9000C
  4
A3
  6

 40
5.873749732971191
 41
5.873747825622558
 42
5.873748779296875
 43
5.873748779296875
 44
297.0106506347656
 45
419.9466552734374
 46
0.0
 47
0.0
 48
1857.073676424938
 49
-3367.968627518438
140
3929.773679058023
141
-1902.273627518436
142
1.0
143
5.138045306919289
 70
 11952
 72
     1
 73
     1
 74
     4
  7
mono_0.01.ctb
 75
     0
147
0.1946265438051553
148
-1857.073676424938
149
3367.968627518438
100
AcDbLayout
  1
Model
 70
     1
 71
     0
 10
0.0
 20
0.0
 11
12.0
 21
9.0
 12
0.0
 22
0.0
 32
0.0
 14
0.0
 24
0.0
 34
0.0
 15
0.0
 25
0.0
 35
0.0
146
0.0
 13
0.0
 23
0.0
 33
0.0
 16
1.0
 26
0.0
 36
0.0
 17
0.0
 27
1.0
 37
0.0
 76
     0
330
1E
  0
LAYOUT
  5
1D
102
{ACAD_REACTORS
330
19
102
}
330
19
100
AcDbPlotSettings
  1

  2
EPSON LP-9000C
  4

  6

 40
0.0
 41
0.0
 42
0.0
 43
0.0
 44
0.0
 45
0.0
 46
0.0
 47
0.0
 48
0.0
 49
0.0
140
0.0
141
0.0
142
1.0
143
1.0
 70
   688
 72
     0
 73
     0
 74
     5
  7
mono_0.01.ctb
 75
    16
147
1.0
148
0.0
149
0.0
100
AcDbLayout
  1
ﾚｲｱｳﾄ1
 70
     1
 71
     1
 10
0.0
 20
0.0
 11
12.0
 21
9.0
 12
0.0
 22
0.0
 32
0.0
 14
1.000000000000000E+20
 24
1.000000000000000E+20
 34
1.000000000000000E+20
 15
-1.000000000000000E+20
 25
-1.000000000000000E+20
 35
-1.000000000000000E+20
146
0.0
 13
0.0
 23
0.0
 33
0.0
 16
1.0
 26
0.0
 36
0.0
 17
0.0
 27
1.0
 37
0.0
 76
     0
330
1A
  0
MLINESTYLE
  5
17
102
{ACAD_REACTORS
330
16
102
}
330
16
100
AcDbMlineStyle
  2
STANDARD
 70
     0
  3

 62
   256
 51
90.0
 52
90.0
 71
     2
 49
0.5
 62
   256
  6
BYLAYER
 49
-0.5
 62
   256
  6
BYLAYER
  0
ACDBPLACEHOLDER
  5
F
102
{ACAD_REACTORS
330
E
102
}
330
E
  0
DICTIONARYVAR
  5
4BE
102
{ACAD_REACTORS
330
4BD
102
}
330
4BD
100
DictionaryVariables
280
     0
  1
1
  0
ENDSEC
  0
EOF
